<?xml version="1.0" standalone="no"?>
<!DOCTYPE svg PUBLIC "-//W3C//DTD SVG 1.1//EN" "http://www.w3.org/Graphics/SVG/1.1/DTD/svg11.dtd" >
<svg>
<metadata>
Created by FontForge 20090914 at Fri Oct 11 09:27:26 2019
 By www-data
Copyright (c) 2015, Cadson Demak (info@cadsondemak.com)
</metadata>
<defs>
<font id="Kanit-Medium" horiz-adv-x="0" >
  <font-face 
    font-family="Kanit Medium"
    font-weight="500"
    font-stretch="normal"
    units-per-em="1000"
    panose-1="0 0 6 0 0 0 0 0 0 0"
    ascent="750"
    descent="-250"
    x-height="474"
    cap-height="644"
    bbox="-613 -363 1213 1088"
    underline-thickness="50"
    underline-position="-50"
    unicode-range="U+000D-U+FB02"
  />
<missing-glyph horiz-adv-x="486" 
d="M37 714h411v-714h-411v714zM397 51v612h-309v-612h309z" />
    <glyph glyph-name="fi" unicode="fi" horiz-adv-x="547" 
d="M83 370h-65.999v104h66v47c0 33.333 8.16699 63.166 24.5 89.499s39.666 47 69.999 62s65.833 22.5 106.5 22.5c52.667 0 95 -6.66699 127 -20v-100c-8 4 -20.5 7.33301 -37.5 10s-32.833 4 -47.5 4c-38 0 -65.5 -5.66699 -82.5 -17s-25.5 -29.666 -25.5 -54.999v-43h272
v-474h-135v370h-137v-370h-135v370z" />
    <glyph glyph-name="fl" unicode="fl" horiz-adv-x="547" 
d="M83 370h-66.001v104h66v47c0 50 16.333 90.833 49 122.5s77.334 47.5 134.001 47.5c34 0 68 -5.33301 102 -16h122v-675h-135v370h-137v-370h-135v370zM354.999 474l-0.00195312 107c-7.33301 2.66699 -17.166 4.66699 -29.499 6s-23.166 2 -32.499 2
c-50 0 -75 -24.333 -75 -73v-42h137z" />
    <glyph glyph-name="ru_lakkhangyaothai" unicode="&#xe24;&#xe45;" horiz-adv-x="903" 
d="M790.5 502c33.667 -32 50.5 -82.332 50.5 -150.999v-511h-135v492c0 38.667 -7.5 67.167 -22.5 85.5s-42.5 27.5 -82.5 27.5c-20.667 0 -41 -2 -61 -6c13.333 -30.667 20 -68.334 20 -113.001v-486h-135v489c0 42 -9.83301 71.833 -29.5 89.5s-52.834 26.5 -99.501 26.5
c-28.667 0 -55.667 -4.33301 -81 -13s-46 -19.667 -62 -33v-14l111 -30v-82c-26 -6.66699 -43.667 -17.5 -53 -32.5s-14 -38.167 -14 -69.5v-29c0 -13.333 2.83301 -22.833 8.5 -28.5s15.167 -8.5 28.5 -8.5h53v-105h-122c-30.667 -0 -55.5 9.83301 -74.5 29.5
s-28.5 45.167 -28.5 76.5v66c0 34 5.66699 62.167 17 84.5s31.333 37.833 60 46.5l-102 27v129c31.333 26 69.833 47.667 115.5 65s95.834 26 150.501 26c70 0 124.333 -10.667 163 -32c20.667 9.33301 45.5 17 74.5 23s57.833 9 86.5 9c75.333 0 129.833 -16 163.5 -48z
" />
    <glyph glyph-name="lu_lakkhangyaothai" unicode="&#xe26;&#xe45;" horiz-adv-x="939" 
d="M826.5 502c33.667 -32 50.498 -82.332 50.498 -150.999v-511h-135v492c0 38.667 -7.5 67.167 -22.5 85.5s-42.5 27.5 -82.5 27.5c-20 0 -41 -2 -63 -6c14 -30 21 -67.667 21 -113v-486h-135v489c0 42 -9 71.833 -27 89.5s-48 26.5 -90 26.5
c-28.667 0 -55.667 -4.33301 -81 -13s-46 -19.667 -62 -33v-14l111 -30v-82c-24.667 -8 -40.834 -19 -48.501 -33s-11.5 -37 -11.5 -69v-37c0 -46.667 -11.167 -80.667 -33.5 -102s-55.166 -32 -98.499 -32h-72v105h33c12.667 0 21.5 2.66699 26.5 8s7.5 14.666 7.5 27.999
v31c0 34.667 5 62.5 15 83.5s29 36.833 57 47.5l-102 27v129c31.333 26 69.833 47.667 115.5 65s95.834 26 150.501 26c62.667 0 113.334 -10.667 152.001 -32c20.667 9.33301 45.5 17 74.5 23s57.833 9 86.5 9c75.333 0 129.833 -16 163.5 -48z" />
    <glyph glyph-name=".notdef" horiz-adv-x="486" 
d="M37 714h411v-714h-411v714zM397 51v612h-309v-612h309z" />
    <glyph glyph-name="nonmarkingreturn" unicode="&#xd;" horiz-adv-x="400" 
 />
    <glyph glyph-name="space" unicode=" " horiz-adv-x="360" 
 />
    <glyph glyph-name="exclam" unicode="!" horiz-adv-x="216" 
d="M41 479v165h135v-165l-6 -310h-123zM37 99h142v-99h-142v99z" />
    <glyph glyph-name="quotedbl" unicode="&#x22;" horiz-adv-x="361" 
d="M37 644h114l-14 -201h-100v201zM210 644h114l-14 -201h-100v201z" />
    <glyph glyph-name="numbersign" unicode="#" horiz-adv-x="705" 
d="M114 165h-77v89h105l42 136h-103v90h131l52 164h117l-52 -164h149l52 164h117l-52 -164h73v-90h-101l-43 -136h100v-89h-128l-52 -165h-116l52 165h-150l-52 -165h-116zM408 254l42 136h-149l-43 -136h150z" />
    <glyph glyph-name="dollar" unicode="$" horiz-adv-x="555" 
d="M232 -9c-76.667 2 -137.668 13.334 -183.001 34.001v119c27.333 -11.333 57 -20.666 89 -27.999s63.333 -11.333 94 -12v175l-12 4c-67.333 18.667 -114.666 42 -141.999 70s-41 66.667 -41 116c0 52 16.5 93.5 49.5 124.5s81.5 50.167 145.5 57.5v79h99v-77
c62 -4 111.667 -12.667 149 -26v-119c-50 18 -99.667 28 -149 30v-166c70 -20 118.667 -45.667 146 -77s41 -71 41 -119c0 -48.667 -15.667 -88.834 -47 -120.501s-78 -51.834 -140 -60.501v-81h-99v77zM231.999 532.001c-38.667 -8.66699 -58 -29.666 -58 -62.999
c0 -17.333 4.16699 -30.833 12.5 -40.5s23.5 -18.834 45.5 -27.501v131zM367.999 133.502c8 10.333 12 24.499 12 42.499c0 17.333 -3.66699 31.333 -11 42s-20 20.334 -38 29.001v-136c16.667 4.66699 29 12.167 37 22.5z" />
    <glyph glyph-name="percent" unicode="%" horiz-adv-x="742" 
d="M74.5 394c-25 26 -37.5 60.667 -37.5 104c0 48.667 12.333 86.834 37 114.501s60.667 41.5 108 41.5s83.333 -13.833 108 -41.5s37 -65.834 37 -114.501c0 -43.333 -12.5 -78 -37.5 -104s-60.833 -39 -107.5 -39s-82.5 13 -107.5 39zM476 644h128l-340 -644h-127z
M248 500c0 26.667 -5.33203 46 -15.999 58s-27.334 18 -50.001 18s-39.167 -6 -49.5 -18s-15.5 -31.333 -15.5 -58c0 -45.333 21.667 -68 65 -68c44 0 66 22.667 66 68zM452.501 29c-25 26 -37.5 60.667 -37.5 104c0 48.667 12.333 86.834 37 114.501s60.667 41.5 108 41.5
s83.333 -13.833 108 -41.5s37 -65.834 37 -114.501c0 -43.333 -12.5 -78 -37.5 -104s-60.833 -39 -107.5 -39s-82.5 13 -107.5 39zM626.001 135c0 26.667 -5.33203 46 -15.999 58s-27.334 18 -50.001 18s-39.167 -6 -49.5 -18s-15.5 -31.333 -15.5 -58
c0 -45.333 21.667 -68 65 -68c44 0 66 22.667 66 68z" />
    <glyph glyph-name="ampersand" unicode="&#x26;" horiz-adv-x="676" 
d="M485 62c-22.667 -23.333 -52 -41.165 -88 -53.498s-76.333 -18.5 -121 -18.5c-72.667 0 -130.667 15.5 -174 46.5s-65 72.833 -65 125.5c0 42.667 12 79.334 36 110.001s60 59.667 108 87c-27.333 27.333 -47.333 51.166 -60 71.499s-19 43.833 -19 70.5
c0 45.333 16.167 82.166 48.5 110.499s75.833 42.5 130.5 42.5s98.167 -13.833 130.5 -41.5s48.5 -64.834 48.5 -111.501c0 -32.667 -7.83301 -61 -23.5 -85s-40.5 -48.333 -74.5 -73l138 -141c9.33301 18.667 14 40.667 14 66v20h102v-23c0 -24.667 -3.66699 -49 -11 -73
s-17 -45 -29 -63l65 -66l-83 -75zM334 442.001c11.333 13.333 17 31.002 17 53.002c0 21.333 -5.66699 38.166 -17 50.499s-28.666 18.5 -51.999 18.5s-41 -6.5 -53 -19.5s-18 -29.5 -18 -49.5c0 -19.333 5.16699 -35.833 15.5 -49.5s27.166 -29.834 50.499 -48.501
c26.667 16.667 45.667 31.667 57 45zM351 96.5029c22 9 39.333 21.833 52 38.5l-141 143c-32.667 -14.667 -56.667 -30.667 -72 -48s-23 -39 -23 -65s10 -46.167 30 -60.5s46.333 -21.5 79 -21.5c28 0 53 4.5 75 13.5z" />
    <glyph glyph-name="quotesingle" unicode="'" horiz-adv-x="188" 
d="M37 644h114l-14 -201h-100v201z" />
    <glyph glyph-name="parenleft" unicode="(" horiz-adv-x="340" 
d="M69.5 89.5c-21.667 66.333 -32.5 137.502 -32.5 213.502s10.833 147.167 32.5 213.5s54.834 120.166 99.501 161.499h153c-98.667 -87.333 -148 -212.333 -148 -375s49.333 -287.667 148 -375h-153c-44.667 41.333 -77.834 95.166 -99.501 161.499z" />
    <glyph glyph-name="parenright" unicode=")" horiz-adv-x="340" 
d="M130 90c23.333 62.667 35 133.665 35 212.998c0 163.333 -49.333 288.333 -148 375h154c44 -41.333 76.833 -95.166 98.5 -161.499s32.5 -137.5 32.5 -213.5s-10.833 -147.167 -32.5 -213.5s-54.5 -120.166 -98.5 -161.499h-154c52 45.333 89.667 99.333 113 162z" />
    <glyph glyph-name="asterisk" unicode="*" horiz-adv-x="436" 
d="M63 369l85 91l-111 46l41 83l94 -48l-5 103h102l-5 -103l94 48l40 -83l-111 -46l85 -91l-78 -57l-76 102l-77 -102z" />
    <glyph glyph-name="plus" unicode="+" horiz-adv-x="470" 
d="M182 219h-140v105h140v137h106v-137h140v-105h-140v-134h-106v134z" />
    <glyph glyph-name="comma" unicode="," horiz-adv-x="221" 
d="M68 81h116l-50 -201h-97z" />
    <glyph glyph-name="hyphen" unicode="-" horiz-adv-x="460" 
d="M37 324h386v-105h-386v105z" />
    <glyph glyph-name="period" unicode="." horiz-adv-x="184" 
d="M37 101h110v-101h-110v101z" />
    <glyph glyph-name="slash" unicode="/" horiz-adv-x="446" 
d="M271 662h138l-234 -662h-138z" />
    <glyph glyph-name="zero" unicode="0" horiz-adv-x="656" 
d="M105.5 60c-45.667 57.333 -68.5 142 -68.5 254s22.833 196.667 68.5 254s119.834 86 222.501 86s176.834 -28.667 222.501 -86s68.5 -142 68.5 -254s-22.833 -196.667 -68.5 -254s-119.834 -86 -222.501 -86s-176.834 28.667 -222.501 86zM447 145.5
c23.333 37 35 93.167 35 168.5s-11.667 131.5 -35 168.5s-63 55.5 -119 55.5s-95.667 -18.5 -119 -55.5s-35 -93.167 -35 -168.5s11.667 -131.5 35 -168.5s63 -55.5 119 -55.5s95.667 18.5 119 55.5z" />
    <glyph glyph-name="one" unicode="1" horiz-adv-x="334" 
d="M142 522l-105 -17v113l240 36v-654h-135v522z" />
    <glyph glyph-name="two" unicode="2" horiz-adv-x="513" 
d="M37 65c16 34.667 36.999 66.499 62.999 95.499s60.667 62.833 104 101.5l26 23c31.333 28.667 53.5 49.834 66.5 63.501s22.333 27.667 28 42s8.5 32.5 8.5 54.5c0 30.667 -10 53.834 -30 69.501s-49.333 23.5 -88 23.5c-51.333 0 -103 -10.333 -155 -31v119
c24.667 8.66699 53.834 15.5 87.501 20.5s66.167 7.5 97.5 7.5c73.333 0 129.166 -18.167 167.499 -54.5s57.5 -86.833 57.5 -151.5c0 -40.667 -9.66699 -76.334 -29 -107.001s-48.666 -63 -87.999 -97l-16 -14c-30 -26 -54.833 -48.5 -74.5 -67.5
s-36.167 -38.5 -49.5 -58.5h263v-104h-439v65z" />
    <glyph glyph-name="three" unicode="3" horiz-adv-x="524" 
d="M127 -1c-38 6 -68 13.333 -90 22v118c51.333 -22 108.666 -33 171.999 -33c48.667 0 84.167 6.83301 106.5 20.5s33.5 37.167 33.5 70.5c0 28 -9.83301 48.167 -29.5 60.5s-49.167 18.5 -88.5 18.5h-101l10 99h84c38.667 0 67 6.5 85 19.5s27 33.5 27 61.5
s-10.333 48.833 -31 62.5s-53 20.5 -97 20.5c-28 0 -56.167 -2.83301 -84.5 -8.5s-53.5 -13.5 -75.5 -23.5v115c22 9.33301 49.833 17 83.5 23s66.834 9 99.501 9c78 0 137.833 -16.333 179.5 -49s62.5 -76 62.5 -130c0 -33.333 -7.5 -63.5 -22.5 -90.5
s-36.833 -46.5 -65.5 -58.5c34 -10 59.333 -27.5 76 -52.5s25 -55.167 25 -90.5c0 -64 -23 -112.167 -69 -144.5s-108.667 -48.5 -188 -48.5c-30 0 -64 3 -102 9z" />
    <glyph glyph-name="four" unicode="4" horiz-adv-x="545" 
d="M329 135h-312v92l329 417h118v-400h63v-109h-63v-135h-135v135zM352 239v256l-206 -256h206z" />
    <glyph glyph-name="five" unicode="5" horiz-adv-x="518" 
d="M127 -2c-35.333 5.33301 -64.335 13 -87.002 23v117c22.667 -10 49.667 -17.833 81 -23.5s60.333 -8.5 87 -8.5c46.667 0 80.834 7.5 102.501 22.5s32.5 39.833 32.5 74.5c0 32.667 -8 56 -24 70s-45.333 21 -88 21h-194v76l17 274h383l-10 -104h-258l-9 -142h97
c76.667 0 133 -16.667 169 -50s54 -83.333 54 -150c0 -64.667 -21.5 -115.5 -64.5 -152.5s-105.833 -55.5 -188.5 -55.5c-31.333 0 -64.666 2.66699 -99.999 8z" />
    <glyph glyph-name="six" unicode="6" horiz-adv-x="578" 
d="M100 52.5c-42 41.667 -63 105.167 -63 190.5v138c0 53.333 11.5 100.666 34.5 141.999s56 73.5 99 96.5s93.167 34.5 150.5 34.5c32.667 0 61.334 -2 86.001 -6s48.667 -10 72 -18v-116c-42 16.667 -91.667 25 -149 25c-54 0 -95.167 -11.667 -123.5 -35
s-42.5 -55.333 -42.5 -96v-31c20.667 14.667 45.167 26 73.5 34s55.166 12 80.499 12c75.333 0 131.333 -18.333 168 -55s55 -89.667 55 -159c0 -67.333 -20.833 -120.666 -62.5 -159.999s-104.5 -59 -188.5 -59c-84.667 0 -148 20.833 -190 62.5zM387 120.5
c22 20.333 33 48.167 33 83.5c0 38.667 -9.66699 67.667 -29 87s-52 29 -98 29c-21.333 0 -43.333 -4 -66 -12s-43.667 -18.333 -63 -31v-61c0 -84 42.333 -126 127 -126c42 0 74 10.167 96 30.5z" />
    <glyph glyph-name="seven" unicode="7" horiz-adv-x="498" 
d="M322 540h-295v104h443v-83l-237 -561h-140z" />
    <glyph glyph-name="eight" unicode="8" horiz-adv-x="597" 
d="M37 179c0 35.333 9.16895 66.832 27.502 94.499s43.833 47.5 76.5 59.5c-28.667 12.667 -50.334 30.834 -65.001 54.501s-22 49.834 -22 78.501c0 58.667 20.333 104.667 61 138s101.667 50 183 50c83.333 0 144.833 -16.5 184.5 -49.5s59.5 -79.167 59.5 -138.5
c0 -30.667 -7.33301 -58.334 -22 -83.001s-37.334 -43.667 -68.001 -57c71.333 -25.333 107 -74.333 107 -147c0 -126 -87 -189 -261 -189s-261 63 -261 189zM393.502 400.999c13.667 14 20.499 34.668 20.499 62.001c0 29.333 -9.5 50.833 -28.5 64.5
s-48.167 20.5 -87.5 20.5s-68.5 -6.66699 -87.5 -20s-28.5 -35 -28.5 -65c0 -23.333 6.16699 -41.833 18.5 -55.5s31.5 -22.834 57.5 -27.501l66 -13c32.667 8.66699 55.834 20 69.501 34zM398.501 115.5c21.667 13.667 32.5 35.501 32.5 65.501
c0 26.667 -7 46.167 -21 58.5s-38.333 22.166 -73 29.499l-77 16c-31.333 -7.33301 -55 -18.333 -71 -33s-24 -37 -24 -67c0 -32 10.833 -55 32.5 -69s55.167 -21 100.5 -21s78.833 6.83301 100.5 20.5z" />
    <glyph glyph-name="nine" unicode="9" horiz-adv-x="578" 
d="M171 -4c-24.667 4 -48.667 10 -72 18v116c42 -16.667 91.667 -25 149 -25c54 0 95.167 11.667 123.5 35s42.5 55.333 42.5 96v31c-20.667 -14.667 -45.167 -26 -73.5 -34s-55.166 -12 -80.499 -12c-75.333 0 -131.333 18.333 -168 55s-55 89.667 -55 159
c0 67.333 20.833 120.666 62.5 159.999s104.5 59 188.5 59c84.667 0 148 -20.833 190 -62.5s63 -105.167 63 -190.5v-138c0 -53.333 -11.5 -100.666 -34.5 -141.999s-56 -73.5 -99 -96.5s-93.167 -34.5 -150.5 -34.5c-32.667 0 -61.334 2 -86.001 6zM351 336
c22.667 8 43.667 18.332 63 30.999v61c0 84 -42.333 126 -127 126c-42 0 -74 -10.167 -96 -30.5s-33 -48.166 -33 -83.499c0 -38.667 9.66699 -67.667 29 -87s52 -29 98 -29c21.333 0 43.333 4 66 12z" />
    <glyph glyph-name="colon" unicode=":" horiz-adv-x="185" 
d="M37 426h110v-103h-110v103zM37 126h110v-103h-110v103z" />
    <glyph glyph-name="semicolon" unicode=";" horiz-adv-x="222" 
d="M72 426h110v-103h-110v103zM68 81h116l-50 -201h-97z" />
    <glyph glyph-name="less" unicode="&#x3c;" horiz-adv-x="542" 
d="M37 248v111l468 211v-126l-325 -140l325 -141v-126z" />
    <glyph glyph-name="equal" unicode="=" horiz-adv-x="464" 
d="M37 400h389v-94h-389v94zM37 236h389v-95h-389v95z" />
    <glyph glyph-name="greater" unicode="&#x3e;" horiz-adv-x="542" 
d="M37 163l325 141l-325 140v126l468 -211v-111l-468 -211v126z" />
    <glyph glyph-name="question" unicode="?" horiz-adv-x="497" 
d="M143 190c0 22 4.66699 41.8311 14 59.498s20.333 33 33 46s30 28.5 52 46.5c27.333 22 47.5 40.833 60.5 56.5s19.5 33.834 19.5 54.501c0 31.333 -9.66699 53.333 -29 66s-52.666 19 -99.999 19c-26 0 -53.333 -3.5 -82 -10.5s-53.334 -15.5 -74.001 -25.5v114
c24 12 52.833 21.333 86.5 28s68.834 10 105.501 10c74.667 0 131.667 -16.5 171 -49.5s59 -78.833 59 -137.5c0 -35.333 -7.33301 -64.166 -22 -86.499s-38.334 -46.833 -71.001 -73.5c-4 -2.66699 -15.667 -12 -35 -28s-33 -31.333 -41 -46s-12 -30.667 -12 -48v-15h-135
v20zM139 98.998h142v-99h-142v99z" />
    <glyph glyph-name="at" unicode="@" horiz-adv-x="761" 
d="M131.5 -54.5c-63 51.667 -94.502 132.498 -94.502 242.498c0 113.333 31.667 197.833 95 253.5s152.666 83.5 267.999 83.5c103.333 0 183 -23.667 239 -71s84 -114 84 -200c0 -65.333 -16.167 -115.666 -48.5 -150.999s-80.5 -53 -144.5 -53h-45
c-33.333 -31.333 -80.666 -47 -141.999 -47c-38.667 0 -70.167 9.33301 -94.5 28s-36.5 46.667 -36.5 84c0 77.333 49 116 147 116h113v24c0 26 -6.66699 44.333 -20 55s-38.666 16 -75.999 16c-39.333 0 -79 -6.33301 -119 -19v57c17.333 7.33301 38.333 13 63 17
s50.334 6 77.001 6c54.667 0 94.167 -11.167 118.5 -33.5s36.5 -58.166 36.5 -107.499v-128c26 0 45.5 10.333 58.5 31s19.5 53.667 19.5 99c0 132.667 -76.667 199 -230 199c-89.333 0 -156.5 -21 -201.5 -63s-67.5 -107.667 -67.5 -197c0 -161.333 85.333 -242 256 -242
c73.333 0 131 6.33301 173 19v-78c-50.667 -12 -107.667 -18 -171 -18c-108.667 0 -194.5 25.833 -257.5 77.5zM429.498 70.998c15.667 7.33301 29.833 18.667 42.5 34v72h-93c-29.333 0 -49.833 -5 -61.5 -15s-17.5 -25.333 -17.5 -46c0 -20 6.16699 -34.333 18.5 -43
s30.5 -13 54.5 -13c22 0 40.833 3.66699 56.5 11z" />
    <glyph glyph-name="A" unicode="A" horiz-adv-x="713" 
d="M283 644h148l245 -644h-140l-61 155h-237l-60 -155h-141zM455 259l-99 259l-98 -259h197z" />
    <glyph glyph-name="B" unicode="B" horiz-adv-x="636" 
d="M57 644l326 0.000976562c64 0 112 -15 144 -45s48 -73 48 -129c0 -33.333 -6.5 -61.833 -19.5 -85.5s-31.167 -41.834 -54.5 -54.501c32 -10 56.333 -26.167 73 -48.5s25 -53.5 25 -93.5c0 -62 -17.5 -108.833 -52.5 -140.5s-85.5 -47.5 -151.5 -47.5h-338v644z
M358 377.001c60.667 0 91 27.333 91 82c0 29.333 -7.5 50.833 -22.5 64.5s-41.167 20.5 -78.5 20.5h-156v-167h166zM363 99.001c34.667 0 59.832 7.16699 75.499 21.5s23.5 38.833 23.5 73.5c0 29.333 -8.16699 50.833 -24.5 64.5s-44.166 20.5 -83.499 20.5h-162v-180h171z
" />
    <glyph glyph-name="C" unicode="C" horiz-adv-x="600" 
d="M124 76.5c-58 57.667 -86.9971 137.5 -86.9971 239.5c0 108 28.167 191.333 84.5 250s139.166 88 248.499 88c69.333 0 133.333 -10.667 192 -32v-118c-56.667 23.333 -117.334 35 -182.001 35c-72.667 0 -125.167 -18.167 -157.5 -54.5s-48.5 -92.5 -48.5 -168.5
c0 -71.333 17.167 -124.5 51.5 -159.5s86.5 -52.5 156.5 -52.5c65.333 0 125.666 11.333 180.999 34v-119c-59.333 -19.333 -123.333 -29 -192 -29c-106.667 0 -189 28.833 -247 86.5z" />
    <glyph glyph-name="D" unicode="D" horiz-adv-x="656" 
d="M57 644h270c98.667 0 172 -25.5 220 -76.5s72 -133.833 72 -248.5c0 -109.333 -24 -189.833 -72 -241.5s-121.333 -77.5 -220 -77.5h-270v644zM308 104c40.667 0 73.334 5.99902 98.001 17.999s43.5 33.667 56.5 65s19.5 75.333 19.5 132
c0 57.333 -5.83301 101.333 -17.5 132s-29.834 51.834 -54.501 63.501s-58.667 17.5 -102 17.5h-116v-428h116z" />
    <glyph glyph-name="E" unicode="E" horiz-adv-x="556" 
d="M57 644h462v-105h-327v-165h290v-104h-290v-166h327v-104h-462v644z" />
    <glyph glyph-name="F" unicode="F" horiz-adv-x="527" 
d="M57 644h453v-105h-318v-165h281v-104h-281v-270h-135v644z" />
    <glyph glyph-name="G" unicode="G" horiz-adv-x="644" 
d="M122 74.5c-56.667 56.333 -84.999 135.167 -84.999 236.5c0 108 28.833 192.167 86.5 252.5s141.5 90.5 251.5 90.5c73.333 0 138 -9 194 -27v-116c-52 18.667 -113.333 28 -184 28c-75.333 0 -129.333 -18.5 -162 -55.5s-49 -94.5 -49 -172.5c0 -138 65 -207 195 -207
c44.667 0 86 6.66699 124 20v150h-150v86h264v-315c-25.333 -16 -58 -29.167 -98 -39.5s-87.333 -15.5 -142 -15.5c-106.667 0 -188.334 28.167 -245.001 84.5z" />
    <glyph glyph-name="H" unicode="H" horiz-adv-x="665" 
d="M57 644h135v-270h281v270h135v-644h-135v270h-281v-270h-135v644z" />
    <glyph glyph-name="I" unicode="I" horiz-adv-x="249" 
d="M57 644h135v-644h-135v644z" />
    <glyph glyph-name="J" unicode="J" horiz-adv-x="436" 
d="M17 13v114c33.333 -14.667 72.333 -22 117 -22c41.333 0 70.833 8.5 88.5 25.5s26.5 44.833 26.5 83.5v430h135v-460c0 -129.333 -74.333 -194 -223 -194c-54 0 -102 7.66699 -144 23z" />
    <glyph glyph-name="K" unicode="K" horiz-adv-x="644" 
d="M57 644h135v-273l248 273h155l-233 -261l245 -383h-144l-185 297l-86 -93v-204h-135v644z" />
    <glyph glyph-name="L" unicode="L" horiz-adv-x="526" 
d="M57 644h135v-540h317v-104h-452v644z" />
    <glyph glyph-name="M" unicode="M" horiz-adv-x="763" 
d="M57 644h136l189 -387l189 387h135v-644h-135v419l-150 -308h-78l-151 308v-419h-135v644z" />
    <glyph glyph-name="N" unicode="N" horiz-adv-x="671" 
d="M57 644h117l305 -429v429h135v-644h-117l-305 429v-429h-135v644z" />
    <glyph glyph-name="O" unicode="O" horiz-adv-x="700" 
d="M37 319c0 116 25.833 200.833 77.5 254.5s130.167 80.5 235.5 80.5s183.833 -26.833 235.5 -80.5s77.5 -138.5 77.5 -254.5c0 -219.333 -104.333 -329 -313 -329s-313 109.667 -313 329zM483 157.5c28.667 35 43 88.833 43 161.5c0 79.333 -14 135.833 -42 169.5
s-72.667 50.5 -134 50.5s-106 -16.833 -134 -50.5s-42 -90.167 -42 -169.5c0 -72.667 14.333 -126.5 43 -161.5s73 -52.5 133 -52.5s104.333 17.5 133 52.5z" />
    <glyph glyph-name="P" unicode="P" horiz-adv-x="598" 
d="M57 644l302 -0.000976562c72.667 0 127.667 -20.333 165 -61s56 -94.334 56 -161.001c0 -43.333 -9.16699 -81.666 -27.5 -114.999s-44.5 -59.166 -78.5 -77.499s-73.667 -27.5 -119 -27.5h-163v-202h-135v644zM327 308.999c38 0 67 10 87 30s30 47.667 30 83
c0 37.333 -9.33301 65.833 -28 85.5s-46.667 29.5 -84 29.5h-140v-228h135z" />
    <glyph glyph-name="Q" unicode="Q" horiz-adv-x="700" 
d="M323.5 -130c-25.667 28 -39.166 69.333 -40.499 124c-164 22 -246 130.333 -246 325c0 116 25.833 200.833 77.5 254.5s130.167 80.5 235.5 80.5s183.833 -26.833 235.5 -80.5s77.5 -138.5 77.5 -254.5c0 -202 -88.333 -311 -265 -327
c0.666992 -26 6.66699 -43.833 18 -53.5s30 -14.5 56 -14.5c25.333 0 49 3.66699 71 11v-94c-12 -3.33301 -27.5 -6.33301 -46.5 -9s-37.5 -4 -55.5 -4c-52.667 0 -91.834 14 -117.501 42zM483.001 157.5c28.667 35 43 88.833 43 161.5c0 79.333 -14 135.833 -42 169.5
s-72.667 50.5 -134 50.5s-106 -16.833 -134 -50.5s-42 -90.167 -42 -169.5c0 -72.667 14.333 -126.5 43 -161.5s73 -52.5 133 -52.5s104.333 17.5 133 52.5z" />
    <glyph glyph-name="R" unicode="R" horiz-adv-x="618" 
d="M57 644h309.001c72 0 125.833 -19 161.5 -57s53.5 -91 53.5 -159c0 -43.333 -11.167 -80.666 -33.5 -111.999s-53.833 -54 -94.5 -68c10 -8.66699 18.167 -17.834 24.5 -27.501s13.166 -23.167 20.499 -40.5l78 -180h-140l-76 173
c-6.66699 15.333 -14.167 25.833 -22.5 31.5s-21.5 8.5 -39.5 8.5h-106v-213h-135v644zM331.001 325c36.667 0 64.666 8.16699 83.999 24.5s29 42.5 29 78.5s-8.66699 62.333 -26 79s-43.666 25 -78.999 25h-147v-207h139z" />
    <glyph glyph-name="S" unicode="S" horiz-adv-x="555" 
d="M49 25l-0.00488281 119.004c30 -12 62 -21.667 96 -29s67 -11 99 -11c50 0 85.167 4.66699 105.5 14s30.5 28.666 30.5 57.999c0 19.333 -4.66699 34.666 -14 45.999s-24.666 21.166 -45.999 29.499s-54.666 18.833 -99.999 31.5c-67.333 18.667 -114.666 42 -141.999 70
s-41 66.667 -41 116c0 59.333 21.667 105 65 137s106.333 48 189 48c37.333 0 72.833 -2.5 106.5 -7.5s61.167 -11.5 82.5 -19.5v-119c-54.667 20.667 -111.667 31 -171 31c-45.333 0 -79.166 -5 -101.499 -15s-33.5 -28.333 -33.5 -55c0 -16.667 4.16699 -30 12.5 -40
s22.333 -18.833 42 -26.5s50.167 -16.834 91.5 -27.501c74.667 -20 126.334 -45.833 155.001 -77.5s43 -72.167 43 -121.5c0 -58 -22 -103.5 -66 -136.5s-109 -49.5 -195 -49.5s-155.333 11.667 -208 35z" />
    <glyph glyph-name="T" unicode="T" horiz-adv-x="564" 
d="M215 540h-198v104h530v-104h-197v-540h-135v540z" />
    <glyph glyph-name="U" unicode="U" horiz-adv-x="679" 
d="M128.5 55c-51 43.333 -76.499 105.668 -76.499 187.001v402h135v-392c0 -48.667 13.167 -85.334 39.5 -110.001s64.166 -37 113.499 -37s87 12.333 113 37s39 61.334 39 110.001v392h135v-402c0 -80.667 -25.333 -142.834 -76 -186.501s-121 -65.5 -211 -65.5
s-160.5 21.667 -211.5 65z" />
    <glyph glyph-name="V" unicode="V" horiz-adv-x="713" 
d="M37 644h141l178 -493l179 493h141l-245 -644h-148z" />
    <glyph glyph-name="W" unicode="W" horiz-adv-x="875" 
d="M37 644h133l97 -435l105 351v84h110l124 -436l100 436h132l-149 -644h-128l-118 412l-127 -412h-129z" />
    <glyph glyph-name="X" unicode="X" horiz-adv-x="702" 
d="M270 323l-227 321h159l149 -215l149 215h159l-227 -321l233 -323h-161l-153 215l-153 -215h-161z" />
    <glyph glyph-name="Y" unicode="Y" horiz-adv-x="671" 
d="M268 238l-231 406h141l158 -291l158 291h140l-231 -406v-238h-135v238z" />
    <glyph glyph-name="Z" unicode="Z" horiz-adv-x="579" 
d="M37 70l324 462h-308v112h484v-82l-321 -458h326v-104h-505v70z" />
    <glyph glyph-name="bracketleft" unicode="[" horiz-adv-x="359" 
d="M37 706h290l4 -105h-159v-596h160l-4 -104h-291v805z" />
    <glyph glyph-name="backslash" unicode="\" horiz-adv-x="467" 
d="M37 662h140l252 -716h-139z" />
    <glyph glyph-name="bracketright" unicode="]" horiz-adv-x="359" 
d="M27 5h160v596h-159l4 105h290v-805h-291z" />
    <glyph glyph-name="asciicircum" unicode="^" horiz-adv-x="493" 
d="M196 624h95l164 -242h-125l-84 144l-83 -144h-126z" />
    <glyph glyph-name="underscore" unicode="_" horiz-adv-x="533" 
d="M37 0h459v-90h-459v90z" />
    <glyph glyph-name="grave" unicode="`" horiz-adv-x="277" 
d="M39 709h117l80 -187h-109z" />
    <glyph glyph-name="a" unicode="a" horiz-adv-x="554" 
d="M85.5 28.5c-32.333 25.667 -48.499 61.835 -48.499 108.502c0 47.333 16.833 84.833 50.5 112.5s82.167 41.5 145.5 41.5h140v13c0 20 -3.5 35.667 -10.5 47s-19.333 19.666 -37 24.999s-42.834 8 -75.501 8c-54 0 -106 -8.33301 -156 -25v95
c23.333 9.33301 50.833 16.666 82.5 21.999s65.5 8 101.5 8c149.333 0 224 -61 224 -183v-301h-117l-7 43c-38.667 -35.333 -96 -53 -172 -53c-48 0 -88.167 12.833 -120.5 38.5zM319.501 93.501c22.333 9.66699 40.167 22.5 53.5 38.5v75h-137
c-52.667 0 -79 -21.667 -79 -65c0 -42 28.667 -63 86 -63c28.667 0 54.167 4.83301 76.5 14.5z" />
    <glyph glyph-name="b" unicode="b" horiz-adv-x="590" 
d="M249.5 3c-25 8.66699 -47.833 22.334 -68.5 41.001l-7 -44h-117v674h135v-226c39.333 24 86 36 140 36c70.667 0 125.167 -19.833 163.5 -59.5s57.5 -100.834 57.5 -183.501c0 -83.333 -19 -146 -57 -188s-91.333 -63 -160 -63c-32.667 0 -61.5 4.33301 -86.5 13z
M388.5 126c18.333 24.667 27.498 63 27.498 115s-9.33301 89 -28 111s-49 33 -91 33c-21.333 0 -41 -3 -59 -9s-33.333 -14.667 -46 -26v-218c12.667 -14 28.334 -24.667 47.001 -32s38.334 -11 59.001 -11c42 0 72.167 12.333 90.5 37z" />
    <glyph glyph-name="c" unicode="c" horiz-adv-x="497" 
d="M104.5 53c-45 42 -67.498 103.334 -67.498 184.001c0 81.333 23.667 142.833 71 184.5s112.333 62.5 195 62.5c33.333 0 62 -2.33301 86 -7s47.333 -12.334 70 -23.001v-97c-36 17.333 -79 26 -129 26c-52.667 0 -91.834 -11 -117.501 -33s-38.5 -59.667 -38.5 -113
c0 -51.333 12.167 -88.5 36.5 -111.5s63.833 -34.5 118.5 -34.5c49.333 0 93 9.33301 131 28v-100c-44.667 -19.333 -98.334 -29 -161.001 -29c-84.667 0 -149.5 21 -194.5 63z" />
    <glyph glyph-name="d" unicode="d" horiz-adv-x="590" 
d="M95.5 45.5c-39 37 -58.4971 96.168 -58.4971 177.501c0 54.667 10.167 101.667 30.5 141s47.666 69.166 81.999 89.499s72.833 30.5 115.5 30.5c52 0 96.333 -12 133 -36v226h135v-674h-116l-8 44c-20.667 -18 -43.334 -31.5 -68.001 -40.5s-53.334 -13.5 -86.001 -13.5
c-67.333 0 -120.5 18.5 -159.5 55.5zM350.003 99.001c16.667 6.66699 32.666 17.666 47.999 32.999v216c-28 24.667 -60.667 37 -98 37c-41.333 0 -72.666 -13.667 -93.999 -41s-32 -67.666 -32 -120.999c0 -48.667 9.83301 -83.167 29.5 -103.5s49.167 -30.5 88.5 -30.5
c22 0 41.333 3.33301 58 10z" />
    <glyph glyph-name="e" unicode="e" horiz-adv-x="542" 
d="M107.5 52.5c-47 41.667 -70.499 103.502 -70.499 185.502c0 77.333 20.5 137.666 61.5 180.999s100.833 65 179.5 65c72 0 127.833 -18.833 167.5 -56.5s59.5 -88.167 59.5 -151.5v-86h-343c6.66699 -36.667 23.5 -62.334 50.5 -77.001s66.833 -22 119.5 -22
c25.333 0 51.166 2.33301 77.499 7s48.833 10.667 67.5 18v-96c-44 -20 -101.667 -30 -173 -30c-84 0 -149.5 20.833 -196.5 62.5zM387.001 273.002v26.001c0 58.667 -35 88 -105 88c-44 0 -75 -8.83301 -93 -26.5s-27 -46.834 -27 -87.501h225z" />
    <glyph glyph-name="f" unicode="f" horiz-adv-x="354" 
d="M83 370l-65.999 -0.00195312v104h66v48c0 50.667 14.333 91.334 43 122.001s69.667 46 123 46c39.333 0 75 -6.33301 107 -19v-93c-20.667 7.33301 -40.667 11 -60 11c-28.667 0 -48.834 -5.16699 -60.501 -15.5s-17.5 -28.166 -17.5 -53.499v-46h120l-6 -104h-114v-370
h-135v370z" />
    <glyph glyph-name="g" unicode="g" horiz-adv-x="562" 
d="M147.5 -169c-37 4.66699 -67.834 11.333 -92.501 20v101c26 -8.66699 56.833 -15.5 92.5 -20.5s69.834 -7.5 102.501 -7.5c47.333 0 81 2.5 101 7.5s30 13.833 30 26.5c0 10.667 -4.66699 18 -14 22s-28 6 -56 6h-129c-42 0 -73.667 8 -95 24s-32 39.333 -32 70
c0 20 5.5 37.833 16.5 53.5s27.833 28.167 50.5 37.5c-54 27.333 -81 73.333 -81 138c0 60 18.833 104.167 56.5 132.5s94.167 42.5 169.5 42.5c14 0 30 -1 48 -3s32.667 -4.33301 44 -7h178l-3 -85h-75c20.667 -19.333 31 -46.333 31 -81c0 -50 -15.667 -89.167 -47 -117.5
s-76.333 -42.5 -135 -42.5c-18 0 -38 1.66699 -60 5c-21.333 -2.66699 -38.5 -7.5 -51.5 -14.5s-19.5 -15.833 -19.5 -26.5c0 -8.66699 3.33301 -14.667 10 -18s17 -5 31 -5h134c48 0 85 -11 111 -33s39 -53.333 39 -94c0 -92 -81.667 -138 -245 -138
c-36 0 -72.5 2.33301 -109.5 7zM350.999 244.499c16 13.667 24 36.833 24 69.5c0 33.333 -8 57.166 -24 71.499s-43.667 21.5 -83 21.5c-38 0 -65.333 -7.16699 -82 -21.5s-25 -38.166 -25 -71.499c0 -32 8 -55 24 -69s43.667 -21 83 -21s67 6.83301 83 20.5z" />
    <glyph glyph-name="h" unicode="h" horiz-adv-x="587" 
d="M57 674h135.001v-240c20.667 15.333 44.834 27.5 72.501 36.5s57.5 13.5 89.5 13.5c62 0 107.5 -14.5 136.5 -43.5s43.5 -74.5 43.5 -136.5v-304h-135v297c0 32.667 -6.66699 55.5 -20 68.5s-37.333 19.5 -72 19.5c-20.667 0 -41.334 -4.5 -62.001 -13.5
s-38.334 -20.833 -53.001 -35.5v-336h-135v674z" />
    <glyph glyph-name="i" unicode="i" horiz-adv-x="321" 
d="M117 667h147v-106h-147v106zM128 374h-71l12 100h194v-474h-135v374z" />
    <glyph glyph-name="j" unicode="j" horiz-adv-x="321" 
d="M116 667h147v-106h-147v106zM-9 -216v93c20 -6.66699 40 -10 60 -10c26.667 0 46.167 5.5 58.5 16.5s18.5 28.5 18.5 52.5v438h-71l12 100h194v-551c0 -48.667 -13.833 -87 -41.5 -115s-68.5 -42 -122.5 -42c-42 0 -78 6 -108 18z" />
    <glyph glyph-name="k" unicode="k" horiz-adv-x="571" 
d="M57 674h135v-371l177 171h154l-191 -194l202 -280h-143l-144 209l-55 -53v-156h-135v674z" />
    <glyph glyph-name="l" unicode="l" horiz-adv-x="298" 
d="M88.5 22c-21 21.333 -31.499 55.332 -31.499 101.999v550h135v-539c0 -16.667 3.16699 -28.167 9.5 -34.5s16.166 -9.5 29.499 -9.5c17.333 0 33 2.33301 47 7v-93c-14 -5.33301 -27.667 -9.16602 -41 -11.499s-29.333 -3.5 -48 -3.5c-46 0 -79.5 10.667 -100.5 32z" />
    <glyph glyph-name="m" unicode="m" horiz-adv-x="858" 
d="M57 474h125l5 -46c49.333 37.333 103.333 56 162 56c32 0 57.333 -4.83301 76 -14.5s33.334 -24.167 44.001 -43.5c24 18.667 50.167 33 78.5 43s60.833 15 97.5 15c54.667 0 95 -14.167 121 -42.5s39 -71.5 39 -129.5v-312h-133v297c0 30.667 -6.66699 53 -20 67
s-34.666 21 -63.999 21c-18.667 0 -36.834 -3.83301 -54.501 -11.5s-32.834 -18.167 -45.501 -31.5c3.33301 -11.333 5 -25 5 -41v-301h-126v297c0 30.667 -5.33301 53 -16 67s-29.667 21 -57 21c-34 0 -68.667 -17 -104 -51v-334h-133v474z" />
    <glyph glyph-name="n" unicode="n" horiz-adv-x="587" 
d="M57 474h125.004l5 -45c21.333 16 46.666 29.167 75.999 39.5s59.666 15.5 90.999 15.5c62 0 107.5 -14.5 136.5 -43.5s43.5 -74.5 43.5 -136.5v-304h-135v297c0 32.667 -6.66699 55.5 -20 68.5s-37.333 19.5 -72 19.5c-20.667 0 -41.334 -4.5 -62.001 -13.5
s-38.334 -20.833 -53.001 -35.5v-336h-135v474z" />
    <glyph glyph-name="o" unicode="o" horiz-adv-x="589" 
d="M37 237c0 80 21.166 141.167 63.499 183.5s106.833 63.5 193.5 63.5s151.334 -21.167 194.001 -63.5s64 -103.5 64 -183.5c0 -164.667 -86 -247 -258 -247c-171.333 0 -257 82.333 -257 247zM387.499 135c18.333 20 27.5 54 27.5 102s-9.16699 82 -27.5 102
s-49.5 30 -93.5 30c-43.333 0 -74.166 -10 -92.499 -30s-27.5 -54 -27.5 -102s9.16699 -82 27.5 -102s49.166 -30 92.499 -30c44 0 75.167 10 93.5 30z" />
    <glyph glyph-name="p" unicode="p" horiz-adv-x="590" 
d="M57 474h116.997l7 -44c21.333 18 44.333 31.5 69 40.5s53.334 13.5 86.001 13.5c71.333 0 125.333 -19.333 162 -58s55 -99.667 55 -183c0 -84 -19.667 -147.167 -59 -189.5s-94.666 -63.5 -165.999 -63.5c-53.333 0 -98.666 12 -135.999 36v-242h-135v690z
M385.497 126.5c20.333 25 30.499 63.5 30.499 115.5c0 50.667 -9.33301 87.167 -28 109.5s-48.667 33.5 -90 33.5s-76.666 -14.333 -105.999 -43v-217c15.333 -12 30.833 -21 46.5 -27s34.167 -9 55.5 -9c40.667 0 71.167 12.5 91.5 37.5z" />
    <glyph glyph-name="q" unicode="q" horiz-adv-x="651" 
d="M432.5 -208c-23 22.667 -34.5 57.998 -34.5 105.998v128c-36.667 -24 -82 -36 -136 -36c-71.333 0 -126.666 19.833 -165.999 59.5s-59 100.834 -59 183.501s19.833 145.167 59.5 187.5s92.834 63.5 159.501 63.5c32.667 0 61 -4.5 85 -13.5s46.667 -22.5 68 -40.5l8 44
h116v-563c0 -19.333 3.66699 -32.833 11 -40.5s20.333 -11.5 39 -11.5c12 0 25.667 2.33301 41 7v-93c-14.667 -5.33301 -28.334 -9.16602 -41.001 -11.499s-28.334 -3.5 -47.001 -3.5c-46 0 -80.5 11.333 -103.5 34zM352.5 97.998c15.667 6 30.8301 15.001 45.4971 27.001
v217c-15.333 14.667 -31.166 25.5 -47.499 32.5s-35.166 10.5 -56.499 10.5c-41.333 0 -71.666 -12.333 -90.999 -37s-29 -62.334 -29 -113.001c0 -52 10 -89.333 30 -112s50.667 -34 92 -34c22 0 40.833 3 56.5 9z" />
    <glyph glyph-name="r" unicode="r" horiz-adv-x="378" 
d="M57 474l125.002 0.000976562l6 -49c22 14 48.667 26.333 80 37s62.333 18 93 22v-102c-28.667 -4 -59.334 -10.833 -92.001 -20.5s-58.334 -19.834 -77.001 -30.501v-331h-135v474z" />
    <glyph glyph-name="s" unicode="s" horiz-adv-x="471" 
d="M124 -3c-32 4.66699 -58 11 -78 19v112c22 -9.33301 47.667 -16.5 77 -21.5s57 -7.5 83 -7.5c34.667 0 58.5 2.16699 71.5 6.5s19.5 13.166 19.5 26.499c0 12 -6 21.333 -18 28s-35 15.334 -69 26.001c-10 2.66699 -22.667 6.66699 -38 12
c-46.667 15.333 -80.834 33.666 -102.501 54.999s-32.5 51.333 -32.5 90c0 46 16.833 81 50.5 105s86.5 36 158.5 36c27.333 0 54.166 -2 80.499 -6s49.166 -9.33301 68.499 -16v-111c-17.333 8 -37.666 14.333 -60.999 19s-45.333 7 -66 7c-32 0 -55.667 -2.16699 -71 -6.5
s-23 -12.833 -23 -25.5c0 -11.333 5.5 -19.833 16.5 -25.5s32.167 -13.167 63.5 -22.5l33 -10c38.667 -12 68.334 -24.5 89.001 -37.5s35.5 -28.5 44.5 -46.5s13.5 -41 13.5 -69c0 -47.333 -17.667 -83.166 -53 -107.499s-87.666 -36.5 -156.999 -36.5
c-34.667 0 -68 2.33301 -100 7z" />
    <glyph glyph-name="t" unicode="t" horiz-adv-x="368" 
d="M124 32c-26.667 28 -40 67.333 -40 118v220h-67v104h67v102l135 40v-142h120l-8 -104h-112v-211c0 -25.333 5.83301 -43 17.5 -53s30.5 -15 56.5 -15c18.667 0 38 3.33301 58 10v-93c-30 -12 -65.333 -18 -106 -18c-54 0 -94.333 14 -121 42z" />
    <glyph glyph-name="u" unicode="u" horiz-adv-x="587" 
d="M99 38c-31.333 32 -47.0029 78.333 -47.0029 139v297h135v-294c0 -31.333 7.5 -54.333 22.5 -69s38.167 -22 69.5 -22c22.667 0 43.834 4.5 63.501 13.5s36.834 20.833 51.501 35.5v336h135v-474h-125l-5 45c-46 -36.667 -101.667 -55 -167 -55
c-57.333 0 -101.666 16 -132.999 48z" />
    <glyph glyph-name="v" unicode="v" horiz-adv-x="593" 
d="M37 474h141l118 -338l119 338h140l-186 -474h-145z" />
    <glyph glyph-name="w" unicode="w" horiz-adv-x="757" 
d="M37 474h135l72 -308l79 247v61h103l90 -308l70 308h134l-124 -474h-124l-91 277l-93 -277h-126z" />
    <glyph glyph-name="x" unicode="x" horiz-adv-x="585" 
d="M219 241l-175 233h146l102 -138l102 138h146l-174 -233l181 -241h-147l-108 145l-108 -145h-147z" />
    <glyph glyph-name="y" unicode="y" horiz-adv-x="613" 
d="M79 -160v95c18.667 -6.66699 39 -10 61 -10c26.667 0 47.5 6 62.5 18s30.5 33.667 46.5 65l-212 466h141l139 -322l138 322h140l-187 -441c-29.333 -70 -61 -122.333 -95 -157s-78 -52 -132 -52c-41.333 0 -75.333 5.33301 -102 16z" />
    <glyph glyph-name="z" unicode="z" horiz-adv-x="489" 
d="M37 70l239 292h-229v112h398v-82l-234 -288h241v-104h-415v70z" />
    <glyph glyph-name="braceleft" unicode="{" horiz-adv-x="312" 
d="M126.5 -92c-17.667 8 -30 20.166 -37 36.499s-10.5 38.833 -10.5 67.5v162c0 26.667 -4.66699 46.667 -14 60s-25.333 21.333 -48 24v81c25.333 3.33301 42 12.5 50 27.5s12 39.833 12 74.5v144c0 28.667 3.5 51.167 10.5 67.5s19.333 28.5 37 36.5s42.5 12 74.5 12h83
v-104h-24c-18 0 -30.167 -4 -36.5 -12s-9.5 -22 -9.5 -42v-151c0 -21.333 -4.33301 -40.333 -13 -57s-22 -29 -40 -37c18 -8 31.333 -20.167 40 -36.5s13 -35.166 13 -56.499v-151c0 -20 3.16699 -34 9.5 -42s18.5 -12 36.5 -12h24v-104h-83c-32 0 -56.833 4 -74.5 12z" />
    <glyph glyph-name="bar" unicode="|" horiz-adv-x="210" 
d="M37 735h135v-855h-135v855z" />
    <glyph glyph-name="braceright" unicode="}" horiz-adv-x="312" 
d="M27 0l24 0.000976562c18 0 30.167 4 36.5 12s9.5 22 9.5 42v151c0 21.333 4.33301 40.166 13 56.499s22 28.5 40 36.5c-18 8 -31.333 20.333 -40 37s-13 35.667 -13 57v151c0 20 -3.16699 34 -9.5 42s-18.5 12 -36.5 12h-24v104h83c32 0 56.833 -4 74.5 -12
s30 -20.167 37 -36.5s10.5 -38.833 10.5 -67.5v-144c0 -34.667 4 -59.5 12 -74.5s24.667 -24.167 50 -27.5v-81c-22.667 -2.66699 -38.667 -10.667 -48 -24s-14 -33.333 -14 -60v-162c0 -28.667 -3.5 -51.167 -10.5 -67.5s-19.333 -28.5 -37 -36.5s-42.5 -12 -74.5 -12h-83
v104z" />
    <glyph glyph-name="asciitilde" unicode="~" horiz-adv-x="552" 
d="M342 214.5c-17.333 5.66699 -39.334 14.1689 -66.001 25.502s-48.5 19.833 -65.5 25.5s-35.167 8.5 -54.5 8.5c-25.333 0 -47.5 -4.66699 -66.5 -14s-36.5 -24.333 -52.5 -45v133c11.333 15.333 27.833 27.666 49.5 36.999s44.834 14 69.501 14
c20.667 0 40.167 -3 58.5 -9s40.833 -14.667 67.5 -26c24.667 -10.667 45.5 -18.834 62.5 -24.501s34.5 -8.5 52.5 -8.5c25.333 0 47.166 4.5 65.499 13.5s35.5 23.833 51.5 44.5v-133c-11.333 -16 -27.333 -28.333 -48 -37s-43.667 -13 -69 -13
c-19.333 0 -37.666 2.83301 -54.999 8.5z" />
    <glyph glyph-name="uni00A0" unicode="&#xa0;" horiz-adv-x="360" 
 />
    <glyph glyph-name="exclamdown" unicode="&#xa1;" horiz-adv-x="216" 
d="M37 596h142v-99h-142v99zM41 117l6 310h123l6 -310v-165h-135v165z" />
    <glyph glyph-name="cent" unicode="&#xa2;" horiz-adv-x="497" 
d="M256 -8c-71.333 6.66699 -125.668 30.666 -163.001 71.999s-56 99 -56 173c0 73.333 19.333 130.5 58 171.5s92.334 65.167 161.001 72.5v79h99v-78c36 -3.33301 70.667 -12.666 104 -27.999v-97c-32 14.667 -66.667 23 -104 25v-290
c40.667 3.33301 75.667 12.333 105 27v-100c-30 -13.333 -65 -22 -105 -26v-79h-99v78zM255.998 373.999c-27.333 -8.66699 -47.833 -23.833 -61.5 -45.5s-20.5 -52.167 -20.5 -91.5c0 -38 6.66699 -68.167 20 -90.5s34 -37.833 62 -46.5v274z" />
    <glyph glyph-name="sterling" unicode="&#xa3;" horiz-adv-x="494" 
d="M37 104h22.998c17.333 0 30.5 5.16699 39.5 15.5s13.5 24.5 13.5 42.5v127h-66v104h66v89c0 52 16.5 93.667 49.5 125s76.5 47 130.5 47c49.333 0 90.333 -7.33301 123 -22v-93c-9.33301 4 -21.666 7.33301 -36.999 10s-30 4 -44 4c-30 0 -52 -6.5 -66 -19.5
s-21 -32.833 -21 -59.5v-81h166l-5 -104h-161v-120c0 -16 -1.66699 -29 -5 -39s-9.66602 -18.667 -18.999 -26h232v-104h-419v104z" />
    <glyph glyph-name="currency" unicode="&#xa4;" horiz-adv-x="571" 
d="M37 121l80 58.999c-16.667 27.333 -25 57 -25 89c0 32.667 8.33301 62 25 88l-79 60l59 73l82 -65c31.333 22.667 66.666 34 105.999 34c40 0 75.333 -11.667 106 -35l84 65l59 -72l-81 -60c17.333 -27.333 26 -56.666 26 -87.999s-8.66699 -61 -26 -89l80 -60l-58 -72
l-84 64c-31.333 -22.667 -66.333 -34 -105 -34c-39.333 0 -74.666 11.333 -105.999 34l-83 -64zM352.5 201.499c18.333 18.333 27.5 40.833 27.5 67.5s-9.33301 49.334 -28 68.001s-41 28 -67 28c-26.667 0 -49 -9.33301 -67 -28s-27 -41.334 -27 -68.001
s9 -49.167 27 -67.5s40.333 -27.5 67 -27.5s49.167 9.16699 67.5 27.5z" />
    <glyph glyph-name="yen" unicode="&#xa5;" horiz-adv-x="671" 
d="M268 85h-145v79h145v55h-145v79h111l-197 346h141l158 -291l158 291h140l-197 -346h111v-79h-145v-55h145v-79h-145v-85h-135v85z" />
    <glyph glyph-name="brokenbar" unicode="&#xa6;" horiz-adv-x="210" 
d="M37 735h135v-331h-135v331zM37 211h135v-331h-135v331z" />
    <glyph glyph-name="section" unicode="&#xa7;" horiz-adv-x="555" 
d="M49 25l-0.00195312 119.001c30 -12 62 -21.667 96 -29s67 -11 99 -11c47.333 0 81.833 4.83301 103.5 14.5s32.5 28.834 32.5 57.501c0 18.667 -5.66699 34 -17 46s-27.666 22 -48.999 30s-52.666 17.667 -93.999 29c-46 13.333 -82.167 27.5 -108.5 42.5
s-45.333 32.333 -57 52s-17.5 43.834 -17.5 72.501c0 29.333 6.66699 52.666 20 69.999c-12.667 20.667 -19 45 -19 73c0 56 21 99 63 129s105.333 45 190 45c31.333 0 65.166 -2.66699 101.499 -8s65.5 -11.666 87.5 -18.999v-119c-57.333 20.667 -116 31 -176 31
c-36.667 0 -67.5 -4.33301 -92.5 -13s-37.5 -27.334 -37.5 -56.001c0 -16.667 4.5 -30.334 13.5 -41.001s23.667 -20 44 -28s49.833 -16.667 88.5 -26c54 -14 95 -28.167 123 -42.5s47.5 -31.166 58.5 -50.499s16.5 -44 16.5 -74c0 -10.667 -2 -23.834 -6 -39.501
s-8.66699 -27.834 -14 -36.501c13.333 -21.333 20 -45 20 -71c0 -60 -22.167 -105.333 -66.5 -136s-109.166 -46 -194.499 -46c-86 0 -155.333 11.667 -208 35zM402.998 331.001c0 15.333 -9 28.0039 -27 38.0039s-52 21.667 -102 35c-28 7.33301 -50.667 14.666 -68 21.999
s-30.333 15.333 -39 24c-2.66699 -6.66699 -4 -13.334 -4 -20.001c0 -12 4 -21.667 12 -29s20 -13.833 36 -19.5s41 -13.167 75 -22.5c31.333 -8.66699 56 -16.834 74 -24.501s31 -16.167 39 -25.5c2.66699 7.33301 4 14.666 4 21.999z" />
    <glyph glyph-name="dieresis" unicode="&#xa8;" horiz-adv-x="376" 
d="M37 655h106v-98h-106v98zM233 655h106v-98h-106v98z" />
    <glyph glyph-name="copyright" unicode="&#xa9;" horiz-adv-x="739" 
d="M202.5 34.5c-51 29.667 -91.333 70 -121 121s-44.5 106.5 -44.5 166.5s14.833 115.5 44.5 166.5s70 91.333 121 121s106.5 44.5 166.5 44.5s115.5 -14.833 166.5 -44.5s91.333 -70 121 -121s44.5 -106.5 44.5 -166.5s-14.833 -115.5 -44.5 -166.5s-70 -91.333 -121 -121
s-106.5 -44.5 -166.5 -44.5s-115.5 14.833 -166.5 44.5zM498 98c38.667 22 69 52.667 91 92s33 83.333 33 132s-11 92.5 -33 131.5s-52.333 69.667 -91 92s-81.667 33.5 -129 33.5s-90.166 -11.167 -128.499 -33.5s-68.5 -53 -90.5 -92s-33 -82.833 -33 -131.5
s11 -92.667 33 -132s52.167 -70 90.5 -92s81.166 -33 128.499 -33s90.333 11 129 33zM217.5 165.5c-37.667 38.333 -56.501 90.502 -56.501 156.502c0 45.333 9.33301 84.166 28 116.499s44.167 56.666 76.5 72.999s68.5 24.5 108.5 24.5c26.667 0 50.167 -3 70.5 -9
s39.5 -14.667 57.5 -26v-68c-32 18 -67.333 27 -106 27c-42.667 0 -77.5 -11.167 -104.5 -33.5s-40.5 -57.166 -40.5 -104.499c0 -92.667 47 -139 141 -139c19.333 0 38.833 2.66699 58.5 8s37.167 12.666 52.5 21.999v-71c-37.333 -22.667 -81.666 -34 -132.999 -34
c-64 0 -114.833 19.167 -152.5 57.5z" />
    <glyph glyph-name="ordfeminine" unicode="&#xaa;" horiz-adv-x="340" 
d="M63.5 400c-17.667 13.333 -26.5029 33.667 -26.5029 61c0 58.667 36 88 108 88h78v5c0 14.667 -4.66699 24.834 -14 30.501s-26.666 8.5 -51.999 8.5c-29.333 0 -58 -4.66699 -86 -14v58c12.667 5.33301 28.334 9.5 47.001 12.5s37.334 4.5 56.001 4.5
c40.667 0 72.167 -8.33301 94.5 -25s33.5 -42.334 33.5 -77.001v-166h-71l-5 23c-12 -10 -25.333 -17.333 -40 -22s-33 -7 -55 -7c-27.333 0 -49.833 6.66699 -67.5 20zM222.997 465.001l-0.000976562 33.001h-61c-18 0 -30.833 -2.33301 -38.5 -7
s-11.5 -13.334 -11.5 -26.001c0 -11.333 3.83301 -19.333 11.5 -24s18.834 -7 33.501 -7c28.667 0 50.667 10.333 66 31z" />
    <glyph glyph-name="guillemotleft" unicode="&#xab;" horiz-adv-x="639" 
d="M37 259v53l262 193l52 -76l-194 -144l194 -144l-52 -75zM287 259v53l262 193l52 -76l-194 -144l194 -144l-52 -75z" />
    <glyph glyph-name="logicalnot" unicode="&#xac;" horiz-adv-x="517" 
d="M373 270h-336v105h442v-239h-106v134z" />
    <glyph glyph-name="uni00AD" unicode="&#xad;" horiz-adv-x="460" 
d="M37 324h386v-105h-386v105z" />
    <glyph glyph-name="registered" unicode="&#xae;" horiz-adv-x="739" 
d="M202.5 34.5c-51 29.667 -91.333 70 -121 121s-44.5 106.5 -44.5 166.5s14.833 115.5 44.5 166.5s70 91.333 121 121s106.5 44.5 166.5 44.5s115.5 -14.833 166.5 -44.5s91.333 -70 121 -121s44.5 -106.5 44.5 -166.5s-14.833 -115.5 -44.5 -166.5s-70 -91.333 -121 -121
s-106.5 -44.5 -166.5 -44.5s-115.5 14.833 -166.5 44.5zM498 98c38.667 22 69 52.667 91 92s33 83.333 33 132s-11 92.5 -33 131.5s-52.333 69.667 -91 92s-81.667 33.5 -129 33.5s-90.166 -11.167 -128.499 -33.5s-68.5 -53 -90.5 -92s-33 -82.833 -33 -131.5
s11 -92.667 33 -132s52.167 -70 90.5 -92s81.166 -33 128.499 -33s90.333 11 129 33zM224 517l187 0.000976562c42.667 0 74.834 -11.167 96.501 -33.5s32.5 -52.833 32.5 -91.5c0 -30 -6.83301 -54.833 -20.5 -74.5s-33.834 -33.167 -60.501 -40.5
c11.333 -9.33301 20.333 -23.333 27 -42l43 -107h-74l-43 113c-5.33301 9.33301 -11.333 15.666 -18 18.999s-18 5 -34 5h-60v-137h-76v389zM364 324.001c34.667 0 59.999 4.16797 75.999 12.501s24 26.833 24 55.5c0 23.333 -5.66699 40.166 -17 50.499
s-28.666 15.5 -51.999 15.5h-95v-134h64z" />
    <glyph glyph-name="macron" unicode="&#xaf;" horiz-adv-x="342" 
d="M17 644h308v-83h-308v83z" />
    <glyph glyph-name="degree" unicode="&#xb0;" horiz-adv-x="305" 
d="M69 529c-22.667 21.333 -34 49 -34 83s11.333 61.667 34 83s50.334 32 83.001 32c33.333 0 61.333 -10.667 84 -32s34 -49 34 -83s-11.333 -61.667 -34 -83s-50.667 -32 -84 -32c-32.667 0 -60.334 10.667 -83.001 32zM185 580c8.66699 8.66699 13 19.334 13 32.001
s-4.5 23.334 -13.5 32.001s-19.833 13 -32.5 13s-23.334 -4.33301 -32.001 -13s-13 -19.334 -13 -32.001s4.33301 -23.334 13 -32.001s19.334 -13 32.001 -13c13.333 0 24.333 4.33301 33 13z" />
    <glyph glyph-name="plusminus" unicode="&#xb1;" horiz-adv-x="470" 
d="M182 279h-140v105h140v137h106v-137h140v-105h-140v-134h-106v134zM42 105h386v-105h-386v105z" />
    <glyph glyph-name="uni00B2" unicode="&#xb2;" horiz-adv-x="303" 
d="M37 414c8 12 16.501 22.333 25.501 31s18.167 16.834 27.5 24.501l19 15.5c5.33301 4.66699 12.666 10.334 21.999 17.001c16 13.333 26.5 22.833 31.5 28.5s7.5 12.167 7.5 19.5c0 11.333 -4 19.5 -12 24.5s-21.333 7.5 -40 7.5c-22 0 -46.667 -5.33301 -74 -16v71
c12 4.66699 28 8.66699 48 12s39 5 57 5c36 0 64 -7.83301 84 -23.5s30 -35.834 30 -60.501c0 -18 -3.5 -33.333 -10.5 -46s-19.5 -27.334 -37.5 -44.001l-21 -18c-14 -12 -21.667 -18.667 -23 -20h94v-72h-228v44z" />
    <glyph glyph-name="uni00B3" unicode="&#xb3;" horiz-adv-x="306" 
d="M81.5 366c-19.667 2.66699 -34.498 5.99805 -44.498 9.99805v63c22.667 -9.33301 47.667 -14 75 -14c22 0 37.5 2 46.5 6s13.5 11 13.5 21c0 19.333 -17.333 29 -52 29h-42l5 56h34c32.667 0 49 10 49 30c0 15.333 -18 23 -54 23c-24.667 0 -48 -4.66699 -70 -14v64
c10 4 24 7.33301 42 10s35.667 4 53 4c43.333 0 75.166 -7.16699 95.499 -21.5s30.5 -34.166 30.5 -59.499c0 -31.333 -12.333 -52.666 -37 -63.999c28.667 -8.66699 43 -29 43 -61c0 -57.333 -44.333 -86 -133 -86c-16.667 0 -34.834 1.33301 -54.501 4z" />
    <glyph glyph-name="acute" unicode="&#xb4;" horiz-adv-x="277" 
d="M119 709h117l-88 -187h-109z" />
    <glyph glyph-name="paragraph" unicode="&#xb6;" horiz-adv-x="636" 
d="M278 253c-73.333 0 -131.833 17.667 -175.5 53s-65.5 92.333 -65.5 171c0 79.333 23.167 138 69.5 176s108.833 57 187.5 57h324v-787h-135v683h-70v-683h-135v330z" />
    <glyph glyph-name="periodcentered" unicode="&#xb7;" horiz-adv-x="184" 
d="M37 336h110v-101h-110v101z" />
    <glyph glyph-name="cedilla" unicode="&#xb8;" horiz-adv-x="273" 
d="M62 -237.5c-16 1.66699 -27.666 3.5 -34.999 5.5v68c19.333 -5.33301 39.666 -8 60.999 -8c30.667 0 51.667 2.33301 63 7s17 14.667 17 30c0 16 -6 26.167 -18 30.5s-31.667 6.5 -59 6.5h-44l29 98h88l-15 -45c34.667 0 61 -8 79 -24s27 -38.333 27 -67
c0 -69.333 -50.667 -104 -152 -104c-11.333 0 -25 0.833008 -41 2.5z" />
    <glyph glyph-name="uni00B9" unicode="&#xb9;" horiz-adv-x="194" 
d="M84 565l-69 -14v71l162 32v-284h-93v195z" />
    <glyph glyph-name="ordmasculine" unicode="&#xba;" horiz-adv-x="361" 
d="M37 517c0 91.333 47.667 137 143 137c96 0 144 -45.667 144 -137s-48 -137 -144 -137c-95.333 0 -143 45.667 -143 137zM227.5 458.5c9.66699 12.333 14.5 31.833 14.5 58.5s-4.83301 46 -14.5 58s-25.5 18 -47.5 18s-37.833 -6.16699 -47.5 -18.5
s-14.5 -31.5 -14.5 -57.5c0 -26.667 4.83301 -46.167 14.5 -58.5s25.5 -18.5 47.5 -18.5s37.833 6.16699 47.5 18.5z" />
    <glyph glyph-name="guillemotright" unicode="&#xbb;" horiz-adv-x="639" 
d="M37 141l194 144l-194 144l52 76l262 -193v-53l-262 -193zM287 141l194 144l-194 144l52 76l262 -193v-53l-262 -193z" />
    <glyph glyph-name="onequarter" unicode="&#xbc;" horiz-adv-x="657" 
d="M106 565l-69 -14v71l162 32v-284h-93v195zM428 644h128l-340 -644h-127zM497 50h-139v61l136 173h95v-170h30v-64h-30v-50h-92v50zM518 115v92l-70 -92h70z" />
    <glyph glyph-name="onehalf" unicode="&#xbd;" horiz-adv-x="673" 
d="M106 565l-69 -14v71l162 32v-284h-93v195zM428 644h128l-340 -644h-127zM387 44c8 12 16.501 22.333 25.501 31s18.167 16.834 27.5 24.501l19 15.5c5.33301 4.66699 12.666 10.334 21.999 17.001c16 13.333 26.5 22.833 31.5 28.5s7.5 12.167 7.5 19.5
c0 11.333 -4 19.5 -12 24.5s-21.333 7.5 -40 7.5c-22 0 -46.667 -5.33301 -74 -16v71c12 4.66699 28 8.66699 48 12s39 5 57 5c36 0 64 -7.83301 84 -23.5s30 -35.834 30 -60.501c0 -18 -3.5 -33.333 -10.5 -46s-19.5 -27.334 -37.5 -44.001l-21 -18
c-14 -12 -21.667 -18.667 -23 -20h94v-72h-228v44z" />
    <glyph glyph-name="threequarters" unicode="&#xbe;" horiz-adv-x="679" 
d="M81.5 366c-19.667 2.66699 -34.498 5.99805 -44.498 9.99805v63c22.667 -9.33301 47.667 -14 75 -14c22 0 37.5 2 46.5 6s13.5 11 13.5 21c0 19.333 -17.333 29 -52 29h-42l5 56h34c32.667 0 49 10 49 30c0 15.333 -18 23 -54 23c-24.667 0 -48 -4.66699 -70 -14v64
c10 4 24 7.33301 42 10s35.667 4 53 4c43.333 0 75.166 -7.16699 95.499 -21.5s30.5 -34.166 30.5 -59.499c0 -31.333 -12.333 -52.666 -37 -63.999c28.667 -8.66699 43 -29 43 -61c0 -57.333 -44.333 -86 -133 -86c-16.667 0 -34.834 1.33301 -54.501 4zM428.002 643.998
h128l-340 -644h-127zM497.002 49.998h-139v61l136 173h95v-170h30v-64h-30v-50h-92v50zM518.002 114.998v92l-70 -92h70z" />
    <glyph glyph-name="questiondown" unicode="&#xbf;" horiz-adv-x="497" 
d="M261 596h142v-99h-142v99zM142 -8.5c-39.333 33 -59 78.835 -59 137.502c0 35.333 7.33301 64.166 22 86.499s38.334 46.833 71.001 73.5c4 2.66699 15.667 12 35 28s33 31.333 41 46s12 30.667 12 48v15h135v-20c0 -22 -4.66699 -41.833 -14 -59.5s-20.333 -33 -33 -46
s-30 -28.5 -52 -46.5c-27.333 -22 -47.5 -40.833 -60.5 -56.5s-19.5 -33.834 -19.5 -54.501c0 -31.333 9.66699 -53.333 29 -66s52.666 -19 99.999 -19c26 0 53.333 3.5 82 10.5s53.334 15.5 74.001 25.5v-114c-24 -12 -52.833 -21.333 -86.5 -28s-68.834 -10 -105.501 -10
c-74.667 0 -131.667 16.5 -171 49.5z" />
    <glyph glyph-name="Agrave" unicode="&#xc0;" horiz-adv-x="713" 
d="M212 875h117l80 -187h-109zM283 644h148l245 -644h-140l-61 155h-237l-60 -155h-141zM455 259l-99 259l-98 -259h197z" />
    <glyph glyph-name="Aacute" unicode="&#xc1;" horiz-adv-x="713" 
d="M377 875h117l-88 -187h-109zM283 644h148l245 -644h-140l-61 155h-237l-60 -155h-141zM455 259l-99 259l-98 -259h197z" />
    <glyph glyph-name="Acircumflex" unicode="&#xc2;" horiz-adv-x="713" 
d="M313 862h86l135 -174h-104l-74 100l-72 -100h-106zM283 644h148l245 -644h-140l-61 155h-237l-60 -155h-141zM455 259l-99 259l-98 -259h197z" />
    <glyph glyph-name="Atilde" unicode="&#xc3;" horiz-adv-x="713" 
d="M403 694c-12.667 3.33301 -29.001 8.66797 -49.001 16.001c-31.333 12.667 -55.666 19 -72.999 19c-37.333 0 -67.333 -12.333 -90 -37v96c9.33301 9.33301 21.833 16.833 37.5 22.5s32.167 8.5 49.5 8.5c14 0 27.5 -1.83301 40.5 -5.5s27.5 -8.83398 43.5 -15.501
c18.667 -6.66699 33.167 -11.5 43.5 -14.5s21.5 -4.5 33.5 -4.5c37.333 0 65 12.667 83 38v-96c-6.66699 -9.33301 -17.167 -17 -31.5 -23s-30.5 -9 -48.5 -9c-13.333 0 -26.333 1.66699 -39 5zM282.999 644.002h148l245 -644h-140l-61 155h-237l-60 -155h-141z
M454.999 259.002l-99 259l-98 -259h197z" />
    <glyph glyph-name="Adieresis" unicode="&#xc4;" horiz-adv-x="713" 
d="M205 810h106v-98h-106v98zM401 810h106v-98h-106v98zM283 644h148l245 -644h-140l-61 155h-237l-60 -155h-141zM455 259l-99 259l-98 -259h197z" />
    <glyph glyph-name="Aring" unicode="&#xc5;" horiz-adv-x="713" 
d="M676 0l-140.001 0.00195312l-61 155h-237l-60 -155h-141l237 621c-13.333 11.333 -23.666 25 -30.999 41s-11 33.333 -11 52c0 34 11.333 62.5 34 85.5s52.667 34.5 90 34.5c38 0 68.333 -11.333 91 -34s34 -51.334 34 -86.001c0 -38.667 -14 -69.334 -42 -92.001z
M313.999 754.502c-10.667 -11 -16 -24.502 -16 -40.502s5.33301 -29.5 16 -40.5s24.667 -16.5 42 -16.5c18 0 32.333 5.33301 43 16s16 24.334 16 41.001s-5.33301 30.334 -16 41.001s-25 16 -43 16c-17.333 0 -31.333 -5.5 -42 -16.5zM454.999 259l-99 259l-98 -259h197z
" />
    <glyph glyph-name="AE" unicode="&#xc6;" horiz-adv-x="849" 
d="M283 644h529v-105h-274v-165h237v-104h-237v-166h274v-104h-409v156h-160l-60 -156h-146zM403 260v284h-26l-103 -284h129z" />
    <glyph glyph-name="Ccedilla" unicode="&#xc7;" horiz-adv-x="600" 
d="M406 -9l-11.9951 -36c34.667 0 61 -8 79 -24s27 -38.333 27 -67c0 -69.333 -50.667 -104 -152 -104c-11.333 0 -25 0.833008 -41 2.5s-27.667 3.5 -35 5.5v68c19.333 -5.33301 39.666 -8 60.999 -8c30.667 0 51.667 2.33301 63 7s17 14.667 17 30
c0 16 -6 26.167 -18 30.5s-31.667 6.5 -59 6.5h-44l27 91c-90.667 8.66699 -160.334 41.5 -209.001 98.5s-73 131.833 -73 224.5c0 108 28.167 191.333 84.5 250s139.166 88 248.499 88c69.333 0 133.333 -10.667 192 -32v-118c-56.667 23.333 -117.334 35 -182.001 35
c-72.667 0 -125.167 -18.167 -157.5 -54.5s-48.5 -92.5 -48.5 -168.5c0 -71.333 17.167 -124.5 51.5 -159.5s86.5 -52.5 156.5 -52.5c65.333 0 125.666 11.333 180.999 34v-119c-48.667 -16 -101 -25.333 -157 -28z" />
    <glyph glyph-name="Egrave" unicode="&#xc8;" horiz-adv-x="556" 
d="M161 875h117l80 -187h-109zM57 644h462v-105h-327v-165h290v-104h-290v-166h327v-104h-462v644z" />
    <glyph glyph-name="Eacute" unicode="&#xc9;" horiz-adv-x="556" 
d="M302 875h117l-88 -187h-109zM57 644h462v-105h-327v-165h290v-104h-290v-166h327v-104h-462v644z" />
    <glyph glyph-name="Ecircumflex" unicode="&#xca;" horiz-adv-x="556" 
d="M244 862h86l135 -174h-104l-74 100l-72 -100h-106zM57 644h462v-105h-327v-165h290v-104h-290v-166h327v-104h-462v644z" />
    <glyph glyph-name="Edieresis" unicode="&#xcb;" horiz-adv-x="556" 
d="M141 811h106v-98h-106v98zM337 811h106v-98h-106v98zM57 644h462v-105h-327v-165h290v-104h-290v-166h327v-104h-462v644z" />
    <glyph glyph-name="Igrave" unicode="&#xcc;" horiz-adv-x="249" 
d="M-19 875h117l80 -187h-109zM57 644h135v-644h-135v644z" />
    <glyph glyph-name="Iacute" unicode="&#xcd;" horiz-adv-x="250" 
d="M150 875h117l-88 -187h-109zM57 644h135v-644h-135v644z" />
    <glyph glyph-name="Icircumflex" unicode="&#xce;" horiz-adv-x="250" 
d="M82 862h86l135 -174h-104l-74 100l-72 -100h-106zM57 644h135v-644h-135v644z" />
    <glyph glyph-name="Idieresis" unicode="&#xcf;" horiz-adv-x="249" 
d="M-26 816h106v-98h-106v98zM170 816h106v-98h-106v98zM57 644h135v-644h-135v644z" />
    <glyph glyph-name="Eth" unicode="&#xd0;" horiz-adv-x="704" 
d="M105 264h-68v104h68v276h270c98.667 0 172 -25.5 220 -76.5s72 -133.833 72 -248.5c0 -109.333 -24 -189.833 -72 -241.5s-121.333 -77.5 -220 -77.5h-270v264zM356 104c40.667 0 73.334 5.99902 98.001 17.999s43.5 33.667 56.5 65s19.5 75.333 19.5 132
c0 57.333 -5.83301 101.333 -17.5 132s-29.834 51.834 -54.501 63.501s-58.667 17.5 -102 17.5h-116v-164h149v-104h-149v-160h116z" />
    <glyph glyph-name="Ntilde" unicode="&#xd1;" horiz-adv-x="671" 
d="M390 705c-12.667 3.33301 -29 8.66797 -49 16.001c-32 12.667 -56.333 19 -73 19c-37.333 0 -67.333 -12.333 -90 -37v96c9.33301 9.33301 21.833 16.833 37.5 22.5s32.167 8.5 49.5 8.5c14 0 27.5 -1.83301 40.5 -5.5s27.5 -8.83398 43.5 -15.501
c18.667 -6.66699 33.167 -11.5 43.5 -14.5s21.5 -4.5 33.5 -4.5c37.333 0 65 12.667 83 38v-96c-6.66699 -9.33301 -17.167 -17 -31.5 -23s-30.5 -9 -48.5 -9c-13.333 0 -26.333 1.66699 -39 5zM57 644.002h117l305 -429v429h135v-644h-117l-305 429v-429h-135v644z" />
    <glyph glyph-name="Ograve" unicode="&#xd2;" horiz-adv-x="700" 
d="M213 875h117l80 -187h-109zM37 319c0 116 25.833 200.833 77.5 254.5s130.167 80.5 235.5 80.5s183.833 -26.833 235.5 -80.5s77.5 -138.5 77.5 -254.5c0 -219.333 -104.333 -329 -313 -329s-313 109.667 -313 329zM483 157.5c28.667 35 43 88.833 43 161.5
c0 79.333 -14 135.833 -42 169.5s-72.667 50.5 -134 50.5s-106 -16.833 -134 -50.5s-42 -90.167 -42 -169.5c0 -72.667 14.333 -126.5 43 -161.5s73 -52.5 133 -52.5s104.333 17.5 133 52.5z" />
    <glyph glyph-name="Oacute" unicode="&#xd3;" horiz-adv-x="700" 
d="M368 875h117l-88 -187h-109zM37 319c0 116 25.833 200.833 77.5 254.5s130.167 80.5 235.5 80.5s183.833 -26.833 235.5 -80.5s77.5 -138.5 77.5 -254.5c0 -219.333 -104.333 -329 -313 -329s-313 109.667 -313 329zM483 157.5c28.667 35 43 88.833 43 161.5
c0 79.333 -14 135.833 -42 169.5s-72.667 50.5 -134 50.5s-106 -16.833 -134 -50.5s-42 -90.167 -42 -169.5c0 -72.667 14.333 -126.5 43 -161.5s73 -52.5 133 -52.5s104.333 17.5 133 52.5z" />
    <glyph glyph-name="Ocircumflex" unicode="&#xd4;" horiz-adv-x="700" 
d="M307 862h86l135 -174h-104l-74 100l-72 -100h-106zM37 319c0 116 25.833 200.833 77.5 254.5s130.167 80.5 235.5 80.5s183.833 -26.833 235.5 -80.5s77.5 -138.5 77.5 -254.5c0 -219.333 -104.333 -329 -313 -329s-313 109.667 -313 329zM483 157.5
c28.667 35 43 88.833 43 161.5c0 79.333 -14 135.833 -42 169.5s-72.667 50.5 -134 50.5s-106 -16.833 -134 -50.5s-42 -90.167 -42 -169.5c0 -72.667 14.333 -126.5 43 -161.5s73 -52.5 133 -52.5s104.333 17.5 133 52.5z" />
    <glyph glyph-name="Otilde" unicode="&#xd5;" horiz-adv-x="700" 
d="M397 715c-12.667 3.33301 -29.001 8.66797 -49.001 16.001c-31.333 12.667 -55.666 19 -72.999 19c-37.333 0 -67.333 -12.333 -90 -37v96c9.33301 9.33301 21.833 16.833 37.5 22.5s32.167 8.5 49.5 8.5c14 0 27.5 -1.83301 40.5 -5.5s27.5 -8.83398 43.5 -15.501
c18.667 -6.66699 33.167 -11.5 43.5 -14.5s21.5 -4.5 33.5 -4.5c37.333 0 65 12.667 83 38v-96c-6.66699 -9.33301 -17.167 -17 -31.5 -23s-30.5 -9 -48.5 -9c-13.333 0 -26.333 1.66699 -39 5zM36.999 319.002c0 116 25.833 200.833 77.5 254.5s130.167 80.5 235.5 80.5
s183.833 -26.833 235.5 -80.5s77.5 -138.5 77.5 -254.5c0 -219.333 -104.333 -329 -313 -329s-313 109.667 -313 329zM482.999 157.502c28.667 35 43 88.833 43 161.5c0 79.333 -14 135.833 -42 169.5s-72.667 50.5 -134 50.5s-106 -16.833 -134 -50.5
s-42 -90.167 -42 -169.5c0 -72.667 14.333 -126.5 43 -161.5s73 -52.5 133 -52.5s104.333 17.5 133 52.5z" />
    <glyph glyph-name="Odieresis" unicode="&#xd6;" horiz-adv-x="700" 
d="M199 811h106v-98h-106v98zM395 811h106v-98h-106v98zM37 319c0 116 25.833 200.833 77.5 254.5s130.167 80.5 235.5 80.5s183.833 -26.833 235.5 -80.5s77.5 -138.5 77.5 -254.5c0 -219.333 -104.333 -329 -313 -329s-313 109.667 -313 329zM483 157.5
c28.667 35 43 88.833 43 161.5c0 79.333 -14 135.833 -42 169.5s-72.667 50.5 -134 50.5s-106 -16.833 -134 -50.5s-42 -90.167 -42 -169.5c0 -72.667 14.333 -126.5 43 -161.5s73 -52.5 133 -52.5s104.333 17.5 133 52.5z" />
    <glyph glyph-name="multiply" unicode="&#xd7;" horiz-adv-x="418" 
d="M210 183l-101 -100l-68 67l101 101l-105 104l67 67l103 -105l106 104l67 -67l-105 -105l105 -105l-65 -66z" />
    <glyph glyph-name="Oslash" unicode="&#xd8;" horiz-adv-x="700" 
d="M189 20c-101.333 46 -151.999 145.667 -151.999 299c0 116 25.833 200.833 77.5 254.5s130.167 80.5 235.5 80.5c28 0 54 -2 78 -6l17 45h77l-24 -63c55.333 -20.667 96.666 -56.5 123.999 -107.5s41 -118.833 41 -203.5c0 -219.333 -104.333 -329 -313 -329
c-34 0 -65 3 -93 9l-19 -52h-77zM385.001 537c-14.667 1.33301 -26.333 2 -35 2c-61.333 0 -106 -16.833 -134 -50.5s-42 -90.167 -42 -169.5c0 -86 20 -145.667 60 -179zM483.002 157.5c28.667 35 43.001 88.833 43.001 161.5c0 52 -5.83301 93.833 -17.5 125.5
s-29.834 55.167 -54.501 70.5l-154 -406c13.333 -2.66699 30 -4 50 -4c60 0 104.333 17.5 133 52.5z" />
    <glyph glyph-name="Ugrave" unicode="&#xd9;" horiz-adv-x="679" 
d="M209 875h117l80 -187h-109zM128.5 55c-51 43.333 -76.499 105.668 -76.499 187.001v402h135v-392c0 -48.667 13.167 -85.334 39.5 -110.001s64.166 -37 113.499 -37s87 12.333 113 37s39 61.334 39 110.001v392h135v-402c0 -80.667 -25.333 -142.834 -76 -186.501
s-121 -65.5 -211 -65.5s-160.5 21.667 -211.5 65z" />
    <glyph glyph-name="Uacute" unicode="&#xda;" horiz-adv-x="679" 
d="M361 875h117l-88 -187h-109zM128.5 55c-51 43.333 -76.499 105.668 -76.499 187.001v402h135v-392c0 -48.667 13.167 -85.334 39.5 -110.001s64.166 -37 113.499 -37s87 12.333 113 37s39 61.334 39 110.001v392h135v-402c0 -80.667 -25.333 -142.834 -76 -186.501
s-121 -65.5 -211 -65.5s-160.5 21.667 -211.5 65z" />
    <glyph glyph-name="Ucircumflex" unicode="&#xdb;" horiz-adv-x="679" 
d="M297 862h86l135 -174h-104l-74 100l-72 -100h-106zM128.5 55c-51 43.333 -76.499 105.668 -76.499 187.001v402h135v-392c0 -48.667 13.167 -85.334 39.5 -110.001s64.166 -37 113.499 -37s87 12.333 113 37s39 61.334 39 110.001v392h135v-402
c0 -80.667 -25.333 -142.834 -76 -186.501s-121 -65.5 -211 -65.5s-160.5 21.667 -211.5 65z" />
    <glyph glyph-name="Udieresis" unicode="&#xdc;" horiz-adv-x="679" 
d="M189 811h106v-98h-106v98zM385 811h106v-98h-106v98zM128.5 55c-51 43.333 -76.499 105.668 -76.499 187.001v402h135v-392c0 -48.667 13.167 -85.334 39.5 -110.001s64.166 -37 113.499 -37s87 12.333 113 37s39 61.334 39 110.001v392h135v-402
c0 -80.667 -25.333 -142.834 -76 -186.501s-121 -65.5 -211 -65.5s-160.5 21.667 -211.5 65z" />
    <glyph glyph-name="Yacute" unicode="&#xdd;" horiz-adv-x="671" 
d="M353 875h117l-88 -187h-109zM268 238l-231 406h141l158 -291l158 291h140l-231 -406v-238h-135v238z" />
    <glyph glyph-name="Thorn" unicode="&#xde;" horiz-adv-x="617" 
d="M57 644l135 -0.000976562v-102h167c72.667 0 127.667 -20.333 165 -61s56 -94.334 56 -161.001c0 -43.333 -9.16699 -81.666 -27.5 -114.999s-44.5 -59.166 -78.5 -77.499s-73.667 -27.5 -119 -27.5h-163v-100h-135v644zM327 206.999c38 0 67 10 87 30s30 47.667 30 83
c0 37.333 -9.33301 65.833 -28 85.5s-46.667 29.5 -84 29.5h-140v-228h135z" />
    <glyph glyph-name="germandbls" unicode="&#xdf;" horiz-adv-x="634" 
d="M244 13v114.001c33.333 -14.667 72.333 -22 117 -22c30 0 54 7.66699 72 23s27 37.333 27 66c0 34 -8.83301 58.5 -26.5 73.5s-45.5 22.5 -83.5 22.5h-73v104h70c34.667 0 60 8.16699 76 24.5s24 40.5 24 72.5c0 62.667 -44 94 -132 94
c-42.667 0 -75.834 -11.5 -99.501 -34.5s-35.5 -57.833 -35.5 -104.5v-446h-128v448c0 47.333 11 90.166 33 128.499s52.833 68.5 92.5 90.5s85.5 33 137.5 33c55.333 0 102.333 -9.5 141 -28.5s67.834 -44.333 87.501 -76s29.5 -66.5 29.5 -104.5
c0 -34.667 -6.83301 -65.167 -20.5 -91.5s-32.167 -45.5 -55.5 -57.5c30.667 -10.667 55 -29.667 73 -57s27 -60 27 -98c0 -62 -18.167 -110.333 -54.5 -145s-87.833 -52 -154.5 -52c-54 0 -102 7.66699 -144 23z" />
    <glyph glyph-name="agrave" unicode="&#xe0;" horiz-adv-x="554" 
d="M154 709h117l80 -187h-109zM85.5 28.5c-32.333 25.667 -48.499 61.835 -48.499 108.502c0 47.333 16.833 84.833 50.5 112.5s82.167 41.5 145.5 41.5h140v13c0 20 -3.5 35.667 -10.5 47s-19.333 19.666 -37 24.999s-42.834 8 -75.501 8c-54 0 -106 -8.33301 -156 -25v95
c23.333 9.33301 50.833 16.666 82.5 21.999s65.5 8 101.5 8c149.333 0 224 -61 224 -183v-301h-117l-7 43c-38.667 -35.333 -96 -53 -172 -53c-48 0 -88.167 12.833 -120.5 38.5zM319.501 93.501c22.333 9.66699 40.167 22.5 53.5 38.5v75h-137
c-52.667 0 -79 -21.667 -79 -65c0 -42 28.667 -63 86 -63c28.667 0 54.167 4.83301 76.5 14.5z" />
    <glyph glyph-name="aacute" unicode="&#xe1;" horiz-adv-x="554" 
d="M309 709h117l-88 -187h-109zM85.5 28.5c-32.333 25.667 -48.499 61.835 -48.499 108.502c0 47.333 16.833 84.833 50.5 112.5s82.167 41.5 145.5 41.5h140v13c0 20 -3.5 35.667 -10.5 47s-19.333 19.666 -37 24.999s-42.834 8 -75.501 8c-54 0 -106 -8.33301 -156 -25v95
c23.333 9.33301 50.833 16.666 82.5 21.999s65.5 8 101.5 8c149.333 0 224 -61 224 -183v-301h-117l-7 43c-38.667 -35.333 -96 -53 -172 -53c-48 0 -88.167 12.833 -120.5 38.5zM319.501 93.501c22.333 9.66699 40.167 22.5 53.5 38.5v75h-137
c-52.667 0 -79 -21.667 -79 -65c0 -42 28.667 -63 86 -63c28.667 0 54.167 4.83301 76.5 14.5z" />
    <glyph glyph-name="acircumflex" unicode="&#xe2;" horiz-adv-x="562" 
d="M254 696h86l135 -174h-104l-74 100l-72 -100h-106zM93.5 28.5c-32.333 25.667 -48.499 61.835 -48.499 108.502c0 47.333 16.833 84.833 50.5 112.5s82.167 41.5 145.5 41.5h140v13c0 20 -3.5 35.667 -10.5 47s-19.333 19.666 -37 24.999s-42.834 8 -75.501 8
c-54 0 -106 -8.33301 -156 -25v95c23.333 9.33301 50.833 16.666 82.5 21.999s65.5 8 101.5 8c149.333 0 224 -61 224 -183v-301h-117l-7 43c-38.667 -35.333 -96 -53 -172 -53c-48 0 -88.167 12.833 -120.5 38.5zM327.501 93.501c22.333 9.66699 40.167 22.5 53.5 38.5v75
h-137c-52.667 0 -79 -21.667 -79 -65c0 -42 28.667 -63 86 -63c28.667 0 54.167 4.83301 76.5 14.5z" />
    <glyph glyph-name="atilde" unicode="&#xe3;" horiz-adv-x="554" 
d="M344 539c-12.667 3.33301 -29.001 8.66797 -49.001 16.001c-31.333 12.667 -55.666 19 -72.999 19c-37.333 0 -67.333 -12.333 -90 -37v96c9.33301 9.33301 21.833 16.833 37.5 22.5s32.167 8.5 49.5 8.5c14 0 27.5 -1.83301 40.5 -5.5s27.5 -8.83398 43.5 -15.501
c18.667 -6.66699 33.167 -11.5 43.5 -14.5s21.5 -4.5 33.5 -4.5c37.333 0 65 12.667 83 38v-96c-6.66699 -9.33301 -17.167 -17 -31.5 -23s-30.5 -9 -48.5 -9c-13.333 0 -26.333 1.66699 -39 5zM85.499 28.502c-32.333 25.667 -48.499 61.835 -48.499 108.502
c0 47.333 16.833 84.833 50.5 112.5s82.167 41.5 145.5 41.5h140v13c0 20 -3.5 35.667 -10.5 47s-19.333 19.666 -37 24.999s-42.834 8 -75.501 8c-54 0 -106 -8.33301 -156 -25v95c23.333 9.33301 50.833 16.666 82.5 21.999s65.5 8 101.5 8c149.333 0 224 -61 224 -183
v-301h-117l-7 43c-38.667 -35.333 -96 -53 -172 -53c-48 0 -88.167 12.833 -120.5 38.5zM319.5 93.5029c22.333 9.66699 40.167 22.5 53.5 38.5v75h-137c-52.667 0 -79 -21.667 -79 -65c0 -42 28.667 -63 86 -63c28.667 0 54.167 4.83301 76.5 14.5z" />
    <glyph glyph-name="adieresis" unicode="&#xe4;" horiz-adv-x="554" 
d="M146 645h106v-98h-106v98zM342 645h106v-98h-106v98zM85.5 28.5c-32.333 25.667 -48.499 61.835 -48.499 108.502c0 47.333 16.833 84.833 50.5 112.5s82.167 41.5 145.5 41.5h140v13c0 20 -3.5 35.667 -10.5 47s-19.333 19.666 -37 24.999s-42.834 8 -75.501 8
c-54 0 -106 -8.33301 -156 -25v95c23.333 9.33301 50.833 16.666 82.5 21.999s65.5 8 101.5 8c149.333 0 224 -61 224 -183v-301h-117l-7 43c-38.667 -35.333 -96 -53 -172 -53c-48 0 -88.167 12.833 -120.5 38.5zM319.501 93.501c22.333 9.66699 40.167 22.5 53.5 38.5v75
h-137c-52.667 0 -79 -21.667 -79 -65c0 -42 28.667 -63 86 -63c28.667 0 54.167 4.83301 76.5 14.5z" />
    <glyph glyph-name="aring" unicode="&#xe5;" horiz-adv-x="554" 
d="M211 556c-22.667 22.667 -34 51.001 -34 85.001s11.333 62.5 34 85.5s52.667 34.5 90 34.5c38 0 68.333 -11.333 91 -34s34 -51.334 34 -86.001s-11.333 -63.167 -34 -85.5s-53 -33.5 -91 -33.5c-37.333 0 -67.333 11.333 -90 34zM344 600.001
c10.667 10.667 16 24.332 16 40.999s-5.33301 30.334 -16 41.001s-25 16 -43 16c-17.333 0 -31.333 -5.5 -42 -16.5s-16 -24.5 -16 -40.5s5.33301 -29.5 16 -40.5s24.667 -16.5 42 -16.5c18 0 32.333 5.33301 43 16zM85.5 28.499
c-32.333 25.667 -48.499 61.835 -48.499 108.502c0 47.333 16.833 84.833 50.5 112.5s82.167 41.5 145.5 41.5h140v13c0 20 -3.5 35.667 -10.5 47s-19.333 19.666 -37 24.999s-42.834 8 -75.501 8c-54 0 -106 -8.33301 -156 -25v95
c23.333 9.33301 50.833 16.666 82.5 21.999s65.5 8 101.5 8c149.333 0 224 -61 224 -183v-301h-117l-7 43c-38.667 -35.333 -96 -53 -172 -53c-48 0 -88.167 12.833 -120.5 38.5zM319.501 93.5c22.333 9.66699 40.167 22.5 53.5 38.5v75h-137c-52.667 0 -79 -21.667 -79 -65
c0 -42 28.667 -63 86 -63c28.667 0 54.167 4.83301 76.5 14.5z" />
    <glyph glyph-name="ae" unicode="&#xe6;" horiz-adv-x="882" 
d="M88.5 28.5c-34.333 25.667 -51.499 61.834 -51.499 108.501c0 47.333 16.833 84.833 50.5 112.5s82.167 41.5 145.5 41.5h140v13c0 20 -3.5 35.667 -10.5 47s-19.333 19.666 -37 24.999s-42.834 8 -75.501 8c-54 0 -106 -8.33301 -156 -25v95
c23.333 9.33301 50.833 16.666 82.5 21.999s65.5 8 101.5 8c78 0 135.333 -17.333 172 -52c19.333 16.667 43.333 29.5 72 38.5s60.667 13.5 96 13.5c72 0 127.833 -18.833 167.5 -56.5s59.5 -88.167 59.5 -151.5v-86h-343c6.66699 -37.333 23.667 -63.666 51 -78.999
s67 -23 119 -23c25.333 0 51.166 2.33301 77.499 7s48.833 10.667 67.5 18v-93c-44 -20 -101.667 -30 -173 -30c-38 0 -75 6.66699 -111 20s-63.667 32.333 -83 57c-31.333 -26.667 -64.166 -46.167 -98.499 -58.5s-78.833 -18.5 -133.5 -18.5
c-52 0 -95.167 12.833 -129.5 38.5zM727.001 273v26.001c0 58.667 -35 88 -105 88c-44 0 -75 -8.83301 -93 -26.5s-27 -46.834 -27 -87.501h225zM373.001 128.001l0.000976562 79h-137c-52.667 0 -79 -21.667 -79 -65c0 -42 28.667 -63 86 -63
c55.333 0 98.666 16.333 129.999 49z" />
    <glyph glyph-name="ccedilla" unicode="&#xe7;" horiz-adv-x="497" 
d="M324 -10l-11.998 -34.998c34.667 0 61 -8 79 -24s27 -38.333 27 -67c0 -69.333 -50.667 -104 -152 -104c-11.333 0 -25 0.833008 -41 2.5s-27.667 3.5 -35 5.5v68c19.333 -5.33301 39.666 -8 60.999 -8c30.667 0 51.667 2.33301 63 7s17 14.667 17 30
c0 16 -6 26.167 -18 30.5s-31.667 6.5 -59 6.5h-44l27 92c-64.667 9.33301 -114.167 34.666 -148.5 75.999s-51.5 97 -51.5 167c0 81.333 23.667 142.833 71 184.5s112.333 62.5 195 62.5c33.333 0 62 -2.33301 86 -7s47.333 -12.334 70 -23.001v-97
c-36 17.333 -79 26 -129 26c-52.667 0 -91.834 -11 -117.501 -33s-38.5 -59.667 -38.5 -113c0 -51.333 12.167 -88.5 36.5 -111.5s63.833 -34.5 118.5 -34.5c49.333 0 93 9.33301 131 28v-100c-38.667 -16 -84 -25.667 -136 -29z" />
    <glyph glyph-name="egrave" unicode="&#xe8;" horiz-adv-x="542" 
d="M138 709h117l80 -187h-109zM107.5 52.5c-47 41.667 -70.499 103.502 -70.499 185.502c0 77.333 20.5 137.666 61.5 180.999s100.833 65 179.5 65c72 0 127.833 -18.833 167.5 -56.5s59.5 -88.167 59.5 -151.5v-86h-343c6.66699 -36.667 23.5 -62.334 50.5 -77.001
s66.833 -22 119.5 -22c25.333 0 51.166 2.33301 77.499 7s48.833 10.667 67.5 18v-96c-44 -20 -101.667 -30 -173 -30c-84 0 -149.5 20.833 -196.5 62.5zM387.001 273.002v26.001c0 58.667 -35 88 -105 88c-44 0 -75 -8.83301 -93 -26.5s-27 -46.834 -27 -87.501h225z" />
    <glyph glyph-name="eacute" unicode="&#xe9;" horiz-adv-x="542" 
d="M304 709h117l-88 -187h-109zM107.5 52.5c-47 41.667 -70.499 103.502 -70.499 185.502c0 77.333 20.5 137.666 61.5 180.999s100.833 65 179.5 65c72 0 127.833 -18.833 167.5 -56.5s59.5 -88.167 59.5 -151.5v-86h-343c6.66699 -36.667 23.5 -62.334 50.5 -77.001
s66.833 -22 119.5 -22c25.333 0 51.166 2.33301 77.499 7s48.833 10.667 67.5 18v-96c-44 -20 -101.667 -30 -173 -30c-84 0 -149.5 20.833 -196.5 62.5zM387.001 273.002v26.001c0 58.667 -35 88 -105 88c-44 0 -75 -8.83301 -93 -26.5s-27 -46.834 -27 -87.501h225z" />
    <glyph glyph-name="ecircumflex" unicode="&#xea;" horiz-adv-x="542" 
d="M237 696h86l135 -174h-104l-74 100l-72 -100h-106zM107.5 52.5c-47 41.667 -70.499 103.502 -70.499 185.502c0 77.333 20.5 137.666 61.5 180.999s100.833 65 179.5 65c72 0 127.833 -18.833 167.5 -56.5s59.5 -88.167 59.5 -151.5v-86h-343
c6.66699 -36.667 23.5 -62.334 50.5 -77.001s66.833 -22 119.5 -22c25.333 0 51.166 2.33301 77.499 7s48.833 10.667 67.5 18v-96c-44 -20 -101.667 -30 -173 -30c-84 0 -149.5 20.833 -196.5 62.5zM387.001 273.002v26.001c0 58.667 -35 88 -105 88
c-44 0 -75 -8.83301 -93 -26.5s-27 -46.834 -27 -87.501h225z" />
    <glyph glyph-name="edieresis" unicode="&#xeb;" horiz-adv-x="542" 
d="M128 645h106v-98h-106v98zM324 645h106v-98h-106v98zM107.5 52.5c-47 41.667 -70.499 103.502 -70.499 185.502c0 77.333 20.5 137.666 61.5 180.999s100.833 65 179.5 65c72 0 127.833 -18.833 167.5 -56.5s59.5 -88.167 59.5 -151.5v-86h-343
c6.66699 -36.667 23.5 -62.334 50.5 -77.001s66.833 -22 119.5 -22c25.333 0 51.166 2.33301 77.499 7s48.833 10.667 67.5 18v-96c-44 -20 -101.667 -30 -173 -30c-84 0 -149.5 20.833 -196.5 62.5zM387.001 273.002v26.001c0 58.667 -35 88 -105 88
c-44 0 -75 -8.83301 -93 -26.5s-27 -46.834 -27 -87.501h225z" />
    <glyph glyph-name="igrave" unicode="&#xec;" horiz-adv-x="321" 
d="M49 709h117l80 -187h-109zM128 374h-71l12 100h194v-474h-135v374z" />
    <glyph glyph-name="iacute" unicode="&#xed;" horiz-adv-x="321" 
d="M207 709h117l-88 -187h-109zM128 374h-71l12 100h194v-474h-135v374z" />
    <glyph glyph-name="icircumflex" unicode="&#xee;" horiz-adv-x="321" 
d="M128 696h86l135 -174h-104l-74 100l-72 -100h-106zM128 374h-71l12 100h194v-474h-135v374z" />
    <glyph glyph-name="idieresis" unicode="&#xef;" horiz-adv-x="321" 
d="M14 645h106v-98h-106v98zM210 645h106v-98h-106v98zM128 374h-71l12 100h194v-474h-135v374z" />
    <glyph glyph-name="eth" unicode="&#xf0;" horiz-adv-x="573" 
d="M98.5 44.5c-41 36.333 -61.501 87.833 -61.501 154.5c0 67.333 19.333 118.166 58 152.499s94.334 51.5 167.001 51.5c25.333 0 51.833 -4 79.5 -12s51.834 -19.333 72.501 -34v35c0 44.667 -5.66699 80.334 -17 107.001l-122 -53v60l87 37c-22 16 -53.333 24 -94 24
c-50.667 0 -98.667 -9 -144 -27v89c46.667 16.667 101.667 25 165 25c75.333 0 134.666 -21.667 177.999 -65l92 40v-60l-57 -25c26 -46 39 -102.333 39 -169v-132c0 -85.333 -21 -148.833 -63 -190.5s-105.333 -62.5 -190 -62.5c-85.333 0 -148.5 18.167 -189.5 54.5z
M382.499 112c21 21.333 31.5 54.333 31.5 99v64c-19.333 13.333 -40 23.833 -62 31.5s-43.667 11.5 -65 11.5c-46 0 -79 -10.167 -99 -30.5s-30 -49.833 -30 -88.5c0 -38 11 -67.333 33 -88s54 -31 96 -31c42.667 0 74.5 10.667 95.5 32z" />
    <glyph glyph-name="ntilde" unicode="&#xf1;" horiz-adv-x="587" 
d="M346 539c-12.667 3.33301 -29 8.66797 -49 16.001c-32 12.667 -56.333 19 -73 19c-37.333 0 -67.333 -12.333 -90 -37v96c9.33301 9.33301 21.833 16.833 37.5 22.5s32.167 8.5 49.5 8.5c14 0 27.5 -1.83301 40.5 -5.5s27.5 -8.83398 43.5 -15.501
c18.667 -6.66699 33.167 -11.5 43.5 -14.5s21.5 -4.5 33.5 -4.5c37.333 0 65 12.667 83 38v-96c-6.66699 -9.33301 -17.167 -17 -31.5 -23s-30.5 -9 -48.5 -9c-13.333 0 -26.333 1.66699 -39 5zM57 474.002h125.004l5 -45c21.333 16 46.666 29.167 75.999 39.5
s59.666 15.5 90.999 15.5c62 0 107.5 -14.5 136.5 -43.5s43.5 -74.5 43.5 -136.5v-304h-135v297c0 32.667 -6.66699 55.5 -20 68.5s-37.333 19.5 -72 19.5c-20.667 0 -41.334 -4.5 -62.001 -13.5s-38.334 -20.833 -53.001 -35.5v-336h-135v474z" />
    <glyph glyph-name="ograve" unicode="&#xf2;" horiz-adv-x="589" 
d="M155 709h117l80 -187h-109zM37 237c0 80 21.166 141.167 63.499 183.5s106.833 63.5 193.5 63.5s151.334 -21.167 194.001 -63.5s64 -103.5 64 -183.5c0 -164.667 -86 -247 -258 -247c-171.333 0 -257 82.333 -257 247zM387.499 135c18.333 20 27.5 54 27.5 102
s-9.16699 82 -27.5 102s-49.5 30 -93.5 30c-43.333 0 -74.166 -10 -92.499 -30s-27.5 -54 -27.5 -102s9.16699 -82 27.5 -102s49.166 -30 92.499 -30c44 0 75.167 10 93.5 30z" />
    <glyph glyph-name="oacute" unicode="&#xf3;" horiz-adv-x="589" 
d="M312 709h117l-88 -187h-109zM37 237c0 80 21.166 141.167 63.499 183.5s106.833 63.5 193.5 63.5s151.334 -21.167 194.001 -63.5s64 -103.5 64 -183.5c0 -164.667 -86 -247 -258 -247c-171.333 0 -257 82.333 -257 247zM387.499 135c18.333 20 27.5 54 27.5 102
s-9.16699 82 -27.5 102s-49.5 30 -93.5 30c-43.333 0 -74.166 -10 -92.499 -30s-27.5 -54 -27.5 -102s9.16699 -82 27.5 -102s49.166 -30 92.499 -30c44 0 75.167 10 93.5 30z" />
    <glyph glyph-name="ocircumflex" unicode="&#xf4;" horiz-adv-x="589" 
d="M251 696h86l135 -174h-104l-74 100l-72 -100h-106zM37 237c0 80 21.166 141.167 63.499 183.5s106.833 63.5 193.5 63.5s151.334 -21.167 194.001 -63.5s64 -103.5 64 -183.5c0 -164.667 -86 -247 -258 -247c-171.333 0 -257 82.333 -257 247zM387.499 135
c18.333 20 27.5 54 27.5 102s-9.16699 82 -27.5 102s-49.5 30 -93.5 30c-43.333 0 -74.166 -10 -92.499 -30s-27.5 -54 -27.5 -102s9.16699 -82 27.5 -102s49.166 -30 92.499 -30c44 0 75.167 10 93.5 30z" />
    <glyph glyph-name="otilde" unicode="&#xf5;" horiz-adv-x="589" 
d="M341 549c-12.667 3.33301 -29 8.66797 -49 16.001c-32 12.667 -56.333 19 -73 19c-37.333 0 -67.333 -12.333 -90 -37v96c9.33301 9.33301 21.833 16.833 37.5 22.5s32.167 8.5 49.5 8.5c14 0 27.5 -1.83301 40.5 -5.5s27.5 -8.83398 43.5 -15.501
c18.667 -6.66699 33.167 -11.5 43.5 -14.5s21.5 -4.5 33.5 -4.5c37.333 0 65 12.667 83 38v-96c-6.66699 -9.33301 -17.167 -17 -31.5 -23s-30.5 -9 -48.5 -9c-13.333 0 -26.333 1.66699 -39 5zM37 237.002c0 80 21.166 141.167 63.499 183.5s106.833 63.5 193.5 63.5
s151.334 -21.167 194.001 -63.5s64 -103.5 64 -183.5c0 -164.667 -86 -247 -258 -247c-171.333 0 -257 82.333 -257 247zM387.499 135.002c18.333 20 27.5 54 27.5 102s-9.16699 82 -27.5 102s-49.5 30 -93.5 30c-43.333 0 -74.166 -10 -92.499 -30s-27.5 -54 -27.5 -102
s9.16699 -82 27.5 -102s49.166 -30 92.499 -30c44 0 75.167 10 93.5 30z" />
    <glyph glyph-name="odieresis" unicode="&#xf6;" horiz-adv-x="589" 
d="M143 645h106v-98h-106v98zM339 645h106v-98h-106v98zM37 237c0 80 21.166 141.167 63.499 183.5s106.833 63.5 193.5 63.5s151.334 -21.167 194.001 -63.5s64 -103.5 64 -183.5c0 -164.667 -86 -247 -258 -247c-171.333 0 -257 82.333 -257 247zM387.499 135
c18.333 20 27.5 54 27.5 102s-9.16699 82 -27.5 102s-49.5 30 -93.5 30c-43.333 0 -74.166 -10 -92.499 -30s-27.5 -54 -27.5 -102s9.16699 -82 27.5 -102s49.166 -30 92.499 -30c44 0 75.167 10 93.5 30z" />
    <glyph glyph-name="divide" unicode="&#xf7;" horiz-adv-x="460" 
d="M182 492h106v-95h-106v95zM42 324h386v-105h-386v105zM182 150h106v-95h-106v95z" />
    <glyph glyph-name="oslash" unicode="&#xf8;" horiz-adv-x="589" 
d="M166 11c-86 34 -129 109.333 -129 226c0 80 21.167 141.167 63.5 183.5s106.833 63.5 193.5 63.5c18 0 35 -1 51 -3l18 47h77l-24 -63c90.667 -33.333 136 -109.333 136 -228c0 -164.667 -86 -247 -258 -247c-22.667 0 -42 1.33301 -58 4l-17 -47h-77zM302 369h-8.00195
c-43.333 0 -74.166 -10 -92.499 -30s-27.5 -54 -27.5 -102c0 -28 2.83301 -51 8.5 -69s14.834 -32 27.501 -42zM293.998 105c44 0 75.167 10.001 93.5 30.001s27.5 54 27.5 102c0 30 -3.5 54.167 -10.5 72.5s-17.833 32.166 -32.5 41.499l-93 -246h15z" />
    <glyph glyph-name="ugrave" unicode="&#xf9;" horiz-adv-x="587" 
d="M162 709h117l80 -187h-109zM99 38c-31.333 32 -47.0029 78.333 -47.0029 139v297h135v-294c0 -31.333 7.5 -54.333 22.5 -69s38.167 -22 69.5 -22c22.667 0 43.834 4.5 63.501 13.5s36.834 20.833 51.501 35.5v336h135v-474h-125l-5 45
c-46 -36.667 -101.667 -55 -167 -55c-57.333 0 -101.666 16 -132.999 48z" />
    <glyph glyph-name="uacute" unicode="&#xfa;" horiz-adv-x="587" 
d="M300 709h117l-88 -187h-109zM99 38c-31.333 32 -47.0029 78.333 -47.0029 139v297h135v-294c0 -31.333 7.5 -54.333 22.5 -69s38.167 -22 69.5 -22c22.667 0 43.834 4.5 63.501 13.5s36.834 20.833 51.501 35.5v336h135v-474h-125l-5 45
c-46 -36.667 -101.667 -55 -167 -55c-57.333 0 -101.666 16 -132.999 48z" />
    <glyph glyph-name="ucircumflex" unicode="&#xfb;" horiz-adv-x="587" 
d="M247 696h86l135 -174h-104l-74 100l-72 -100h-106zM99 38c-31.333 32 -47.0029 78.333 -47.0029 139v297h135v-294c0 -31.333 7.5 -54.333 22.5 -69s38.167 -22 69.5 -22c22.667 0 43.834 4.5 63.501 13.5s36.834 20.833 51.501 35.5v336h135v-474h-125l-5 45
c-46 -36.667 -101.667 -55 -167 -55c-57.333 0 -101.666 16 -132.999 48z" />
    <glyph glyph-name="udieresis" unicode="&#xfc;" horiz-adv-x="587" 
d="M139 645h106v-98h-106v98zM335 645h106v-98h-106v98zM99 38c-31.333 32 -47.0029 78.333 -47.0029 139v297h135v-294c0 -31.333 7.5 -54.333 22.5 -69s38.167 -22 69.5 -22c22.667 0 43.834 4.5 63.501 13.5s36.834 20.833 51.501 35.5v336h135v-474h-125l-5 45
c-46 -36.667 -101.667 -55 -167 -55c-57.333 0 -101.666 16 -132.999 48z" />
    <glyph glyph-name="yacute" unicode="&#xfd;" horiz-adv-x="613" 
d="M334 709h117l-88 -187h-109zM79 -160v95c18.667 -6.66699 39 -10 61 -10c26.667 0 47.5 6 62.5 18s30.5 33.667 46.5 65l-212 466h141l139 -322l138 322h140l-187 -441c-29.333 -70 -61 -122.333 -95 -157s-78 -52 -132 -52c-41.333 0 -75.333 5.33301 -102 16z" />
    <glyph glyph-name="thorn" unicode="&#xfe;" horiz-adv-x="590" 
d="M57 700l134.998 -0.000976562v-252c36.667 24 83.667 36 141 36c70.667 0 125 -20.167 163 -60.5s57 -102.166 57 -185.499s-19.667 -145.5 -59 -186.5s-94.666 -61.5 -165.999 -61.5c-53.333 0 -98.666 12 -135.999 36v-242h-135v916zM385.498 125.499
c20.333 24.333 30.499 62.5 30.499 114.5c0 50.667 -9.33301 87.5 -28 110.5s-48.667 34.5 -90 34.5s-76.666 -14.333 -105.999 -43v-217c15.333 -12 30.833 -21 46.5 -27s34.167 -9 55.5 -9c40.667 0 71.167 12.167 91.5 36.5z" />
    <glyph glyph-name="ydieresis" unicode="&#xff;" horiz-adv-x="613" 
d="M168 659h106v-98h-106v98zM364 659h106v-98h-106v98zM79 -160v95c18.667 -6.66699 39 -10 61 -10c26.667 0 47.5 6 62.5 18s30.5 33.667 46.5 65l-212 466h141l139 -322l138 322h140l-187 -441c-29.333 -70 -61 -122.333 -95 -157s-78 -52 -132 -52
c-41.333 0 -75.333 5.33301 -102 16z" />
    <glyph glyph-name="Amacron" unicode="&#x100;" horiz-adv-x="713" 
d="M202 790h308v-83h-308v83zM283 644h148l245 -644h-140l-61 155h-237l-60 -155h-141zM455 259l-99 259l-98 -259h197z" />
    <glyph glyph-name="amacron" unicode="&#x101;" horiz-adv-x="554" 
d="M145 624h308v-83h-308v83zM85.5 28.5c-32.333 25.667 -48.499 61.835 -48.499 108.502c0 47.333 16.833 84.833 50.5 112.5s82.167 41.5 145.5 41.5h140v13c0 20 -3.5 35.667 -10.5 47s-19.333 19.666 -37 24.999s-42.834 8 -75.501 8c-54 0 -106 -8.33301 -156 -25v95
c23.333 9.33301 50.833 16.666 82.5 21.999s65.5 8 101.5 8c149.333 0 224 -61 224 -183v-301h-117l-7 43c-38.667 -35.333 -96 -53 -172 -53c-48 0 -88.167 12.833 -120.5 38.5zM319.501 93.501c22.333 9.66699 40.167 22.5 53.5 38.5v75h-137
c-52.667 0 -79 -21.667 -79 -65c0 -42 28.667 -63 86 -63c28.667 0 54.167 4.83301 76.5 14.5z" />
    <glyph glyph-name="Abreve" unicode="&#x102;" horiz-adv-x="713" 
d="M242 730c-28.667 28 -43.001 66.333 -43.001 115h90c0 -22.667 5.83301 -41.5 17.5 -56.5s28.167 -22.5 49.5 -22.5c22 0 39 7.66699 51 23s18 34 18 56h90c0 -48.667 -14.667 -87 -44 -115s-67.666 -42 -114.999 -42s-85.333 14 -114 42zM282.999 644h148l245 -644h-140
l-61 155h-237l-60 -155h-141zM454.999 259l-99 259l-98 -259h197z" />
    <glyph glyph-name="abreve" unicode="&#x103;" horiz-adv-x="554" 
d="M186 564c-28.667 28 -43.001 66.333 -43.001 115h90c0 -22.667 5.83301 -41.5 17.5 -56.5s28.167 -22.5 49.5 -22.5c22 0 39 7.66699 51 23s18 34 18 56h90c0 -48.667 -14.667 -87 -44 -115s-67.666 -42 -114.999 -42s-85.333 14 -114 42zM85.499 28.5
c-32.333 25.667 -48.499 61.835 -48.499 108.502c0 47.333 16.833 84.833 50.5 112.5s82.167 41.5 145.5 41.5h140v13c0 20 -3.5 35.667 -10.5 47s-19.333 19.666 -37 24.999s-42.834 8 -75.501 8c-54 0 -106 -8.33301 -156 -25v95
c23.333 9.33301 50.833 16.666 82.5 21.999s65.5 8 101.5 8c149.333 0 224 -61 224 -183v-301h-117l-7 43c-38.667 -35.333 -96 -53 -172 -53c-48 0 -88.167 12.833 -120.5 38.5zM319.5 93.501c22.333 9.66699 40.167 22.5 53.5 38.5v75h-137c-52.667 0 -79 -21.667 -79 -65
c0 -42 28.667 -63 86 -63c28.667 0 54.167 4.83301 76.5 14.5z" />
    <glyph glyph-name="Aogonek" unicode="&#x104;" horiz-adv-x="713" 
d="M685 -130v-75.999c-9.33301 -4 -21.833 -7.33301 -37.5 -10s-31.5 -4 -47.5 -4c-32.667 0 -60 7.83301 -82 23.5s-33 38.167 -33 67.5c0 25.333 6.33301 49.166 19 71.499s30.667 41.5 54 57.5h-22l-61 155h-237l-60 -155h-141l246 644h148l245 -644h-18
c-44.667 -33.333 -67 -68 -67 -104c0 -24.667 15 -37 45 -37c20 0 36.333 3.66699 49 11zM455 259.001l-99 259l-98 -259h197z" />
    <glyph glyph-name="aogonek" unicode="&#x105;" horiz-adv-x="554" 
d="M512 -130l0.000976562 -75.998c-9.33301 -4 -21.833 -7.33301 -37.5 -10s-31.5 -4 -47.5 -4c-32.667 0 -60 7.83301 -82 23.5s-33 38.167 -33 67.5c0 25.333 6.33301 49.166 19 71.499s30.667 41.5 54 57.5l-7 43c-38.667 -35.333 -96 -53 -172 -53
c-48 0 -88.167 12.833 -120.5 38.5s-48.5 61.834 -48.5 108.501c0 47.333 16.833 84.833 50.5 112.5s82.167 41.5 145.5 41.5h140v13c0 20 -3.5 35.667 -10.5 47s-19.333 19.666 -37 24.999s-42.834 8 -75.501 8c-54 0 -106 -8.33301 -156 -25v95
c23.333 9.33301 50.833 16.666 82.5 21.999s65.5 8 101.5 8c149.333 0 224 -61 224 -183v-301h-17c-44.667 -33.333 -67 -68 -67 -104c0 -24.667 15 -37 45 -37c20 0 36.333 3.66699 49 11zM373.001 207.002h-136.999c-52.667 0 -79 -21.667 -79 -65
c0 -42 28.667 -63 86 -63c28.667 0 54.167 4.83301 76.5 14.5s40.166 22.5 53.499 38.5v75z" />
    <glyph glyph-name="Cacute" unicode="&#x106;" horiz-adv-x="600" 
d="M382 875h117l-88 -187h-109zM124 76.5c-58 57.667 -86.9971 137.5 -86.9971 239.5c0 108 28.167 191.333 84.5 250s139.166 88 248.499 88c69.333 0 133.333 -10.667 192 -32v-118c-56.667 23.333 -117.334 35 -182.001 35c-72.667 0 -125.167 -18.167 -157.5 -54.5
s-48.5 -92.5 -48.5 -168.5c0 -71.333 17.167 -124.5 51.5 -159.5s86.5 -52.5 156.5 -52.5c65.333 0 125.666 11.333 180.999 34v-119c-59.333 -19.333 -123.333 -29 -192 -29c-106.667 0 -189 28.833 -247 86.5z" />
    <glyph glyph-name="cacute" unicode="&#x107;" horiz-adv-x="497" 
d="M305 709h117l-88 -187h-109zM104.5 53c-45 42 -67.498 103.334 -67.498 184.001c0 81.333 23.667 142.833 71 184.5s112.333 62.5 195 62.5c33.333 0 62 -2.33301 86 -7s47.333 -12.334 70 -23.001v-97c-36 17.333 -79 26 -129 26c-52.667 0 -91.834 -11 -117.501 -33
s-38.5 -59.667 -38.5 -113c0 -51.333 12.167 -88.5 36.5 -111.5s63.833 -34.5 118.5 -34.5c49.333 0 93 9.33301 131 28v-100c-44.667 -19.333 -98.334 -29 -161.001 -29c-84.667 0 -149.5 21 -194.5 63z" />
    <glyph glyph-name="Ccircumflex" unicode="&#x108;" horiz-adv-x="600" 
d="M300 862h86l135 -174h-104l-74 100l-72 -100h-106zM124 76.5c-58 57.667 -86.9971 137.5 -86.9971 239.5c0 108 28.167 191.333 84.5 250s139.166 88 248.499 88c69.333 0 133.333 -10.667 192 -32v-118c-56.667 23.333 -117.334 35 -182.001 35
c-72.667 0 -125.167 -18.167 -157.5 -54.5s-48.5 -92.5 -48.5 -168.5c0 -71.333 17.167 -124.5 51.5 -159.5s86.5 -52.5 156.5 -52.5c65.333 0 125.666 11.333 180.999 34v-119c-59.333 -19.333 -123.333 -29 -192 -29c-106.667 0 -189 28.833 -247 86.5z" />
    <glyph glyph-name="ccircumflex" unicode="&#x109;" horiz-adv-x="497" 
d="M236 696h86l135 -174h-104l-74 100l-72 -100h-106zM104.5 53c-45 42 -67.498 103.334 -67.498 184.001c0 81.333 23.667 142.833 71 184.5s112.333 62.5 195 62.5c33.333 0 62 -2.33301 86 -7s47.333 -12.334 70 -23.001v-97c-36 17.333 -79 26 -129 26
c-52.667 0 -91.834 -11 -117.501 -33s-38.5 -59.667 -38.5 -113c0 -51.333 12.167 -88.5 36.5 -111.5s63.833 -34.5 118.5 -34.5c49.333 0 93 9.33301 131 28v-100c-44.667 -19.333 -98.334 -29 -161.001 -29c-84.667 0 -149.5 21 -194.5 63z" />
    <glyph glyph-name="Cdotaccent" unicode="&#x10a;" horiz-adv-x="600" 
d="M304 811h105v-98h-105v98zM124 76.5c-58 57.667 -86.9971 137.5 -86.9971 239.5c0 108 28.167 191.333 84.5 250s139.166 88 248.499 88c69.333 0 133.333 -10.667 192 -32v-118c-56.667 23.333 -117.334 35 -182.001 35c-72.667 0 -125.167 -18.167 -157.5 -54.5
s-48.5 -92.5 -48.5 -168.5c0 -71.333 17.167 -124.5 51.5 -159.5s86.5 -52.5 156.5 -52.5c65.333 0 125.666 11.333 180.999 34v-119c-59.333 -19.333 -123.333 -29 -192 -29c-106.667 0 -189 28.833 -247 86.5z" />
    <glyph glyph-name="cdotaccent" unicode="&#x10b;" horiz-adv-x="497" 
d="M228 645h105v-98h-105v98zM104.5 53c-45 42 -67.498 103.334 -67.498 184.001c0 81.333 23.667 142.833 71 184.5s112.333 62.5 195 62.5c33.333 0 62 -2.33301 86 -7s47.333 -12.334 70 -23.001v-97c-36 17.333 -79 26 -129 26c-52.667 0 -91.834 -11 -117.501 -33
s-38.5 -59.667 -38.5 -113c0 -51.333 12.167 -88.5 36.5 -111.5s63.833 -34.5 118.5 -34.5c49.333 0 93 9.33301 131 28v-100c-44.667 -19.333 -98.334 -29 -161.001 -29c-84.667 0 -149.5 21 -194.5 63z" />
    <glyph glyph-name="Ccaron" unicode="&#x10c;" horiz-adv-x="600" 
d="M195 862h106l72 -100l74 100h104l-135 -174h-86zM124 76.5c-58 57.667 -86.9971 137.5 -86.9971 239.5c0 108 28.167 191.333 84.5 250s139.166 88 248.499 88c69.333 0 133.333 -10.667 192 -32v-118c-56.667 23.333 -117.334 35 -182.001 35
c-72.667 0 -125.167 -18.167 -157.5 -54.5s-48.5 -92.5 -48.5 -168.5c0 -71.333 17.167 -124.5 51.5 -159.5s86.5 -52.5 156.5 -52.5c65.333 0 125.666 11.333 180.999 34v-119c-59.333 -19.333 -123.333 -29 -192 -29c-106.667 0 -189 28.833 -247 86.5z" />
    <glyph glyph-name="ccaron" unicode="&#x10d;" horiz-adv-x="498" 
d="M105 696h106l72 -100l74 100h104l-135 -174h-86zM104.5 53c-45 42 -67.498 103.334 -67.498 184.001c0 81.333 23.667 142.833 71 184.5s112.333 62.5 195 62.5c33.333 0 62 -2.33301 86 -7s47.333 -12.334 70 -23.001v-97c-36 17.333 -79 26 -129 26
c-52.667 0 -91.834 -11 -117.501 -33s-38.5 -59.667 -38.5 -113c0 -51.333 12.167 -88.5 36.5 -111.5s63.833 -34.5 118.5 -34.5c49.333 0 93 9.33301 131 28v-100c-44.667 -19.333 -98.334 -29 -161.001 -29c-84.667 0 -149.5 21 -194.5 63z" />
    <glyph glyph-name="Dcaron" unicode="&#x10e;" horiz-adv-x="656" 
d="M129 884h106l72 -100l74 100h104l-135 -174h-86zM57 644h270c98.667 0 172 -25.5 220 -76.5s72 -133.833 72 -248.5c0 -109.333 -24 -189.833 -72 -241.5s-121.333 -77.5 -220 -77.5h-270v644zM308 104c40.667 0 73.334 5.99902 98.001 17.999s43.5 33.667 56.5 65
s19.5 75.333 19.5 132c0 57.333 -5.83301 101.333 -17.5 132s-29.834 51.834 -54.501 63.501s-58.667 17.5 -102 17.5h-116v-428h116z" />
    <glyph glyph-name="dcaron" unicode="&#x10f;" horiz-adv-x="591" 
d="M643 691h114l-93 -197h-105zM95.5 45.5c-39 37 -58.4971 96.168 -58.4971 177.501c0 54.667 10.167 101.667 30.5 141s47.666 69.166 81.999 89.499s72.833 30.5 115.5 30.5c52 0 96.333 -12 133 -36v226h135v-674h-116l-8 44c-20.667 -18 -43.334 -31.5 -68.001 -40.5
s-53.334 -13.5 -86.001 -13.5c-67.333 0 -120.5 18.5 -159.5 55.5zM350.003 99.001c16.667 6.66699 32.666 17.666 47.999 32.999v216c-28 24.667 -60.667 37 -98 37c-41.333 0 -72.666 -13.667 -93.999 -41s-32 -67.666 -32 -120.999
c0 -48.667 9.83301 -83.167 29.5 -103.5s49.167 -30.5 88.5 -30.5c22 0 41.333 3.33301 58 10z" />
    <glyph glyph-name="Dcroat" unicode="&#x110;" horiz-adv-x="694" 
d="M95 264h-68v104h68v276h270c98.667 0 172 -25.5 220 -76.5s72 -133.833 72 -248.5c0 -109.333 -24 -189.833 -72 -241.5s-121.333 -77.5 -220 -77.5h-270v264zM346 104c40.667 0 73.334 5.99902 98.001 17.999s43.5 33.667 56.5 65s19.5 75.333 19.5 132
c0 57.333 -5.83301 101.333 -17.5 132s-29.834 51.834 -54.501 63.501s-58.667 17.5 -102 17.5h-116v-164h149v-104h-149v-160h116z" />
    <glyph glyph-name="dcroat" unicode="&#x111;" horiz-adv-x="591" 
d="M584 527l-50.9971 0.000976562v-527h-116l-8 44c-20.667 -18 -43.334 -31.5 -68.001 -40.5s-53.334 -13.5 -86.001 -13.5c-67.333 0 -120.5 18.5 -159.5 55.5s-58.5 96.167 -58.5 177.5c0 54.667 10.167 101.667 30.5 141s47.666 69.166 81.999 89.499
s72.833 30.5 115.5 30.5c52 0 96.333 -12 133 -36v79h-139v90h139v57h135v-57h51v-90zM398.003 348.001c-28 24.667 -60.668 36.999 -98.001 36.999c-41.333 0 -72.666 -13.667 -93.999 -41s-32 -67.666 -32 -120.999c0 -48.667 9.83301 -83.167 29.5 -103.5
s49.167 -30.5 88.5 -30.5c22 0 41.333 3.33301 58 10s32.667 17.667 48 33v216z" />
    <glyph glyph-name="Emacron" unicode="&#x112;" horiz-adv-x="556" 
d="M128 805h308v-83h-308v83zM57 644h462v-105h-327v-165h290v-104h-290v-166h327v-104h-462v644z" />
    <glyph glyph-name="emacron" unicode="&#x113;" horiz-adv-x="542" 
d="M134 639h308v-83h-308v83zM107.5 52.5c-47 41.667 -70.499 103.502 -70.499 185.502c0 77.333 20.5 137.666 61.5 180.999s100.833 65 179.5 65c72 0 127.833 -18.833 167.5 -56.5s59.5 -88.167 59.5 -151.5v-86h-343c6.66699 -36.667 23.5 -62.334 50.5 -77.001
s66.833 -22 119.5 -22c25.333 0 51.166 2.33301 77.499 7s48.833 10.667 67.5 18v-96c-44 -20 -101.667 -30 -173 -30c-84 0 -149.5 20.833 -196.5 62.5zM387.001 273.002v26.001c0 58.667 -35 88 -105 88c-44 0 -75 -8.83301 -93 -26.5s-27 -46.834 -27 -87.501h225z" />
    <glyph glyph-name="Ebreve" unicode="&#x114;" horiz-adv-x="556" 
d="M181 730c-28.667 28 -43.001 66.333 -43.001 115h90c0 -22.667 5.83301 -41.5 17.5 -56.5s28.167 -22.5 49.5 -22.5c22 0 39 7.66699 51 23s18 34 18 56h90c0 -48.667 -14.667 -87 -44 -115s-67.666 -42 -114.999 -42s-85.333 14 -114 42zM56.999 644h462v-105h-327v-165
h290v-104h-290v-166h327v-104h-462v644z" />
    <glyph glyph-name="ebreve" unicode="&#x115;" horiz-adv-x="542" 
d="M169 564c-28.667 28 -43.001 66.333 -43.001 115h90c0 -22.667 5.83301 -41.5 17.5 -56.5s28.167 -22.5 49.5 -22.5c22 0 39 7.66699 51 23s18 34 18 56h90c0 -48.667 -14.667 -87 -44 -115s-67.666 -42 -114.999 -42s-85.333 14 -114 42zM107.499 52.5
c-47 41.667 -70.499 103.502 -70.499 185.502c0 77.333 20.5 137.666 61.5 180.999s100.833 65 179.5 65c72 0 127.833 -18.833 167.5 -56.5s59.5 -88.167 59.5 -151.5v-86h-343c6.66699 -36.667 23.5 -62.334 50.5 -77.001s66.833 -22 119.5 -22
c25.333 0 51.166 2.33301 77.499 7s48.833 10.667 67.5 18v-96c-44 -20 -101.667 -30 -173 -30c-84 0 -149.5 20.833 -196.5 62.5zM387 273.002v26.001c0 58.667 -35 88 -105 88c-44 0 -75 -8.83301 -93 -26.5s-27 -46.834 -27 -87.501h225z" />
    <glyph glyph-name="Edotaccent" unicode="&#x116;" horiz-adv-x="556" 
d="M236 811h105v-98h-105v98zM57 644h462v-105h-327v-165h290v-104h-290v-166h327v-104h-462v644z" />
    <glyph glyph-name="edotaccent" unicode="&#x117;" horiz-adv-x="542" 
d="M229 645h105v-98h-105v98zM107.5 52.5c-47 41.667 -70.499 103.502 -70.499 185.502c0 77.333 20.5 137.666 61.5 180.999s100.833 65 179.5 65c72 0 127.833 -18.833 167.5 -56.5s59.5 -88.167 59.5 -151.5v-86h-343c6.66699 -36.667 23.5 -62.334 50.5 -77.001
s66.833 -22 119.5 -22c25.333 0 51.166 2.33301 77.499 7s48.833 10.667 67.5 18v-96c-44 -20 -101.667 -30 -173 -30c-84 0 -149.5 20.833 -196.5 62.5zM387.001 273.002v26.001c0 58.667 -35 88 -105 88c-44 0 -75 -8.83301 -93 -26.5s-27 -46.834 -27 -87.501h225z" />
    <glyph glyph-name="Eogonek" unicode="&#x118;" horiz-adv-x="556" 
d="M192 539v-164.999h290v-104h-290v-166h327v-104h-43c-44.667 -33.333 -67 -68 -67 -104c0 -24.667 15 -37 45 -37c20 0 36.333 3.66699 49 11v-76c-9.33301 -4 -21.833 -7.33301 -37.5 -10s-31.5 -4 -47.5 -4c-32.667 0 -60 7.83301 -82 23.5s-33 38.167 -33 67.5
c0 25.333 6.33301 49.166 19 71.499s30.667 41.5 54 57.5h-319v644h462v-105h-327z" />
    <glyph glyph-name="eogonek" unicode="&#x119;" horiz-adv-x="542" 
d="M505 190l-342.998 -0.000976562c6.66699 -36.667 23.5 -62.334 50.5 -77.001s66.833 -22 119.5 -22c25.333 0 51.166 2.33301 77.499 7s48.833 10.667 67.5 18v-96c-20 -8.66699 -42.667 -15.667 -68 -21c-44 -33.333 -66 -67.666 -66 -102.999c0 -24.667 15 -37 45 -37
c20 0 36.333 3.66699 49 11v-76c-9.33301 -4 -21.833 -7.33301 -37.5 -10s-31.5 -4 -47.5 -4c-32.667 0 -60 7.83301 -82 23.5s-33 38.167 -33 67.5c0 22.667 5.16699 44.334 15.5 65.001s25.166 38.667 44.499 54c-82 1.33301 -145.833 22.833 -191.5 64.5
s-68.5 102.834 -68.5 183.501c0 77.333 20.5 137.666 61.5 180.999s100.833 65 179.5 65c72 0 127.833 -18.833 167.5 -56.5s59.5 -88.167 59.5 -151.5v-86zM387.002 298.999c0 58.667 -35 88.001 -105 88.001c-44 0 -75 -8.83301 -93 -26.5s-27 -46.834 -27 -87.501h225v26
z" />
    <glyph glyph-name="Ecaron" unicode="&#x11a;" horiz-adv-x="556" 
d="M119 862h106l72 -100l74 100h104l-135 -174h-86zM57 644h462v-105h-327v-165h290v-104h-290v-166h327v-104h-462v644z" />
    <glyph glyph-name="ecaron" unicode="&#x11b;" horiz-adv-x="542" 
d="M110 696h106l72 -100l74 100h104l-135 -174h-86zM107.5 52.5c-47 41.667 -70.499 103.502 -70.499 185.502c0 77.333 20.5 137.666 61.5 180.999s100.833 65 179.5 65c72 0 127.833 -18.833 167.5 -56.5s59.5 -88.167 59.5 -151.5v-86h-343
c6.66699 -36.667 23.5 -62.334 50.5 -77.001s66.833 -22 119.5 -22c25.333 0 51.166 2.33301 77.499 7s48.833 10.667 67.5 18v-96c-44 -20 -101.667 -30 -173 -30c-84 0 -149.5 20.833 -196.5 62.5zM387.001 273.002v26.001c0 58.667 -35 88 -105 88
c-44 0 -75 -8.83301 -93 -26.5s-27 -46.834 -27 -87.501h225z" />
    <glyph glyph-name="Gcircumflex" unicode="&#x11c;" horiz-adv-x="644" 
d="M317 862h86l135 -174h-104l-74 100l-72 -100h-106zM122 74.5c-56.667 56.333 -84.999 135.167 -84.999 236.5c0 108 28.833 192.167 86.5 252.5s141.5 90.5 251.5 90.5c73.333 0 138 -9 194 -27v-116c-52 18.667 -113.333 28 -184 28
c-75.333 0 -129.333 -18.5 -162 -55.5s-49 -94.5 -49 -172.5c0 -138 65 -207 195 -207c44.667 0 86 6.66699 124 20v150h-150v86h264v-315c-25.333 -16 -58 -29.167 -98 -39.5s-87.333 -15.5 -142 -15.5c-106.667 0 -188.334 28.167 -245.001 84.5z" />
    <glyph glyph-name="gcircumflex" unicode="&#x11d;" horiz-adv-x="562" 
d="M232 696h86l135 -174h-104l-74 100l-72 -100h-106zM147.5 -169c-37 4.66699 -67.834 11.333 -92.501 20v101c26 -8.66699 56.833 -15.5 92.5 -20.5s69.834 -7.5 102.501 -7.5c47.333 0 81 2.5 101 7.5s30 13.833 30 26.5c0 10.667 -4.66699 18 -14 22s-28 6 -56 6h-129
c-42 0 -73.667 8 -95 24s-32 39.333 -32 70c0 20 5.5 37.833 16.5 53.5s27.833 28.167 50.5 37.5c-54 27.333 -81 73.333 -81 138c0 60 18.833 104.167 56.5 132.5s94.167 42.5 169.5 42.5c14 0 30 -1 48 -3s32.667 -4.33301 44 -7h178l-3 -85h-75
c20.667 -19.333 31 -46.333 31 -81c0 -50 -15.667 -89.167 -47 -117.5s-76.333 -42.5 -135 -42.5c-18 0 -38 1.66699 -60 5c-21.333 -2.66699 -38.5 -7.5 -51.5 -14.5s-19.5 -15.833 -19.5 -26.5c0 -8.66699 3.33301 -14.667 10 -18s17 -5 31 -5h134c48 0 85 -11 111 -33
s39 -53.333 39 -94c0 -92 -81.667 -138 -245 -138c-36 0 -72.5 2.33301 -109.5 7zM350.999 244.499c16 13.667 24 36.833 24 69.5c0 33.333 -8 57.166 -24 71.499s-43.667 21.5 -83 21.5c-38 0 -65.333 -7.16699 -82 -21.5s-25 -38.166 -25 -71.499c0 -32 8 -55 24 -69
s43.667 -21 83 -21s67 6.83301 83 20.5z" />
    <glyph glyph-name="Gbreve" unicode="&#x11e;" horiz-adv-x="644" 
d="M254 730c-28.667 28 -43.001 66.333 -43.001 115h90c0 -22.667 5.83301 -41.5 17.5 -56.5s28.167 -22.5 49.5 -22.5c22 0 39 7.66699 51 23s18 34 18 56h90c0 -48.667 -14.667 -87 -44 -115s-67.666 -42 -114.999 -42s-85.333 14 -114 42zM121.999 74.5
c-56.667 56.333 -84.999 135.167 -84.999 236.5c0 108 28.833 192.167 86.5 252.5s141.5 90.5 251.5 90.5c73.333 0 138 -9 194 -27v-116c-52 18.667 -113.333 28 -184 28c-75.333 0 -129.333 -18.5 -162 -55.5s-49 -94.5 -49 -172.5c0 -138 65 -207 195 -207
c44.667 0 86 6.66699 124 20v150h-150v86h264v-315c-25.333 -16 -58 -29.167 -98 -39.5s-87.333 -15.5 -142 -15.5c-106.667 0 -188.334 28.167 -245.001 84.5z" />
    <glyph glyph-name="gbreve" unicode="&#x11f;" horiz-adv-x="562" 
d="M156 564c-28.667 28 -43.001 66.333 -43.001 115h90c0 -22.667 5.83301 -41.5 17.5 -56.5s28.167 -22.5 49.5 -22.5c22 0 39 7.66699 51 23s18 34 18 56h90c0 -48.667 -14.667 -87 -44 -115s-67.666 -42 -114.999 -42s-85.333 14 -114 42zM147.499 -169
c-37 4.66699 -67.834 11.333 -92.501 20v101c26 -8.66699 56.833 -15.5 92.5 -20.5s69.834 -7.5 102.501 -7.5c47.333 0 81 2.5 101 7.5s30 13.833 30 26.5c0 10.667 -4.66699 18 -14 22s-28 6 -56 6h-129c-42 0 -73.667 8 -95 24s-32 39.333 -32 70
c0 20 5.5 37.833 16.5 53.5s27.833 28.167 50.5 37.5c-54 27.333 -81 73.333 -81 138c0 60 18.833 104.167 56.5 132.5s94.167 42.5 169.5 42.5c14 0 30 -1 48 -3s32.667 -4.33301 44 -7h178l-3 -85h-75c20.667 -19.333 31 -46.333 31 -81c0 -50 -15.667 -89.167 -47 -117.5
s-76.333 -42.5 -135 -42.5c-18 0 -38 1.66699 -60 5c-21.333 -2.66699 -38.5 -7.5 -51.5 -14.5s-19.5 -15.833 -19.5 -26.5c0 -8.66699 3.33301 -14.667 10 -18s17 -5 31 -5h134c48 0 85 -11 111 -33s39 -53.333 39 -94c0 -92 -81.667 -138 -245 -138
c-36 0 -72.5 2.33301 -109.5 7zM350.998 244.499c16 13.667 24 36.833 24 69.5c0 33.333 -8 57.166 -24 71.499s-43.667 21.5 -83 21.5c-38 0 -65.333 -7.16699 -82 -21.5s-25 -38.166 -25 -71.499c0 -32 8 -55 24 -69s43.667 -21 83 -21s67 6.83301 83 20.5z" />
    <glyph glyph-name="Gdotaccent" unicode="&#x120;" horiz-adv-x="644" 
d="M322 811h105v-98h-105v98zM122 74.5c-56.667 56.333 -84.999 135.167 -84.999 236.5c0 108 28.833 192.167 86.5 252.5s141.5 90.5 251.5 90.5c73.333 0 138 -9 194 -27v-116c-52 18.667 -113.333 28 -184 28c-75.333 0 -129.333 -18.5 -162 -55.5s-49 -94.5 -49 -172.5
c0 -138 65 -207 195 -207c44.667 0 86 6.66699 124 20v150h-150v86h264v-315c-25.333 -16 -58 -29.167 -98 -39.5s-87.333 -15.5 -142 -15.5c-106.667 0 -188.334 28.167 -245.001 84.5z" />
    <glyph glyph-name="gdotaccent" unicode="&#x121;" horiz-adv-x="562" 
d="M211 635h105v-98h-105v98zM147.5 -169c-37 4.66699 -67.834 11.333 -92.501 20v101c26 -8.66699 56.833 -15.5 92.5 -20.5s69.834 -7.5 102.501 -7.5c47.333 0 81 2.5 101 7.5s30 13.833 30 26.5c0 10.667 -4.66699 18 -14 22s-28 6 -56 6h-129c-42 0 -73.667 8 -95 24
s-32 39.333 -32 70c0 20 5.5 37.833 16.5 53.5s27.833 28.167 50.5 37.5c-54 27.333 -81 73.333 -81 138c0 60 18.833 104.167 56.5 132.5s94.167 42.5 169.5 42.5c14 0 30 -1 48 -3s32.667 -4.33301 44 -7h178l-3 -85h-75c20.667 -19.333 31 -46.333 31 -81
c0 -50 -15.667 -89.167 -47 -117.5s-76.333 -42.5 -135 -42.5c-18 0 -38 1.66699 -60 5c-21.333 -2.66699 -38.5 -7.5 -51.5 -14.5s-19.5 -15.833 -19.5 -26.5c0 -8.66699 3.33301 -14.667 10 -18s17 -5 31 -5h134c48 0 85 -11 111 -33s39 -53.333 39 -94
c0 -92 -81.667 -138 -245 -138c-36 0 -72.5 2.33301 -109.5 7zM350.999 244.499c16 13.667 24 36.833 24 69.5c0 33.333 -8 57.166 -24 71.499s-43.667 21.5 -83 21.5c-38 0 -65.333 -7.16699 -82 -21.5s-25 -38.166 -25 -71.499c0 -32 8 -55 24 -69s43.667 -21 83 -21
s67 6.83301 83 20.5z" />
    <glyph glyph-name="Gcommaaccent" unicode="&#x122;" horiz-adv-x="644" 
d="M122 74.5c-56.667 56.333 -84.999 135.167 -84.999 236.5c0 108 28.833 192.167 86.5 252.5s141.5 90.5 251.5 90.5c73.333 0 138 -9 194 -27v-116c-52 18.667 -113.333 28 -184 28c-75.333 0 -129.333 -18.5 -162 -55.5s-49 -94.5 -49 -172.5c0 -138 65 -207 195 -207
c44.667 0 86 6.66699 124 20v150h-150v86h264v-315c-25.333 -16 -58 -29.167 -98 -39.5s-87.333 -15.5 -142 -15.5c-106.667 0 -188.334 28.167 -245.001 84.5zM327.001 -36.999h106l-50 -201h-87z" />
    <glyph glyph-name="gcommaaccent" unicode="&#x123;" horiz-adv-x="562" 
d="M263 723h87l-31 -201h-106zM147.5 -169c-37 4.66699 -67.834 11.333 -92.501 20v101c26 -8.66699 56.833 -15.5 92.5 -20.5s69.834 -7.5 102.501 -7.5c47.333 0 81 2.5 101 7.5s30 13.833 30 26.5c0 10.667 -4.66699 18 -14 22s-28 6 -56 6h-129c-42 0 -73.667 8 -95 24
s-32 39.333 -32 70c0 20 5.5 37.833 16.5 53.5s27.833 28.167 50.5 37.5c-54 27.333 -81 73.333 -81 138c0 60 18.833 104.167 56.5 132.5s94.167 42.5 169.5 42.5c14 0 30 -1 48 -3s32.667 -4.33301 44 -7h178l-3 -85h-75c20.667 -19.333 31 -46.333 31 -81
c0 -50 -15.667 -89.167 -47 -117.5s-76.333 -42.5 -135 -42.5c-18 0 -38 1.66699 -60 5c-21.333 -2.66699 -38.5 -7.5 -51.5 -14.5s-19.5 -15.833 -19.5 -26.5c0 -8.66699 3.33301 -14.667 10 -18s17 -5 31 -5h134c48 0 85 -11 111 -33s39 -53.333 39 -94
c0 -92 -81.667 -138 -245 -138c-36 0 -72.5 2.33301 -109.5 7zM350.999 244.499c16 13.667 24 36.833 24 69.5c0 33.333 -8 57.166 -24 71.499s-43.667 21.5 -83 21.5c-38 0 -65.333 -7.16699 -82 -21.5s-25 -38.166 -25 -71.499c0 -32 8 -55 24 -69s43.667 -21 83 -21
s67 6.83301 83 20.5z" />
    <glyph glyph-name="Hcircumflex" unicode="&#x124;" horiz-adv-x="665" 
d="M289 862h86l135 -174h-104l-74 100l-72 -100h-106zM57 644h135v-270h281v270h135v-644h-135v270h-281v-270h-135v644z" />
    <glyph glyph-name="hcircumflex" unicode="&#x125;" horiz-adv-x="587" 
d="M196 879h86l135 -174h-104l-74 100l-72 -100h-106zM57 674h135.001v-240c20.667 15.333 44.834 27.5 72.501 36.5s57.5 13.5 89.5 13.5c62 0 107.5 -14.5 136.5 -43.5s43.5 -74.5 43.5 -136.5v-304h-135v297c0 32.667 -6.66699 55.5 -20 68.5s-37.333 19.5 -72 19.5
c-20.667 0 -41.334 -4.5 -62.001 -13.5s-38.334 -20.833 -53.001 -35.5v-336h-135v674z" />
    <glyph glyph-name="Hbar" unicode="&#x126;" horiz-adv-x="666" 
d="M650 451h-42v-451h-135v270h-281v-270h-135v451h-41v105h41v88h135v-88h281v88h135v-88h42v-105zM473 451h-281v-77h281v77z" />
    <glyph glyph-name="hbar" unicode="&#x127;" horiz-adv-x="587" 
d="M490.5 440.5c29 -29 43.501 -74.5 43.501 -136.5v-304h-135v297c0 32.667 -6.66699 55.5 -20 68.5s-37.333 19.5 -72 19.5c-20.667 0 -41.334 -4.5 -62.001 -13.5s-38.334 -20.833 -53.001 -35.5v-336h-135v529h-50v92h50v53h135v-53h134v-92h-134v-95
c20.667 15.333 44.834 27.5 72.501 36.5s57.5 13.5 89.5 13.5c62 0 107.5 -14.5 136.5 -43.5z" />
    <glyph glyph-name="Itilde" unicode="&#x128;" horiz-adv-x="250" 
d="M171 705c-12.667 3.33301 -29 8.66797 -49 16.001c-32 12.667 -56.333 19 -73 19c-37.333 0 -67.333 -12.333 -90 -37v96c9.33301 9.33301 21.833 16.833 37.5 22.5s32.167 8.5 49.5 8.5c14 0 27.5 -1.83301 40.5 -5.5s27.5 -8.83398 43.5 -15.501
c18.667 -6.66699 33.167 -11.5 43.5 -14.5s21.5 -4.5 33.5 -4.5c37.333 0 65 12.667 83 38v-96c-6.66699 -9.33301 -17.167 -17 -31.5 -23s-30.5 -9 -48.5 -9c-13.333 0 -26.333 1.66699 -39 5zM57 644.002h135v-644h-135v644z" />
    <glyph glyph-name="itilde" unicode="&#x129;" horiz-adv-x="321" 
d="M208 538c-12.667 3.33301 -29.001 8.66797 -49.001 16.001c-31.333 12.667 -55.666 19 -72.999 19c-37.333 0 -67.333 -12.333 -90 -37v96c9.33301 9.33301 21.833 16.833 37.5 22.5s32.167 8.5 49.5 8.5c14 0 27.5 -1.83301 40.5 -5.5s27.5 -8.83398 43.5 -15.501
c18.667 -6.66699 33.167 -11.5 43.5 -14.5s21.5 -4.5 33.5 -4.5c37.333 0 65 12.667 83 38v-96c-6.66699 -9.33301 -17.167 -17 -31.5 -23s-30.5 -9 -48.5 -9c-13.333 0 -26.333 1.66699 -39 5zM127.999 374.002h-71l12 100h194v-474h-135v374z" />
    <glyph glyph-name="Imacron" unicode="&#x12a;" horiz-adv-x="250" 
d="M-29 805h308v-83h-308v83zM57 644h135v-644h-135v644z" />
    <glyph glyph-name="imacron" unicode="&#x12b;" horiz-adv-x="321" 
d="M9 653h308v-83h-308v83zM128 374h-71l12 100h194v-474h-135v374z" />
    <glyph glyph-name="Ibreve" unicode="&#x12c;" horiz-adv-x="250" 
d="M10 743c-28.667 28 -43.001 66.333 -43.001 115h90c0 -22.667 5.83301 -41.5 17.5 -56.5s28.167 -22.5 49.5 -22.5c22 0 39 7.66699 51 23s18 34 18 56h90c0 -48.667 -14.667 -87 -44 -115s-67.666 -42 -114.999 -42s-85.333 14 -114 42zM56.999 644h135v-644h-135v644z
" />
    <glyph glyph-name="ibreve" unicode="&#x12d;" horiz-adv-x="321" 
d="M53 564c-28.667 28 -43.001 66.333 -43.001 115h90c0 -22.667 5.83301 -41.5 17.5 -56.5s28.167 -22.5 49.5 -22.5c22 0 39 7.66699 51 23s18 34 18 56h90c0 -48.667 -14.667 -87 -44 -115s-67.666 -42 -114.999 -42s-85.333 14 -114 42zM127.999 374h-71l12 100h194
v-474h-135v374z" />
    <glyph glyph-name="Iogonek" unicode="&#x12e;" horiz-adv-x="250" 
d="M206 -130v-75.999c-9.33301 -4 -21.833 -7.33301 -37.5 -10s-31.5 -4 -47.5 -4c-32.667 0 -60 7.83301 -82 23.5s-33 38.167 -33 67.5c0 25.333 6.33301 49.166 19 71.499s30.667 41.5 54 57.5h-22v644h135v-644h-13c-44.667 -33.333 -67 -68 -67 -104
c0 -24.667 15 -37 45 -37c20 0 36.333 3.66699 49 11z" />
    <glyph glyph-name="iogonek" unicode="&#x12f;" horiz-adv-x="321" 
d="M264 561h-147v106h147v-106zM279 -130v-75.999c-9.33301 -4 -21.833 -7.33301 -37.5 -10s-31.5 -4 -47.5 -4c-32.667 0 -60 7.83301 -82 23.5s-33 38.167 -33 67.5c0 25.333 6.33301 49.166 19 71.499s30.667 41.5 54 57.5h-24v374h-71l12 100h194v-474h-11
c-44.667 -33.333 -67 -68 -67 -104c0 -24.667 15 -37 45 -37c20 0 36.333 3.66699 49 11z" />
    <glyph glyph-name="Idotaccent" unicode="&#x130;" horiz-adv-x="249" 
d="M72 816h105v-98h-105v98zM57 644h135v-644h-135v644z" />
    <glyph glyph-name="dotlessi" unicode="&#x131;" horiz-adv-x="321" 
d="M128 374h-71l12 100h194v-474h-135v374z" />
    <glyph glyph-name="IJ" unicode="&#x132;" horiz-adv-x="674" 
d="M57 644h135v-644h-135v644zM254 13v114c33.333 -14.667 72.333 -22 117 -22c41.333 0 70.833 8.5 88.5 25.5s26.5 44.833 26.5 83.5v430h135v-460c0 -129.333 -74.333 -194 -223 -194c-54 0 -102 7.66699 -144 23z" />
    <glyph glyph-name="ij" unicode="&#x133;" horiz-adv-x="582" 
d="M117 667h147v-106h-147v106zM378 667h147v-106h-147v106zM128 374h-71l12 100h194v-474h-135v374zM253 -216v93c20 -6.66699 40 -10 60 -10c26.667 0 46.167 5.5 58.5 16.5s18.5 28.5 18.5 52.5v438h-71l12 100h194v-551c0 -48.667 -13.833 -87 -41.5 -115
s-68.5 -42 -122.5 -42c-42 0 -78 6 -108 18z" />
    <glyph glyph-name="Jcircumflex" unicode="&#x134;" horiz-adv-x="436" 
d="M275 862h86l135 -174h-104l-74 100l-72 -100h-106zM17 13v114c33.333 -14.667 72.333 -22 117 -22c41.333 0 70.833 8.5 88.5 25.5s26.5 44.833 26.5 83.5v430h135v-460c0 -129.333 -74.333 -194 -223 -194c-54 0 -102 7.66699 -144 23z" />
    <glyph glyph-name="jcircumflex" unicode="&#x135;" horiz-adv-x="321" 
d="M127 696h86l135 -174h-104l-74 100l-72 -100h-106zM-9 -216v93c20 -6.66699 40 -10 60 -10c26.667 0 46.167 5.5 58.5 16.5s18.5 28.5 18.5 52.5v438h-71l12 100h194v-551c0 -48.667 -13.833 -87 -41.5 -115s-68.5 -42 -122.5 -42c-42 0 -78 6 -108 18z" />
    <glyph glyph-name="Kcommaaccent" unicode="&#x136;" horiz-adv-x="644" 
d="M57 644h135v-273l248 273h155l-233 -261l245 -383h-144l-185 297l-86 -93v-204h-135v644zM273 -37h106l-50 -201h-87z" />
    <glyph glyph-name="kcommaaccent" unicode="&#x137;" horiz-adv-x="571" 
d="M57 674h135v-371l177 171h154l-191 -194l202 -280h-143l-144 209l-55 -53v-156h-135v674zM224 -37h106l-50 -201h-87z" />
    <glyph glyph-name="kgreenlandic" unicode="&#x138;" horiz-adv-x="571" 
d="M57 474h135v-187l177 187h154l-191 -206l202 -268h-143l-143 196l-56 -58v-138h-135v474z" />
    <glyph glyph-name="Lacute" unicode="&#x139;" horiz-adv-x="526" 
d="M153 875h117l-88 -187h-109zM57 644h135v-540h317v-104h-452v644z" />
    <glyph glyph-name="lacute" unicode="&#x13a;" horiz-adv-x="298" 
d="M153 924h117l-88 -187h-109zM88.5 22c-21 21.333 -31.499 55.332 -31.499 101.999v550h135v-539c0 -16.667 3.16699 -28.167 9.5 -34.5s16.166 -9.5 29.499 -9.5c17.333 0 33 2.33301 47 7v-93c-14 -5.33301 -27.667 -9.16602 -41 -11.499s-29.333 -3.5 -48 -3.5
c-46 0 -79.5 10.667 -100.5 32z" />
    <glyph glyph-name="Lcommaaccent" unicode="&#x13b;" horiz-adv-x="526" 
d="M57 644h135v-540h317v-104h-452v644zM246 -37h106l-50 -201h-87z" />
    <glyph glyph-name="lcommaaccent" unicode="&#x13c;" horiz-adv-x="298" 
d="M88.5 22c-21 21.333 -31.499 55.332 -31.499 101.999v550h135v-539c0 -16.667 3.16699 -28.167 9.5 -34.5s16.166 -9.5 29.499 -9.5c17.333 0 33 2.33301 47 7v-93c-14 -5.33301 -27.667 -9.16602 -41 -11.499s-29.333 -3.5 -48 -3.5c-46 0 -79.5 10.667 -100.5 32z
M134.001 -37.001h106l-50 -201h-87z" />
    <glyph glyph-name="Lcaron" unicode="&#x13d;" horiz-adv-x="526" 
d="M353 765h106l-50 -201h-87zM57 644h135v-540h317v-104h-452v644z" />
    <glyph glyph-name="lcaron" unicode="&#x13e;" horiz-adv-x="298" 
d="M279 861h106l-50 -201h-87zM88.5 22c-21 21.333 -31.499 55.332 -31.499 101.999v550h135v-539c0 -16.667 3.16699 -28.167 9.5 -34.5s16.166 -9.5 29.499 -9.5c17.333 0 33 2.33301 47 7v-93c-14 -5.33301 -27.667 -9.16602 -41 -11.499s-29.333 -3.5 -48 -3.5
c-46 0 -79.5 10.667 -100.5 32z" />
    <glyph glyph-name="Ldot" unicode="&#x13f;" horiz-adv-x="526" 
d="M57 644h135v-540h317v-104h-452v644zM309 374h105v-98h-105v98z" />
    <glyph glyph-name="ldot" unicode="&#x140;" horiz-adv-x="298" 
d="M88.5 22c-21 21.333 -31.499 55.332 -31.499 101.999v550h135v-539c0 -16.667 3.16699 -28.167 9.5 -34.5s16.166 -9.5 29.499 -9.5c17.333 0 33 2.33301 47 7v-93c-14 -5.33301 -27.667 -9.16602 -41 -11.499s-29.333 -3.5 -48 -3.5c-46 0 -79.5 10.667 -100.5 32z
M243.001 378.999h105v-98h-105v98z" />
    <glyph glyph-name="Lslash" unicode="&#x141;" horiz-adv-x="526" 
d="M509 104v-104h-452v258l-75 -33v97l75 33v289h135v-230l125 55v-97l-125 -55v-213h317z" />
    <glyph glyph-name="lslash" unicode="&#x142;" horiz-adv-x="298" 
d="M192 327l0.000976562 -192.001c0 -16.667 3.16699 -28.167 9.5 -34.5s16.166 -9.5 29.499 -9.5c17.333 0 33 2.33301 47 7v-93c-14 -5.33301 -27.667 -9.16602 -41 -11.499s-29.333 -3.5 -48 -3.5c-46 0 -79.5 10.667 -100.5 32s-31.5 55.333 -31.5 102v144l-86 -37v97
l86 37v309h135v-250l92 40v-97z" />
    <glyph glyph-name="Nacute" unicode="&#x143;" horiz-adv-x="671" 
d="M350 875h117l-88 -187h-109zM57 644h117l305 -429v429h135v-644h-117l-305 429v-429h-135v644z" />
    <glyph glyph-name="nacute" unicode="&#x144;" horiz-adv-x="587" 
d="M303 709h117l-88 -187h-109zM57 474h125.004l5 -45c21.333 16 46.666 29.167 75.999 39.5s59.666 15.5 90.999 15.5c62 0 107.5 -14.5 136.5 -43.5s43.5 -74.5 43.5 -136.5v-304h-135v297c0 32.667 -6.66699 55.5 -20 68.5s-37.333 19.5 -72 19.5
c-20.667 0 -41.334 -4.5 -62.001 -13.5s-38.334 -20.833 -53.001 -35.5v-336h-135v474z" />
    <glyph glyph-name="Ncommaaccent" unicode="&#x145;" horiz-adv-x="671" 
d="M57 644h117l305 -429v429h135v-644h-117l-305 429v-429h-135v644zM291 -37h106l-50 -201h-87z" />
    <glyph glyph-name="ncommaaccent" unicode="&#x146;" horiz-adv-x="587" 
d="M57 474h125.004l5 -45c21.333 16 46.666 29.167 75.999 39.5s59.666 15.5 90.999 15.5c62 0 107.5 -14.5 136.5 -43.5s43.5 -74.5 43.5 -136.5v-304h-135v297c0 32.667 -6.66699 55.5 -20 68.5s-37.333 19.5 -72 19.5c-20.667 0 -41.334 -4.5 -62.001 -13.5
s-38.334 -20.833 -53.001 -35.5v-336h-135v474zM254.004 -37h106l-50 -201h-87z" />
    <glyph glyph-name="Ncaron" unicode="&#x147;" horiz-adv-x="671" 
d="M160 862h106l72 -100l74 100h104l-135 -174h-86zM57 644h117l305 -429v429h135v-644h-117l-305 429v-429h-135v644z" />
    <glyph glyph-name="ncaron" unicode="&#x148;" horiz-adv-x="587" 
d="M108 696h106l72 -100l74 100h104l-135 -174h-86zM57 474h125.004l5 -45c21.333 16 46.666 29.167 75.999 39.5s59.666 15.5 90.999 15.5c62 0 107.5 -14.5 136.5 -43.5s43.5 -74.5 43.5 -136.5v-304h-135v297c0 32.667 -6.66699 55.5 -20 68.5s-37.333 19.5 -72 19.5
c-20.667 0 -41.334 -4.5 -62.001 -13.5s-38.334 -20.833 -53.001 -35.5v-336h-135v474z" />
    <glyph glyph-name="napostrophe" unicode="&#x149;" horiz-adv-x="612" 
d="M-36 646h106l-50 -201h-87zM82 474h125.004l5 -45c21.333 16 46.666 29.167 75.999 39.5s59.666 15.5 90.999 15.5c62 0 107.5 -14.5 136.5 -43.5s43.5 -74.5 43.5 -136.5v-304h-135v297c0 32.667 -6.66699 55.5 -20 68.5s-37.333 19.5 -72 19.5
c-20.667 0 -41.334 -4.5 -62.001 -13.5s-38.334 -20.833 -53.001 -35.5v-336h-135v474z" />
    <glyph glyph-name="Eng" unicode="&#x14a;" horiz-adv-x="671" 
d="M342 -216v93c20 -6.66699 40 -10 60 -10c26.667 0 46.167 5.5 58.5 16.5s18.5 28.5 18.5 52.5v89l-287 404v-429h-135v644h117l305 -429v429h135v-721c0 -48.667 -13.833 -87 -41.5 -115s-68.5 -42 -122.5 -42c-42 0 -78 6 -108 18z" />
    <glyph glyph-name="eng" unicode="&#x14b;" horiz-adv-x="587" 
d="M262 -216l0.00390625 93c20 -6.66699 40 -10 60 -10c26.667 0 46.167 5.5 58.5 16.5s18.5 28.5 18.5 52.5v361c0 32.667 -6.66699 55.5 -20 68.5s-37.333 19.5 -72 19.5c-20.667 0 -41.334 -4.5 -62.001 -13.5s-38.334 -20.833 -53.001 -35.5v-336h-135v474h125l5 -45
c21.333 16 46.666 29.167 75.999 39.5s59.666 15.5 90.999 15.5c62 0 107.5 -14.5 136.5 -43.5s43.5 -74.5 43.5 -136.5v-381c0 -48.667 -13.833 -87 -41.5 -115s-68.5 -42 -122.5 -42c-42 0 -78 6 -108 18z" />
    <glyph glyph-name="Omacron" unicode="&#x14c;" horiz-adv-x="700" 
d="M193 806h308v-83h-308v83zM37 319c0 116 25.833 200.833 77.5 254.5s130.167 80.5 235.5 80.5s183.833 -26.833 235.5 -80.5s77.5 -138.5 77.5 -254.5c0 -219.333 -104.333 -329 -313 -329s-313 109.667 -313 329zM483 157.5c28.667 35 43 88.833 43 161.5
c0 79.333 -14 135.833 -42 169.5s-72.667 50.5 -134 50.5s-106 -16.833 -134 -50.5s-42 -90.167 -42 -169.5c0 -72.667 14.333 -126.5 43 -161.5s73 -52.5 133 -52.5s104.333 17.5 133 52.5z" />
    <glyph glyph-name="omacron" unicode="&#x14d;" horiz-adv-x="589" 
d="M135 639h308v-83h-308v83zM37 237c0 80 21.166 141.167 63.499 183.5s106.833 63.5 193.5 63.5s151.334 -21.167 194.001 -63.5s64 -103.5 64 -183.5c0 -164.667 -86 -247 -258 -247c-171.333 0 -257 82.333 -257 247zM387.499 135c18.333 20 27.5 54 27.5 102
s-9.16699 82 -27.5 102s-49.5 30 -93.5 30c-43.333 0 -74.166 -10 -92.499 -30s-27.5 -54 -27.5 -102s9.16699 -82 27.5 -102s49.166 -30 92.499 -30c44 0 75.167 10 93.5 30z" />
    <glyph glyph-name="Obreve" unicode="&#x14e;" horiz-adv-x="700" 
d="M236 730c-28.667 28 -43.001 66.333 -43.001 115h90c0 -22.667 5.83301 -41.5 17.5 -56.5s28.167 -22.5 49.5 -22.5c22 0 39 7.66699 51 23s18 34 18 56h90c0 -48.667 -14.667 -87 -44 -115s-67.666 -42 -114.999 -42s-85.333 14 -114 42zM36.999 319
c0 116 25.833 200.833 77.5 254.5s130.167 80.5 235.5 80.5s183.833 -26.833 235.5 -80.5s77.5 -138.5 77.5 -254.5c0 -219.333 -104.333 -329 -313 -329s-313 109.667 -313 329zM482.999 157.5c28.667 35 43 88.833 43 161.5c0 79.333 -14 135.833 -42 169.5
s-72.667 50.5 -134 50.5s-106 -16.833 -134 -50.5s-42 -90.167 -42 -169.5c0 -72.667 14.333 -126.5 43 -161.5s73 -52.5 133 -52.5s104.333 17.5 133 52.5z" />
    <glyph glyph-name="obreve" unicode="&#x14f;" horiz-adv-x="589" 
d="M180 564c-28.667 28 -43.001 66.333 -43.001 115h90c0 -22.667 5.83301 -41.5 17.5 -56.5s28.167 -22.5 49.5 -22.5c22 0 39 7.66699 51 23s18 34 18 56h90c0 -48.667 -14.667 -87 -44 -115s-67.666 -42 -114.999 -42s-85.333 14 -114 42zM36.999 237
c0 80 21.166 141.167 63.499 183.5s106.833 63.5 193.5 63.5s151.334 -21.167 194.001 -63.5s64 -103.5 64 -183.5c0 -164.667 -86 -247 -258 -247c-171.333 0 -257 82.333 -257 247zM387.498 135c18.333 20 27.5 54 27.5 102s-9.16699 82 -27.5 102s-49.5 30 -93.5 30
c-43.333 0 -74.166 -10 -92.499 -30s-27.5 -54 -27.5 -102s9.16699 -82 27.5 -102s49.166 -30 92.499 -30c44 0 75.167 10 93.5 30z" />
    <glyph glyph-name="Ohungarumlaut" unicode="&#x150;" horiz-adv-x="700" 
d="M233 863h120l-92 -176h-107zM461 863h120l-92 -176h-107zM37 319c0 116 25.833 200.833 77.5 254.5s130.167 80.5 235.5 80.5s183.833 -26.833 235.5 -80.5s77.5 -138.5 77.5 -254.5c0 -219.333 -104.333 -329 -313 -329s-313 109.667 -313 329zM483 157.5
c28.667 35 43 88.833 43 161.5c0 79.333 -14 135.833 -42 169.5s-72.667 50.5 -134 50.5s-106 -16.833 -134 -50.5s-42 -90.167 -42 -169.5c0 -72.667 14.333 -126.5 43 -161.5s73 -52.5 133 -52.5s104.333 17.5 133 52.5z" />
    <glyph glyph-name="ohungarumlaut" unicode="&#x151;" horiz-adv-x="589" 
d="M198 697h120l-92 -176h-107zM426 697h120l-92 -176h-107zM37 237c0 80 21.166 141.167 63.499 183.5s106.833 63.5 193.5 63.5s151.334 -21.167 194.001 -63.5s64 -103.5 64 -183.5c0 -164.667 -86 -247 -258 -247c-171.333 0 -257 82.333 -257 247zM387.499 135
c18.333 20 27.5 54 27.5 102s-9.16699 82 -27.5 102s-49.5 30 -93.5 30c-43.333 0 -74.166 -10 -92.499 -30s-27.5 -54 -27.5 -102s9.16699 -82 27.5 -102s49.166 -30 92.499 -30c44 0 75.167 10 93.5 30z" />
    <glyph glyph-name="OE" unicode="&#x152;" horiz-adv-x="1027" 
d="M663 539v-165h290v-104h-290v-166h327v-104h-462v29c-46.667 -26 -106 -39 -178 -39c-208.667 0 -313 109.667 -313 329c0 116 25.833 200.833 77.5 254.5s130.167 80.5 235.5 80.5c72 0 131.333 -12.333 178 -37v27h462v-105h-327zM483 157.5
c28.667 35 43 88.833 43 161.5c0 79.333 -14 135.833 -42 169.5s-72.667 50.5 -134 50.5s-106 -16.833 -134 -50.5s-42 -90.167 -42 -169.5c0 -72.667 14.333 -126.5 43 -161.5s73 -52.5 133 -52.5s104.333 17.5 133 52.5z" />
    <glyph glyph-name="oe" unicode="&#x153;" horiz-adv-x="930" 
d="M893 190l-343.002 0.000976562c6.66699 -36.667 23.5 -62.334 50.5 -77.001s66.833 -22 119.5 -22c24.667 0 50.334 2.33301 77.001 7s49.334 10.667 68.001 18v-96c-44 -20 -101.667 -30 -173 -30c-87.333 0 -154 22 -200 66c-42.667 -44 -108.667 -66 -198 -66
c-171.333 0 -257 82.333 -257 247c0 80 21.167 141.167 63.5 183.5s106.833 63.5 193.5 63.5s151.334 -21.333 194.001 -64c41.333 42.667 100.666 64 177.999 64c72 0 127.833 -18.833 167.5 -56.5s59.5 -88.167 59.5 -151.5v-86zM774.998 299.001c0 58.667 -35 88 -105 88
c-42.667 0 -73.167 -8.5 -91.5 -25.5s-27.833 -44.833 -28.5 -83.5v-5h225v26zM387.498 135.001c18.333 20 27.5 54 27.5 102s-9.16699 82 -27.5 102s-49.5 30 -93.5 30c-43.333 0 -74.166 -10 -92.499 -30s-27.5 -54 -27.5 -102s9.16699 -82 27.5 -102
s49.166 -30 92.499 -30c44 0 75.167 10 93.5 30z" />
    <glyph glyph-name="Racute" unicode="&#x154;" horiz-adv-x="618" 
d="M313 875h117l-88 -187h-109zM57 644h309.001c72 0 125.833 -19 161.5 -57s53.5 -91 53.5 -159c0 -43.333 -11.167 -80.666 -33.5 -111.999s-53.833 -54 -94.5 -68c10 -8.66699 18.167 -17.834 24.5 -27.501s13.166 -23.167 20.499 -40.5l78 -180h-140l-76 173
c-6.66699 15.333 -14.167 25.833 -22.5 31.5s-21.5 8.5 -39.5 8.5h-106v-213h-135v644zM331.001 325c36.667 0 64.666 8.16699 83.999 24.5s29 42.5 29 78.5s-8.66699 62.333 -26 79s-43.666 25 -78.999 25h-147v-207h139z" />
    <glyph glyph-name="racute" unicode="&#x155;" horiz-adv-x="382" 
d="M190 709h117l-88 -187h-109zM61 474l125.002 0.000976562l6 -49c22 14 48.667 26.333 80 37s62.333 18 93 22v-102c-28.667 -4 -59.334 -10.833 -92.001 -20.5s-58.334 -19.834 -77.001 -30.501v-331h-135v474z" />
    <glyph glyph-name="Rcommaaccent" unicode="&#x156;" horiz-adv-x="618" 
d="M57 644h309.001c72 0 125.833 -19 161.5 -57s53.5 -91 53.5 -159c0 -43.333 -11.167 -80.666 -33.5 -111.999s-53.833 -54 -94.5 -68c10 -8.66699 18.167 -17.834 24.5 -27.501s13.166 -23.167 20.499 -40.5l78 -180h-140l-76 173
c-6.66699 15.333 -14.167 25.833 -22.5 31.5s-21.5 8.5 -39.5 8.5h-106v-213h-135v644zM331.001 325c36.667 0 64.666 8.16699 83.999 24.5s29 42.5 29 78.5s-8.66699 62.333 -26 79s-43.666 25 -78.999 25h-147v-207h139zM246 -37h106l-50 -201h-87z" />
    <glyph glyph-name="rcommaaccent" unicode="&#x157;" horiz-adv-x="378" 
d="M57 474l125.002 0.000976562l6 -49c22 14 48.667 26.333 80 37s62.333 18 93 22v-102c-28.667 -4 -59.334 -10.833 -92.001 -20.5s-58.334 -19.834 -77.001 -30.501v-331h-135v474zM70.002 -36.999h106l-50 -201h-87z" />
    <glyph glyph-name="Rcaron" unicode="&#x158;" horiz-adv-x="618" 
d="M123 862h106l72 -100l74 100h104l-135 -174h-86zM57 644h309.001c72 0 125.833 -19 161.5 -57s53.5 -91 53.5 -159c0 -43.333 -11.167 -80.666 -33.5 -111.999s-53.833 -54 -94.5 -68c10 -8.66699 18.167 -17.834 24.5 -27.501s13.166 -23.167 20.499 -40.5l78 -180h-140
l-76 173c-6.66699 15.333 -14.167 25.833 -22.5 31.5s-21.5 8.5 -39.5 8.5h-106v-213h-135v644zM331.001 325c36.667 0 64.666 8.16699 83.999 24.5s29 42.5 29 78.5s-8.66699 62.333 -26 79s-43.666 25 -78.999 25h-147v-207h139z" />
    <glyph glyph-name="rcaron" unicode="&#x159;" horiz-adv-x="378" 
d="M-21 696h106l72 -100l74 100h104l-135 -174h-86zM57 474l125.002 0.000976562l6 -49c22 14 48.667 26.333 80 37s62.333 18 93 22v-102c-28.667 -4 -59.334 -10.833 -92.001 -20.5s-58.334 -19.834 -77.001 -30.501v-331h-135v474z" />
    <glyph glyph-name="Sacute" unicode="&#x15a;" horiz-adv-x="555" 
d="M292 881h117l-88 -187h-109zM49 25l-0.00488281 119.004c30 -12 62 -21.667 96 -29s67 -11 99 -11c50 0 85.167 4.66699 105.5 14s30.5 28.666 30.5 57.999c0 19.333 -4.66699 34.666 -14 45.999s-24.666 21.166 -45.999 29.499s-54.666 18.833 -99.999 31.5
c-67.333 18.667 -114.666 42 -141.999 70s-41 66.667 -41 116c0 59.333 21.667 105 65 137s106.333 48 189 48c37.333 0 72.833 -2.5 106.5 -7.5s61.167 -11.5 82.5 -19.5v-119c-54.667 20.667 -111.667 31 -171 31c-45.333 0 -79.166 -5 -101.499 -15
s-33.5 -28.333 -33.5 -55c0 -16.667 4.16699 -30 12.5 -40s22.333 -18.833 42 -26.5s50.167 -16.834 91.5 -27.501c74.667 -20 126.334 -45.833 155.001 -77.5s43 -72.167 43 -121.5c0 -58 -22 -103.5 -66 -136.5s-109 -49.5 -195 -49.5s-155.333 11.667 -208 35z" />
    <glyph glyph-name="sacute" unicode="&#x15b;" horiz-adv-x="471" 
d="M252 709h117l-88 -187h-109zM124 -3c-32 4.66699 -58 11 -78 19v112c22 -9.33301 47.667 -16.5 77 -21.5s57 -7.5 83 -7.5c34.667 0 58.5 2.16699 71.5 6.5s19.5 13.166 19.5 26.499c0 12 -6 21.333 -18 28s-35 15.334 -69 26.001c-10 2.66699 -22.667 6.66699 -38 12
c-46.667 15.333 -80.834 33.666 -102.501 54.999s-32.5 51.333 -32.5 90c0 46 16.833 81 50.5 105s86.5 36 158.5 36c27.333 0 54.166 -2 80.499 -6s49.166 -9.33301 68.499 -16v-111c-17.333 8 -37.666 14.333 -60.999 19s-45.333 7 -66 7c-32 0 -55.667 -2.16699 -71 -6.5
s-23 -12.833 -23 -25.5c0 -11.333 5.5 -19.833 16.5 -25.5s32.167 -13.167 63.5 -22.5l33 -10c38.667 -12 68.334 -24.5 89.001 -37.5s35.5 -28.5 44.5 -46.5s13.5 -41 13.5 -69c0 -47.333 -17.667 -83.166 -53 -107.499s-87.666 -36.5 -156.999 -36.5
c-34.667 0 -68 2.33301 -100 7z" />
    <glyph glyph-name="Scircumflex" unicode="&#x15c;" horiz-adv-x="555" 
d="M227 878h86l135 -174h-104l-74 100l-72 -100h-106zM49 25l-0.00488281 119.004c30 -12 62 -21.667 96 -29s67 -11 99 -11c50 0 85.167 4.66699 105.5 14s30.5 28.666 30.5 57.999c0 19.333 -4.66699 34.666 -14 45.999s-24.666 21.166 -45.999 29.499
s-54.666 18.833 -99.999 31.5c-67.333 18.667 -114.666 42 -141.999 70s-41 66.667 -41 116c0 59.333 21.667 105 65 137s106.333 48 189 48c37.333 0 72.833 -2.5 106.5 -7.5s61.167 -11.5 82.5 -19.5v-119c-54.667 20.667 -111.667 31 -171 31
c-45.333 0 -79.166 -5 -101.499 -15s-33.5 -28.333 -33.5 -55c0 -16.667 4.16699 -30 12.5 -40s22.333 -18.833 42 -26.5s50.167 -16.834 91.5 -27.501c74.667 -20 126.334 -45.833 155.001 -77.5s43 -72.167 43 -121.5c0 -58 -22 -103.5 -66 -136.5s-109 -49.5 -195 -49.5
s-155.333 11.667 -208 35z" />
    <glyph glyph-name="scircumflex" unicode="&#x15d;" horiz-adv-x="471" 
d="M196 706h86l135 -174h-104l-74 100l-72 -100h-106zM124 -3c-32 4.66699 -58 11 -78 19v112c22 -9.33301 47.667 -16.5 77 -21.5s57 -7.5 83 -7.5c34.667 0 58.5 2.16699 71.5 6.5s19.5 13.166 19.5 26.499c0 12 -6 21.333 -18 28s-35 15.334 -69 26.001
c-10 2.66699 -22.667 6.66699 -38 12c-46.667 15.333 -80.834 33.666 -102.501 54.999s-32.5 51.333 -32.5 90c0 46 16.833 81 50.5 105s86.5 36 158.5 36c27.333 0 54.166 -2 80.499 -6s49.166 -9.33301 68.499 -16v-111c-17.333 8 -37.666 14.333 -60.999 19
s-45.333 7 -66 7c-32 0 -55.667 -2.16699 -71 -6.5s-23 -12.833 -23 -25.5c0 -11.333 5.5 -19.833 16.5 -25.5s32.167 -13.167 63.5 -22.5l33 -10c38.667 -12 68.334 -24.5 89.001 -37.5s35.5 -28.5 44.5 -46.5s13.5 -41 13.5 -69c0 -47.333 -17.667 -83.166 -53 -107.499
s-87.666 -36.5 -156.999 -36.5c-34.667 0 -68 2.33301 -100 7z" />
    <glyph glyph-name="Scedilla" unicode="&#x15e;" horiz-adv-x="555" 
d="M464.5 50c-35.667 -32 -88.5049 -51.3281 -158.505 -57.9951l-12 -37c34.667 0 61 -8 79 -24s27 -38.333 27 -67c0 -69.333 -50.667 -104 -152 -104c-11.333 0 -25 0.833008 -41 2.5s-27.667 3.5 -35 5.5v68c19.333 -5.33301 39.666 -8 60.999 -8
c30.667 0 51.667 2.33301 63 7s17 14.667 17 30c0 16 -6 26.167 -18 30.5s-31.667 6.5 -59 6.5h-44l26 89c-67.333 3.33301 -123.666 14.666 -168.999 33.999v119c30 -12 62 -21.667 96 -29s67 -11 99 -11c50 0 85.167 4.66699 105.5 14s30.5 28.666 30.5 57.999
c0 19.333 -4.66699 34.666 -14 45.999s-24.666 21.166 -45.999 29.499s-54.666 18.833 -99.999 31.5c-67.333 18.667 -114.666 42 -141.999 70s-41 66.667 -41 116c0 59.333 21.667 105 65 137s106.333 48 189 48c37.333 0 72.833 -2.5 106.5 -7.5s61.167 -11.5 82.5 -19.5
v-119c-54.667 20.667 -111.667 31 -171 31c-45.333 0 -79.166 -5 -101.499 -15s-33.5 -28.333 -33.5 -55c0 -16.667 4.16699 -30 12.5 -40s22.333 -18.833 42 -26.5s50.167 -16.834 91.5 -27.501c74.667 -20 126.334 -45.833 155.001 -77.5s43 -72.167 43 -121.5
c0 -52 -17.833 -94 -53.5 -126z" />
    <glyph glyph-name="scedilla" unicode="&#x15f;" horiz-adv-x="471" 
d="M274 -8l-11.998 -36.998c34.667 0 61 -8 79 -24s27 -38.333 27 -67c0 -69.333 -50.667 -104 -152 -104c-11.333 0 -25 0.833008 -41 2.5s-27.667 3.5 -35 5.5v68c19.333 -5.33301 39.666 -8 60.999 -8c30.667 0 51.667 2.33301 63 7s17 14.667 17 30
c0 16 -6 26.167 -18 30.5s-31.667 6.5 -59 6.5h-44l26 89c-57.333 3.33301 -104 11.666 -140 24.999v112c22 -9.33301 47.667 -16.5 77 -21.5s57 -7.5 83 -7.5c34.667 0 58.5 2.16699 71.5 6.5s19.5 13.166 19.5 26.499c0 12 -6 21.333 -18 28s-35 15.334 -69 26.001
c-10 2.66699 -22.667 6.66699 -38 12c-46.667 15.333 -80.834 33.666 -102.501 54.999s-32.5 51.333 -32.5 90c0 46 16.833 81 50.5 105s86.5 36 158.5 36c27.333 0 54.166 -2 80.499 -6s49.166 -9.33301 68.499 -16v-111c-17.333 8 -37.666 14.333 -60.999 19
s-45.333 7 -66 7c-32 0 -55.667 -2.16699 -71 -6.5s-23 -12.833 -23 -25.5c0 -11.333 5.5 -19.833 16.5 -25.5s32.167 -13.167 63.5 -22.5l33 -10c38.667 -12 68.334 -24.5 89.001 -37.5s35.5 -28.5 44.5 -46.5s13.5 -41 13.5 -69c0 -82.667 -53.333 -130 -160 -142z" />
    <glyph glyph-name="Scaron" unicode="&#x160;" horiz-adv-x="555" 
d="M107 862h106l72 -100l74 100h104l-135 -174h-86zM49 25l-0.00488281 119.004c30 -12 62 -21.667 96 -29s67 -11 99 -11c50 0 85.167 4.66699 105.5 14s30.5 28.666 30.5 57.999c0 19.333 -4.66699 34.666 -14 45.999s-24.666 21.166 -45.999 29.499
s-54.666 18.833 -99.999 31.5c-67.333 18.667 -114.666 42 -141.999 70s-41 66.667 -41 116c0 59.333 21.667 105 65 137s106.333 48 189 48c37.333 0 72.833 -2.5 106.5 -7.5s61.167 -11.5 82.5 -19.5v-119c-54.667 20.667 -111.667 31 -171 31
c-45.333 0 -79.166 -5 -101.499 -15s-33.5 -28.333 -33.5 -55c0 -16.667 4.16699 -30 12.5 -40s22.333 -18.833 42 -26.5s50.167 -16.834 91.5 -27.501c74.667 -20 126.334 -45.833 155.001 -77.5s43 -72.167 43 -121.5c0 -58 -22 -103.5 -66 -136.5s-109 -49.5 -195 -49.5
s-155.333 11.667 -208 35z" />
    <glyph glyph-name="scaron" unicode="&#x161;" horiz-adv-x="471" 
d="M55 696h106l72 -100l74 100h104l-135 -174h-86zM124 -3c-32 4.66699 -58 11 -78 19v112c22 -9.33301 47.667 -16.5 77 -21.5s57 -7.5 83 -7.5c34.667 0 58.5 2.16699 71.5 6.5s19.5 13.166 19.5 26.499c0 12 -6 21.333 -18 28s-35 15.334 -69 26.001
c-10 2.66699 -22.667 6.66699 -38 12c-46.667 15.333 -80.834 33.666 -102.501 54.999s-32.5 51.333 -32.5 90c0 46 16.833 81 50.5 105s86.5 36 158.5 36c27.333 0 54.166 -2 80.499 -6s49.166 -9.33301 68.499 -16v-111c-17.333 8 -37.666 14.333 -60.999 19
s-45.333 7 -66 7c-32 0 -55.667 -2.16699 -71 -6.5s-23 -12.833 -23 -25.5c0 -11.333 5.5 -19.833 16.5 -25.5s32.167 -13.167 63.5 -22.5l33 -10c38.667 -12 68.334 -24.5 89.001 -37.5s35.5 -28.5 44.5 -46.5s13.5 -41 13.5 -69c0 -47.333 -17.667 -83.166 -53 -107.499
s-87.666 -36.5 -156.999 -36.5c-34.667 0 -68 2.33301 -100 7z" />
    <glyph glyph-name="uni0162" unicode="&#x162;" horiz-adv-x="564" 
d="M324 0l-14.999 -45c34.667 0 61 -8 79 -24s27 -38.333 27 -67c0 -69.333 -50.667 -104 -152 -104c-11.333 0 -25 0.833008 -41 2.5s-27.667 3.5 -35 5.5v68c19.333 -5.33301 39.666 -8 60.999 -8c30.667 0 51.667 2.33301 63 7s17 14.667 17 30c0 16 -6 26.167 -18 30.5
s-31.667 6.5 -59 6.5h-44l29 98h-21v540h-198v104h530v-104h-197v-540h-26z" />
    <glyph glyph-name="uni0163" unicode="&#x163;" horiz-adv-x="391" 
d="M347 -69c18 -16 27.001 -38.333 27.001 -67c0 -69.333 -50.667 -104 -152 -104c-11.333 0 -25 0.833008 -41 2.5s-27.667 3.5 -35 5.5v68c19.333 -5.33301 39.666 -8 60.999 -8c30.667 0 51.667 2.33301 63 7s17 14.667 17 30c0 16 -6 26.167 -18 30.5
s-31.667 6.5 -59 6.5h-44l28 93c-36.667 8.66699 -64.167 26.167 -82.5 52.5s-27.5 60.5 -27.5 102.5v220h-67v104h67v102l135 40v-142h120l-8 -104h-112v-211c0 -25.333 5.83301 -43 17.5 -53s30.5 -15 56.5 -15c18.667 0 38 3.33301 58 10v-93
c-20 -8.66699 -43.667 -14 -71 -16l-12 -37c34.667 0 61 -8 79 -24z" />
    <glyph glyph-name="Tcaron" unicode="&#x164;" horiz-adv-x="564" 
d="M104 878h106l72 -100l74 100h104l-135 -174h-86zM215 540h-198v104h530v-104h-197v-540h-135v540z" />
    <glyph glyph-name="tcaron" unicode="&#x165;" horiz-adv-x="487" 
d="M355 760h106l-50 -201h-87zM124 32c-26.667 28 -40 67.333 -40 118v220h-67v104h67v102l135 40v-142h120l-8 -104h-112v-211c0 -25.333 5.83301 -43 17.5 -53s30.5 -15 56.5 -15c18.667 0 38 3.33301 58 10v-93c-30 -12 -65.333 -18 -106 -18c-54 0 -94.333 14 -121 42z
" />
    <glyph glyph-name="Tbar" unicode="&#x166;" horiz-adv-x="564" 
d="M350 540v-148h113v-99h-113v-293h-135v293h-122v99h122v148h-198v104h530v-104h-197z" />
    <glyph glyph-name="tbar" unicode="&#x167;" horiz-adv-x="368" 
d="M351 101v-93c-30 -12 -65.333 -18 -106 -18c-54 0 -94.333 14 -121 42s-40 67.333 -40 118v45h-67v91h67v84h-67v104h67v102l135 40v-142h120l-8 -104h-112v-84h121v-91h-121v-36c0 -25.333 5.83301 -43 17.5 -53s30.5 -15 56.5 -15c18.667 0 38 3.33301 58 10z" />
    <glyph glyph-name="Utilde" unicode="&#x168;" horiz-adv-x="679" 
d="M386 705c-12.667 3.33301 -29 8.66797 -49 16.001c-32 12.667 -56.333 19 -73 19c-37.333 0 -67.333 -12.333 -90 -37v96c9.33301 9.33301 21.833 16.833 37.5 22.5s32.167 8.5 49.5 8.5c14 0 27.5 -1.83301 40.5 -5.5s27.5 -8.83398 43.5 -15.501
c18.667 -6.66699 33.167 -11.5 43.5 -14.5s21.5 -4.5 33.5 -4.5c37.333 0 65 12.667 83 38v-96c-6.66699 -9.33301 -17.167 -17 -31.5 -23s-30.5 -9 -48.5 -9c-13.333 0 -26.333 1.66699 -39 5zM128.5 55.002c-51 43.333 -76.499 105.668 -76.499 187.001v402h135v-392
c0 -48.667 13.167 -85.334 39.5 -110.001s64.166 -37 113.499 -37s87 12.333 113 37s39 61.334 39 110.001v392h135v-402c0 -80.667 -25.333 -142.834 -76 -186.501s-121 -65.5 -211 -65.5s-160.5 21.667 -211.5 65z" />
    <glyph glyph-name="utilde" unicode="&#x169;" horiz-adv-x="587" 
d="M341 539c-12.667 3.33301 -29 8.66797 -49 16.001c-32 12.667 -56.333 19 -73 19c-37.333 0 -67.333 -12.333 -90 -37v96c9.33301 9.33301 21.833 16.833 37.5 22.5s32.167 8.5 49.5 8.5c14 0 27.5 -1.83301 40.5 -5.5s27.5 -8.83398 43.5 -15.501
c18.667 -6.66699 33.167 -11.5 43.5 -14.5s21.5 -4.5 33.5 -4.5c37.333 0 65 12.667 83 38v-96c-6.66699 -9.33301 -17.167 -17 -31.5 -23s-30.5 -9 -48.5 -9c-13.333 0 -26.333 1.66699 -39 5zM99 38.002c-31.333 32 -47.0029 78.333 -47.0029 139v297h135v-294
c0 -31.333 7.5 -54.333 22.5 -69s38.167 -22 69.5 -22c22.667 0 43.834 4.5 63.501 13.5s36.834 20.833 51.501 35.5v336h135v-474h-125l-5 45c-46 -36.667 -101.667 -55 -167 -55c-57.333 0 -101.666 16 -132.999 48z" />
    <glyph glyph-name="Umacron" unicode="&#x16a;" horiz-adv-x="679" 
d="M186 805h308v-83h-308v83zM128.5 55c-51 43.333 -76.499 105.668 -76.499 187.001v402h135v-392c0 -48.667 13.167 -85.334 39.5 -110.001s64.166 -37 113.499 -37s87 12.333 113 37s39 61.334 39 110.001v392h135v-402c0 -80.667 -25.333 -142.834 -76 -186.501
s-121 -65.5 -211 -65.5s-160.5 21.667 -211.5 65z" />
    <glyph glyph-name="umacron" unicode="&#x16b;" horiz-adv-x="587" 
d="M142 639h308v-83h-308v83zM99 38c-31.333 32 -47.0029 78.333 -47.0029 139v297h135v-294c0 -31.333 7.5 -54.333 22.5 -69s38.167 -22 69.5 -22c22.667 0 43.834 4.5 63.501 13.5s36.834 20.833 51.501 35.5v336h135v-474h-125l-5 45c-46 -36.667 -101.667 -55 -167 -55
c-57.333 0 -101.666 16 -132.999 48z" />
    <glyph glyph-name="Ubreve" unicode="&#x16c;" horiz-adv-x="679" 
d="M220 730c-28.667 28 -43.001 66.333 -43.001 115h90c0 -22.667 5.83301 -41.5 17.5 -56.5s28.167 -22.5 49.5 -22.5c22 0 39 7.66699 51 23s18 34 18 56h90c0 -48.667 -14.667 -87 -44 -115s-67.666 -42 -114.999 -42s-85.333 14 -114 42zM128.499 55
c-51 43.333 -76.499 105.668 -76.499 187.001v402h135v-392c0 -48.667 13.167 -85.334 39.5 -110.001s64.166 -37 113.499 -37s87 12.333 113 37s39 61.334 39 110.001v392h135v-402c0 -80.667 -25.333 -142.834 -76 -186.501s-121 -65.5 -211 -65.5
s-160.5 21.667 -211.5 65z" />
    <glyph glyph-name="ubreve" unicode="&#x16d;" horiz-adv-x="587" 
d="M184 564c-28.667 28 -43.001 66.333 -43.001 115h90c0 -22.667 5.83301 -41.5 17.5 -56.5s28.167 -22.5 49.5 -22.5c22 0 39 7.66699 51 23s18 34 18 56h90c0 -48.667 -14.667 -87 -44 -115s-67.666 -42 -114.999 -42s-85.333 14 -114 42zM98.999 38
c-31.333 32 -47.0029 78.333 -47.0029 139v297h135v-294c0 -31.333 7.5 -54.333 22.5 -69s38.167 -22 69.5 -22c22.667 0 43.834 4.5 63.501 13.5s36.834 20.833 51.501 35.5v336h135v-474h-125l-5 45c-46 -36.667 -101.667 -55 -167 -55c-57.333 0 -101.666 16 -132.999 48
z" />
    <glyph glyph-name="Uring" unicode="&#x16e;" horiz-adv-x="679" 
d="M249 722c-22.667 22.667 -34 51.001 -34 85.001s11.333 62.5 34 85.5s52.667 34.5 90 34.5c38 0 68.333 -11.333 91 -34s34 -51.334 34 -86.001s-11.333 -63.167 -34 -85.5s-53 -33.5 -91 -33.5c-37.333 0 -67.333 11.333 -90 34zM382 766.001
c10.667 10.667 16 24.332 16 40.999s-5.33301 30.334 -16 41.001s-25 16 -43 16c-17.333 0 -31.333 -5.5 -42 -16.5s-16 -24.5 -16 -40.5s5.33301 -29.5 16 -40.5s24.667 -16.5 42 -16.5c18 0 32.333 5.33301 43 16zM128.5 54.999
c-51 43.333 -76.499 105.668 -76.499 187.001v402h135v-392c0 -48.667 13.167 -85.334 39.5 -110.001s64.166 -37 113.499 -37s87 12.333 113 37s39 61.334 39 110.001v392h135v-402c0 -80.667 -25.333 -142.834 -76 -186.501s-121 -65.5 -211 -65.5
s-160.5 21.667 -211.5 65z" />
    <glyph glyph-name="uring" unicode="&#x16f;" horiz-adv-x="587" 
d="M202 556c-22.667 22.667 -34 51.001 -34 85.001s11.333 62.5 34 85.5s52.667 34.5 90 34.5c38 0 68.333 -11.333 91 -34s34 -51.334 34 -86.001s-11.333 -63.167 -34 -85.5s-53 -33.5 -91 -33.5c-37.333 0 -67.333 11.333 -90 34zM335 600.001
c10.667 10.667 16 24.332 16 40.999s-5.33301 30.334 -16 41.001s-25 16 -43 16c-17.333 0 -31.333 -5.5 -42 -16.5s-16 -24.5 -16 -40.5s5.33301 -29.5 16 -40.5s24.667 -16.5 42 -16.5c18 0 32.333 5.33301 43 16zM99 37.999c-31.333 32 -47.0029 78.333 -47.0029 139v297
h135v-294c0 -31.333 7.5 -54.333 22.5 -69s38.167 -22 69.5 -22c22.667 0 43.834 4.5 63.501 13.5s36.834 20.833 51.501 35.5v336h135v-474h-125l-5 45c-46 -36.667 -101.667 -55 -167 -55c-57.333 0 -101.666 16 -132.999 48z" />
    <glyph glyph-name="Uhungarumlaut" unicode="&#x170;" horiz-adv-x="679" 
d="M229 863h120l-92 -176h-107zM457 863h120l-92 -176h-107zM128.5 55c-51 43.333 -76.499 105.668 -76.499 187.001v402h135v-392c0 -48.667 13.167 -85.334 39.5 -110.001s64.166 -37 113.499 -37s87 12.333 113 37s39 61.334 39 110.001v392h135v-402
c0 -80.667 -25.333 -142.834 -76 -186.501s-121 -65.5 -211 -65.5s-160.5 21.667 -211.5 65z" />
    <glyph glyph-name="uhungarumlaut" unicode="&#x171;" horiz-adv-x="587" 
d="M177 697h120l-92 -176h-107zM405 697h120l-92 -176h-107zM99 38c-31.333 32 -47.0029 78.333 -47.0029 139v297h135v-294c0 -31.333 7.5 -54.333 22.5 -69s38.167 -22 69.5 -22c22.667 0 43.834 4.5 63.501 13.5s36.834 20.833 51.501 35.5v336h135v-474h-125l-5 45
c-46 -36.667 -101.667 -55 -167 -55c-57.333 0 -101.666 16 -132.999 48z" />
    <glyph glyph-name="Uogonek" unicode="&#x172;" horiz-adv-x="679" 
d="M627 644l0.00195312 -402.002c0 -66.667 -17.333 -120.667 -52 -162s-83.667 -68.666 -147 -81.999c-20 -15.333 -35.833 -31.666 -47.5 -48.999s-17.5 -35 -17.5 -53c0 -24.667 15 -37 45 -37c20 0 36.333 3.66699 49 11v-76c-9.33301 -4 -21.833 -7.33301 -37.5 -10
s-31.5 -4 -47.5 -4c-32.667 0 -60 7.83301 -82 23.5s-33 38.167 -33 67.5c0 22.667 5.16699 44.334 15.5 65.001s25.166 38.667 44.499 54c-83.333 4 -148.333 27.667 -195 71s-70 103.666 -70 180.999v402h135v-392c0 -48.667 13.167 -85.334 39.5 -110.001
s64.166 -37 113.499 -37s87 12.333 113 37s39 61.334 39 110.001v392h135z" />
    <glyph glyph-name="uogonek" unicode="&#x173;" horiz-adv-x="592" 
d="M531 -130l-0.00292969 -75.999c-9.33301 -4 -21.833 -7.33301 -37.5 -10s-31.5 -4 -47.5 -4c-32.667 0 -60 7.83301 -82 23.5s-33 38.167 -33 67.5c0 25.333 6.33301 49.166 19 71.499s30.667 41.5 54 57.5l-5 45c-46 -36.667 -101.667 -55 -167 -55
c-57.333 0 -101.666 16 -132.999 48s-47 78.333 -47 139v297h135v-294c0 -31.333 7.5 -54.333 22.5 -69s38.167 -22 69.5 -22c22.667 0 43.834 4.5 63.501 13.5s36.834 20.833 51.501 35.5v336h135v-474h-25c-44.667 -33.333 -67 -68 -67 -104c0 -24.667 15 -37 45 -37
c20 0 36.333 3.66699 49 11z" />
    <glyph glyph-name="Wcircumflex" unicode="&#x174;" horiz-adv-x="875" 
d="M400 862h86l135 -174h-104l-74 100l-72 -100h-106zM37 644h133l97 -435l105 351v84h110l124 -436l100 436h132l-149 -644h-128l-118 412l-127 -412h-129z" />
    <glyph glyph-name="wcircumflex" unicode="&#x175;" horiz-adv-x="757" 
d="M338 696h86l135 -174h-104l-74 100l-72 -100h-106zM37 474h135l72 -308l79 247v61h103l90 -308l70 308h134l-124 -474h-124l-91 277l-93 -277h-126z" />
    <glyph glyph-name="Ycircumflex" unicode="&#x176;" horiz-adv-x="671" 
d="M293 862h86l135 -174h-104l-74 100l-72 -100h-106zM268 238l-231 406h141l158 -291l158 291h140l-231 -406v-238h-135v238z" />
    <glyph glyph-name="ycircumflex" unicode="&#x177;" horiz-adv-x="613" 
d="M275 696h86l135 -174h-104l-74 100l-72 -100h-106zM79 -160v95c18.667 -6.66699 39 -10 61 -10c26.667 0 47.5 6 62.5 18s30.5 33.667 46.5 65l-212 466h141l139 -322l138 322h140l-187 -441c-29.333 -70 -61 -122.333 -95 -157s-78 -52 -132 -52
c-41.333 0 -75.333 5.33301 -102 16z" />
    <glyph glyph-name="Ydieresis" unicode="&#x178;" horiz-adv-x="671" 
d="M185 811h106v-98h-106v98zM381 811h106v-98h-106v98zM268 238l-231 406h141l158 -291l158 291h140l-231 -406v-238h-135v238z" />
    <glyph glyph-name="Zacute" unicode="&#x179;" horiz-adv-x="579" 
d="M321 875h117l-88 -187h-109zM37 70l324 462h-308v112h484v-82l-321 -458h326v-104h-505v70z" />
    <glyph glyph-name="zacute" unicode="&#x17a;" horiz-adv-x="489" 
d="M273 709h117l-88 -187h-109zM37 70l239 292h-229v112h398v-82l-234 -288h241v-104h-415v70z" />
    <glyph glyph-name="Zdotaccent" unicode="&#x17b;" horiz-adv-x="579" 
d="M252 811h105v-98h-105v98zM37 70l324 462h-308v112h484v-82l-321 -458h326v-104h-505v70z" />
    <glyph glyph-name="zdotaccent" unicode="&#x17c;" horiz-adv-x="489" 
d="M198 645h105v-98h-105v98zM37 70l239 292h-229v112h398v-82l-234 -288h241v-104h-415v70z" />
    <glyph glyph-name="Zcaron" unicode="&#x17d;" horiz-adv-x="579" 
d="M135 862h106l72 -100l74 100h104l-135 -174h-86zM37 70l324 462h-308v112h484v-82l-321 -458h326v-104h-505v70z" />
    <glyph glyph-name="zcaron" unicode="&#x17e;" horiz-adv-x="489" 
d="M68 696h106l72 -100l74 100h104l-135 -174h-86zM37 70l239 292h-229v112h398v-82l-234 -288h241v-104h-415v70z" />
    <glyph glyph-name="uni018F" unicode="&#x18f;" horiz-adv-x="679" 
d="M112 63.5c-50 49 -75.0029 116.164 -75.0029 201.497v117h481c-3.33301 43.333 -13.666 77.333 -30.999 102s-43.166 42.334 -77.499 53.001s-80.166 16 -137.499 16c-30.667 0 -65 -3.66699 -103 -11s-69.667 -16.666 -95 -27.999v99c31.333 12 67 21.833 107 29.5
s80 11.5 120 11.5c112 0 196.833 -29.167 254.5 -87.5s86.5 -142.5 86.5 -252.5c0 -103.333 -25.667 -183.166 -77 -239.499s-130 -84.5 -236 -84.5c-94.667 0 -167 24.5 -217 73.5zM517.997 283.997l-363 -0.000976562v-47c0 -47.333 15.5 -84.166 46.5 -110.499
s73.5 -39.5 127.5 -39.5c126 0 189 65.667 189 197z" />
    <glyph glyph-name="florin" unicode="&#x192;" horiz-adv-x="517" 
d="M-77 -104l20 92.999c18.667 -7.33301 37.667 -11 57 -11c28.667 0 50.167 5.16699 64.5 15.5s24.5 30.833 30.5 61.5l66 315h-66l22 104h66l10 48c10.667 50.667 33.667 91.334 69 122.001s79.666 46 132.999 46c40 0 74.333 -6.33301 103 -19l-20 -93
c-18.667 7.33301 -37.667 11 -57 11c-28.667 0 -50 -5.16699 -64 -15.5s-23.667 -28.166 -29 -53.499l-10 -46h120l-28 -104h-114l-68 -325c-10.667 -50.667 -33.667 -91.334 -69 -122.001s-79.666 -46 -132.999 -46c-40 0 -74.333 6.33301 -103 19z" />
    <glyph glyph-name="Ohorn" unicode="&#x1a0;" horiz-adv-x="780" 
d="M37 319c0 116 25.834 200.832 77.501 254.499s130.167 80.5 235.5 80.5c99.333 0 174 -24.667 224 -74c35.333 1.33301 60.166 9.83301 74.499 25.5s21.5 43.167 21.5 82.5h97c0 -61.333 -10.667 -106.666 -32 -135.999s-55.333 -48 -102 -56c20 -46 30 -105 30 -177
c0 -219.333 -104.333 -329 -313 -329s-313 109.667 -313 329zM483.001 157.499c28.667 35 43 88.833 43 161.5c0 79.333 -14 135.833 -42 169.5s-72.667 50.5 -134 50.5s-106 -16.833 -134 -50.5s-42 -90.167 -42 -169.5c0 -72.667 14.333 -126.5 43 -161.5
s73 -52.5 133 -52.5s104.333 17.5 133 52.5z" />
    <glyph glyph-name="ohorn" unicode="&#x1a1;" horiz-adv-x="694" 
d="M37 237c0 80 21.168 141.167 63.501 183.5s106.833 63.5 193.5 63.5c83.333 0 147 -20.333 191 -61c37.333 0.666992 63.166 9.5 77.499 26.5s21.5 45.833 21.5 86.5h97c0 -64 -11.5 -111.333 -34.5 -142s-59.167 -49.667 -108.5 -57c9.33301 -30 14 -63.333 14 -100
c0 -164.667 -86 -247 -258 -247c-171.333 0 -257 82.333 -257 247zM387.501 135c18.333 20 27.5 54 27.5 102s-9.16699 82 -27.5 102s-49.5 30 -93.5 30c-43.333 0 -74.166 -10 -92.499 -30s-27.5 -54 -27.5 -102s9.16699 -82 27.5 -102s49.166 -30 92.499 -30
c44 0 75.167 10 93.5 30z" />
    <glyph glyph-name="Uhorn" unicode="&#x1af;" horiz-adv-x="838" 
d="M128.5 55c-51 43.333 -76.4971 105.668 -76.4971 187.001v402h135v-392c0 -48.667 13.167 -85.334 39.5 -110.001s64.166 -37 113.499 -37s87 12.333 113 37s39 61.334 39 110.001v392h135v-64c35.333 1.33301 60.166 9.83301 74.499 25.5s21.5 43.167 21.5 82.5h97
c0 -49.333 -6.66699 -88.333 -20 -117s-33.833 -49.167 -61.5 -61.5s-64.834 -18.833 -111.501 -19.5v-248c0 -80.667 -25.333 -142.834 -76 -186.501s-121 -65.5 -211 -65.5s-160.5 21.667 -211.5 65z" />
    <glyph glyph-name="uhorn" unicode="&#x1b0;" horiz-adv-x="721" 
d="M99 38c-31.333 32 -47.0029 78.332 -47.0029 138.999v297h135v-294c0 -31.333 7.5 -54.333 22.5 -69s38.167 -22 69.5 -22c22.667 0 43.834 4.5 63.501 13.5s36.834 20.833 51.501 35.5v336h135v-50c30.667 2.66699 52 12.5 64 29.5s18 44.5 18 82.5h97
c0 -70.667 -14 -121.167 -42 -151.5s-73.667 -47.166 -137 -50.499v-334h-125l-5 45c-46 -36.667 -101.667 -55 -167 -55c-57.333 0 -101.666 16 -132.999 48z" />
    <glyph glyph-name="uni01CD" unicode="&#x1cd;" horiz-adv-x="713" 
d="M178 862h106l72 -100l74 100h104l-135 -174h-86zM283 644h148l245 -644h-140l-61 155h-237l-60 -155h-141zM455 259l-99 259l-98 -259h197z" />
    <glyph glyph-name="uni01CE" unicode="&#x1ce;" horiz-adv-x="554" 
d="M109 696h106l72 -100l74 100h104l-135 -174h-86zM85.5 28.5c-32.333 25.667 -48.499 61.835 -48.499 108.502c0 47.333 16.833 84.833 50.5 112.5s82.167 41.5 145.5 41.5h140v13c0 20 -3.5 35.667 -10.5 47s-19.333 19.666 -37 24.999s-42.834 8 -75.501 8
c-54 0 -106 -8.33301 -156 -25v95c23.333 9.33301 50.833 16.666 82.5 21.999s65.5 8 101.5 8c149.333 0 224 -61 224 -183v-301h-117l-7 43c-38.667 -35.333 -96 -53 -172 -53c-48 0 -88.167 12.833 -120.5 38.5zM319.501 93.501c22.333 9.66699 40.167 22.5 53.5 38.5v75
h-137c-52.667 0 -79 -21.667 -79 -65c0 -42 28.667 -63 86 -63c28.667 0 54.167 4.83301 76.5 14.5z" />
    <glyph glyph-name="uni01CF" unicode="&#x1cf;" horiz-adv-x="250" 
d="M-53 862h106l72 -100l74 100h104l-135 -174h-86zM57 644h135v-644h-135v644z" />
    <glyph glyph-name="uni01D0" unicode="&#x1d0;" horiz-adv-x="321" 
d="M0 696h106l72 -100l74 100h104l-135 -174h-86zM128 374h-71l12 100h194v-474h-135v374z" />
    <glyph glyph-name="uni01D1" unicode="&#x1d1;" horiz-adv-x="700" 
d="M172 862h106l72 -100l74 100h104l-135 -174h-86zM37 319c0 116 25.833 200.833 77.5 254.5s130.167 80.5 235.5 80.5s183.833 -26.833 235.5 -80.5s77.5 -138.5 77.5 -254.5c0 -219.333 -104.333 -329 -313 -329s-313 109.667 -313 329zM483 157.5
c28.667 35 43 88.833 43 161.5c0 79.333 -14 135.833 -42 169.5s-72.667 50.5 -134 50.5s-106 -16.833 -134 -50.5s-42 -90.167 -42 -169.5c0 -72.667 14.333 -126.5 43 -161.5s73 -52.5 133 -52.5s104.333 17.5 133 52.5z" />
    <glyph glyph-name="uni01D2" unicode="&#x1d2;" horiz-adv-x="589" 
d="M116 696h106l72 -100l74 100h104l-135 -174h-86zM37 237c0 80 21.166 141.167 63.499 183.5s106.833 63.5 193.5 63.5s151.334 -21.167 194.001 -63.5s64 -103.5 64 -183.5c0 -164.667 -86 -247 -258 -247c-171.333 0 -257 82.333 -257 247zM387.499 135
c18.333 20 27.5 54 27.5 102s-9.16699 82 -27.5 102s-49.5 30 -93.5 30c-43.333 0 -74.166 -10 -92.499 -30s-27.5 -54 -27.5 -102s9.16699 -82 27.5 -102s49.166 -30 92.499 -30c44 0 75.167 10 93.5 30z" />
    <glyph glyph-name="uni01D3" unicode="&#x1d3;" horiz-adv-x="679" 
d="M162 862h106l72 -100l74 100h104l-135 -174h-86zM128.5 55c-51 43.333 -76.499 105.668 -76.499 187.001v402h135v-392c0 -48.667 13.167 -85.334 39.5 -110.001s64.166 -37 113.499 -37s87 12.333 113 37s39 61.334 39 110.001v392h135v-402
c0 -80.667 -25.333 -142.834 -76 -186.501s-121 -65.5 -211 -65.5s-160.5 21.667 -211.5 65z" />
    <glyph glyph-name="uni01D4" unicode="&#x1d4;" horiz-adv-x="587" 
d="M113 696h106l72 -100l74 100h104l-135 -174h-86zM99 38c-31.333 32 -47.0029 78.333 -47.0029 139v297h135v-294c0 -31.333 7.5 -54.333 22.5 -69s38.167 -22 69.5 -22c22.667 0 43.834 4.5 63.501 13.5s36.834 20.833 51.501 35.5v336h135v-474h-125l-5 45
c-46 -36.667 -101.667 -55 -167 -55c-57.333 0 -101.666 16 -132.999 48z" />
    <glyph glyph-name="uni01D5" unicode="&#x1d5;" horiz-adv-x="679" 
d="M186 943h308v-83h-308v83zM189 800h106v-98h-106v98zM385 800h106v-98h-106v98zM128.5 55c-51 43.333 -76.499 105.668 -76.499 187.001v402h135v-392c0 -48.667 13.167 -85.334 39.5 -110.001s64.166 -37 113.499 -37s87 12.333 113 37s39 61.334 39 110.001v392h135
v-402c0 -80.667 -25.333 -142.834 -76 -186.501s-121 -65.5 -211 -65.5s-160.5 21.667 -211.5 65z" />
    <glyph glyph-name="uni01D6" unicode="&#x1d6;" horiz-adv-x="587" 
d="M142 789h308v-83h-308v83zM144 635h106v-98h-106v98zM340 635h106v-98h-106v98zM99 38c-31.333 32 -47.0029 78.333 -47.0029 139v297h135v-294c0 -31.333 7.5 -54.333 22.5 -69s38.167 -22 69.5 -22c22.667 0 43.834 4.5 63.501 13.5s36.834 20.833 51.501 35.5v336h135
v-474h-125l-5 45c-46 -36.667 -101.667 -55 -167 -55c-57.333 0 -101.666 16 -132.999 48z" />
    <glyph glyph-name="uni01D7" unicode="&#x1d7;" horiz-adv-x="679" 
d="M349 930h102l-66 -129h-95zM189 781h101v-93h-101v93zM390 781h101v-93h-101v93zM128.5 55c-51 43.333 -76.499 105.668 -76.499 187.001v402h135v-392c0 -48.667 13.167 -85.334 39.5 -110.001s64.166 -37 113.499 -37s87 12.333 113 37s39 61.334 39 110.001v392h135
v-402c0 -80.667 -25.333 -142.834 -76 -186.501s-121 -65.5 -211 -65.5s-160.5 21.667 -211.5 65z" />
    <glyph glyph-name="uni01D8" unicode="&#x1d8;" horiz-adv-x="587" 
d="M292 764h102l-66 -129h-95zM132 615h101v-93h-101v93zM333 615h101v-93h-101v93zM99 38c-31.333 32 -47.0029 78.333 -47.0029 139v297h135v-294c0 -31.333 7.5 -54.333 22.5 -69s38.167 -22 69.5 -22c22.667 0 43.834 4.5 63.501 13.5s36.834 20.833 51.501 35.5v336
h135v-474h-125l-5 45c-46 -36.667 -101.667 -55 -167 -55c-57.333 0 -101.666 16 -132.999 48z" />
    <glyph glyph-name="uni01D9" unicode="&#x1d9;" horiz-adv-x="679" 
d="M181 919h100l60 -73l61 73h98l-113 -121h-93zM189 781h101v-93h-101v93zM390 781h101v-93h-101v93zM128.5 55c-51 43.333 -76.499 105.668 -76.499 187.001v402h135v-392c0 -48.667 13.167 -85.334 39.5 -110.001s64.166 -37 113.499 -37s87 12.333 113 37
s39 61.334 39 110.001v392h135v-402c0 -80.667 -25.333 -142.834 -76 -186.501s-121 -65.5 -211 -65.5s-160.5 21.667 -211.5 65z" />
    <glyph glyph-name="uni01DA" unicode="&#x1da;" horiz-adv-x="587" 
d="M135 752h100l60 -73l61 73h98l-113 -121h-93zM143 614h101v-93h-101v93zM344 614h101v-93h-101v93zM99 38c-31.333 32 -47.0029 78.333 -47.0029 139v297h135v-294c0 -31.333 7.5 -54.333 22.5 -69s38.167 -22 69.5 -22c22.667 0 43.834 4.5 63.501 13.5
s36.834 20.833 51.501 35.5v336h135v-474h-125l-5 45c-46 -36.667 -101.667 -55 -167 -55c-57.333 0 -101.666 16 -132.999 48z" />
    <glyph glyph-name="uni01DB" unicode="&#x1db;" horiz-adv-x="679" 
d="M228 930h102l59 -129h-95zM188 781h101v-93h-101v93zM389 781h101v-93h-101v93zM128.5 55c-51 43.333 -76.499 105.668 -76.499 187.001v402h135v-392c0 -48.667 13.167 -85.334 39.5 -110.001s64.166 -37 113.499 -37s87 12.333 113 37s39 61.334 39 110.001v392h135
v-402c0 -80.667 -25.333 -142.834 -76 -186.501s-121 -65.5 -211 -65.5s-160.5 21.667 -211.5 65z" />
    <glyph glyph-name="uni01DC" unicode="&#x1dc;" horiz-adv-x="587" 
d="M187 764h102l59 -129h-95zM147 615h101v-93h-101v93zM348 615h101v-93h-101v93zM99 38c-31.333 32 -47.0029 78.333 -47.0029 139v297h135v-294c0 -31.333 7.5 -54.333 22.5 -69s38.167 -22 69.5 -22c22.667 0 43.834 4.5 63.501 13.5s36.834 20.833 51.501 35.5v336h135
v-474h-125l-5 45c-46 -36.667 -101.667 -55 -167 -55c-57.333 0 -101.666 16 -132.999 48z" />
    <glyph glyph-name="Gcaron" unicode="&#x1e6;" horiz-adv-x="644" 
d="M189 861h106l72 -100l74 100h104l-135 -174h-86zM122 74.5c-56.667 56.333 -84.999 135.167 -84.999 236.5c0 108 28.833 192.167 86.5 252.5s141.5 90.5 251.5 90.5c73.333 0 138 -9 194 -27v-116c-52 18.667 -113.333 28 -184 28c-75.333 0 -129.333 -18.5 -162 -55.5
s-49 -94.5 -49 -172.5c0 -138 65 -207 195 -207c44.667 0 86 6.66699 124 20v150h-150v86h264v-315c-25.333 -16 -58 -29.167 -98 -39.5s-87.333 -15.5 -142 -15.5c-106.667 0 -188.334 28.167 -245.001 84.5z" />
    <glyph glyph-name="gcaron" unicode="&#x1e7;" horiz-adv-x="562" 
d="M114 696h106l72 -100l74 100h104l-135 -174h-86zM147.5 -169c-37 4.66699 -67.834 11.333 -92.501 20v101c26 -8.66699 56.833 -15.5 92.5 -20.5s69.834 -7.5 102.501 -7.5c47.333 0 81 2.5 101 7.5s30 13.833 30 26.5c0 10.667 -4.66699 18 -14 22s-28 6 -56 6h-129
c-42 0 -73.667 8 -95 24s-32 39.333 -32 70c0 20 5.5 37.833 16.5 53.5s27.833 28.167 50.5 37.5c-54 27.333 -81 73.333 -81 138c0 60 18.833 104.167 56.5 132.5s94.167 42.5 169.5 42.5c14 0 30 -1 48 -3s32.667 -4.33301 44 -7h178l-3 -85h-75
c20.667 -19.333 31 -46.333 31 -81c0 -50 -15.667 -89.167 -47 -117.5s-76.333 -42.5 -135 -42.5c-18 0 -38 1.66699 -60 5c-21.333 -2.66699 -38.5 -7.5 -51.5 -14.5s-19.5 -15.833 -19.5 -26.5c0 -8.66699 3.33301 -14.667 10 -18s17 -5 31 -5h134c48 0 85 -11 111 -33
s39 -53.333 39 -94c0 -92 -81.667 -138 -245 -138c-36 0 -72.5 2.33301 -109.5 7zM350.999 244.499c16 13.667 24 36.833 24 69.5c0 33.333 -8 57.166 -24 71.499s-43.667 21.5 -83 21.5c-38 0 -65.333 -7.16699 -82 -21.5s-25 -38.166 -25 -71.499c0 -32 8 -55 24 -69
s43.667 -21 83 -21s67 6.83301 83 20.5z" />
    <glyph glyph-name="Aringacute" unicode="&#x1fa;" horiz-adv-x="713" 
d="M402 854h-109l80 187h117zM676 0l-140.001 0.00195312l-61 155h-237l-60 -155h-141l237 621c-13.333 11.333 -23.666 25 -30.999 41s-11 33.333 -11 52c0 34 11.333 62.5 34 85.5s52.667 34.5 90 34.5c38 0 68.333 -11.333 91 -34s34 -51.334 34 -86.001
c0 -38.667 -14 -69.334 -42 -92.001zM313.999 754.502c-10.667 -11 -16 -24.502 -16 -40.502s5.33301 -29.5 16 -40.5s24.667 -16.5 42 -16.5c18 0 32.333 5.33301 43 16s16 24.334 16 41.001s-5.33301 30.334 -16 41.001s-25 16 -43 16c-17.333 0 -31.333 -5.5 -42 -16.5z
M454.999 259l-99 259l-98 -259h197z" />
    <glyph glyph-name="aringacute" unicode="&#x1fb;" horiz-adv-x="554" 
d="M312 935h117l-88 -149h-109zM201 551c-22.667 22.667 -34 51.001 -34 85.001s11.333 62.5 34 85.5s52.667 34.5 90 34.5c38 0 68.333 -11.333 91 -34s34 -51.334 34 -86.001s-11.333 -63.167 -34 -85.5s-53 -33.5 -91 -33.5c-37.333 0 -67.333 11.333 -90 34z
M334 595.001c10.667 10.667 16 24.332 16 40.999s-5.33301 30.334 -16 41.001s-25 16 -43 16c-17.333 0 -31.333 -5.5 -42 -16.5s-16 -24.5 -16 -40.5s5.33301 -29.5 16 -40.5s24.667 -16.5 42 -16.5c18 0 32.333 5.33301 43 16zM85.5 28.499
c-32.333 25.667 -48.499 61.835 -48.499 108.502c0 47.333 16.833 84.833 50.5 112.5s82.167 41.5 145.5 41.5h140v13c0 20 -3.5 35.667 -10.5 47s-19.333 19.666 -37 24.999s-42.834 8 -75.501 8c-54 0 -106 -8.33301 -156 -25v95
c23.333 9.33301 50.833 16.666 82.5 21.999s65.5 8 101.5 8c149.333 0 224 -61 224 -183v-301h-117l-7 43c-38.667 -35.333 -96 -53 -172 -53c-48 0 -88.167 12.833 -120.5 38.5zM319.501 93.5c22.333 9.66699 40.167 22.5 53.5 38.5v75h-137c-52.667 0 -79 -21.667 -79 -65
c0 -42 28.667 -63 86 -63c28.667 0 54.167 4.83301 76.5 14.5z" />
    <glyph glyph-name="AEacute" unicode="&#x1fc;" horiz-adv-x="849" 
d="M501 875h117l-88 -187h-109zM283 644h529v-105h-274v-165h237v-104h-237v-166h274v-104h-409v156h-160l-60 -156h-146zM403 260v284h-26l-103 -284h129z" />
    <glyph glyph-name="aeacute" unicode="&#x1fd;" horiz-adv-x="882" 
d="M463 709h117l-88 -187h-109zM88.5 28.5c-34.333 25.667 -51.499 61.834 -51.499 108.501c0 47.333 16.833 84.833 50.5 112.5s82.167 41.5 145.5 41.5h140v13c0 20 -3.5 35.667 -10.5 47s-19.333 19.666 -37 24.999s-42.834 8 -75.501 8c-54 0 -106 -8.33301 -156 -25v95
c23.333 9.33301 50.833 16.666 82.5 21.999s65.5 8 101.5 8c78 0 135.333 -17.333 172 -52c19.333 16.667 43.333 29.5 72 38.5s60.667 13.5 96 13.5c72 0 127.833 -18.833 167.5 -56.5s59.5 -88.167 59.5 -151.5v-86h-343c6.66699 -37.333 23.667 -63.666 51 -78.999
s67 -23 119 -23c25.333 0 51.166 2.33301 77.499 7s48.833 10.667 67.5 18v-93c-44 -20 -101.667 -30 -173 -30c-38 0 -75 6.66699 -111 20s-63.667 32.333 -83 57c-31.333 -26.667 -64.166 -46.167 -98.499 -58.5s-78.833 -18.5 -133.5 -18.5
c-52 0 -95.167 12.833 -129.5 38.5zM727.001 273v26.001c0 58.667 -35 88 -105 88c-44 0 -75 -8.83301 -93 -26.5s-27 -46.834 -27 -87.501h225zM373.001 128.001l0.000976562 79h-137c-52.667 0 -79 -21.667 -79 -65c0 -42 28.667 -63 86 -63
c55.333 0 98.666 16.333 129.999 49z" />
    <glyph glyph-name="Oslashacute" unicode="&#x1fe;" horiz-adv-x="700" 
d="M349 875h117l-88 -187h-109zM189 20c-101.333 46 -151.999 145.667 -151.999 299c0 116 25.833 200.833 77.5 254.5s130.167 80.5 235.5 80.5c28 0 54 -2 78 -6l17 45h77l-24 -63c55.333 -20.667 96.666 -56.5 123.999 -107.5s41 -118.833 41 -203.5
c0 -219.333 -104.333 -329 -313 -329c-34 0 -65 3 -93 9l-19 -52h-77zM385.001 537c-14.667 1.33301 -26.333 2 -35 2c-61.333 0 -106 -16.833 -134 -50.5s-42 -90.167 -42 -169.5c0 -86 20 -145.667 60 -179zM483.002 157.5c28.667 35 43.001 88.833 43.001 161.5
c0 52 -5.83301 93.833 -17.5 125.5s-29.834 55.167 -54.501 70.5l-154 -406c13.333 -2.66699 30 -4 50 -4c60 0 104.333 17.5 133 52.5z" />
    <glyph glyph-name="oslashacute" unicode="&#x1ff;" horiz-adv-x="589" 
d="M295 709h117l-88 -187h-109zM166 11c-86 34 -129 109.333 -129 226c0 80 21.167 141.167 63.5 183.5s106.833 63.5 193.5 63.5c18 0 35 -1 51 -3l18 47h77l-24 -63c90.667 -33.333 136 -109.333 136 -228c0 -164.667 -86 -247 -258 -247c-22.667 0 -42 1.33301 -58 4
l-17 -47h-77zM302 369h-8.00195c-43.333 0 -74.166 -10 -92.499 -30s-27.5 -54 -27.5 -102c0 -28 2.83301 -51 8.5 -69s14.834 -32 27.501 -42zM293.998 105c44 0 75.167 10.001 93.5 30.001s27.5 54 27.5 102c0 30 -3.5 54.167 -10.5 72.5s-17.833 32.166 -32.5 41.499
l-93 -246h15z" />
    <glyph glyph-name="Scommaaccent" unicode="&#x218;" horiz-adv-x="555" 
d="M49 25l-0.00488281 119.004c30 -12 62 -21.667 96 -29s67 -11 99 -11c50 0 85.167 4.66699 105.5 14s30.5 28.666 30.5 57.999c0 19.333 -4.66699 34.666 -14 45.999s-24.666 21.166 -45.999 29.499s-54.666 18.833 -99.999 31.5c-67.333 18.667 -114.666 42 -141.999 70
s-41 66.667 -41 116c0 59.333 21.667 105 65 137s106.333 48 189 48c37.333 0 72.833 -2.5 106.5 -7.5s61.167 -11.5 82.5 -19.5v-119c-54.667 20.667 -111.667 31 -171 31c-45.333 0 -79.166 -5 -101.499 -15s-33.5 -28.333 -33.5 -55c0 -16.667 4.16699 -30 12.5 -40
s22.333 -18.833 42 -26.5s50.167 -16.834 91.5 -27.501c74.667 -20 126.334 -45.833 155.001 -77.5s43 -72.167 43 -121.5c0 -58 -22 -103.5 -66 -136.5s-109 -49.5 -195 -49.5s-155.333 11.667 -208 35zM223.995 -46.9961h117l-43 -179h-103z" />
    <glyph glyph-name="scommaaccent" unicode="&#x219;" horiz-adv-x="471" 
d="M124 -3c-32 4.66699 -58 11 -78 19v112c22 -9.33301 47.667 -16.5 77 -21.5s57 -7.5 83 -7.5c34.667 0 58.5 2.16699 71.5 6.5s19.5 13.166 19.5 26.499c0 12 -6 21.333 -18 28s-35 15.334 -69 26.001c-10 2.66699 -22.667 6.66699 -38 12
c-46.667 15.333 -80.834 33.666 -102.501 54.999s-32.5 51.333 -32.5 90c0 46 16.833 81 50.5 105s86.5 36 158.5 36c27.333 0 54.166 -2 80.499 -6s49.166 -9.33301 68.499 -16v-111c-17.333 8 -37.666 14.333 -60.999 19s-45.333 7 -66 7c-32 0 -55.667 -2.16699 -71 -6.5
s-23 -12.833 -23 -25.5c0 -11.333 5.5 -19.833 16.5 -25.5s32.167 -13.167 63.5 -22.5l33 -10c38.667 -12 68.334 -24.5 89.001 -37.5s35.5 -28.5 44.5 -46.5s13.5 -41 13.5 -69c0 -47.333 -17.667 -83.166 -53 -107.499s-87.666 -36.5 -156.999 -36.5
c-34.667 0 -68 2.33301 -100 7zM185 -47h117l-43 -179h-103z" />
    <glyph glyph-name="uni021A" unicode="&#x21a;" horiz-adv-x="552" 
d="M203 540h-198v104h530v-104h-197v-540h-135v540zM222 -47h106l-50 -201h-87z" />
    <glyph glyph-name="uni021B" unicode="&#x21b;" horiz-adv-x="368" 
d="M124 32c-26.667 28 -40 67.333 -40 118v220h-67v104h67v102l135 40v-142h120l-8 -104h-112v-211c0 -25.333 5.83301 -43 17.5 -53s30.5 -15 56.5 -15c18.667 0 38 3.33301 58 10v-93c-30 -12 -65.333 -18 -106 -18c-54 0 -94.333 14 -121 42zM178 -47h106l-50 -201h-87z
" />
    <glyph glyph-name="uni0237" unicode="&#x237;" horiz-adv-x="321" 
d="M-9 -216v93c20 -6.66699 40 -10 60 -10c26.667 0 46.167 5.5 58.5 16.5s18.5 28.5 18.5 52.5v438h-71l12 100h194v-551c0 -48.667 -13.833 -87 -41.5 -115s-68.5 -42 -122.5 -42c-42 0 -78 6 -108 18z" />
    <glyph glyph-name="uni0251" unicode="&#x251;" horiz-adv-x="591" 
d="M95.5 44c-39 36 -58.499 92.667 -58.499 170c0 54.667 10.333 102.5 31 143.5s48.5 72.333 83.5 94s73.5 32.5 115.5 32.5c27.333 0 51.333 -3 72 -9s40.334 -16.667 59.001 -32v31h135v-474h-116l-8 44c-20.667 -18 -43.334 -31.5 -68.001 -40.5
s-53.334 -13.5 -86.001 -13.5c-67.333 0 -120.5 18 -159.5 54zM350.001 99c16.667 6.66699 32.667 17.667 48 33v211c-27.333 28 -59.333 42 -96 42c-42 0 -73.833 -14.5 -95.5 -43.5s-32.5 -71.5 -32.5 -127.5c0 -46.667 9.66699 -79.167 29 -97.5s49 -27.5 89 -27.5
c22 0 41.333 3.33301 58 10z" />
    <glyph glyph-name="uni0259" unicode="&#x259;" horiz-adv-x="542" 
d="M95.5 43.5c-39 35.667 -58.5029 87.168 -58.5029 154.501v86h343c-6.66699 37.333 -22.667 63.166 -48 77.499s-66 21.5 -122 21.5c-25.333 0 -51.166 -2.33301 -77.499 -7s-48.833 -10.667 -67.5 -18v96c44 20 101.667 30 173 30c90 0 157 -20.5 201 -61.5
s66 -103.167 66 -186.5c0 -48 -9.66699 -90.5 -29 -127.5s-47.166 -66 -83.499 -87s-79.166 -31.5 -128.499 -31.5c-73.333 0 -129.5 17.833 -168.5 53.5zM352.997 113.501c18 17.667 27 46.833 27 87.5h-225v-26c0 -58.667 35 -88 105 -88c44 0 75 8.83301 93 26.5z" />
    <glyph glyph-name="uni02BB" unicode="&#x2bb;" horiz-adv-x="246" 
d="M107 654h102l-56 -206h-116z" />
    <glyph glyph-name="uni02BC" unicode="&#x2bc;" horiz-adv-x="246" 
d="M93 654h116l-70 -206h-102z" />
    <glyph glyph-name="uni02BE" unicode="&#x2be;" 
d="M-385 540c24 0 42.333 6.49805 55 19.498s19 31.167 19 54.5c0 22.667 -6.33301 40.334 -19 53.001s-31 19 -55 19v85c48.667 0 87 -14.333 115 -43s42 -66.667 42 -114s-14 -85.666 -42 -114.999s-66.333 -44 -115 -44v85z" />
    <glyph glyph-name="uni02BF" unicode="&#x2bf;" 
d="M-343 499c-28 29.333 -42 67.668 -42 115.001s14 85.333 42 114s66.333 43 115 43v-85c-24 0 -42.333 -6.33301 -55 -19s-19 -30.334 -19 -53.001c0 -23.333 6.33301 -41.5 19 -54.5s31 -19.5 55 -19.5v-85c-48.667 0 -87 14.667 -115 44z" />
    <glyph glyph-name="circumflex" unicode="&#x2c6;" horiz-adv-x="295" 
d="M104 706h86l135 -174h-104l-74 100l-72 -100h-106z" />
    <glyph glyph-name="caron" unicode="&#x2c7;" horiz-adv-x="295" 
d="M-31 706h106l72 -100l74 100h104l-135 -174h-86z" />
    <glyph glyph-name="uni02C8" unicode="&#x2c8;" 
d="M-67 666h88v-186h-88v186z" />
    <glyph glyph-name="uni02C9" unicode="&#x2c9;" 
d="M121 644h308v-83h-308v83z" />
    <glyph glyph-name="uni02CA" unicode="&#x2ca;" 
d="M-41 709h117l-88 -187h-109z" />
    <glyph glyph-name="uni02CB" unicode="&#x2cb;" 
d="M-125 709h117l80 -187h-109z" />
    <glyph glyph-name="uni02CC" unicode="&#x2cc;" 
d="M-67 -41h88v-186h-88v186z" />
    <glyph glyph-name="breve" unicode="&#x2d8;" horiz-adv-x="266" 
d="M17 577c-28.667 28 -43.001 66.333 -43.001 115h90c0 -22.667 5.83301 -41.5 17.5 -56.5s28.167 -22.5 49.5 -22.5c22 0 39 7.66699 51 23s18 34 18 56h90c0 -48.667 -14.667 -87 -44 -115s-67.666 -42 -114.999 -42s-85.333 14 -114 42z" />
    <glyph glyph-name="dotaccent" unicode="&#x2d9;" horiz-adv-x="110" 
d="M2 655h105v-98h-105v98z" />
    <glyph glyph-name="ring" unicode="&#x2da;" horiz-adv-x="266" 
d="M51 559.5c-23.333 21.667 -35 49.167 -35 82.5s11.667 61 35 83s52 33 86 33s62.5 -11 85.5 -33s34.5 -49.667 34.5 -83s-11.5 -60.833 -34.5 -82.5s-51.5 -32.5 -85.5 -32.5s-62.667 10.833 -86 32.5zM170 609c9.33301 9.33301 14 20.333 14 33
c0 13.333 -4.66699 24.666 -14 33.999s-20.333 14 -33 14s-23.834 -4.66699 -33.501 -14s-14.5 -20.666 -14.5 -33.999c0 -12.667 4.83301 -23.667 14.5 -33s20.834 -14 33.501 -14s23.667 4.66699 33 14z" />
    <glyph glyph-name="ogonek" unicode="&#x2db;" horiz-adv-x="208" 
d="M41 -196.5c-22 15.667 -33 38.168 -33 67.501c0 25.333 6.33301 49.166 19 71.499s30.667 41.5 54 57.5h100c-44.667 -33.333 -67 -68 -67 -104c0 -24.667 15 -37 45 -37c20 0 36.333 3.66699 49 11v-76c-9.33301 -4 -21.833 -7.33301 -37.5 -10s-31.5 -4 -47.5 -4
c-32.667 0 -60 7.83301 -82 23.5z" />
    <glyph glyph-name="tilde" unicode="&#x2dc;" horiz-adv-x="336" 
d="M213 561c-12.667 3.33301 -29.001 8.66797 -49.001 16.001c-31.333 12.667 -55.666 19 -72.999 19c-37.333 0 -67.333 -12.333 -90 -37v96c9.33301 9.33301 21.833 16.833 37.5 22.5s32.167 8.5 49.5 8.5c14 0 27.5 -1.83301 40.5 -5.5s27.5 -8.83398 43.5 -15.501
c18.667 -6.66699 33.167 -11.5 43.5 -14.5s21.5 -4.5 33.5 -4.5c37.333 0 65 12.667 83 38v-96c-6.66699 -9.33301 -17.167 -17 -31.5 -23s-30.5 -9 -48.5 -9c-13.333 0 -26.333 1.66699 -39 5z" />
    <glyph glyph-name="hungarumlaut" unicode="&#x2dd;" horiz-adv-x="359" 
d="M47 706h120l-92 -176h-107zM275 706h120l-92 -176h-107z" />
    <glyph glyph-name="gravecomb" unicode="&#x300;" 
d="M-475 709h117l80 -187h-109z" />
    <glyph glyph-name="acutecomb" unicode="&#x301;" 
d="M-350 709h117l-88 -187h-109z" />
    <glyph glyph-name="uni0302" unicode="&#x302;" 
d="M-77 706h86l135 -174h-104l-74 100l-72 -100h-106z" />
    <glyph glyph-name="tildecomb" unicode="&#x303;" 
d="M-291 561c-12.667 3.33301 -29 8.66797 -49 16.001c-32 12.667 -56.333 19 -73 19c-37.333 0 -67.333 -12.333 -90 -37v96c9.33301 9.33301 21.833 16.833 37.5 22.5s32.167 8.5 49.5 8.5c14 0 27.5 -1.83301 40.5 -5.5s27.5 -8.83398 43.5 -15.501
c18.667 -6.66699 33.167 -11.5 43.5 -14.5s21.5 -4.5 33.5 -4.5c37.333 0 65 12.667 83 38v-96c-6.66699 -9.33301 -17.167 -17 -31.5 -23s-30.5 -9 -48.5 -9c-13.333 0 -26.333 1.66699 -39 5z" />
    <glyph glyph-name="uni0304" unicode="&#x304;" 
d="M-185 644h308v-83h-308v83z" />
    <glyph glyph-name="uni0306" unicode="&#x306;" 
d="M-137 577c-28.667 28 -43.001 66.333 -43.001 115h90c0 -22.667 5.83301 -41.5 17.5 -56.5s28.167 -22.5 49.5 -22.5c22 0 39 7.66699 51 23s18 34 18 56h90c0 -48.667 -14.667 -87 -44 -115s-67.666 -42 -114.999 -42s-85.333 14 -114 42z" />
    <glyph glyph-name="uni0307" unicode="&#x307;" 
d="M-75 655h105v-98h-105v98z" />
    <glyph glyph-name="uni0308" unicode="&#x308;" 
d="M-157 655h106v-98h-106v98zM39 655h106v-98h-106v98z" />
    <glyph glyph-name="hookabovecomb" unicode="&#x309;" 
d="M-378 587c35.333 2 59.167 6.49902 71.5 13.499s18.5 18.5 18.5 34.5c0 26 -23 39 -69 39c-10 0 -21 -1 -33 -3s-21.667 -4.66699 -29 -8v67c26 8.66699 59.333 13 100 13c42 0 74.333 -8.66699 97 -26s34 -40.666 34 -69.999c0 -28 -6.5 -49.333 -19.5 -64
s-35.5 -25 -67.5 -31v-46h-103v81z" />
    <glyph glyph-name="uni030A" unicode="&#x30a;" 
d="M-113 552c-22.667 22.667 -34 51.001 -34 85.001s11.333 62.5 34 85.5s52.667 34.5 90 34.5c38 0 68.333 -11.333 91 -34s34 -51.334 34 -86.001s-11.333 -63.167 -34 -85.5s-53 -33.5 -91 -33.5c-37.333 0 -67.333 11.333 -90 34zM20 596.001
c10.667 10.667 16 24.332 16 40.999s-5.33301 30.334 -16 41.001s-25 16 -43 16c-17.333 0 -31.333 -5.5 -42 -16.5s-16 -24.5 -16 -40.5s5.33301 -29.5 16 -40.5s24.667 -16.5 42 -16.5c18 0 32.333 5.33301 43 16z" />
    <glyph glyph-name="uni030B" unicode="&#x30b;" 
d="M-168 706h120l-92 -176h-107zM60 706h120l-92 -176h-107z" />
    <glyph glyph-name="uni030C" unicode="&#x30c;" 
d="M-212 706h106l72 -100l74 100h104l-135 -174h-86z" />
    <glyph glyph-name="uni031B" unicode="&#x31b;" 
d="M-130 608c28 0 49.5 3.16895 64.5 9.50195s25.5 17.166 31.5 32.499s9 37.333 9 66h97c0 -50.667 -6.83301 -90 -20.5 -118s-35 -47.833 -64 -59.5s-68.167 -17.834 -117.5 -18.501v88z" />
    <glyph glyph-name="dotbelowcomb" unicode="&#x323;" 
d="M-376 -82h107v-99h-107v99z" />
    <glyph glyph-name="uni0324" unicode="&#x324;" 
d="M-181 -82h107v-99h-107v99zM28 -82h107v-99h-107v99z" />
    <glyph glyph-name="uni0326" unicode="&#x326;" 
d="M-148 -37h106l-50 -201h-87z" />
    <glyph glyph-name="uni0327" unicode="&#x327;" 
d="M-75 -237.5c-16 1.66699 -27.666 3.5 -34.999 5.5v68c19.333 -5.33301 39.666 -8 60.999 -8c30.667 0 51.667 2.33301 63 7s17 14.667 17 30c0 16 -6 26.167 -18 30.5s-31.667 6.5 -59 6.5h-44l29 98h88l-15 -45c34.667 0 61 -8 79 -24s27 -38.333 27 -67
c0 -69.333 -50.667 -104 -152 -104c-11.333 0 -25 0.833008 -41 2.5z" />
    <glyph glyph-name="uni0328" unicode="&#x328;" 
d="M-89 -196.5c-22 15.667 -33 38.168 -33 67.501c0 25.333 6.33301 49.166 19 71.499s30.667 41.5 54 57.5h100c-44.667 -33.333 -67 -68 -67 -104c0 -24.667 15 -37 45 -37c20 0 36.333 3.66699 49 11v-76c-9.33301 -4 -21.833 -7.33301 -37.5 -10s-31.5 -4 -47.5 -4
c-32.667 0 -60 7.83301 -82 23.5z" />
    <glyph glyph-name="uni032E" unicode="&#x32e;" 
d="M-137 -175c-28.667 28 -43.001 66.333 -43.001 115h90c0 -22.667 5.83301 -41.5 17.5 -56.5s28.167 -22.5 49.5 -22.5c22 0 39 7.5 51 22.5s18 33.833 18 56.5h90c0 -48.667 -14.667 -87 -44 -115s-67.666 -42 -114.999 -42s-85.333 14 -114 42z" />
    <glyph glyph-name="uni0331" unicode="&#x331;" 
d="M-185 -72h308v-83h-308v83z" />
    <glyph glyph-name="uni0394" unicode="&#x394;" horiz-adv-x="644" 
d="M37 73l225 571h118l227 -572v-72h-570v73zM475 104l-154 391l-155 -391h309z" />
    <glyph glyph-name="uni03A9" unicode="&#x3a9;" horiz-adv-x="759" 
d="M44 100h128.001c-43.333 28.667 -76.666 65.5 -99.999 110.5s-35 96.833 -35 155.5c0 65.333 13.5 122.833 40.5 172.5s66.167 88.167 117.5 115.5s112.666 41 183.999 41s132.666 -13.667 183.999 -41s90.5 -65.833 117.5 -115.5s40.5 -107.167 40.5 -172.5
c0 -60 -11.5 -112.5 -34.5 -157.5s-56.5 -81.167 -100.5 -108.5h128v-100h-286v103c104 58 156 143 156 255c0 66.667 -18.5 120.334 -55.5 161.001s-86.833 61 -149.5 61s-112.5 -20.333 -149.5 -61s-55.5 -94.334 -55.5 -161.001c0 -112 52 -197 156 -255v-103h-286v100z
" />
    <glyph glyph-name="uni03BC" unicode="&#x3bc;" horiz-adv-x="592" 
d="M57 474h134.998v-294c0 -31.333 7.5 -54.333 22.5 -69s38.167 -22 69.5 -22c22.667 0 43.834 4.5 63.501 13.5s36.834 20.833 51.501 35.5v336h135v-474h-125l-5 45c-46 -36.667 -101.667 -55 -167 -55c-16.667 0 -31.667 2.66699 -45 8v-141h-135v617z" />
    <glyph glyph-name="pi" unicode="&#x3c0;" horiz-adv-x="676" 
d="M427 32c-26.667 28 -40 67.333 -40 118v220h-160v-370h-135v370h-65v104h559v-104h-64v-211c0 -25.333 5.83301 -43 17.5 -53s30.5 -15 56.5 -15c18.667 0 38 3.33301 58 10v-93c-30 -12 -65.333 -18 -106 -18c-54 0 -94.333 14 -121 42z" />
    <glyph glyph-name="uni0E01" unicode="&#xe01;" horiz-adv-x="622" 
d="M62 172c0 34 5.66699 62.167 17 84.5s31.333 37.833 60 46.5l-102 27v129c31.333 26 69.833 47.667 115.5 65s95.834 26 150.501 26c85.333 0 149.5 -17.167 192.5 -51.5s64.5 -91.833 64.5 -172.5v-326h-135v329c0 42 -9.83301 71.833 -29.5 89.5
s-52.834 26.5 -99.501 26.5c-28.667 0 -55.667 -4.33301 -81 -13s-46 -19.667 -62 -33v-14l111 -30v-82c-26 -6.66699 -43.667 -17.5 -53 -32.5s-14 -38.167 -14 -69.5v-171h-135v172z" />
    <glyph glyph-name="uni0E02" unicode="&#xe02;" horiz-adv-x="595" 
d="M107 45c-41.333 36.667 -62.001 87.998 -62.001 153.998v34c0 24 4.83301 45.167 14.5 63.5s22.834 38.5 39.501 60.5c10.667 14 18.5 25.167 23.5 33.5s7.5 16.5 7.5 24.5c0 10 -2.33301 16.667 -7 20s-13 5 -25 5h-65l11 100h140c55.333 0 83 -25.667 83 -77
c0 -20 -3.66699 -38.167 -11 -54.5s-18 -36.166 -32 -59.499c-14.667 -22 -25.667 -41.5 -33 -58.5s-11 -35.833 -11 -56.5v-43c0 -31.333 9.16699 -55.166 27.5 -71.499s45.166 -24.5 80.499 -24.5c73.333 0 110 33.333 110 100v345h135v-339
c0 -65.333 -21.833 -116.833 -65.5 -154.5s-103.5 -56.5 -179.5 -56.5c-79.333 0 -139.666 18.333 -180.999 55z" />
    <glyph glyph-name="uni0E03" unicode="&#xe03;" horiz-adv-x="595" 
d="M106.5 42c-41 34.667 -61.499 84.666 -61.499 149.999v13c0 24 6.33301 47.5 19 70.5s30.667 49.5 54 79.5c13.333 17.333 23.333 31.166 30 41.499s10 19.5 10 27.5c0 12.667 -5.33301 19 -16 19c-8 0 -16.333 -3.66699 -25 -11v-41h-85v149h89v-28
c11.333 9.33301 23.333 16.333 36 21s27.667 7 45 7c53.333 0 80 -27.333 80 -82c0 -22 -4.33301 -42.167 -13 -60.5s-22 -40.833 -40 -67.5c-16.667 -24 -29 -44.667 -37 -62s-12 -35.666 -12 -54.999v-22c0 -31.333 9.16699 -55.166 27.5 -71.499
s45.166 -24.5 80.499 -24.5c73.333 0 110 33.333 110 100v345h135v-339c0 -65.333 -21.833 -116.833 -65.5 -154.5s-103.5 -56.5 -179.5 -56.5c-80 0 -140.5 17.333 -181.5 52z" />
    <glyph glyph-name="uni0E04" unicode="&#xe04;" horiz-adv-x="628" 
d="M57 335c0 68 20.8301 120.833 62.4971 158.5s105.834 56.5 192.501 56.5s150.667 -18.833 192 -56.5s62 -90.5 62 -158.5v-335h-135v345c0 32.667 -10.5 57.5 -31.5 74.5s-50.167 25.5 -87.5 25.5c-39.333 0 -69.166 -8.5 -89.499 -25.5s-30.5 -41.833 -30.5 -74.5v-97
c28 21.333 59.333 32 94 32h65l4 -107h-72c-35.333 0 -65.666 -9.66699 -90.999 -29v-144h-135v335z" />
    <glyph glyph-name="uni0E05" unicode="&#xe05;" horiz-adv-x="628" 
d="M57 386c0 51.333 11.1699 91.501 33.5029 120.501s57.166 43.5 104.499 43.5c50 0 88.667 -17 116 -51c13.333 17.333 31.166 30.166 53.499 38.499s45.166 12.5 68.499 12.5c46.667 0 80.5 -13.667 101.5 -41s31.5 -68.333 31.5 -123v-386h-134v379
c0 18.667 -3 32.667 -9 42s-17 14 -33 14c-12 0 -22 -3.16699 -30 -9.5s-15 -15.166 -21 -26.499h-55c-4.66699 11.333 -10.167 20.166 -16.5 26.499s-14.833 9.5 -25.5 9.5c-16.667 0 -29.334 -5 -38.001 -15s-13 -23.667 -13 -41v-131c28 21.333 59.333 32 94 32h66
l4 -107h-73c-35.333 0 -65.666 -9.66699 -90.999 -29v-144h-134v386z" />
    <glyph glyph-name="uni0E06" unicode="&#xe06;" horiz-adv-x="618" 
d="M187 53l-6 -52.998h-124v192c0 24 6.5 48.333 19.5 73s30.833 53 53.5 85c13.333 19.333 23.333 34.666 30 45.999s10 20.666 10 27.999c0 12.667 -5.33301 19 -16 19c-8 0 -16.333 -3.66699 -25 -11v-41h-85v149h89v-28c11.333 9.33301 23.333 16.333 36 21
s27.667 7 45 7c53.333 0 80 -27.333 80 -82c0 -22 -4.33301 -42.833 -13 -62.5s-22 -43.834 -40 -72.501c-16.667 -26 -29 -48.167 -37 -66.5s-12 -37.166 -12 -56.499v-49c14.667 -16 34.167 -29.333 58.5 -40s48.833 -16 73.5 -16c32.667 0 57 8 73 24s24 42 24 78v343
h135v-351c0 -62 -16.667 -110.667 -50 -146s-79 -53 -137 -53c-69.333 0 -130 21 -182 63z" />
    <glyph glyph-name="uni0E07" unicode="&#xe07;" horiz-adv-x="527" 
d="M149 5l-152 370h131l119 -289c49.333 0 85.333 16.667 108 50s34 83.666 34 150.999c0 40.667 -3.83301 72.167 -11.5 94.5s-20.167 38.333 -37.5 48s-41.333 14.5 -72 14.5h-41v96h60c78.667 0 136.667 -20.667 174 -62s56 -105 56 -191
c0 -101.333 -23 -176.166 -69 -224.499s-108.667 -72.5 -188 -72.5c-42.667 0 -79.667 5 -111 15z" />
    <glyph glyph-name="uni0E08" unicode="&#xe08;" horiz-adv-x="560" 
d="M222.5 -5.5c-19 3 -34.168 6.50098 -45.501 10.501l-76 203h-74l6 96h153l79 -211c42.667 0 75 14.667 97 44s33 75.333 33 138c0 44 -5.66699 78.167 -17 102.5s-30 41.666 -56 51.999s-62.333 15.5 -109 15.5c-27.333 0 -56.166 -2.16699 -86.499 -6.5
s-58.833 -10.833 -85.5 -19.5v100c65.333 20.667 134.333 31 207 31c96 0 165.833 -23 209.5 -69s65.5 -114.667 65.5 -206c0 -60 -11.333 -111.5 -34 -154.5s-53 -75.5 -91 -97.5s-79.667 -33 -125 -33c-14.667 0 -31.5 1.5 -50.5 4.5z" />
    <glyph glyph-name="uni0E09" unicode="&#xe09;" horiz-adv-x="595" 
d="M88.5 37.5c-30.333 31.667 -45.4971 78.1689 -45.4971 139.502v123h135v-103c0 -34.667 7.33301 -60.334 22 -77.001s39 -25 73 -25c50.667 0 92.334 19 125.001 57v167c0 32 -5.33301 57.167 -16 75.5s-27.834 31.333 -51.501 39s-55.834 11.5 -96.501 11.5
c-27.333 0 -60 -2.83301 -98 -8.5s-71 -12.834 -99 -21.501v100c31.333 10.667 67.666 19.167 108.999 25.5s82.333 9.5 123 9.5c92 0 159 -19 201 -57s63 -96.333 63 -175v-318h-124l-6 54c-50.667 -42.667 -112.334 -64 -185.001 -64c-56 0 -99.167 15.833 -129.5 47.5z
" />
    <glyph glyph-name="uni0E0A" unicode="&#xe0a;" horiz-adv-x="597" 
d="M109 45c-41.333 36.667 -62.002 87.999 -62.002 153.999v34c0 24 4.83301 45.167 14.5 63.5s22.834 38.5 39.501 60.5c10.667 14 18.5 25.167 23.5 33.5s7.5 16.5 7.5 24.5c0 10 -2.33301 16.667 -7 20s-13 5 -25 5h-65l11 100h140c55.333 0 83 -25.667 83 -77
c0 -20 -3.66699 -38.167 -11 -54.5s-18 -36.166 -32 -59.499c-14.667 -22 -25.667 -41.5 -33 -58.5s-11 -35.833 -11 -56.5v-43c0 -31.333 9.16699 -55.166 27.5 -71.499s45.166 -24.5 80.499 -24.5c73.333 0 110 33.333 110 100v63c0 25.333 -4.33301 43.333 -13 54
s-24 16 -46 16h-28l6 94h18c22 0 38 5.66699 48 17s15 29.333 15 54v57h135v-54c0 -32 -5 -57.333 -15 -76s-28 -33.667 -54 -45c26.667 -12.667 44.834 -28.334 54.501 -47.001s14.5 -43.667 14.5 -75v-52c0 -65.333 -21.833 -116.833 -65.5 -154.5
s-103.5 -56.5 -179.5 -56.5c-79.333 0 -139.666 18.333 -180.999 55z" />
    <glyph glyph-name="uni0E0B" unicode="&#xe0b;" horiz-adv-x="597" 
d="M109 41c-41.333 34 -62.001 82.332 -62.001 144.999v25c0 24 6.33301 47.167 19 69.5s30.667 47.833 54 76.5c13.333 16.667 23.333 30 30 40s10 19 10 27c0 12.667 -5.33301 19 -16 19c-8 0 -16.333 -3.66699 -25 -11v-41h-85v149h89v-28
c11.333 9.33301 23.333 16.333 36 21s27.667 7 45 7c53.333 0 80 -27.333 80 -82c0 -22 -4.33301 -42.167 -13 -60.5s-22 -40.833 -40 -67.5c-16.667 -24 -29 -44.667 -37 -62s-12 -35.666 -12 -54.999v-22c0 -31.333 9.16699 -55.166 27.5 -71.499
s45.166 -24.5 80.499 -24.5c73.333 0 110 33.333 110 100v63c0 25.333 -4.33301 43.333 -13 54s-24 16 -46 16h-28l6 94h18c22 0 38 5.66699 48 17s15 29.333 15 54v57h135v-54c0 -32 -5 -57.333 -15 -76s-28 -33.667 -54 -45c26.667 -12.667 44.834 -28.334 54.501 -47.001
s14.5 -43.667 14.5 -75v-52c0 -65.333 -21.833 -116.833 -65.5 -154.5s-103.5 -56.5 -179.5 -56.5c-79.333 0 -139.666 17 -180.999 51z" />
    <glyph glyph-name="uni0E0C" unicode="&#xe0c;" horiz-adv-x="961" 
d="M620.5 6c-28.333 10.667 -55.168 26.333 -80.501 47l-6 -53h-119v329c0 41.333 -9.33301 71 -28 89s-49 27 -91 27c-28.667 0 -55.667 -4.33301 -81 -13s-46 -19.667 -62 -33v-14l111 -30v-82c-26 -6.66699 -43.667 -17.5 -53 -32.5s-14 -38.167 -14 -69.5v-29
c0 -13.333 2.83301 -22.833 8.5 -28.5s15.167 -8.5 28.5 -8.5h53v-105h-122c-30.667 -0 -55.5 9.83301 -74.5 29.5s-28.5 45.167 -28.5 76.5v66c0 34 5.66699 62.167 17 84.5s31.333 37.833 60 46.5l-102 27v129c31.333 26 69.833 47.667 115.5 65s95.834 26 150.501 26
c80 0 140.333 -17.167 181 -51.5s61 -91.833 61 -172.5v-175c15.333 -16.667 34.333 -30.167 57 -40.5s46 -15.5 70 -15.5c32 0 55.333 8 70 24s22 42 22 78v343h135v-351c0 -62.667 -15.833 -111.5 -47.5 -146.5s-76.5 -52.5 -134.5 -52.5c-36 0 -68.167 5.33301 -96.5 16z
" />
    <glyph glyph-name="uni0E0D" unicode="&#xe0d;" horiz-adv-x="977" 
d="M560.5 -61c-37 6.66699 -69.5 17.667 -97.5 33v104c27.333 -14 60.166 -24.667 98.499 -32s72.833 -11 103.5 -11c41.333 0 74.666 4.33301 99.999 13s38 20.667 38 36c0 12 -5.33301 21.333 -16 28c-34.667 -20 -76.334 -30 -125.001 -30c-80 0 -141.167 19 -183.5 57
s-63.5 94.667 -63.5 170v22c0 41.333 -9.33301 71 -28 89s-49 27 -91 27c-28.667 0 -55.667 -4.33301 -81 -13s-46 -19.667 -62 -33v-14l111 -30v-82c-26 -6.66699 -43.667 -17.5 -53 -32.5s-14 -38.167 -14 -69.5v-29c0 -13.333 2.83301 -22.833 8.5 -28.5
s15.167 -8.5 28.5 -8.5h53v-105h-122c-30.667 -0 -55.5 9.83301 -74.5 29.5s-28.5 45.167 -28.5 76.5v66c0 34 5.66699 62.167 17 84.5s31.333 37.833 60 46.5l-102 27v129c31.333 26 69.833 47.667 115.5 65s95.834 26 150.501 26c80 0 140.333 -17.167 181 -51.5
s61 -91.833 61 -172.5v-21c0 -41.333 9.33301 -71.666 28 -90.999s48.334 -29 89.001 -29s70.334 9.66699 89.001 29s28 49.666 28 90.999v235h135v-233c0 -58 -13.333 -104.667 -40 -140c12.667 -11.333 22.834 -25.5 30.501 -42.5s11.5 -34.833 11.5 -53.5
c0 -45.333 -21.833 -80.333 -65.5 -105s-103.834 -37 -180.501 -37c-36 0 -72.5 3.33301 -109.5 10z" />
    <glyph glyph-name="uni0E0E" unicode="&#xe0e;" horiz-adv-x="658" 
d="M164 -94c48.667 23.333 105.333 35 170 35c25.333 0 49.166 -2.33301 71.499 -7s40.5 -10.667 54.5 -18v413c0 42 -9 71.833 -27 89.5s-48 26.5 -90 26.5c-28.667 0 -55.667 -4.33301 -81 -13s-46 -19.667 -62 -33v-14l111 -30v-82c-24.667 -8 -40.834 -19 -48.501 -33
s-11.5 -37 -11.5 -69v-37c0 -46.667 -11.167 -80.667 -33.5 -102s-55.166 -32 -98.499 -32h-72v105h33c12.667 0 21.5 2.66699 26.5 8s7.5 14.666 7.5 27.999v31c0 34.667 5 62.5 15 83.5s29 36.833 57 47.5l-102 27v129c31.333 26 69.833 47.667 115.5 65
s95.834 26 150.501 26c79.333 0 140 -17.667 182 -53s63 -92.333 63 -171v-520h-135c-36 20 -83.333 30 -142 30c-25.333 0 -52.333 -3.16699 -81 -9.5s-53 -14.166 -73 -23.499v103z" />
    <glyph glyph-name="uni0E0F" unicode="&#xe0f;" horiz-adv-x="658" 
d="M366.5 -182c-21 8.66699 -37.167 20.334 -48.5 35.001c-18 -31.333 -48.333 -47 -91 -47h-104l6 102h73c19.333 0 34.166 3.33301 44.499 10s18.5 18 24.5 34h86c4 -16 10.167 -28 18.5 -36s20.5 -12 36.5 -12c32 0 48 17 48 51v374c0 42 -9 71.833 -27 89.5
s-48 26.5 -90 26.5c-28.667 0 -55.667 -4.33301 -81 -13s-46 -19.667 -62 -33v-14l111 -30v-82c-24.667 -8 -40.834 -19 -48.501 -33s-11.5 -37 -11.5 -69v-37c0 -46.667 -11.167 -80.667 -33.5 -102s-55.166 -32 -98.499 -32h-72v105h33c12.667 0 21.5 2.66699 26.5 8
s7.5 14.666 7.5 27.999v31c0 34.667 5 62.5 15 83.5s29 36.833 57 47.5l-102 27v129c31.333 26 69.833 47.667 115.5 65s95.834 26 150.501 26c79.333 0 140 -17.667 182 -53s63 -92.333 63 -171v-373c0 -45.333 -14.333 -81.333 -43 -108s-67.667 -40 -117 -40
c-24.667 0 -47.5 4.33301 -68.5 13z" />
    <glyph glyph-name="uni0E10" unicode="&#xe10;" horiz-adv-x="599" 
d="M222.5 -5.5c-19 3 -34.168 6.50098 -45.501 10.501l-76 203h-74l6 96h153l79 -211c42.667 0 75 14.667 97 44s33 75.333 33 138c0 44 -5.66699 78.167 -17 102.5s-30 41.666 -56 51.999s-62.333 15.5 -109 15.5c-27.333 0 -56.166 -2.16699 -86.499 -6.5
s-58.833 -10.833 -85.5 -19.5v100c65.333 20.667 134.333 31 207 31c34 0 67.667 -3.33301 101 -10h228l-7 -103h-88c14 -22.667 24.333 -46.5 31 -71.5s10 -55.167 10 -90.5c0 -60 -11.333 -111.5 -34 -154.5s-53 -75.5 -91 -97.5s-79.667 -33 -125 -33
c-14.667 0 -31.5 1.5 -50.5 4.5zM233.999 -160.999c-18 -31.333 -48.332 -47 -90.999 -47h-90l6 102h59c19.333 0 34.166 3.33301 44.499 10s18.5 18 24.5 34h86c4 -16 10.833 -28 20.5 -36s23.5 -12 41.5 -12c36.667 0 55 17 55 51v23h112v-25
c0 -46.667 -13.167 -83 -39.5 -109s-64.833 -39 -115.5 -39c-51.333 0 -89 16 -113 48z" />
    <glyph glyph-name="uni0E11" unicode="&#xe11;" horiz-adv-x="612" 
d="M74 197c0 22.667 4.50098 45.001 13.501 67.001s21.833 47.333 38.5 76c12 21.333 20.667 38.166 26 50.499s8 23.5 8 33.5c0 12.667 -5.33301 19 -16 19c-8 0 -16.333 -3.66699 -25 -11v-41h-85v149h89v-28c12 9.33301 23.5 16.333 34.5 21s25.167 7 42.5 7
c26 0 46 -9.66699 60 -29c16 11.333 34.833 20.666 56.5 27.999s44.167 11 67.5 11c56.667 0 98.5 -15.333 125.5 -46s40.5 -77 40.5 -139v-365h-135v361c0 30 -4.83301 51.5 -14.5 64.5s-26.834 19.5 -51.501 19.5c-11.333 0 -24 -2.5 -38 -7.5s-25 -10.833 -33 -17.5
c0 -15.333 -2.5 -30.166 -7.5 -44.499s-12.833 -31.833 -23.5 -52.5c-12.667 -26 -22.167 -48.333 -28.5 -67s-9.5 -39.667 -9.5 -63v-193h-135v197z" />
    <glyph glyph-name="uni0E12" unicode="&#xe12;" horiz-adv-x="993" 
d="M98.5 56.5c-41 44.333 -61.5039 111.835 -61.5039 202.502c0 94 15.5 166 46.5 216s74.5 75 130.5 75c26.667 0 48.334 -4.33301 65.001 -13s30.667 -21.334 42 -38.001c14 15.333 32 27.666 54 36.999s45 14 69 14c45.333 0 78.833 -13.833 100.5 -41.5
s32.5 -65.834 32.5 -114.501v-243c15.333 -16.667 34.333 -30.167 57 -40.5s46 -15.5 70 -15.5c32 0 55.333 8 70 24s22 42 22 78v343h135v-351c0 -62.667 -15.833 -111.5 -47.5 -146.5s-76.5 -52.5 -134.5 -52.5c-36 0 -68.167 5.33301 -96.5 16
s-55.166 26.334 -80.499 47.001l-6 -53h-119v373c0 25.333 -2.66699 43.666 -8 54.999s-16.333 17 -33 17c-12.667 0 -23.667 -3.83301 -33 -11.5s-16 -19.167 -20 -34.5h-65c-7.33301 16.667 -14.666 28.5 -21.999 35.5s-17.666 10.5 -30.999 10.5
c-27.333 0 -45.833 -15.667 -55.5 -47s-14.5 -77.666 -14.5 -138.999c0 -58.667 10.167 -100.667 30.5 -126s50.833 -38 91.5 -38c30.667 0 53.667 2.66699 69 8v-99c-24.667 -9.33301 -55.667 -14 -93 -14c-68.667 0 -123.5 22.167 -164.5 66.5z" />
    <glyph glyph-name="uni0E13" unicode="&#xe13;" horiz-adv-x="966" 
d="M462.5 42.5c-31.667 35 -47.501 83.832 -47.501 146.499v140c0 41.333 -9.33301 71 -28 89s-49 27 -91 27c-28.667 0 -55.667 -4.33301 -81 -13s-46 -19.667 -62 -33v-14l111 -30v-82c-26 -6.66699 -43.667 -17.5 -53 -32.5s-14 -38.167 -14 -69.5v-29
c0 -13.333 2.83301 -22.833 8.5 -28.5s15.167 -8.5 28.5 -8.5h53v-105h-122c-30.667 0 -55.5 9.83301 -74.5 29.5s-28.5 45.167 -28.5 76.5v66c0 34 5.66699 62.167 17 84.5s31.333 37.833 60 46.5l-102 27v129c31.333 26 69.833 47.667 115.5 65s95.834 26 150.501 26
c80 0 140.333 -17.167 181 -51.5s61 -91.833 61 -172.5v-129c0 -36 8 -62 24 -78s40.333 -24 73 -24c24 0 47.333 5.16699 70 15.5s41.667 23.833 57 40.5v389h135v-540h-124l-6 53c-23.333 -21.333 -49.333 -37.166 -78 -47.499s-61.667 -15.5 -99 -15.5
c-58 0 -102.833 17.5 -134.5 52.5z" />
    <glyph glyph-name="uni0E14" unicode="&#xe14;" horiz-adv-x="653" 
d="M98.5 56.5c-41 44.333 -61.5 111.832 -61.5 202.499c0 92.667 24 164.334 72 215.001s118 76 210 76c61.333 0 112.5 -10.333 153.5 -31s71 -48 90 -82s28.5 -71 28.5 -111v-326h-135v317c0 40.667 -10.5 72.167 -31.5 94.5s-56.833 33.5 -107.5 33.5
c-101.333 0 -152 -62 -152 -186c0 -58.667 10.167 -100.667 30.5 -126s50.833 -38 91.5 -38c30.667 0 53.667 2.66699 69 8v-99c-24.667 -9.33301 -55.667 -14 -93 -14c-68.667 0 -123.5 22.167 -164.5 66.5z" />
    <glyph glyph-name="uni0E15" unicode="&#xe15;" horiz-adv-x="659" 
d="M98.5 56.5c-41 44.333 -61.5029 111.835 -61.5029 202.502c0 94 16.5 166 49.5 216s78.833 75 137.5 75c26.667 0 48.334 -4.33301 65.001 -13s30.667 -21.334 42 -38.001c13.333 15.333 31.833 27.666 55.5 36.999s47.834 14 72.501 14c45.333 0 79.666 -14 102.999 -42
s35 -66 35 -114v-394h-135v373c0 24.667 -3.33301 42.834 -10 54.501s-18.667 17.5 -36 17.5c-12.667 0 -23.667 -3.83301 -33 -11.5s-16 -19.167 -20 -34.5h-65c-7.33301 16.667 -14.666 28.5 -21.999 35.5s-17.666 10.5 -30.999 10.5c-30 0 -50.833 -15.833 -62.5 -47.5
s-17.5 -77.834 -17.5 -138.501c0 -58.667 10.167 -100.667 30.5 -126s50.833 -38 91.5 -38c30.667 0 53.667 2.66699 69 8v-99c-24.667 -9.33301 -55.667 -14 -93 -14c-68.667 0 -123.5 22.167 -164.5 66.5z" />
    <glyph glyph-name="uni0E16" unicode="&#xe16;" horiz-adv-x="622" 
d="M90.5 29.5c-19 19.667 -28.5 45.167 -28.5 76.5v66c0 34 5.66699 62.167 17 84.5s31.333 37.833 60 46.5l-102 27v129c31.333 26 69.833 47.667 115.5 65s95.834 26 150.501 26c85.333 0 149.5 -17.167 192.5 -51.5s64.5 -91.833 64.5 -172.5v-326h-135v329
c0 42 -9.83301 71.833 -29.5 89.5s-52.834 26.5 -99.501 26.5c-28.667 0 -55.667 -4.33301 -81 -13s-46 -19.667 -62 -33v-14l111 -30v-82c-26 -6.66699 -43.667 -17.5 -53 -32.5s-14 -38.167 -14 -69.5v-29c0 -13.333 2.83301 -22.833 8.5 -28.5s15.167 -8.5 28.5 -8.5h53
v-105h-122c-30.667 -0 -55.5 9.83301 -74.5 29.5z" />
    <glyph glyph-name="uni0E17" unicode="&#xe17;" horiz-adv-x="618" 
d="M57 540l123.998 0.000976562l6 -53c24.667 20 52.834 35.5 84.501 46.5s65.834 16.5 102.501 16.5c56.667 0 101.167 -17.333 133.5 -52s48.5 -82.334 48.5 -143.001v-355h-135v347c0 34 -8 58.833 -24 74.5s-40.333 23.5 -73 23.5c-24.667 0 -49.167 -5.33301 -73.5 -16
s-43.833 -24 -58.5 -40v-389h-135v540z" />
    <glyph glyph-name="uni0E18" unicode="&#xe18;" horiz-adv-x="538" 
d="M149.5 2c-39.667 8 -73.833 18.002 -102.5 30.002v201h124v-123c24 -10 55.667 -15 95 -15c36.667 0 64.167 5.33301 82.5 16s27.5 29.334 27.5 56.001c0 16.667 -5.16699 30 -15.5 40s-24.333 18 -42 24s-43.834 13 -78.501 21c-13.333 2.66699 -23.333 5 -30 7
c-38 9.33301 -68.833 19 -92.5 29s-43 24 -58 42s-22.5 41.333 -22.5 70c0 48 20.667 85 62 111s101 39 179 39c38 0 75 -2.5 111 -7.5s64.333 -10.833 85 -17.5v-108c-21.333 8.66699 -48.166 15.5 -80.499 20.5s-64.833 7.5 -97.5 7.5c-87.333 0 -131 -13.667 -131 -41
c0 -14.667 8 -25.5 24 -32.5s42 -14.5 78 -22.5l63 -16c40 -11.333 71.833 -22.833 95.5 -34.5s42.167 -27.834 55.5 -48.501s20 -48.334 20 -83.001c0 -56.667 -20 -100.334 -60 -131.001s-95.667 -46 -167 -46c-43.333 0 -84.833 4 -124.5 12z" />
    <glyph glyph-name="uni0E19" unicode="&#xe19;" horiz-adv-x="618" 
d="M107 43c-33.333 35.333 -50 84 -50 146v351h135v-343c0 -36 8 -62 24 -78s40.333 -24 73 -24c24.667 0 49.167 5.33301 73.5 16s43.833 24 58.5 40v389h135v-540h-124l-6 53c-52 -42 -112.667 -63 -182 -63c-58 0 -103.667 17.667 -137 53z" />
    <glyph glyph-name="uni0E1A" unicode="&#xe1a;" horiz-adv-x="633" 
d="M124.5 47.5c-45 38.333 -67.5 94.833 -67.5 169.5v323h135v-325c0 -40.667 10.167 -70.834 30.5 -90.501s50.833 -29.5 91.5 -29.5s71.167 9.83301 91.5 29.5s30.5 49.834 30.5 90.501v325h135v-323c0 -74.667 -22.5 -131.167 -67.5 -169.5s-108.167 -57.5 -189.5 -57.5
s-144.5 19.167 -189.5 57.5z" />
    <glyph glyph-name="uni0E1B" unicode="&#xe1b;" horiz-adv-x="633" 
d="M124.5 47.5c-45 38.333 -67.5 94.833 -67.5 169.5v323h135v-325c0 -40.667 10.167 -70.834 30.5 -90.501s50.833 -29.5 91.5 -29.5s71.167 9.83301 91.5 29.5s30.5 49.834 30.5 90.501v485h135v-483c0 -74.667 -22.5 -131.167 -67.5 -169.5s-108.167 -57.5 -189.5 -57.5
s-144.5 19.167 -189.5 57.5z" />
    <glyph glyph-name="uni0E1C" unicode="&#xe1c;" horiz-adv-x="650" 
d="M57 437c0 31.333 8 56.333 24 75s39.333 28 70 28h121l6 -100h-51c-28 0 -42 -15 -42 -45v-217l113 197h50l113 -197v362h127v-540h-130l-135 244l-136 -244h-130v437z" />
    <glyph glyph-name="uni0E1D" unicode="&#xe1d;" horiz-adv-x="650" 
d="M57 437c0 31.333 8 56.333 24 75s39.333 28 70 28h121l6 -100h-51c-28 0 -42 -15 -42 -45v-217l113 197h50l113 -197v522h127v-700h-130l-135 244l-136 -244h-130v437z" />
    <glyph glyph-name="uni0E1E" unicode="&#xe1e;" horiz-adv-x="725" 
d="M27 540h130l71 -347l82 261v86h94l96 -347l69 347h129l-126 -540h-117l-89 309l-96 -309h-117z" />
    <glyph glyph-name="uni0E1F" unicode="&#xe1f;" horiz-adv-x="725" 
d="M27 540h130l71 -347l82 261v86h94l96 -347l95 507h129l-152 -700h-117l-89 309l-96 -309h-117z" />
    <glyph glyph-name="uni0E20" unicode="&#xe20;" horiz-adv-x="657" 
d="M47 105l32.999 0.000976562c12.667 0 21.5 2.66699 26.5 8s7.5 14.666 7.5 27.999v31c0 34.667 5 62.5 15 83.5s29 36.833 57 47.5l-102 27v129c31.333 26 69.833 47.667 115.5 65s95.834 26 150.501 26c79.333 0 140 -17.667 182 -53s63 -92.333 63 -171v-326h-135v329
c0 42 -9 71.833 -27 89.5s-48 26.5 -90 26.5c-28.667 0 -55.667 -4.33301 -81 -13s-46 -19.667 -62 -33v-14l111 -30v-82c-24.667 -8 -40.834 -19 -48.501 -33s-11.5 -37 -11.5 -69v-37c0 -46.667 -11.167 -80.667 -33.5 -102s-55.166 -32 -98.499 -32h-72v105z" />
    <glyph glyph-name="uni0E21" unicode="&#xe21;" horiz-adv-x="618" 
d="M187 53l-6 -53h-124v540h135v-389c14.667 -16 34.167 -29.333 58.5 -40s48.833 -16 73.5 -16c32.667 0 57 8 73 24s24 42 24 78v343h135v-351c0 -62 -16.667 -110.667 -50 -146s-79 -53 -137 -53c-69.333 0 -130 21 -182 63z" />
    <glyph glyph-name="uni0E22" unicode="&#xe22;" horiz-adv-x="607" 
d="M100.5 31c-47 27.333 -70.5 71.666 -70.5 132.999c0 24.667 5.66699 47.167 17 67.5s28.333 36.833 51 49.5c-20 8.66699 -36 22.5 -48 41.5s-18 41.5 -18 67.5c0 51.333 16.167 90.833 48.5 118.5s75.833 41.5 130.5 41.5c37.333 0 68.333 -4.66699 93 -14v-99
c-19.333 5.33301 -42.333 8 -69 8c-25.333 0 -44.166 -4.33301 -56.499 -13s-18.5 -22.667 -18.5 -42c0 -21.333 6.66699 -36.333 20 -45s34.666 -13 63.999 -13h56l5 -99h-62c-56.667 0 -85 -23 -85 -69c0 -23.333 10.167 -40.666 30.5 -51.999s51.833 -17 94.5 -17
c84.667 0 127 35 127 105v340h135v-328c0 -76 -21.667 -132 -65 -168s-107 -54 -191 -54c-78.667 0 -141.5 13.667 -188.5 41z" />
    <glyph glyph-name="uni0E23" unicode="&#xe23;" horiz-adv-x="503" 
d="M130.5 -2c-34.333 5.33301 -61.832 12.332 -82.499 20.999v109c24 -10 51.333 -18 82 -24s58.667 -9 84 -9c45.333 0 77.333 3.5 96 10.5s28 20.5 28 40.5c0 12.667 -3.5 23 -10.5 31s-17 14.833 -30 20.5s-33.5 13.167 -61.5 22.5l-43 14
c-54 18.667 -93.5 39.167 -118.5 61.5s-37.5 53.5 -37.5 93.5c0 49.333 19.167 88.5 57.5 117.5s94.166 43.5 167.499 43.5c30 0 60.833 -2.33301 92.5 -7s57.834 -10.334 78.501 -17.001v-108c-20.667 8.66699 -45.167 15.334 -73.5 20.001s-54.5 7 -78.5 7
c-36 0 -64.333 -3.83301 -85 -11.5s-31 -21.5 -31 -41.5c0 -15.333 7 -27 21 -35s40 -18 78 -30c12 -3.33301 27.333 -8.33301 46 -15c38.667 -13.333 69.167 -27 91.5 -41s38.666 -30.833 48.999 -50.5s15.5 -44.5 15.5 -74.5c0 -51.333 -19.833 -90.166 -59.5 -116.499
s-95.5 -39.5 -167.5 -39.5c-38 0 -74.167 2.66699 -108.5 8z" />
    <glyph glyph-name="uni0E24" unicode="&#xe24;" horiz-adv-x="622" 
d="M425 329c0 42 -9.83301 71.833 -29.5 89.5s-52.834 26.5 -99.501 26.5c-28.667 0 -55.667 -4.33301 -81 -13s-46 -19.667 -62 -33v-14l111 -30v-82c-26 -6.66699 -43.667 -17.5 -53 -32.5s-14 -38.167 -14 -69.5v-29c0 -13.333 2.83301 -22.833 8.5 -28.5
s15.167 -8.5 28.5 -8.5h53v-105h-122c-30.667 -0 -55.5 9.83301 -74.5 29.5s-28.5 45.167 -28.5 76.5v66c0 34 5.66699 62.167 17 84.5s31.333 37.833 60 46.5l-102 27v129c31.333 26 69.833 47.667 115.5 65s95.834 26 150.501 26c85.333 0 149.5 -17.167 192.5 -51.5
s64.5 -91.833 64.5 -172.5v-486h-135v489z" />
    <glyph glyph-name="uni0E25" unicode="&#xe25;" horiz-adv-x="603" 
d="M92 31c-34.667 27.333 -51.999 70.333 -51.999 129c0 54 18.333 95.5 55 124.5s89.334 43.5 158.001 43.5h153v26c0 33.333 -9.33301 56.833 -28 70.5s-51.667 20.5 -99 20.5c-62.667 0 -122.334 -9 -179.001 -27v101c28.667 9.33301 61 16.833 97 22.5
s70.667 8.5 104 8.5c80.667 0 140.834 -17.167 180.501 -51.5s59.5 -87.166 59.5 -158.499v-340h-135v229h-145c-30.667 0 -53.834 -5.33301 -69.501 -16s-23.5 -28.334 -23.5 -53.001s7.16699 -41.667 21.5 -51s39.166 -14 74.499 -14c30.667 0 53.667 2.66699 69 8v-99
c-30 -9.33301 -65 -14 -105 -14c-56 0 -101.333 13.667 -136 41z" />
    <glyph glyph-name="uni0E26" unicode="&#xe26;" horiz-adv-x="658" 
d="M460 329c0 42 -9.00098 71.834 -27.001 89.501s-48 26.5 -90 26.5c-28.667 0 -55.667 -4.33301 -81 -13s-46 -19.667 -62 -33v-14l111 -30v-82c-24.667 -8 -40.834 -19 -48.501 -33s-11.5 -37 -11.5 -69v-37c0 -46.667 -11.167 -80.667 -33.5 -102
s-55.166 -32 -98.499 -32h-72v105h33c12.667 0 21.5 2.66699 26.5 8s7.5 14.666 7.5 27.999v31c0 34.667 5 62.5 15 83.5s29 36.833 57 47.5l-102 27v129c31.333 26 69.833 47.667 115.5 65s95.834 26 150.501 26c79.333 0 140 -17.667 182 -53s63 -92.333 63 -171v-486
h-135v489z" />
    <glyph glyph-name="uni0E27" unicode="&#xe27;" horiz-adv-x="491" 
d="M21 22v103c45.333 -20 92 -30 140 -30c63.333 0 108.333 13.167 135 39.5s40 71.5 40 135.5s-13.333 109.167 -40 135.5s-71.667 39.5 -135 39.5c-48 0 -94.667 -10 -140 -30v103c50 21.333 107.333 32 172 32c90.667 0 158.5 -23.667 203.5 -71s67.5 -117 67.5 -209
s-22.5 -161.667 -67.5 -209s-112.833 -71 -203.5 -71c-64.667 0 -122 10.667 -172 32z" />
    <glyph glyph-name="uni0E28" unicode="&#xe28;" horiz-adv-x="654" 
d="M57 335c0 68 20.8311 120.832 62.498 158.499s105.834 56.5 192.501 56.5c32 0 63.667 -3.33301 95 -10h210l-7 -103h-71c9.33301 -11.333 16.166 -26.166 20.499 -44.499s6.5 -37.5 6.5 -57.5v-335h-135v345c0 32.667 -10.5 57.5 -31.5 74.5s-50.167 25.5 -87.5 25.5
c-39.333 0 -69.166 -8.5 -89.499 -25.5s-30.5 -41.833 -30.5 -74.5v-97c28 21.333 59.333 32 94 32h65l4 -107h-72c-35.333 0 -65.666 -9.66699 -90.999 -29v-144h-135v335z" />
    <glyph glyph-name="uni0E29" unicode="&#xe29;" horiz-adv-x="640" 
d="M124.5 47.5c-45 38.333 -67.5 94.833 -67.5 169.5v323h135v-325c0 -40.667 10.167 -70.834 30.5 -90.501s50.833 -29.5 91.5 -29.5s71.167 9.83301 91.5 29.5s30.5 49.834 30.5 90.501v61h-115v99h115v165h135v-165h57l-9 -99h-48v-59
c0 -74.667 -22.5 -131.167 -67.5 -169.5s-108.167 -57.5 -189.5 -57.5s-144.5 19.167 -189.5 57.5z" />
    <glyph glyph-name="uni0E2A" unicode="&#xe2a;" horiz-adv-x="622" 
d="M92 31c-34.667 27.333 -51.998 70.334 -51.998 129.001c0 54 18.333 95.5 55 124.5s89.334 43.5 158.001 43.5h153v26c0 33.333 -9.33301 56.833 -28 70.5s-51.667 20.5 -99 20.5c-62.667 0 -122.334 -9 -179.001 -27v101c28.667 9.33301 61 16.833 97 22.5
s70.667 8.5 104 8.5c37.333 0 69.333 -3.33301 96 -10h188l-7 -103h-61c16 -24.667 24 -57 24 -97v-340h-135v229h-145c-30.667 0 -53.834 -5.33301 -69.501 -16s-23.5 -28.334 -23.5 -53.001s7.16699 -41.667 21.5 -51s39.166 -14 74.499 -14c30.667 0 53.667 2.66699 69 8
v-99c-30 -9.33301 -65 -14 -105 -14c-56 0 -101.333 13.667 -136 41z" />
    <glyph glyph-name="uni0E2B" unicode="&#xe2b;" horiz-adv-x="610" 
d="M57 540h135v-164h134c33.333 0 56.833 7.33301 70.5 22s20.5 37.667 20.5 69v73h135v-68c0 -75.333 -25.667 -123.333 -77 -144c26.667 -10.667 45.5 -26.5 56.5 -47.5s16.5 -47.5 16.5 -79.5v-201h-135v186c0 34 -6.5 57.667 -19.5 71s-36.5 20 -70.5 20h-131v-277h-135
v540z" />
    <glyph glyph-name="uni0E2C" unicode="&#xe2c;" horiz-adv-x="725" 
d="M27 540l130 0.00195312l71 -347l82 221v86h94l96 -307l51 236c2.66699 11.333 4 22.666 4 33.999c0 17.333 -4.33301 29.833 -13 37.5s-22 11.5 -40 11.5h-40l17 98h46c23.333 0 41 4.33301 53 13s20.333 24 25 46l7 31h114l-10 -49
c-5.33301 -27.333 -14 -48.333 -26 -63s-29 -24.334 -51 -29.001c24 -14 36 -39.333 36 -76c0 -16.667 -1.66699 -32 -5 -46l-97 -437h-116l-89 279l-96 -279h-117z" />
    <glyph glyph-name="uni0E2D" unicode="&#xe2d;" horiz-adv-x="574" 
d="M138.5 1.5c-39 7.66699 -72.833 17.832 -101.5 30.499v284h229l6 -99h-107v-109c12 -4 27 -7.16699 45 -9.5s35 -3.5 51 -3.5c36.667 0 65.667 5.66699 87 17s36.833 29.5 46.5 54.5s14.5 58.833 14.5 101.5c0 46 -5.83301 81.667 -17.5 107s-30.5 43.333 -56.5 54
s-62 16 -108 16c-64 0 -125 -9 -183 -27v101c29.333 10 63.333 17.667 102 23s76.667 8 114 8c95.333 0 165.333 -23.667 210 -71s67 -117.666 67 -210.999c0 -91.333 -22.333 -160.5 -67 -207.5s-114.667 -70.5 -210 -70.5c-42 0 -82.5 3.83301 -121.5 11.5z" />
    <glyph glyph-name="uni0E2E" unicode="&#xe2e;" horiz-adv-x="614" 
d="M138.5 1.5c-39 7.66699 -72.833 17.832 -101.5 30.499v284h229l6 -99h-107v-109c12 -4 27 -7.16699 45 -9.5s35 -3.5 51 -3.5c36.667 0 65.667 5.66699 87 17s36.833 29.5 46.5 54.5s14.5 58.833 14.5 101.5c0 46 -5.83301 81.667 -17.5 107s-30.5 43.333 -56.5 54
s-62 16 -108 16c-64 0 -125 -9 -183 -27v101c29.333 10 63.333 17.667 102 23s76.667 8 114 8c32 0 64 -3.33301 96 -10h221l-7 -103h-75c28 -41.333 42 -97.666 42 -168.999c0 -91.333 -22.333 -160.5 -67 -207.5s-114.667 -70.5 -210 -70.5
c-42 0 -82.5 3.83301 -121.5 11.5z" />
    <glyph glyph-name="uni0E2F" unicode="&#xe2f;" horiz-adv-x="603" 
d="M406 246c-18 -10 -38.832 -18.166 -62.499 -24.499s-47.5 -9.5 -71.5 -9.5c-64.667 0 -116.167 15.5 -154.5 46.5s-57.5 77.167 -57.5 138.5c0 48 11.333 95.667 34 143h130c-24 -46.667 -36 -91.334 -36 -134.001c0 -63.333 34.333 -95 103 -95
c24.667 0 46.167 2.83301 64.5 8.5s35.166 14.167 50.499 25.5v195h135v-540h-135v246z" />
    <glyph glyph-name="uni0E30" unicode="&#xe30;" horiz-adv-x="323" 
d="M37 470h114v-49h139l-4 -99h-249v148zM37 202h114v-49h139l-4 -99h-249v148z" />
    <glyph glyph-name="uni0E31" unicode="&#xe31;" 
d="M-314 773h110v-67h249l-5 -92h-354v159z" />
    <glyph glyph-name="uni0E32" unicode="&#xe32;" horiz-adv-x="445" 
d="M248 332c0 38.667 -7.5 67.167 -22.5 85.5s-42.5 27.5 -82.5 27.5c-21.333 0 -44.333 -2.33301 -69 -7s-47 -11 -67 -19v99c20.667 9.33301 45.667 17 75 23s58.333 9 87 9c75.333 0 129.833 -16 163.5 -48s50.5 -82.333 50.5 -151v-351h-135v332z" />
    <glyph glyph-name="uni0E33" unicode="&#xe33;" horiz-adv-x="445" 
d="M-212 619.5c-23.333 21.667 -35 49.167 -35 82.5s11.667 61 35 83s52 33 86 33s62.5 -11 85.5 -33s34.5 -49.667 34.5 -83s-11.5 -60.833 -34.5 -82.5s-51.5 -32.5 -85.5 -32.5s-62.667 10.833 -86 32.5zM-95 671.5c8.66699 9 13 19.167 13 30.5
c0 12 -4.33301 22.5 -13 31.5s-19 13.5 -31 13.5s-22.5 -4.5 -31.5 -13.5s-13.5 -19.5 -13.5 -31.5c0 -11.333 4.5 -21.5 13.5 -30.5s19.5 -13.5 31.5 -13.5s22.333 4.5 31 13.5zM248 332c0 38.667 -7.5 67.167 -22.5 85.5s-42.5 27.5 -82.5 27.5
c-21.333 0 -44.333 -2.33301 -69 -7s-47 -11 -67 -19v99c20.667 9.33301 45.667 17 75 23s58.333 9 87 9c75.333 0 129.833 -16 163.5 -48s50.5 -82.333 50.5 -151v-351h-135v332z" />
    <glyph glyph-name="uni0E34" unicode="&#xe34;" 
d="M-492 706h430v-92h-437z" />
    <glyph glyph-name="uni0E35" unicode="&#xe35;" 
d="M-492 706h320v81h110v-173h-437z" />
    <glyph glyph-name="uni0E36" unicode="&#xe36;" 
d="M-492 706l251 0.000976562c-2.66699 26 4.5 48.667 21.5 68s42.167 29 75.5 29c32.667 0 57.167 -8.83301 73.5 -26.5s24.5 -39.834 24.5 -66.501c0 -28 -8.83301 -51 -26.5 -69s-43.167 -27 -76.5 -27h-350zM-114.5 682.001c7 7.33301 10.499 16.333 10.499 27
c0 11.333 -3.66699 20.833 -11 28.5s-16.666 11.5 -27.999 11.5c-10.667 0 -19.834 -3.66699 -27.501 -11s-11.5 -17 -11.5 -29c0 -10.667 3.83301 -19.667 11.5 -27s16.834 -11 27.501 -11c12 0 21.5 3.66699 28.5 11z" />
    <glyph glyph-name="uni0E37" unicode="&#xe37;" 
d="M-492 706h183v81h95v-81h57v81h95v-173h-437z" />
    <glyph glyph-name="uni0E38" unicode="&#xe38;" 
d="M-177 -137h-60l5 86h169v-202h-114v116z" />
    <glyph glyph-name="uni0E39" unicode="&#xe39;" 
d="M-292.5 -240.5c-23.667 15.667 -35.5 36.167 -35.5 61.5v47h-55l5 81h144v-96c0 -21.333 12.333 -32 37 -32c12 0 21.333 2.66699 28 8s10 13.333 10 24v96h96v-106c0 -30.667 -11.333 -56.167 -34 -76.5s-56 -30.5 -100 -30.5c-40 0 -71.833 7.83301 -95.5 23.5z" />
    <glyph glyph-name="uni0E3A" unicode="&#xe3a;" 
d="M-173 -161.5c-14 13.667 -21 30.5 -21 50.5s7 36.833 21 50.5s31 20.5 51 20.5s37 -6.83301 51 -20.5s21 -30.5 21 -50.5s-7 -36.833 -21 -50.5s-31 -20.5 -51 -20.5s-37 6.83301 -51 20.5z" />
    <glyph glyph-name="uni0E3F" unicode="&#xe3f;" horiz-adv-x="636" 
d="M262 0l-205 0.000976562v644h205v86h98v-86h23c64 0 112 -15 144 -45s48 -73 48 -129c0 -33.333 -6.5 -61.833 -19.5 -85.5s-31.167 -41.834 -54.5 -54.501c32 -10 56.333 -26.167 73 -48.5s25 -53.5 25 -93.5c0 -62 -17.5 -108.833 -52.5 -140.5
s-85.5 -47.5 -151.5 -47.5h-35v-86h-98v86zM262 377.001v167h-70v-167h70zM449 459.001c0 28 -6.66699 48.833 -20 62.5s-36.333 21.167 -69 22.5v-167c59.333 0 89 27.333 89 82zM262 99.001v180h-70v-180h70zM363 99.001c34.667 0 59.832 7.16504 75.499 21.498
s23.5 38.833 23.5 73.5c0 28.667 -7.66699 49.834 -23 63.501s-41.666 20.834 -78.999 21.501v-180h3z" />
    <glyph glyph-name="uni0E40" unicode="&#xe40;" horiz-adv-x="308" 
d="M87 26.5c-18 17.667 -27 46.167 -27 85.5v428h135v-393c0 -28 13.667 -42 41 -42h34v-105h-92c-42.667 -0 -73 8.83301 -91 26.5z" />
    <glyph glyph-name="uni0E41" unicode="&#xe41;" horiz-adv-x="562" 
d="M87 26.5c-18 17.667 -27 46.167 -27 85.5v428h135v-393c0 -28 13.667 -42 41 -42h34v-105h-92c-42.667 -0 -73 8.83301 -91 26.5zM343 26.5c-18 17.667 -27 46.167 -27 85.5v428h135v-393c0 -28 13.667 -42 41 -42h34v-105h-92c-42.667 -0 -73 8.83301 -91 26.5z" />
    <glyph glyph-name="uni0E42" unicode="&#xe42;" horiz-adv-x="313" 
d="M118 26.5c-18 17.667 -27 46.168 -27 85.501v339c0 40 -8 71 -24 93s-41 39 -75 51v99h317v-105h-147c42.667 -26.667 64 -71.334 64 -134.001v-308c0 -28 13.667 -42 41 -42h34v-105h-92c-42.667 -0 -73 8.83301 -91 26.5z" />
    <glyph glyph-name="uni0E43" unicode="&#xe43;" horiz-adv-x="300" 
d="M70 26.5c-18 17.667 -27.001 46.167 -27.001 85.5v216c0 34 6.33301 62.5 19 85.5s30.334 47.167 53.001 72.5c13.333 14.667 22.833 26.167 28.5 34.5s8.5 16.833 8.5 25.5c0 16.667 -4.66699 28.5 -14 35.5s-24.333 10.5 -45 10.5c-36 0 -71.333 -10 -106 -30v97
c20 12 44 21.333 72 28s55.667 10 83 10c49.333 0 86.833 -9.66699 112.5 -29s38.5 -48 38.5 -86c0 -24 -4.66699 -44.667 -14 -62s-23.333 -38.333 -42 -63c-19.333 -24.667 -34 -46.667 -44 -66s-15 -42 -15 -68v-176c0 -28 13.667 -42 41 -42h34v-105h-92
c-42.667 -0 -73 8.83301 -91 26.5z" />
    <glyph glyph-name="uni0E44" unicode="&#xe44;" horiz-adv-x="308" 
d="M98 26.5c-18 17.667 -27 46.167 -27 85.5v330c0 67.333 22 116.333 66 147h-145v105h308v-98c-33.333 -12 -57.333 -30.833 -72 -56.5s-22 -60.167 -22 -103.5v-289c0 -28 13.667 -42 41 -42h34v-105h-92c-42.667 -0 -73 8.83301 -91 26.5z" />
    <glyph glyph-name="uni0E45" unicode="&#xe45;" horiz-adv-x="445" 
d="M248 332c0 38.667 -7.5 67.167 -22.5 85.5s-42.5 27.5 -82.5 27.5c-21.333 0 -44.333 -2.33301 -69 -7s-47 -11 -67 -19v99c20.667 9.33301 45.667 17 75 23s58.333 9 87 9c75.333 0 129.833 -16 163.5 -48s50.5 -82.333 50.5 -151v-511h-135v492z" />
    <glyph glyph-name="uni0E46" unicode="&#xe46;" horiz-adv-x="631" 
d="M434 399c0 15.333 -2.66699 26.833 -8 34.5s-15 11.5 -29 11.5c-21.333 0 -37.666 -15.333 -48.999 -46h-52c-4.66699 16 -10.167 27.667 -16.5 35s-15.5 11 -27.5 11c-32 0 -48 -29.333 -48 -88c0 -28 6.16699 -48.833 18.5 -62.5s31.5 -20.5 57.5 -20.5
c30.667 0 53.667 2.66699 69 8v-99c-24.667 -9.33301 -55.667 -14 -93 -14c-62.667 0 -111 16.167 -145 48.5s-51 78.833 -51 139.5c0 32 5.83301 62.667 17.5 92s29.5 53.5 53.5 72.5s53.333 28.5 88 28.5c23.333 0 43.166 -3.83301 59.499 -11.5
s31.166 -20.5 44.499 -38.5c28.667 33.333 67.334 50 116.001 50c42.667 0 75 -13 97 -39s33 -63.667 33 -113v-398h-135v399z" />
    <glyph glyph-name="uni0E47" unicode="&#xe47;" 
d="M-458.5 644c-23.667 21.333 -35.501 51 -35.501 89s12.167 68.5 36.5 91.5s58.5 34.5 102.5 34.5h252l-6 -75h-233c-20 0 -35.167 -4 -45.5 -12s-15.5 -21 -15.5 -39c0 -31.333 16.667 -47 50 -47c32 0 48 13.333 48 40v18h80v-18c0 -13.333 3.5 -22.833 10.5 -28.5
s17.833 -8.5 32.5 -8.5h61v-75h-71c-17.333 0 -32.666 2.5 -45.999 7.5s-22.666 12.833 -27.999 23.5c-6.66699 -10 -19.5 -18 -38.5 -24s-38.167 -9 -57.5 -9c-40.667 0 -72.834 10.667 -96.501 32z" />
    <glyph glyph-name="uni0E48" unicode="&#xe48;" 
d="M-197 779h135v-165h-135v165z" />
    <glyph glyph-name="uni0E49" unicode="&#xe49;" 
d="M-305 703h-78v92h169v-89h214l-5 -92h-300v89z" />
    <glyph glyph-name="uni0E4A" unicode="&#xe4a;" 
d="M-440.5 623.5c-21 18.333 -31.498 45.168 -31.498 80.501c0 34 9 60.667 27 80s42.333 29 73 29c35.333 0 58 -12.333 68 -37h1c5.33301 12 14.333 21.167 27 27.5s27 9.5 43 9.5c31.333 0 54.5 -7.33301 69.5 -22s22.5 -34.334 22.5 -59.001v-62h8
c7.33301 0 12.5 1.83301 15.5 5.5s4.5 10.5 4.5 20.5v112h74v-118c0 -26 -7.83301 -46.667 -23.5 -62s-36.834 -23 -63.501 -23h-89v103c0 13.333 -2 23 -6 29s-11.333 9 -22 9c-12 0 -20 -3.5 -24 -10.5s-6 -16.833 -6 -29.5v-13h-58v13c0 26.667 -10 40 -30 40
c-22 0 -33 -15 -33 -45c0 -16 4.16699 -27.333 12.5 -34s21.166 -10 38.499 -10h29v-61h-40c-36.667 0 -65.5 9.16699 -86.5 27.5z" />
    <glyph glyph-name="uni0E4B" unicode="&#xe4b;" 
d="M-243 657h-58v82h58v50h125v-50h60v-82h-60v-43h-125v43z" />
    <glyph glyph-name="uni0E4C" unicode="&#xe4c;" 
d="M-314 771h306l-4 -92h-192v-65h-110v157z" />
    <glyph glyph-name="uni0E4D" unicode="&#xe4d;" 
d="M-212 629.5c-23.333 21.667 -35 49.167 -35 82.5s11.667 61 35 83s52 33 86 33s62.5 -11 85.5 -33s34.5 -49.667 34.5 -83s-11.5 -60.833 -34.5 -82.5s-51.5 -32.5 -85.5 -32.5s-62.667 10.833 -86 32.5zM-95 681.5c8.66699 9 13 19.167 13 30.5
c0 12 -4.33301 22.5 -13 31.5s-19 13.5 -31 13.5s-22.5 -4.5 -31.5 -13.5s-13.5 -19.5 -13.5 -31.5c0 -11.333 4.5 -21.5 13.5 -30.5s19.5 -13.5 31.5 -13.5s22.333 4.5 31 13.5z" />
    <glyph glyph-name="uni0E4E" unicode="&#xe4e;" 
d="M-276 624c-20 12.667 -30.002 31.335 -30.002 56.002c0 23.333 7.33301 41.833 22 55.5s33.334 22.167 56.001 25.5c-8.66699 9.33301 -13 22.666 -13 39.999c0 18.667 9 34 27 46s44.667 18 80 18c10.667 0 21.834 -1 33.501 -3s21.167 -4.66699 28.5 -8v-54
c-6.66699 4 -14.834 7 -24.501 9s-18.5 3 -26.5 3c-27.333 0 -41 -7.33301 -41 -22c0 -7.33301 3 -12.833 9 -16.5s16.333 -6.83398 31 -9.50098v-51c-12 6 -26.333 9 -43 9c-34.667 0 -52 -10 -52 -30c0 -9.33301 3.66699 -16 11 -20s19 -6 35 -6
c26.667 0 47.334 5 62.001 15v-60c-16 -10.667 -42 -16 -78 -16c-38 0 -67 6.33301 -87 19z" />
    <glyph glyph-name="uni0E4F" unicode="&#xe4f;" horiz-adv-x="599" 
d="M167.5 25c-40.333 23.333 -72.166 55 -95.499 95s-35 84 -35 132c0 47.333 11.667 91 35 131s55.166 71.833 95.499 95.5s84.166 35.5 131.499 35.5s91.166 -11.833 131.499 -35.5s72.166 -55.5 95.499 -95.5s35 -83.667 35 -131c0 -48 -11.667 -92 -35 -132
s-55.166 -71.667 -95.499 -95s-84.166 -35 -131.499 -35s-91.166 11.667 -131.499 35zM386 101.5c26.667 15.667 47.834 36.834 63.501 63.501s23.5 55.667 23.5 87s-7.83301 60.333 -23.5 87s-36.834 47.834 -63.501 63.501s-55.667 23.5 -87 23.5
s-60.333 -7.83301 -87 -23.5s-47.834 -36.834 -63.501 -63.501s-23.5 -55.667 -23.5 -87s7.83301 -60.333 23.5 -87s36.834 -47.834 63.501 -63.501s55.667 -23.5 87 -23.5s60.333 7.83301 87 23.5zM210.5 163c-24.333 24.667 -36.5 54.334 -36.5 89.001
s12.167 64.167 36.5 88.5s53.833 36.5 88.5 36.5s64.167 -12.167 88.5 -36.5s36.5 -53.833 36.5 -88.5s-12.167 -64.334 -36.5 -89.001s-53.833 -37 -88.5 -37s-64.167 12.333 -88.5 37zM338 213c10.667 10.667 16 23.667 16 39s-5.33301 28.166 -16 38.499
s-23.667 15.5 -39 15.5s-28.166 -5.16699 -38.499 -15.5s-15.5 -23.166 -15.5 -38.499s5.16699 -28.333 15.5 -39s23.166 -16 38.499 -16s28.333 5.33301 39 16z" />
    <glyph glyph-name="uni0E50" unicode="&#xe50;" horiz-adv-x="610" 
d="M109 52.5c-48 41.667 -71.999 103.167 -71.999 184.5c0 80.667 24.333 142 73 184s113.667 63 195 63s146.166 -21 194.499 -63s72.5 -103.333 72.5 -184c0 -81.333 -24 -142.833 -72 -184.5s-113 -62.5 -195 -62.5c-82.667 0 -148 20.833 -196 62.5zM409.501 129
c23 22.667 34.5 58.667 34.5 108s-11.5 85.333 -34.5 108s-57.833 34 -104.5 34c-46 0 -80.833 -11.5 -104.5 -34.5s-35.5 -58.833 -35.5 -107.5c0 -49.333 11.833 -85.333 35.5 -108s58.5 -34 104.5 -34c46.667 0 81.5 11.333 104.5 34z" />
    </font>
</defs>
</svg>
