<?xml version="1.0" standalone="no"?>
<!DOCTYPE svg PUBLIC "-//W3C//DTD SVG 1.1//EN" "http://www.w3.org/Graphics/SVG/1.1/DTD/svg11.dtd" >
<svg>
<metadata>
Created by FontForge 20090914 at Fri Oct 11 09:25:18 2019
 By www-data
Copyright (c) 2015, Cadson Demak (info@cadsondemak.com)
</metadata>
<defs>
<font id="Kanit-ExtraLight" horiz-adv-x="0" >
  <font-face 
    font-family="Kanit ExtraLight"
    font-weight="275"
    font-stretch="normal"
    units-per-em="1000"
    panose-1="0 0 3 0 0 0 0 0 0 0"
    ascent="750"
    descent="-250"
    x-height="473.999"
    cap-height="644"
    bbox="-555 -337 1110 1008"
    underline-thickness="50"
    underline-position="-50"
    unicode-range="U+000D-U+FB02"
  />
<missing-glyph horiz-adv-x="509" 
d="M49 714h411v-714h-411v714zM409 51v612h-309v-612h309z" />
    <glyph glyph-name="fi" unicode="fi" horiz-adv-x="494" 
d="M108 428l-73.001 -0.000976562v46h73v69c0 46.667 15 83.667 45 111s69.667 41 119 41c44.667 0 78.667 -5.33301 102 -16v-44c-9.33301 4.66699 -22 8.16699 -38 10.5s-32.667 3.5 -50 3.5c-41.333 0 -72.166 -8.66699 -92.499 -26s-30.5 -43.666 -30.5 -78.999v-70h256
v-474h-55v428h-201v-428h-55v428z" />
    <glyph glyph-name="fl" unicode="fl" horiz-adv-x="494" 
d="M108 428h-73v46h73v69c0 46.667 15 83.667 45 111s69.667 41 119 41c40 0 74.667 -5.33301 104 -16h43v-679h-55v428h-201v-428h-55v428zM364 474l-0.000976562 160.999c-22 9.33301 -48 14 -78 14c-41.333 0 -72.166 -8.66699 -92.499 -26s-30.5 -43.666 -30.5 -78.999
v-70h201z" />
    <glyph glyph-name="ru_lakkhangyaothai" unicode="&#xe24;&#xe45;" horiz-adv-x="852" 
d="M479 356c0 53.333 -13.667 91.002 -41 113.002s-71 33 -131 33c-40.667 0 -78.834 -6.16699 -114.501 -18.5s-62.834 -28.5 -81.501 -48.5v-28l120 -26v-48c-53.333 -12.667 -80 -43.667 -80 -93v-139c0 -18.667 4.33301 -32.5 13 -41.5s21.667 -13.5 39 -13.5h59v-46
h-80c-27.333 0 -48.5 8.16699 -63.5 24.5s-22.5 38.5 -22.5 66.5v152c0 26.667 7 49.5 21 68.5s34.667 32.5 62 40.5l-118 26v80c26 26 60.333 47.833 103 65.5s90.667 26.5 144 26.5c54.667 0 99.334 -8.66699 134.001 -26c20 8 43.167 14.333 69.5 19s52.5 7 78.5 7
c65.333 0 112.833 -14.667 142.5 -44s44.5 -77.333 44.5 -144v-522h-55v517c0 35.333 -3.66699 63.166 -11 83.499s-21.166 35.666 -41.499 45.999s-50.166 15.5 -89.499 15.5c-28.667 0 -59.334 -3.66699 -92.001 -11c30.667 -32.667 46 -78.667 46 -138v-513h-55v516z" />
    <glyph glyph-name="lu_lakkhangyaothai" unicode="&#xe26;&#xe45;" horiz-adv-x="891" 
d="M515 356c0 53.333 -13.666 91.0029 -40.999 113.003s-71 33 -131 33c-40.667 0 -78.834 -6.16699 -114.501 -18.5s-62.834 -28.5 -81.501 -48.5v-28l123 -26v-48c-24.667 -6.66699 -41.834 -16.834 -51.501 -30.501s-14.5 -34.5 -14.5 -62.5v-142
c0 -31.333 -7.66699 -55.5 -23 -72.5s-37.333 -25.5 -66 -25.5h-57v46h43c16.667 0 28.834 4.33301 36.501 13s11.5 22.334 11.5 41.001v143c0 28 5.16699 51.167 15.5 69.5s28.166 31.5 53.499 39.5l-121 26v80c26 26 60.333 47.833 103 65.5s90.667 26.5 144 26.5
c56 0 101.667 -9 137 -27v1c20 8 43.167 14.333 69.5 19s52.5 7 78.5 7c65.333 0 112.833 -14.667 142.5 -44s44.5 -77.333 44.5 -144v-522h-55v517c0 35.333 -3.66699 63.166 -11 83.499s-21.166 35.666 -41.499 45.999s-50.166 15.5 -89.499 15.5
c-31.333 0 -63 -4 -95 -12c30.667 -32.667 46 -78.334 46 -137.001v-513h-55v516z" />
    <glyph glyph-name=".notdef" horiz-adv-x="509" 
d="M49 714h411v-714h-411v714zM409 51v612h-309v-612h309z" />
    <glyph glyph-name="nonmarkingreturn" unicode="&#xd;" horiz-adv-x="400" 
 />
    <glyph glyph-name="space" unicode=" " horiz-adv-x="390" 
 />
    <glyph glyph-name="exclam" unicode="!" horiz-adv-x="171" 
d="M58 491v153h55v-153l-5 -345h-44zM55 48h61v-48h-61v48z" />
    <glyph glyph-name="quotedbl" unicode="&#x22;" horiz-adv-x="297" 
d="M55 644h53l-12 -165h-41v165zM189 644h53l-12 -165h-41v165z" />
    <glyph glyph-name="numbersign" unicode="#" horiz-adv-x="694" 
d="M151 187h-96v41h109l59 186h-120v42h133l59 188h50l-59 -188h207l59 188h51l-59 -188h95v-42h-109l-58 -186h119v-41h-132l-59 -187h-50l58 187h-207l-59 -187h-49zM421 228l59 186h-208l-58 -186h207z" />
    <glyph glyph-name="dollar" unicode="$" horiz-adv-x="553" 
d="M253 -10c-75.333 0.666992 -136 10.001 -182 28.001v49c54 -20 114.667 -30 182 -30v270l-2 1c-72 16 -122.667 37.333 -152 64s-44 63 -44 109c0 49.333 16.5 89.166 49.5 119.499s82.5 47.833 148.5 52.5v77h46v-76c31.333 -0.666992 61.5 -3.5 90.5 -8.5
s52.167 -10.167 69.5 -15.5v-49c-48 16.667 -101.333 25 -160 25v-260c73.333 -18 124.833 -41.167 154.5 -69.5s44.5 -65.833 44.5 -112.5c0 -52 -16.833 -92.5 -50.5 -121.5s-83.167 -45.833 -148.5 -50.5v-78h-46v76zM253 604.001
c-48 -4.66699 -84.001 -16.999 -108.001 -36.999s-36 -48.667 -36 -86c0 -22.667 4.33301 -41.334 13 -56.001s23.334 -27.167 44.001 -37.5s49.667 -20.5 87 -30.5v247zM407.999 74.502c24 20.333 36 50.168 36 89.501c0 35.333 -11 62.666 -33 81.999s-59.333 36 -112 50
v-258c48.667 4 85 16.167 109 36.5z" />
    <glyph glyph-name="percent" unicode="%" horiz-adv-x="695" 
d="M89 407c-22.667 24.667 -34 57.667 -34 99c0 46.667 11.167 83 33.5 109s55.833 39 100.5 39c44 0 77.167 -13 99.5 -39s33.5 -62.333 33.5 -109c0 -41.333 -11.333 -74.333 -34 -99s-55.667 -37 -99 -37c-44 0 -77.333 12.333 -100 37zM492 644h52l-344 -644h-52z
M258.5 434.5c14.333 16.333 21.5 40.167 21.5 71.5c0 37.333 -7.33301 64.5 -22 81.5s-37.667 25.5 -69 25.5c-32 0 -55.333 -8.5 -70 -25.5s-22 -44.167 -22 -81.5c0 -64 30.667 -96 92 -96c32 0 55.167 8.16699 69.5 24.5zM406 26.501
c-22.667 24.333 -34 57.166 -34 98.499c0 46.667 11.167 83 33.5 109s55.833 39 100.5 39s78.167 -13 100.5 -39s33.5 -62.333 33.5 -109c0 -41.333 -11.333 -74.166 -34 -98.499s-56 -36.5 -100 -36.5s-77.333 12.167 -100 36.5zM576 54.501
c14.667 16.333 22 40.166 22 71.499c0 37.333 -7.33301 64.5 -22 81.5s-38 25.5 -70 25.5c-31.333 0 -54.333 -8.5 -69 -25.5s-22 -44.167 -22 -81.5c0 -31.333 7.16699 -55.166 21.5 -71.499s37.5 -24.5 69.5 -24.5s55.333 8.16699 70 24.5z" />
    <glyph glyph-name="ampersand" unicode="&#x26;" horiz-adv-x="652" 
d="M112 32.5c-38 28.333 -57 66.501 -57 114.501c0 43.333 13.667 81.166 41 113.499s68 63.5 122 93.5c-35.333 32.667 -60.833 60.334 -76.5 83.001s-23.5 49 -23.5 79c0 39.333 13.167 72.166 39.5 98.499s62.833 39.5 109.5 39.5c46 0 81.667 -12.5 107 -37.5
s38 -58.5 38 -100.5c0 -34.667 -9.5 -64.667 -28.5 -90s-49.5 -52 -91.5 -80l190 -194c12.667 28.667 19 61.667 19 99v20h46v-19c0 -51.333 -10.667 -95.333 -32 -132l92 -93l-33 -30l-85 85c-22.667 -30.667 -53 -53.667 -91 -69s-82.333 -23 -133 -23
c-64 0 -115 14.167 -153 42.5zM340 440.001c16 18.667 24 43.333 24 74c0 30 -7.83301 53.5 -23.5 70.5s-40.167 25.5 -73.5 25.5c-34 0 -59.5 -8.83301 -76.5 -26.5s-25.5 -40.834 -25.5 -69.501c0 -17.333 3.66699 -32.833 11 -46.5s16 -26 26 -37s28.667 -29.5 56 -55.5
c38.667 24.667 66 46.334 82 65.001zM455 114l-202.999 206c-50 -26.667 -86.5 -52.5 -109.5 -77.5s-34.5 -56.5 -34.5 -94.5c0 -36.667 14.5 -65.167 43.5 -85.5s66.833 -30.5 113.5 -30.5c87.333 0 150.666 27.333 189.999 82z" />
    <glyph glyph-name="quotesingle" unicode="'" horiz-adv-x="163" 
d="M55 644h53l-12 -165h-41v165z" />
    <glyph glyph-name="parenleft" unicode="(" horiz-adv-x="292" 
d="M87.5 90c-21.667 68 -32.5 139.001 -32.5 213.001c0 73.333 10.833 144 32.5 212s57.167 122.333 106.5 163h63c-98.667 -82 -148 -207 -148 -375c0 -82 11.833 -154.333 35.5 -217s61.167 -115.334 112.5 -158.001h-63c-49.333 40 -84.833 94 -106.5 162z" />
    <glyph glyph-name="parenright" unicode=")" horiz-adv-x="292" 
d="M182 303c0 168 -49 293 -147 375h63c49.333 -40.667 84.833 -95 106.5 -163s32.5 -138.667 32.5 -212c0 -74 -10.833 -145 -32.5 -213s-57.167 -122 -106.5 -162h-63c98 82 147 207 147 375z" />
    <glyph glyph-name="asterisk" unicode="*" horiz-adv-x="421" 
d="M84 373l95 110l-124 50l18 39l118 -55l-4 127h47l-4 -127l117 55l19 -39l-126 -51l97 -109l-36 -27l-91 117l-91 -117z" />
    <glyph glyph-name="plus" unicode="+" horiz-adv-x="482" 
d="M217 235h-162v45h162v162h47v-162h163v-45h-163v-156h-47v156z" />
    <glyph glyph-name="comma" unicode="," horiz-adv-x="189" 
d="M81 45h53l-38 -165h-41z" />
    <glyph glyph-name="hyphen" unicode="-" horiz-adv-x="482" 
d="M55 280h372v-45h-372v45z" />
    <glyph glyph-name="period" unicode="." horiz-adv-x="163" 
d="M55 51h53v-51h-53v51z" />
    <glyph glyph-name="slash" unicode="/" horiz-adv-x="399" 
d="M289 662h55l-234 -662h-55z" />
    <glyph glyph-name="zero" unicode="0" horiz-adv-x="639" 
d="M119.5 74c-43 56 -64.501 134.667 -64.501 236c0 113.333 20.333 199 61 257s108.667 87 204 87c94.667 0 162.334 -29 203.001 -87s61 -143.667 61 -257c0 -101.333 -21.5 -180 -64.5 -236s-109.5 -84 -199.5 -84c-90.667 0 -157.5 28 -200.5 84zM479.499 110
c33.667 48.667 50.499 115.334 50.499 200.001c0 99.333 -16 173.5 -48 222.5s-86 73.5 -162 73.5c-76.667 0 -131 -24.5 -163 -73.5s-48 -123.167 -48 -222.5c0 -84.667 16.833 -151.334 50.5 -200.001s87.167 -73 160.5 -73c72.667 0 125.834 24.333 159.501 73z" />
    <glyph glyph-name="one" unicode="1" horiz-adv-x="286" 
d="M156 600l-101 -17v46l156 25v-654h-55v600z" />
    <glyph glyph-name="two" unicode="2" horiz-adv-x="499" 
d="M55 34c14.667 39.333 37.165 76.168 67.498 110.501s68.5 70.833 114.5 109.5c39.333 34 69 61.833 89 83.5s34.5 43.167 43.5 64.5s13.5 45.666 13.5 72.999c0 87.333 -51.667 131 -155 131c-51.333 0 -100.666 -9 -147.999 -27v50c20.667 7.33301 45 13.333 73 18
s54.333 7 79 7c66 0 116.667 -15.667 152 -47s53 -75.333 53 -132c0 -32 -5.66699 -60.5 -17 -85.5s-26.666 -48 -45.999 -69s-46 -46.833 -80 -77.5l-23 -21c-40 -34.667 -72 -65 -96 -91s-42.667 -55 -56 -87h325v-44h-389v34z" />
    <glyph glyph-name="three" unicode="3" horiz-adv-x="506" 
d="M128.5 -3c-30.333 4.66699 -54.8311 10.666 -73.498 17.999v49c49.333 -18 102 -27 158 -27c62.667 0 109 11 139 33s45 56.667 45 104c0 44 -14.167 76.833 -42.5 98.5s-68.833 32.5 -121.5 32.5h-88l6 43h74c52 0 91.167 11.833 117.5 35.5s39.5 57.167 39.5 100.5
c0 41.333 -13.333 72 -40 92s-68.334 30 -125.001 30c-51.333 0 -101.333 -9 -150 -27v49c17.333 7.33301 40.666 13.5 69.999 18.5s57.666 7.5 84.999 7.5c72 0 125.667 -15.167 161 -45.5s53 -71.833 53 -124.5c0 -36.667 -9.66699 -69.5 -29 -98.5
s-48.333 -48.167 -87 -57.5c44 -9.33301 76.833 -27.666 98.5 -54.999s32.5 -60.333 32.5 -99c0 -60.667 -20.333 -106.5 -61 -137.5s-98 -46.5 -172 -46.5c-29.333 0 -59.166 2.33301 -89.499 7z" />
    <glyph glyph-name="four" unicode="4" horiz-adv-x="536" 
d="M376 155h-341v47l345 442h51v-443h70v-46h-70v-155h-55v155zM381 200v376l-293 -376h293z" />
    <glyph glyph-name="five" unicode="5" horiz-adv-x="506" 
d="M130 -3.5c-30 4.33301 -54 10.501 -72 18.501v50c48.667 -18.667 101.667 -28 159 -28c120 0 180 50.667 180 152c0 50 -11.667 86.5 -35 109.5s-65 34.5 -125 34.5h-182v47l17 264h331l-6 -45h-280l-14 -221h133c75.333 0 130 -15.333 164 -46s51 -78.334 51 -143.001
c0 -63.333 -19.833 -112.333 -59.5 -147s-96.5 -52 -170.5 -52c-30.667 0 -61 2.16699 -91 6.5z" />
    <glyph glyph-name="six" unicode="6" horiz-adv-x="561" 
d="M111.5 48c-37.667 38.667 -56.499 99.666 -56.499 182.999v159c0 52.667 10 99 30 139s48.667 70.833 86 92.5s81 32.5 131 32.5c54.667 0 102.667 -6.66699 144 -20v-48c-38 13.333 -85.333 20 -142 20c-64.667 0 -113.5 -18.667 -146.5 -56
s-49.5 -87.666 -49.5 -150.999v-58c27.333 20 57.5 35.167 90.5 45.5s63.833 15.5 92.5 15.5c71.333 0 125 -17.333 161 -52s54 -85.667 54 -153c0 -64 -19.333 -114.5 -58 -151.5s-94.334 -55.5 -167.001 -55.5c-75.333 0 -131.833 19.333 -169.5 58zM410.001 77.999
c29.333 28.667 44 68.001 44 118.001c0 53.333 -12.667 93.666 -38 120.999s-68.666 41 -129.999 41c-32 0 -63.5 -5.5 -94.5 -16.5s-58.833 -25.833 -83.5 -44.5v-87c0 -116.667 57.333 -175 172 -175c57.333 0 100.666 14.333 129.999 43z" />
    <glyph glyph-name="seven" unicode="7" horiz-adv-x="495" 
d="M395 599h-350v45h405v-45l-253 -599h-55z" />
    <glyph glyph-name="eight" unicode="8" horiz-adv-x="575" 
d="M115 35c-40 30 -60 73.667 -60 131c0 41.333 11.5 76.833 34.5 106.5s55.833 49.834 98.5 60.501c-38.667 10 -67.5 28.167 -86.5 54.5s-28.5 56.5 -28.5 90.5c0 54.667 18.333 97.667 55 129s89.667 47 159 47c70.667 0 124 -15.5 160 -46.5s54 -74.167 54 -129.5
c0 -78 -40.333 -130 -121 -156c48.667 -10.667 84.167 -28.834 106.5 -54.501s33.5 -59.5 33.5 -101.5c0 -57.333 -20 -101 -60 -131s-97.667 -45 -173 -45c-74.667 0 -132 15 -172 45zM419.5 388c21 20.667 31.499 50.667 31.499 90c0 42 -14 74.333 -42 97
s-68.667 34 -122 34c-52.667 0 -93 -11.167 -121 -33.5s-42 -54.833 -42 -97.5c0 -32 9.33301 -58.5 28 -79.5s46.334 -35.167 83.001 -42.5l81 -16c48 11.333 82.5 27.333 103.5 48zM468.999 166c0 38 -10.5 66.167 -31.5 84.5s-54.833 32.5 -101.5 42.5l-91 19
c-45.333 -9.33301 -80 -25.333 -104 -48s-36 -55 -36 -97c0 -44 15.333 -77 46 -99s76 -33 136 -33c121.333 0 182 43.667 182 131z" />
    <glyph glyph-name="nine" unicode="9" horiz-adv-x="561" 
d="M115 9l-0.00292969 48.999c37.333 -14 85.333 -21 144 -21c64.667 0 113.167 18.833 145.5 56.5s48.5 87.834 48.5 150.501v56c-27.333 -20.667 -56.666 -36 -87.999 -46s-62.666 -15 -93.999 -15c-71.333 0 -125.166 17.5 -161.499 52.5s-54.5 85.833 -54.5 152.5
c0 64.667 19.5 115.834 58.5 153.501s95.167 56.5 168.5 56.5c75.333 0 131.5 -19.333 168.5 -58s55.5 -100 55.5 -184v-158c0 -53.333 -9.83301 -99.833 -29.5 -139.5s-48 -70.334 -85 -92.001s-80.5 -32.5 -130.5 -32.5c-59.333 0 -108 6.33301 -146 19zM370.997 299.499
c30 11 57.333 25.834 82 44.501v90c0 116.667 -56.667 175 -170 175c-58 0 -102.167 -14.667 -132.5 -44s-45.5 -69.333 -45.5 -120c0 -52.667 13 -92.834 39 -120.501s70 -41.5 132 -41.5c33.333 0 65 5.5 95 16.5z" />
    <glyph glyph-name="colon" unicode=":" horiz-adv-x="164" 
d="M55 384h54v-52h-54v52zM55 82h54v-52h-54v52z" />
    <glyph glyph-name="semicolon" unicode=";" horiz-adv-x="190" 
d="M82 384h53v-52h-53v52zM81 71h53l-38 -165h-41z" />
    <glyph glyph-name="less" unicode="&#x3c;" horiz-adv-x="546" 
d="M55 269v45l436 204v-53l-379 -173l379 -174v-53z" />
    <glyph glyph-name="equal" unicode="=" horiz-adv-x="488" 
d="M55 348h378v-42h-378v42zM55 209h378v-42h-378v42z" />
    <glyph glyph-name="greater" unicode="&#x3e;" horiz-adv-x="546" 
d="M55 118l380 174l-380 173v53l436 -204v-45l-436 -204v53z" />
    <glyph glyph-name="question" unicode="?" horiz-adv-x="488" 
d="M176 172c0 26.667 5.33594 50 16.0029 70s21.667 35.167 33 45.5s32.666 28.5 63.999 54.5c31.333 25.333 54.166 47.333 68.499 66s21.5 42 21.5 70c0 43.333 -12.5 75.5 -37.5 96.5s-66.5 31.5 -124.5 31.5c-59.333 0 -113.333 -11.667 -162 -35v48
c20 10.667 45 19.167 75 25.5s62.333 9.5 97 9.5c68 0 119.333 -15.167 154 -45.5s52 -73.5 52 -129.5c0 -24 -4.33301 -45.333 -13 -64s-19.834 -34.834 -33.501 -48.501s-32.5 -30.5 -56.5 -50.5l-17 -14c-21.333 -17.333 -37.333 -31.333 -48 -42s-19 -23.167 -25 -37.5
s-9 -32.166 -9 -53.499v-21h-55v24zM173.003 48h61v-48h-61v48z" />
    <glyph glyph-name="at" unicode="@" horiz-adv-x="768" 
d="M146 -57.5c-60.667 49.667 -91 131.498 -91 245.498c0 224.667 116.333 337 349 337c102.667 0 179.834 -23.167 231.501 -69.5s77.5 -113.5 77.5 -201.5c0 -66.667 -13.833 -118.5 -41.5 -155.5s-70.167 -55.5 -127.5 -55.5h-18c-38.667 -42 -94 -63 -166 -63
c-44 0 -79.5 10.167 -106.5 30.5s-40.5 49.833 -40.5 88.5s12.333 69.834 37 93.501s63.334 35.5 116.001 35.5h142v33c0 28 -3 49.333 -9 64s-17.5 25.167 -34.5 31.5s-42.5 9.5 -76.5 9.5c-44.667 0 -86.667 -7 -126 -21v40c34 14.667 79.667 22 137 22
c54 0 93.167 -11.5 117.5 -34.5s36.5 -59.833 36.5 -110.5v-176c39.333 0 67.833 13.333 85.5 40s26.5 69.334 26.5 128.001c0 76 -20.833 132.5 -62.5 169.5s-107.834 55.5 -198.501 55.5c-102 0 -177.667 -22.833 -227 -68.5s-74 -120.167 -74 -223.5
c0 -100 25.667 -170.667 77 -212s120.666 -62 207.999 -62c73.333 0 131 6.33301 173 19v-46c-50.667 -12 -107.667 -18 -171 -18c-102 0 -183.333 24.833 -244 74.5zM448.5 33.998c23 10 42.833 25.667 59.5 47v107h-137c-42 0 -71.167 -7.33301 -87.5 -22
s-24.5 -37 -24.5 -67c0 -28.667 9 -49.167 27 -61.5s45 -18.5 81 -18.5c31.333 0 58.5 5 81.5 15z" />
    <glyph glyph-name="A" unicode="A" horiz-adv-x="667" 
d="M299 644h70l243 -644h-56l-71 188h-302l-71 -188h-57zM472 233l-139 367l-138 -367h277z" />
    <glyph glyph-name="B" unicode="B" horiz-adv-x="619" 
d="M75 644l283.001 0.000976562c62 0 107.5 -14.333 136.5 -43s43.5 -70.334 43.5 -125.001c0 -35.333 -7.33301 -65 -22 -89s-35.334 -42 -62.001 -54c73.333 -16.667 110 -67 110 -151c0 -62.667 -15.5 -108.667 -46.5 -138s-77.833 -44 -140.5 -44h-302v644z
M363.001 354.001c42.667 0 73.833 10.667 93.5 32s29.5 50.333 29.5 87c0 43.333 -10.167 75.333 -30.5 96s-56.833 31 -109.5 31h-216v-246h233zM372 43.001c48 0 83 10.832 105 32.499s33 57.834 33 108.501c0 43.333 -11.5 75.333 -34.5 96s-62.5 31 -118.5 31h-227v-268
h242z" />
    <glyph glyph-name="C" unicode="C" horiz-adv-x="589" 
d="M129 74c-49.333 56 -73.999 132.666 -73.999 229.999c0 110.667 23.5 196.667 70.5 258s121.833 92 224.5 92c68 0 129.333 -9.66699 184 -29v-49c-54 20 -113.667 30 -179 30c-88.667 0 -151.834 -25.833 -189.501 -77.5s-56.5 -126.5 -56.5 -224.5
c0 -178 83 -267 249 -267c30.667 0 61.5 2.33301 92.5 7s58.833 11.334 83.5 20.001v-49c-53.333 -16.667 -114.333 -25 -183 -25c-98.667 0 -172.667 28 -222 84z" />
    <glyph glyph-name="D" unicode="D" horiz-adv-x="632" 
d="M75 644l242 -0.000976562c62 0 112 -11.167 150 -33.5s65.833 -57.333 83.5 -105s26.5 -110.5 26.5 -188.5c0 -74 -8.66699 -134.167 -26 -180.5s-45 -80.666 -83 -102.999s-88.333 -33.5 -151 -33.5h-242v644zM305 43.999c51.333 0 92.5 7.66699 123.5 23
s54.333 42.666 70 81.999s23.5 95.333 23.5 168c0 73.333 -7.16699 130.333 -21.5 171s-37 69.334 -68 86.001s-73.5 25 -127.5 25h-175v-555h175z" />
    <glyph glyph-name="E" unicode="E" horiz-adv-x="541" 
d="M75 644h421v-45h-366v-255h331v-44h-331v-256h366v-44h-421v644z" />
    <glyph glyph-name="F" unicode="F" horiz-adv-x="516" 
d="M75 644h406v-45h-351v-255h314v-44h-314v-300h-55v644z" />
    <glyph glyph-name="G" unicode="G" horiz-adv-x="633" 
d="M129 74c-49.333 56 -74.0029 132.668 -74.0029 230.001c0 110.667 23.5 196.667 70.5 258s121.833 92 224.5 92c68.667 0 130 -9 184 -27v-49c-56 18.667 -115.333 28 -178 28c-89.333 0 -152.833 -25.833 -190.5 -77.5s-56.5 -126.5 -56.5 -224.5
c0 -178 82.667 -267 248 -267c30.667 0 61.334 2.66699 92.001 8s57 12.666 79 21.999v229h-183v44h233v-301c-21.333 -14 -50.666 -25.667 -87.999 -35s-83.666 -14 -138.999 -14c-98.667 0 -172.667 28 -222 84z" />
    <glyph glyph-name="H" unicode="H" horiz-adv-x="630" 
d="M75 644h55v-300h370v300h55v-644h-55v300h-370v-300h-55v644z" />
    <glyph glyph-name="I" unicode="I" horiz-adv-x="205" 
d="M75 644h55v-644h-55v644z" />
    <glyph glyph-name="J" unicode="J" horiz-adv-x="419" 
d="M35 13v47.999c16 -7.33301 35 -13.166 57 -17.499s44 -6.5 66 -6.5c49.333 0 84.333 10.333 105 31s31 54 31 100v476h55v-479c0 -116.667 -61.333 -175 -184 -175c-48.667 0 -92 7.66699 -130 23z" />
    <glyph glyph-name="K" unicode="K" horiz-adv-x="585" 
d="M75 644h55v-342l327 342h67l-245 -256l251 -388h-60l-225 352l-115 -121v-231h-55v644z" />
    <glyph glyph-name="L" unicode="L" horiz-adv-x="521" 
d="M75 644h55v-600h356v-44h-411v644z" />
    <glyph glyph-name="M" unicode="M" horiz-adv-x="744" 
d="M75 644h64l233 -477l233 477h64v-644h-54v564l-221 -452h-43l-222 452v-564h-54v644z" />
    <glyph glyph-name="N" unicode="N" horiz-adv-x="656" 
d="M75 644h52l399 -562v562h55v-644h-53l-398 561v-561h-55v644z" />
    <glyph glyph-name="O" unicode="O" horiz-adv-x="688" 
d="M126 73c-47.333 55.333 -71 137.333 -71 246c0 115.333 23.333 200 70 254s119.667 81 219 81s172.333 -27 219 -81s70 -138.667 70 -254c0 -108.667 -23.667 -190.667 -71 -246s-120 -83 -218 -83s-170.667 27.667 -218 83zM520.5 105.5
c38.333 45.667 57.501 116.834 57.501 213.501c0 70 -8.5 126 -25.5 168s-42.5 72.333 -76.5 91s-78 28 -132 28s-98.167 -9.33301 -132.5 -28s-60 -49 -77 -91s-25.5 -98 -25.5 -168c0 -96.667 19.167 -167.834 57.5 -213.501s97.5 -68.5 177.5 -68.5
c79.333 0 138.166 22.833 176.499 68.5z" />
    <glyph glyph-name="P" unicode="P" horiz-adv-x="571" 
d="M75 644h256c68 0 119.167 -18 153.5 -54s51.5 -85 51.5 -147c0 -60.667 -18.667 -108.5 -56 -143.5s-88.333 -52.5 -153 -52.5h-197v-247h-55v644zM322 291c51.333 0 90.667 13.499 118 40.499s41 64.167 41 111.5c0 50.667 -13 89.334 -39 116.001s-64.333 40 -115 40
h-197v-308h192z" />
    <glyph glyph-name="Q" unicode="Q" horiz-adv-x="688" 
d="M341.5 -130.5c-19.667 27.667 -29.834 68.5 -30.501 122.5c-86.667 5.33301 -151 35.5 -193 90.5s-63 133.833 -63 236.5c0 115.333 23.333 200 70 254s119.667 81 219 81s172.333 -27 219 -81s70 -138.667 70 -254c0 -210.667 -89.333 -320 -268 -328
c0 -42.667 5.83301 -72.5 17.5 -89.5s33.167 -25.5 64.5 -25.5c25.333 0 49 3.33301 71 10v-48c-23.333 -6.66699 -49.666 -10 -78.999 -10c-45.333 0 -77.833 13.833 -97.5 41.5zM520.5 105.5c38.333 45.667 57.501 116.834 57.501 213.501c0 70 -8.5 126 -25.5 168
s-42.5 72.333 -76.5 91s-78 28 -132 28s-98.167 -9.33301 -132.5 -28s-60 -49 -77 -91s-25.5 -98 -25.5 -168c0 -96.667 19.167 -167.834 57.5 -213.501s97.5 -68.5 177.5 -68.5c79.333 0 138.166 22.833 176.499 68.5z" />
    <glyph glyph-name="R" unicode="R" horiz-adv-x="592" 
d="M75 644l269.001 0.000976562c65.333 0 113.666 -16.833 144.999 -50.5s47 -80.834 47 -141.501c0 -50 -12 -90.667 -36 -122s-59.333 -51.333 -106 -60c14 -6.66699 24.5 -14.834 31.5 -24.501s15.167 -24.5 24.5 -44.5l86 -201h-56l-85 194
c-7.33301 16.667 -15 29.334 -23 38.001s-19 15.167 -33 19.5s-33.333 6.5 -58 6.5h-151v-258h-55v644zM328.001 302.001c102 0 153 50 153 150c0 98 -47 147 -141 147h-210v-297h198z" />
    <glyph glyph-name="S" unicode="S" horiz-adv-x="553" 
d="M71 18v48.999c54.667 -20 115.667 -30 183 -30c64 0 111.667 10 143 30s47 52.333 47 97c0 27.333 -6.16699 49.666 -18.5 66.999s-32 31.833 -59 43.5s-64.833 22.834 -113.5 33.501c-72.667 16 -123.834 37.333 -153.501 64s-44.5 63 -44.5 109
c0 54 19.333 96.333 58 127s96.334 46 173.001 46c33.333 0 65.833 -2.5 97.5 -7.5s56.834 -10.5 75.501 -16.5v-49c-48 16.667 -102 25 -162 25c-62 0 -108.833 -10 -140.5 -30s-47.5 -51.667 -47.5 -95c0 -24.667 5.5 -44.667 16.5 -60s29.167 -28.5 54.5 -39.5
s62.666 -22.167 111.999 -33.5c76.667 -18 130.167 -41.333 160.5 -70s45.5 -66.667 45.5 -114c0 -57.333 -20.333 -100.666 -61 -129.999s-100.334 -44 -179.001 -44c-77.333 0 -139.666 9.33301 -186.999 28z" />
    <glyph glyph-name="T" unicode="T" horiz-adv-x="569" 
d="M257 599h-222v45h499v-45h-222v-599h-55v599z" />
    <glyph glyph-name="U" unicode="U" horiz-adv-x="663" 
d="M136 52c-44 41.333 -66 101.666 -66 180.999v411h55v-417c0 -62.667 17.833 -109.834 53.5 -141.501s86.834 -47.5 153.501 -47.5c66 0 116.833 15.833 152.5 47.5s53.5 78.834 53.5 141.501v417h55v-411c0 -79.333 -21.833 -139.666 -65.5 -180.999
s-108.834 -62 -195.501 -62s-152 20.667 -196 62z" />
    <glyph glyph-name="V" unicode="V" horiz-adv-x="668" 
d="M55 644h57l222 -595l222 595h57l-243 -644h-72z" />
    <glyph glyph-name="W" unicode="W" horiz-adv-x="850" 
d="M55 644h55l133 -577l156 512v65h45l163 -577l134 577h54l-149 -644h-66l-149 530l-159 -530h-67z" />
    <glyph glyph-name="X" unicode="X" horiz-adv-x="624" 
d="M279 318l-223 326h62l194 -287l194 287h61l-223 -326l225 -318h-62l-195 278l-195 -278h-62z" />
    <glyph glyph-name="Y" unicode="Y" horiz-adv-x="624" 
d="M284 241l-229 403h57l200 -355l200 355h57l-230 -403v-241h-55v241z" />
    <glyph glyph-name="Z" unicode="Z" horiz-adv-x="568" 
d="M55 34l390 565h-373v45h441v-39l-387 -561h392v-44h-463v34z" />
    <glyph glyph-name="bracketleft" unicode="[" horiz-adv-x="333" 
d="M55 706h231l2 -45h-178v-716h178l-2 -44h-231v805z" />
    <glyph glyph-name="backslash" unicode="\" horiz-adv-x="418" 
d="M55 662h55l253 -716h-55z" />
    <glyph glyph-name="bracketright" unicode="]" horiz-adv-x="333" 
d="M45 -55h178v716h-178l2 45h231v-805h-231z" />
    <glyph glyph-name="asciicircum" unicode="^" horiz-adv-x="439" 
d="M196 624h46l142 -227h-53l-111 186l-112 -186h-53z" />
    <glyph glyph-name="underscore" unicode="_" horiz-adv-x="554" 
d="M55 0h444v-45h-444v45z" />
    <glyph glyph-name="grave" unicode="`" horiz-adv-x="229" 
d="M55 680h52l67 -158h-45z" />
    <glyph glyph-name="a" unicode="a" horiz-adv-x="531" 
d="M101.5 24c-31 22.667 -46.501 56.667 -46.501 102c0 44.667 14 79.5 42 104.5s72.667 37.5 134 37.5h177v45c0 31.333 -4 55.833 -12 73.5s-22.667 30.5 -44 38.5s-52 12 -92 12c-52 0 -102.333 -8.66699 -151 -26v47c44.667 17.333 98.334 26 161.001 26
c66 0 114.333 -13.333 145 -40s46 -70 46 -130v-314h-45l-5 59c-22 -24 -48.167 -41.5 -78.5 -52.5s-67.833 -16.5 -112.5 -16.5c-48 0 -87.5 11.333 -118.5 34zM407.999 110v114h-175c-45.333 0 -77.333 -8 -96 -24s-28 -40.667 -28 -74c0 -32 10.667 -55 32 -69
s52.333 -21 93 -21c74 0 132 24.667 174 74z" />
    <glyph glyph-name="b" unicode="b" horiz-adv-x="564" 
d="M202 5c-27.333 10 -52.667 26 -76 48l-5 -53h-46v674h55v-240c46 33.333 101.667 50 167 50c141.333 0 212 -81 212 -243c0 -84.667 -18.333 -147.667 -55 -189s-89 -62 -157 -62c-36 0 -67.667 5 -95 15zM414.499 86c27 34 40.5 85.667 40.5 155s-14 119.5 -42 150.5
s-71.667 46.5 -131 46.5c-60 0 -110.667 -17.333 -152 -52v-287c40 -42.667 91.333 -64 154 -64c60 0 103.5 17 130.5 51z" />
    <glyph glyph-name="c" unicode="c" horiz-adv-x="483" 
d="M55 237c0 81.333 21.5 142.833 64.5 184.5s102.5 62.5 178.5 62.5c28.667 0 52.5 -2 71.5 -6s38.167 -10.667 57.5 -20v-45c-35.333 16.667 -75.333 25 -120 25c-132 0 -198 -67 -198 -201c0 -70 15 -121.167 45 -153.5s79.667 -48.5 149 -48.5
c43.333 0 85 8.66699 125 26v-46c-39.333 -16.667 -85.333 -25 -138 -25c-156.667 0 -235 82.333 -235 247z" />
    <glyph glyph-name="d" unicode="d" horiz-adv-x="564" 
d="M111.5 49.5c-37.667 39.667 -56.502 100.833 -56.502 183.5c0 84 19 146.833 57 188.5s91.333 62.5 160 62.5c32.667 0 61.834 -3.83301 87.501 -11.5s50.5 -20.5 74.5 -38.5v240h55v-674h-46l-5 53c-23.333 -22 -48.666 -38 -75.999 -48s-59 -15 -95 -15
c-66 0 -117.833 19.833 -155.5 59.5zM433.998 98.999v286.999c-40 34.667 -89 52 -147 52c-59.333 0 -103.833 -16.667 -133.5 -50s-44.5 -85 -44.5 -155c0 -67.333 14 -117.166 42 -149.499s71 -48.5 129 -48.5c62.667 0 114 21.333 154 64z" />
    <glyph glyph-name="e" unicode="e" horiz-adv-x="525" 
d="M113.5 50.5c-39 40.333 -58.499 103.5 -58.499 189.5c0 162.667 73 244 219 244c65.333 0 114.333 -17.5 147 -52.5s49 -80.833 49 -137.5v-86h-360c2 -42 9.66699 -75.5 23 -100.5s34.166 -43.333 62.499 -55s66.833 -17.5 115.5 -17.5c44 0 86.667 8.33301 128 25v-45
c-40.667 -16.667 -87 -25 -139 -25c-85.333 0 -147.5 20.167 -186.5 60.5zM420.001 251v45c0 94.667 -48.333 142 -145 142c-60 0 -102.5 -15.5 -127.5 -46.5s-37.5 -77.833 -37.5 -140.5h310z" />
    <glyph glyph-name="f" unicode="f" horiz-adv-x="339" 
d="M108 428h-73.001v46h73v80c0 43.333 12 76.833 36 100.5s58.333 35.5 103 35.5c28.667 0 54.334 -4.33301 77.001 -13v-44c-20.667 7.33301 -41.667 11 -63 11c-36.667 0 -62.167 -6.83301 -76.5 -20.5s-21.5 -36.5 -21.5 -68.5v-81h132l-3 -46h-129v-428h-55v428z" />
    <glyph glyph-name="g" unicode="g" horiz-adv-x="542" 
d="M71 -152l-0.000976562 47.002c52 -17.333 112.667 -26 182 -26c57.333 0 98.333 4.5 123 13.5s37 27.5 37 55.5c0 22.667 -7.16699 38.5 -21.5 47.5s-40.166 13.5 -77.499 13.5h-129c-43.333 0 -75.5 6.83301 -96.5 20.5s-31.5 34.5 -31.5 62.5
c0 20 7.16699 38.167 21.5 54.5s34.5 27.833 60.5 34.5c-54.667 22 -82 69.667 -82 143c0 58.667 16.333 101.667 49 129s83.334 41 152.001 41c21.333 0 47 -3.33301 77 -10h167l-2 -41h-92c32.667 -28 49 -67.667 49 -119c0 -110.667 -63 -166 -189 -166
c-18.667 0 -40 2 -64 6c-26.667 -2.66699 -48.834 -9.83398 -66.501 -21.501s-26.5 -26.5 -26.5 -44.5c0 -14.667 6 -25.334 18 -32.001s33.333 -10 64 -10h133c94.667 0 142 -35 142 -105c0 -44 -17.5 -74.5 -52.5 -91.5s-88.5 -25.5 -160.5 -25.5
c-78.667 0 -140 8 -184 24zM370.999 219.002c21.333 18.667 32 50.332 32 94.999s-11.167 77 -33.5 97s-59.5 30 -111.5 30s-89.333 -9.66699 -112 -29s-34 -52 -34 -98c0 -43.333 11 -74.666 33 -93.999s59.667 -29 113 -29c54 0 91.667 9.33301 113 28z" />
    <glyph glyph-name="h" unicode="h" horiz-adv-x="559" 
d="M75 674h55v-257c25.333 21.333 53.333 37.833 84 49.5s66 17.5 106 17.5c58 0 100.667 -13.833 128 -41.5s41 -70.834 41 -129.501v-313h-55v312c0 46.667 -10 79.334 -30 98.001s-55 28 -105 28c-31.333 0 -61.833 -6.33301 -91.5 -19s-55.5 -29.667 -77.5 -51v-368h-55
v674z" />
    <glyph glyph-name="i" unicode="i" horiz-adv-x="270" 
d="M132 657h63v-60h-63v60zM139 428h-74l6 46h123v-474h-55v428z" />
    <glyph glyph-name="j" unicode="j" horiz-adv-x="270" 
d="M132 657h63v-60h-63v60zM-20 -222l0.000976562 44.999c20.667 -6.66699 41 -10 61 -10c36 0 61.333 7 76 21s22 36.333 22 67v527h-74l6 46h123v-576c0 -41.333 -11.833 -73.666 -35.5 -96.999s-56.834 -35 -99.501 -35c-30.667 0 -57 4 -79 12z" />
    <glyph glyph-name="k" unicode="k" horiz-adv-x="506" 
d="M75 674h55v-428l244 228h66l-195 -185l206 -289h-58l-184 258l-79 -74v-184h-55v674z" />
    <glyph glyph-name="l" unicode="l" horiz-adv-x="246" 
d="M97.5 13.5c-15 15.667 -22.502 41.5 -22.502 77.5v583h55v-581c0 -20.667 3.33301 -35.167 10 -43.5s17.334 -12.5 32.001 -12.5s29.334 2 44.001 6v-46c-14 -4.66699 -31.667 -7 -53 -7c-28.667 0 -50.5 7.83301 -65.5 23.5z" />
    <glyph glyph-name="m" unicode="m" horiz-adv-x="850" 
d="M75 474l48.0029 -0.000976562l5 -58c54.667 45.333 113.667 68 177 68c35.333 0 63.166 -5.83301 83.499 -17.5s35.5 -28.5 45.5 -50.5c54 45.333 116.333 68 187 68c54 0 94 -13.667 120 -41s39 -69.333 39 -126v-317h-54v312c0 46.667 -9.83301 79.334 -29.5 98.001
s-51.834 28 -96.501 28c-30.667 0 -59.334 -5.16699 -86.001 -15.5s-49 -25.5 -67 -45.5c4.66699 -22 7 -44.333 7 -67v-310h-53v309c0 46.667 -8 79.834 -24 99.501s-45.333 29.5 -88 29.5c-28 0 -56.167 -6.33301 -84.5 -19s-53.5 -29.334 -75.5 -50.001v-369h-54v474z
" />
    <glyph glyph-name="n" unicode="n" horiz-adv-x="559" 
d="M75 474l48 -0.00195312l5 -58c26 22 54.5 38.833 85.5 50.5s66.5 17.5 106.5 17.5c58.667 0 101.5 -13.667 128.5 -41s40.5 -70.666 40.5 -129.999v-313h-55v312c0 32 -4.16699 57 -12.5 75s-22.333 31 -42 39s-47.167 12 -82.5 12
c-32.667 0 -63.167 -6.16699 -91.5 -18.5s-53.5 -29.166 -75.5 -50.499v-369h-55v474z" />
    <glyph glyph-name="o" unicode="o" horiz-adv-x="563" 
d="M109 52c-36 41.333 -54 103 -54 185c0 81.333 18.333 142.833 55 184.5s93.667 62.5 171 62.5s134.5 -20.833 171.5 -62.5s55.5 -103.167 55.5 -184.5c0 -82 -18.167 -143.667 -54.5 -185s-93.833 -62 -172.5 -62s-136 20.667 -172 62zM413.5 85
c26.333 32 39.5 82.667 39.5 152c0 68.667 -13.333 119 -40 151s-70.667 48 -132 48s-105.333 -16 -132 -48s-40 -82.333 -40 -151c0 -69.333 13.167 -120 39.5 -152s70.5 -48 132.5 -48s106.167 16 132.5 48z" />
    <glyph glyph-name="p" unicode="p" horiz-adv-x="564" 
d="M75 474h46.002l5 -54c23.333 22 48.666 38.167 75.999 48.5s59 15.5 95 15.5c141.333 0 212 -82 212 -246c0 -84 -18.833 -146.333 -56.5 -187s-90.834 -61 -159.501 -61c-33.333 0 -63 3.83301 -89 11.5s-50.667 20.167 -74 37.5v-255h-55v690zM411.502 84
c29 32.667 43.5 84 43.5 154c0 68.667 -13.333 119.167 -40 151.5s-70.334 48.5 -131.001 48.5c-62.667 0 -114 -21.333 -154 -64v-286c40.667 -35.333 90.334 -53 149.001 -53c59.333 0 103.5 16.333 132.5 49z" />
    <glyph glyph-name="q" unicode="q" horiz-adv-x="603" 
d="M459.5 -213.5c-17 19 -25.498 48.167 -25.498 87.5v165c-23.333 -17.333 -48 -29.833 -74 -37.5s-55.667 -11.5 -89 -11.5c-68.667 0 -121.834 20.333 -159.501 61s-56.5 103 -56.5 187c0 164 70.667 246 212 246c36 0 67.667 -5.16699 95 -15.5
s52.666 -26.5 75.999 -48.5l5 54h46v-598c0 -26.667 4.16699 -45.167 12.5 -55.5s24.833 -15.5 49.5 -15.5c10 0 22.333 2 37 6v-46c-14.667 -4.66699 -31.667 -7 -51 -7c-34.667 0 -60.5 9.5 -77.5 28.5zM434.002 88v286c-40 42.667 -91.333 64 -154 64
c-60.667 0 -104.334 -16.167 -131.001 -48.5s-40 -82.833 -40 -151.5c0 -70 14.5 -121.333 43.5 -154s73.167 -49 132.5 -49c58.667 0 108.334 17.667 149.001 53z" />
    <glyph glyph-name="r" unicode="r" horiz-adv-x="342" 
d="M75 474h47.999l6 -66c24 16.667 51.833 31.667 83.5 45s63.167 23.666 94.5 30.999v-45c-30 -7.33301 -62.167 -18.166 -96.5 -32.499s-61.166 -28.5 -80.499 -42.5v-364h-55v474z" />
    <glyph glyph-name="s" unicode="s" horiz-adv-x="447" 
d="M68 10l0.000976562 48.998c43.333 -14.667 89.666 -22 138.999 -22c46.667 0 80 6.33301 100 19s30 34 30 64c0 18.667 -3.83301 33.334 -11.5 44.001s-18.834 19.334 -33.501 26.001s-37.667 15.334 -69 26.001l-25 9c-36 12 -62.833 22.167 -80.5 30.5
s-32.5 20.666 -44.5 36.999s-18 38.5 -18 66.5c0 42 13.833 73.333 41.5 94s71.834 31 132.501 31c45.333 0 87.333 -5.66699 126 -17v-49c-38.667 12 -78 18 -118 18c-46.667 0 -79.667 -5.83301 -99 -17.5s-29 -31.167 -29 -58.5c0 -18 4 -32.167 12 -42.5
s19.833 -18.833 35.5 -25.5s41.167 -15.667 76.5 -27c40 -12.667 70.833 -24.5 92.5 -35.5s38.167 -25 49.5 -42s17 -39.5 17 -67.5c0 -86.667 -59.333 -130 -178 -130c-57.333 0 -106 6.66699 -146 20z" />
    <glyph glyph-name="t" unicode="t" horiz-adv-x="350" 
d="M143 25c-22.667 23.333 -34 56.001 -34 98.001v305h-74v46h74v124l55 18v-142h137l-3 -46h-134v-303c0 -30.667 7.33301 -53.334 22 -68.001s38 -22 70 -22c18 0 37.667 3.66699 59 11v-44c-22 -8 -47 -12 -75 -12c-42 0 -74.333 11.667 -97 35z" />
    <glyph glyph-name="u" unicode="u" horiz-adv-x="559" 
d="M114 37.5c-29.333 31.667 -44.001 77.168 -44.001 136.501v300h55v-302c0 -46 11.333 -80.333 34 -103s58.334 -34 107.001 -34c32 0 61.833 6.16699 89.5 18.5s52.167 29.166 73.5 50.499v370h55v-474h-49l-5 58c-25.333 -22 -53 -38.833 -83 -50.5
s-64.667 -17.5 -104 -17.5c-56.667 0 -99.667 15.833 -129 47.5z" />
    <glyph glyph-name="v" unicode="v" horiz-adv-x="546" 
d="M55 474h57l161 -428l162 428h56l-185 -474h-66z" />
    <glyph glyph-name="w" unicode="w" horiz-adv-x="719" 
d="M55 474h55l104 -418l119 366v52h43l130 -418l103 418h55l-123 -474h-59l-121 377l-123 -377h-60z" />
    <glyph glyph-name="x" unicode="x" horiz-adv-x="528" 
d="M234 241l-174 233h60l143 -195l144 195h59l-171 -233l178 -241h-60l-150 204l-149 -204h-59z" />
    <glyph glyph-name="y" unicode="y" horiz-adv-x="566" 
d="M74 -165v45.999c18 -6.66699 38.333 -10 61 -10c22 0 40 4.83301 54 14.5s25.833 23 35.5 40s22.167 42.833 37.5 77.5l-207 471h57l178 -412l185 412h56l-205 -459c-20 -45.333 -37.167 -80.666 -51.5 -105.999s-32 -45.833 -53 -61.5s-46.167 -23.5 -75.5 -23.5
c-28.667 0 -52.667 3.66699 -72 11z" />
    <glyph glyph-name="z" unicode="z" horiz-adv-x="479" 
d="M55 34l298 394h-284v46h349v-38l-296 -391h302v-45h-369v34z" />
    <glyph glyph-name="braceleft" unicode="{" horiz-adv-x="285" 
d="M128.5 -82c-16.333 14.667 -24.5 40 -24.5 76v185c0 32 -4.66699 55.667 -14 71s-27.666 24.666 -54.999 27.999v40c27.333 3.33301 45.666 12.666 54.999 27.999s14 39 14 71v185c0 36 8.16699 61.333 24.5 76s42.833 22 79.5 22h32v-45h-24
c-22 0 -37 -4.16699 -45 -12.5s-12 -24.166 -12 -47.499v-205c0 -20.667 -4.83301 -39.667 -14.5 -57s-25.167 -29 -46.5 -35c21.333 -6 36.833 -17.667 46.5 -35s14.5 -36.333 14.5 -57v-205c0 -23.333 4 -39.166 12 -47.499s23 -12.5 45 -12.5h24v-45h-32
c-36.667 0 -63.167 7.33301 -79.5 22z" />
    <glyph glyph-name="bar" unicode="|" horiz-adv-x="165" 
d="M55 735h55v-855h-55v855z" />
    <glyph glyph-name="braceright" unicode="}" horiz-adv-x="285" 
d="M45 -59h24c22 0 37 4.16699 45 12.5s12 24.166 12 47.499v205c0 20.667 4.83301 39.667 14.5 57s25.167 29 46.5 35c-21.333 6 -36.833 17.667 -46.5 35s-14.5 36.333 -14.5 57v205c0 23.333 -4 39.166 -12 47.499s-23 12.5 -45 12.5h-24v45h32
c36.667 0 63.167 -7.33301 79.5 -22s24.5 -40 24.5 -76v-185c0 -32 4.66699 -55.667 14 -71s27.666 -24.666 54.999 -27.999v-40c-27.333 -3.33301 -45.666 -12.666 -54.999 -27.999s-14 -39 -14 -71v-185c0 -36 -8.16699 -61.333 -24.5 -76s-42.833 -22 -79.5 -22h-32v45z
" />
    <glyph glyph-name="asciitilde" unicode="~" horiz-adv-x="579" 
d="M354 250c-18 6 -39.3379 15.001 -64.0049 27.001s-46 21 -64 27s-36 9 -54 9c-24.667 0 -46.167 -4.83301 -64.5 -14.5s-35.833 -25.167 -52.5 -46.5v58c12 16 28.333 28.833 49 38.5s43.334 14.5 68.001 14.5c21.333 0 41.333 -3.33301 60 -10s40.334 -16 65.001 -28
c26 -12 46.833 -20.667 62.5 -26s32.167 -8 49.5 -8c24.667 0 45.834 4.66699 63.501 14s34.834 24.666 51.501 45.999v-58c-11.333 -16 -27.166 -28.667 -47.499 -38s-42.833 -14 -67.5 -14c-18.667 0 -37 3 -55 9z" />
    <glyph glyph-name="uni00A0" unicode="&#xa0;" horiz-adv-x="390" 
 />
    <glyph glyph-name="exclamdown" unicode="&#xa1;" horiz-adv-x="171" 
d="M55 632h61v-48h-61v48zM58 141l6 345h44l5 -345v-153h-55v153z" />
    <glyph glyph-name="cent" unicode="&#xa2;" horiz-adv-x="483" 
d="M266 -9c-140.667 7.33301 -211 89.334 -211 246.001c0 75.333 18.5 133.666 55.5 174.999s88.833 64.666 155.5 69.999v78h44v-76c25.333 -0.666992 46.666 -3 63.999 -7s35 -10.333 53 -19v-45c-34.667 16 -73.667 24.333 -117 25v-403
c40.667 0.666992 80 9.33398 118 26.001v-46c-33.333 -14 -72.666 -22 -117.999 -24v-77h-44v77zM266 435.001c-104.667 -12.667 -157 -78.667 -157 -198c0 -63.333 12.333 -111.333 37 -144s64.667 -51.667 120 -57v399z" />
    <glyph glyph-name="sterling" unicode="&#xa3;" horiz-adv-x="505" 
d="M55 45h27c42 0 63 26 63 78v196h-73v45h73v140c0 47.333 15.333 84.166 46 110.499s70 39.5 118 39.5c21.333 0 41.333 -1.66699 60 -5s33.667 -7.66602 45 -12.999v-44c-9.33301 4.66699 -22.5 8.5 -39.5 11.5s-33.833 4.5 -50.5 4.5c-41.333 0 -72.333 -8.5 -93 -25.5
s-31 -43.5 -31 -79.5v-139h213l-1 -45h-212v-193c0 -39.333 -9.66699 -66.333 -29 -81h279v-45h-395v45z" />
    <glyph glyph-name="currency" unicode="&#xa4;" horiz-adv-x="571" 
d="M55 100l83.999 63.001c-24 30 -36 65.333 -36 106c0 40 12 75 36 105l-84 64l26 33l85 -67c16 14.667 34.167 26 54.5 34s41.833 12 64.5 12c45.333 0 85 -15.333 119 -46l86 67l26 -33l-84 -64c24 -31.333 36 -66.333 36 -105s-12 -74.334 -36 -107.001l84 -63l-26 -33
l-86 66c-33.333 -30 -72.666 -45 -117.999 -45c-46 0 -86 15 -120 45l-85 -66zM354.499 148.001c21 12.667 37.666 29.667 49.999 51s18.5 44.666 18.5 69.999s-6.16699 48.666 -18.5 69.999s-29.166 38.166 -50.499 50.499s-44.333 18.5 -69 18.5
c-25.333 0 -48.5 -6.16699 -69.5 -18.5s-37.5 -29.166 -49.5 -50.499s-18 -44.666 -18 -69.999s6.16699 -48.666 18.5 -69.999s29 -38.333 50 -51s43.833 -19 68.5 -19c25.333 0 48.5 6.33301 69.5 19z" />
    <glyph glyph-name="yen" unicode="&#xa5;" horiz-adv-x="615" 
d="M279 110h-163v41h163v68h-163v41h152l-213 384h56l196 -355l196 355h57l-215 -384h153v-41h-163v-68h163v-41h-163v-110h-56v110z" />
    <glyph glyph-name="brokenbar" unicode="&#xa6;" horiz-adv-x="165" 
d="M55 735h55v-301h-55v301zM55 180h55v-300h-55v300z" />
    <glyph glyph-name="section" unicode="&#xa7;" horiz-adv-x="553" 
d="M71 18l-0.00488281 49.0029c54.667 -20 115.667 -30 183 -30c63.333 0 110.833 10 142.5 30s47.5 52.333 47.5 97c0 27.333 -6.66699 49.5 -20 66.5s-33.5 30.833 -60.5 41.5s-64.833 22 -113.5 34c-49.333 12 -87.833 24.5 -115.5 37.5s-47.834 28.667 -60.501 47
s-19 41.5 -19 69.5c0 21.333 5.66699 42.333 17 63c-11.333 19.333 -17 42.666 -17 69.999c0 54 19.333 96.167 58 126.5s96.334 45.5 173.001 45.5c33.333 0 65.833 -2.5 97.5 -7.5s56.834 -10.5 75.501 -16.5v-49c-48 16.667 -102 25 -162 25
c-62.667 0 -109.667 -10 -141 -30s-47 -51.667 -47 -95c0 -24.667 5.5 -44.834 16.5 -60.501s29.333 -29 55 -40s62.834 -22.167 111.501 -33.5c56.667 -13.333 99.334 -26.333 128.001 -39s48.834 -27.667 60.501 -45s17.5 -40.333 17.5 -69
c0 -10.667 -1.5 -22.667 -4.5 -36s-6.83301 -25 -11.5 -35c10.667 -20.667 16 -44.334 16 -71.001c0 -57.333 -20.5 -100.5 -61.5 -129.5s-100.5 -43.5 -178.5 -43.5c-77.333 0 -139.666 9.33301 -186.999 28zM448.995 306.003c0 22 -5.16602 38.832 -15.499 50.499
s-27 21.667 -50 30s-62.5 19.5 -118.5 33.5c-41.333 10 -73.833 19.833 -97.5 29.5s-41.834 21.5 -54.501 35.5c-4 -8 -6 -18 -6 -30c0 -20 5.16699 -36 15.5 -48s27.333 -22.333 51 -31s59.167 -18.667 106.5 -30c80.667 -19.333 135 -44.333 163 -75
c4 10.667 6 22.334 6 35.001z" />
    <glyph glyph-name="dieresis" unicode="&#xa8;" horiz-adv-x="333" 
d="M55 622h56v-55h-56v55zM221 622h57v-55h-57v55z" />
    <glyph glyph-name="copyright" unicode="&#xa9;" horiz-adv-x="774" 
d="M220.5 34.5c-51 29.667 -91.333 70 -121 121s-44.5 106.5 -44.5 166.5s14.833 115.5 44.5 166.5s70 91.333 121 121s106.5 44.5 166.5 44.5s115.5 -14.833 166.5 -44.5s91.333 -70 121 -121s44.5 -106.5 44.5 -166.5s-14.833 -115.5 -44.5 -166.5s-70 -91.333 -121 -121
s-106.5 -44.5 -166.5 -44.5s-115.5 14.833 -166.5 44.5zM533 71c44 25.333 78.667 60 104 104s38 93 38 147c0 53.333 -12.667 102 -38 146s-60 78.667 -104 104s-92.667 38 -146 38s-102 -12.667 -146 -38s-78.667 -60 -104 -104s-38 -92.667 -38 -146
c0 -54 12.667 -103 38 -147s60 -78.667 104 -104s92.667 -38 146 -38s102 12.667 146 38zM214.5 146c-41 42 -61.499 100.332 -61.499 174.999c0 51.333 10.667 94.833 32 130.5s50.166 62.334 86.499 80.001s76.833 26.5 121.5 26.5c52 0 95 -9.33301 129 -28v-40
c-37.333 18 -77.666 27 -120.999 27c-60.667 0 -109.334 -16.333 -146.001 -49s-55 -81.667 -55 -147c0 -67.333 16.333 -117 49 -149s81.667 -48 147 -48c20.667 0 42.667 2.5 66 7.5s43.333 11.833 60 20.5v-41c-17.333 -8.66699 -38 -15.5 -62 -20.5s-49 -7.5 -75 -7.5
c-72.667 0 -129.5 21 -170.5 63z" />
    <glyph glyph-name="ordfeminine" unicode="&#xaa;" horiz-adv-x="348" 
d="M81.5 399c-17.667 12.667 -26.501 31.667 -26.501 57c0 56 34.333 84 103 84h94v17c0 22.667 -5.5 38.667 -16.5 48s-32.833 14 -65.5 14c-28 0 -55 -4.66699 -81 -14v35c26.667 9.33301 56.667 14 90 14c76 0 114 -31.667 114 -95v-173h-37l-3 32
c-13.333 -13.333 -28.166 -23 -44.499 -29s-35.833 -9 -58.5 -9c-28 0 -50.833 6.33301 -68.5 19zM212.499 422c14.333 6.66699 27.5 17.334 39.5 32.001v54h-91c-24.667 0 -42 -3.83301 -52 -11.5s-15 -20.834 -15 -39.501c0 -30 22 -45 66 -45
c20.667 0 38.167 3.33301 52.5 10z" />
    <glyph glyph-name="guillemotleft" unicode="&#xab;" horiz-adv-x="581" 
d="M55 271v32l250 184l23 -34l-222 -166l222 -166l-23 -34zM252 271v32l250 184l24 -34l-223 -166l223 -166l-24 -34z" />
    <glyph glyph-name="logicalnot" unicode="&#xac;" horiz-adv-x="535" 
d="M433 319h-378v45h425v-212h-47v167z" />
    <glyph glyph-name="uni00AD" unicode="&#xad;" horiz-adv-x="482" 
d="M55 280h372v-45h-372v45z" />
    <glyph glyph-name="registered" unicode="&#xae;" horiz-adv-x="774" 
d="M220.5 34.5c-51 29.667 -91.333 70 -121 121s-44.5 106.5 -44.5 166.5s14.833 115.5 44.5 166.5s70 91.333 121 121s106.5 44.5 166.5 44.5s115.5 -14.833 166.5 -44.5s91.333 -70 121 -121s44.5 -106.5 44.5 -166.5s-14.833 -115.5 -44.5 -166.5s-70 -91.333 -121 -121
s-106.5 -44.5 -166.5 -44.5s-115.5 14.833 -166.5 44.5zM533 71c44 25.333 78.667 60 104 104s38 93 38 147c0 53.333 -12.667 102 -38 146s-60 78.667 -104 104s-92.667 38 -146 38s-102 -12.667 -146 -38s-78.667 -60 -104 -104s-38 -92.667 -38 -146
c0 -54 12.667 -103 38 -147s60 -78.667 104 -104s92.667 -38 146 -38s102 12.667 146 38zM232 545l188 0.000976562c46 0 80.833 -11.5 104.5 -34.5s35.5 -55.167 35.5 -96.5c0 -34.667 -8.83301 -62.834 -26.5 -84.501s-43.167 -35.5 -76.5 -41.5
c10 -5.33301 17.667 -11.5 23 -18.5s11 -17.167 17 -30.5l59 -139h-44l-60 137c-7.33301 16.667 -16 27.5 -26 32.5s-29 7.5 -57 7.5h-92v-177h-45v445zM402 316.001c38.667 0 67.334 7 86.001 21s28 39.667 28 77c0 34 -7.83301 57.833 -23.5 71.5
s-40.834 20.5 -75.501 20.5h-140v-190h125z" />
    <glyph glyph-name="macron" unicode="&#xaf;" horiz-adv-x="387" 
d="M55 609h277v-42h-277v42z" />
    <glyph glyph-name="degree" unicode="&#xb0;" horiz-adv-x="321" 
d="M85.5 537c-20.333 20 -30.5 45 -30.5 75s10.167 55 30.5 75s45.166 30 74.499 30c30 0 55.167 -10 75.5 -30s30.5 -45 30.5 -75s-10.167 -55 -30.5 -75s-45.5 -30 -75.5 -30c-29.333 0 -54.166 10 -74.499 30zM207 565c12.667 12.667 19 28.334 19 47.001
s-6.33301 34.334 -19 47.001s-28.334 19 -47.001 19s-34.167 -6.33301 -46.5 -19s-18.5 -28.334 -18.5 -47.001s6.16699 -34.334 18.5 -47.001s27.833 -19 46.5 -19s34.334 6.33301 47.001 19z" />
    <glyph glyph-name="plusminus" unicode="&#xb1;" horiz-adv-x="482" 
d="M217 245h-162v45h162v162h47v-162h163v-45h-163v-156h-47v156zM55 45h372v-45h-372v45z" />
    <glyph glyph-name="uni00B2" unicode="&#xb2;" horiz-adv-x="296" 
d="M55 396c7.33301 16 17.333 30.501 30 43.501s30 28.167 52 45.5c24 20 40 35.667 48 47s12 24.666 12 39.999c0 16 -4.83301 27.833 -14.5 35.5s-25.167 11.5 -46.5 11.5c-23.333 0 -47 -4 -71 -12v34c9.33301 3.33301 21.5 6.33301 36.5 9s29.167 4 42.5 4
c30 0 53.167 -7.66699 69.5 -23s24.5 -35 24.5 -59c0 -19.333 -4.5 -35.5 -13.5 -48.5s-25.5 -29.833 -49.5 -50.5l-19 -16c-9.33301 -8 -18.333 -16.5 -27 -25.5s-16 -18.167 -22 -27.5h134v-34h-186v26z" />
    <glyph glyph-name="uni00B3" unicode="&#xb3;" horiz-adv-x="298" 
d="M87.5 365c-14.333 2 -25.167 4.66309 -32.5 7.99609v34c22 -8 45 -12 69 -12c28 0 47.667 3.83301 59 11.5s17 20.834 17 39.501c0 16.667 -5.83301 28.834 -17.5 36.501s-29.5 11.5 -53.5 11.5h-35l4 31h27c24 0 41.5 4 52.5 12s16.5 21 16.5 39
c0 16 -5.16699 27.333 -15.5 34s-28.166 10 -53.499 10c-22.667 0 -44.334 -3.66699 -65.001 -11v34c8.66699 2.66699 19.667 5.16699 33 7.5s26.333 3.5 39 3.5c70 0 105 -25.333 105 -76c0 -16 -4 -30.167 -12 -42.5s-20.333 -21.166 -37 -26.499
c36.667 -7.33301 55 -28.666 55 -63.999c0 -55.333 -37.667 -83 -113 -83c-14 0 -28.167 1 -42.5 3z" />
    <glyph glyph-name="acute" unicode="&#xb4;" horiz-adv-x="229" 
d="M122 680h52l-75 -158h-44z" />
    <glyph glyph-name="paragraph" unicode="&#xb6;" horiz-adv-x="611" 
d="M330 253c-86 0 -153.333 16.667 -202 50s-73 91.333 -73 174c0 81.333 23.333 140.5 70 177.5s111.667 55.5 195 55.5h236v-787h-55v742h-116v-742h-55v330z" />
    <glyph glyph-name="periodcentered" unicode="&#xb7;" horiz-adv-x="163" 
d="M55 309h53v-51h-53v51z" />
    <glyph glyph-name="cedilla" unicode="&#xb8;" horiz-adv-x="315" 
d="M86 -237.5c-12.667 1.66699 -23.001 3.5 -31.001 5.5v37c19.333 -5.33301 40.333 -8 63 -8c34.667 0 59.834 4.83301 75.501 14.5s23.5 26.167 23.5 49.5c0 21.333 -7.33301 35.833 -22 43.5s-38 11.5 -70 11.5h-33l28 84h43l-17 -51c76 0 114 -29.333 114 -88
c0 -67.333 -46.667 -101 -140 -101c-10 0 -21.333 0.833008 -34 2.5z" />
    <glyph glyph-name="uni00B9" unicode="&#xb9;" horiz-adv-x="206" 
d="M131 614l-76 -17v34l116 23v-284h-40v244z" />
    <glyph glyph-name="ordmasculine" unicode="&#xba;" horiz-adv-x="363" 
d="M55 517c0 44.667 10.5 78.667 31.5 102s52.5 35 94.5 35s73.667 -11.667 95 -35s32 -57.333 32 -102c0 -91.333 -42.333 -137 -127 -137c-84 0 -126 45.667 -126 137zM247.5 439.5c13 17 19.5 42.833 19.5 77.5c0 34 -6.66699 59.5 -20 76.5s-35.333 25.5 -66 25.5
s-52.667 -8.5 -66 -25.5s-20 -42.5 -20 -76.5c0 -34.667 6.5 -60.5 19.5 -77.5s35.167 -25.5 66.5 -25.5s53.5 8.5 66.5 25.5z" />
    <glyph glyph-name="guillemotright" unicode="&#xbb;" horiz-adv-x="581" 
d="M55 121l222 166l-222 166l23 34l250 -184v-32l-250 -184zM252 121l223 166l-223 166l24 34l250 -184v-32l-250 -184z" />
    <glyph glyph-name="onequarter" unicode="&#xbc;" horiz-adv-x="616" 
d="M131 614l-76 -17v34l116 23v-284h-40v244zM447 644h52l-344 -644h-52zM490 62h-155v34l147 188h48v-189h31v-33h-31v-62h-40v62zM497 95v158l-123 -158h123z" />
    <glyph glyph-name="onehalf" unicode="&#xbd;" horiz-adv-x="615" 
d="M131 614l-76 -17v34l116 23v-284h-40v244zM447 644h52l-344 -644h-52zM374 26c8 16 18.166 30.334 30.499 43.001s29.5 28 51.5 46c24.667 20 40.834 35.667 48.501 47s11.5 24.666 11.5 39.999c0 16 -4.83301 27.833 -14.5 35.5s-25.167 11.5 -46.5 11.5
c-22 0 -45.667 -4 -71 -12v34c9.33301 3.33301 21.5 6.33301 36.5 9s29.167 4 42.5 4c30 0 53.333 -7.66699 70 -23s25 -35 25 -59c0 -19.333 -4.5 -35.5 -13.5 -48.5s-25.5 -29.833 -49.5 -50.5l-19 -16c-9.33301 -8 -18.333 -16.5 -27 -25.5s-16 -18.167 -22 -27.5h133
v-34h-186v26z" />
    <glyph glyph-name="threequarters" unicode="&#xbe;" horiz-adv-x="630" 
d="M87.5 365c-14.333 2 -25.165 4.66406 -32.498 7.99707v33c22 -8 45 -12 69 -12c28 0 47.667 4 59 12s17 21.333 17 40c0 16.667 -5.83301 28.834 -17.5 36.501s-29.5 11.5 -53.5 11.5h-35l4 31h27c24 0 41.5 4 52.5 12s16.5 21 16.5 39c0 16 -5.33301 27.5 -16 34.5
s-28.334 10.5 -53.001 10.5c-22.667 0 -44.334 -3.66699 -65.001 -11v33c8.66699 2.66699 19.667 5.16699 33 7.5s26.333 3.5 39 3.5c70 0 105 -25.333 105 -76c0 -16 -4 -30.167 -12 -42.5s-20.333 -21.166 -37 -26.499c36.667 -7.33301 55 -28.666 55 -63.999
c0 -55.333 -37.667 -83 -113 -83c-14 0 -28.167 1 -42.5 3zM460.001 643.997h52l-343 -644h-52zM504.001 61.9971h-155v34l146 188h49v-189h31v-33h-31v-62h-40v62zM510.001 94.9971v158l-122 -158h122z" />
    <glyph glyph-name="questiondown" unicode="&#xbf;" horiz-adv-x="488" 
d="M264 632h61v-48h-61v48zM117 23.5c-34.667 30.333 -52.0029 73.5 -52.0029 129.5c0 24 4.33301 45.333 13 64s19.834 34.834 33.501 48.501s32.5 30.5 56.5 50.5l17 14c21.333 17.333 37.333 31.333 48 42s19 23.167 25 37.5s9 32.166 9 53.499v21h55v-24
c0 -26.667 -5.33301 -50 -16 -70s-21.667 -35.167 -33 -45.5s-32.666 -28.5 -63.999 -54.5c-31.333 -25.333 -54.166 -47.333 -68.499 -66s-21.5 -42 -21.5 -70c0 -43.333 12.5 -75.5 37.5 -96.5s66.5 -31.5 124.5 -31.5c59.333 0 113.333 11.667 162 35v-48
c-20 -10.667 -45 -19.167 -75 -25.5s-62.333 -9.5 -97 -9.5c-68 0 -119.333 15.167 -154 45.5z" />
    <glyph glyph-name="Agrave" unicode="&#xc0;" horiz-adv-x="667" 
d="M230 846h52l67 -158h-45zM299 644h70l243 -644h-56l-71 188h-302l-71 -188h-57zM472 233l-139 367l-138 -367h277z" />
    <glyph glyph-name="Aacute" unicode="&#xc1;" horiz-adv-x="667" 
d="M367 846h52l-74 -158h-45zM299 644h70l243 -644h-56l-71 188h-302l-71 -188h-57zM472 233l-139 367l-138 -367h277z" />
    <glyph glyph-name="Acircumflex" unicode="&#xc2;" horiz-adv-x="667" 
d="M309 822h48l105 -135h-50l-79 103l-79 -103h-50zM299 644h70l243 -644h-56l-71 188h-302l-71 -188h-57zM472 233l-139 367l-138 -367h277z" />
    <glyph glyph-name="Atilde" unicode="&#xc3;" horiz-adv-x="667" 
d="M370 715c-11.333 3.33301 -24.334 8.33301 -39.001 15c-26.667 11.333 -46.667 17 -60 17c-33.333 0 -59.666 -11.667 -78.999 -35v47c8 8.66699 19.167 15.667 33.5 21s29.166 8 44.499 8c12 0 22.833 -1.5 32.5 -4.5s22.167 -7.83301 37.5 -14.5
c13.333 -6 24.5 -10.5 33.5 -13.5s18.5 -4.5 28.5 -4.5c16 0 30 2.83301 42 8.5s22.333 14.5 31 26.5v-47c-6.66699 -9.33301 -16.167 -16.5 -28.5 -21.5s-26.5 -7.5 -42.5 -7.5c-11.333 0 -22.666 1.66699 -33.999 5zM298.999 644h70l243 -644h-56l-71 188h-302l-71 -188
h-57zM471.999 233l-139 367l-138 -367h277z" />
    <glyph glyph-name="Adieresis" unicode="&#xc4;" horiz-adv-x="667" 
d="M222 768h57v-55h-57v55zM389 768h56v-55h-56v55zM299 644h70l243 -644h-56l-71 188h-302l-71 -188h-57zM472 233l-139 367l-138 -367h277z" />
    <glyph glyph-name="Aring" unicode="&#xc5;" horiz-adv-x="667" 
d="M292 626c-18.667 7.33301 -33.499 19.501 -44.499 36.501s-16.5 35.833 -16.5 56.5c0 28.667 9.66699 52.834 29 72.501s43.666 29.5 72.999 29.5c30 0 54.667 -9.83301 74 -29.5s29 -43.834 29 -72.501c0 -20.667 -5.5 -39.334 -16.5 -56.001s-25.833 -29 -44.5 -37
l237 -626h-56l-71 188h-302l-71 -188h-57zM380.501 672.501c12.333 12.333 18.5 27.833 18.5 46.5c0 19.333 -6.16699 35.166 -18.5 47.499s-28.166 18.5 -47.499 18.5c-18.667 0 -34.334 -6.16699 -47.001 -18.5s-19 -28.166 -19 -47.499
c0 -18.667 6.33301 -34.167 19 -46.5s28.334 -18.5 47.001 -18.5c19.333 0 35.166 6.16699 47.499 18.5zM472.001 233.001l-139 367l-138 -367h277z" />
    <glyph glyph-name="AE" unicode="&#xc6;" horiz-adv-x="832" 
d="M299 644h478v-46h-312v-254h277v-45h-277v-255h312v-44h-367v189h-225l-72 -189h-58zM410 233v365h-70l-138 -365h208z" />
    <glyph glyph-name="Ccedilla" unicode="&#xc7;" horiz-adv-x="589" 
d="M165.5 528.5c-37.667 -51.667 -56.499 -126.501 -56.499 -224.501c0 -178 83 -267 249 -267c30.667 0 61.5 2.33301 92.5 7s58.833 11.334 83.5 20.001v-49c-50 -16 -107 -24.333 -171 -25l-14 -41c37.333 0 65.666 -7.5 84.999 -22.5s29 -36.833 29 -65.5
c0 -33.333 -11.167 -58.5 -33.5 -75.5s-57.5 -25.5 -105.5 -25.5c-10 0 -21.5 0.833008 -34.5 2.5s-23.5 3.5 -31.5 5.5v37c19.333 -5.33301 40.333 -8 63 -8c34.667 0 59.834 4.83301 75.501 14.5s23.5 26.167 23.5 49.5c0 20.667 -7.16699 35 -21.5 43
s-37.833 12 -70.5 12h-33l25 75c-88 6 -154.167 36.667 -198.5 92s-66.5 129 -66.5 221c0 110.667 23.5 196.667 70.5 258s121.833 92 224.5 92c68 0 129.333 -9.66699 184 -29v-49c-54 20 -113.667 30 -179 30c-88.667 0 -151.834 -25.833 -189.501 -77.5z" />
    <glyph glyph-name="Egrave" unicode="&#xc8;" horiz-adv-x="541" 
d="M197 846h52l67 -158h-45zM75 644h421v-45h-366v-255h331v-44h-331v-256h366v-44h-421v644z" />
    <glyph glyph-name="Eacute" unicode="&#xc9;" horiz-adv-x="541" 
d="M324 846h52l-74 -158h-45zM75 644h421v-45h-366v-255h331v-44h-331v-256h366v-44h-421v644z" />
    <glyph glyph-name="Ecircumflex" unicode="&#xca;" horiz-adv-x="541" 
d="M253 822h48l105 -135h-50l-79 103l-79 -103h-50zM75 644h421v-45h-366v-255h331v-44h-331v-256h366v-44h-421v644z" />
    <glyph glyph-name="Edieresis" unicode="&#xcb;" horiz-adv-x="541" 
d="M172 769h57v-55h-57v55zM339 769h56v-55h-56v55zM75 644h421v-45h-366v-255h331v-44h-331v-256h366v-44h-421v644z" />
    <glyph glyph-name="Igrave" unicode="&#xcc;" horiz-adv-x="205" 
d="M6 846h52l67 -158h-45zM75 644h55v-644h-55v644z" />
    <glyph glyph-name="Iacute" unicode="&#xcd;" horiz-adv-x="205" 
d="M145 846h52l-74 -158h-45zM75 644h55v-644h-55v644z" />
    <glyph glyph-name="Icircumflex" unicode="&#xce;" horiz-adv-x="205" 
d="M78 822h48l105 -135h-50l-79 103l-79 -103h-50zM75 644h55v-644h-55v644z" />
    <glyph glyph-name="Idieresis" unicode="&#xcf;" horiz-adv-x="205" 
d="M-10 770h57v-55h-57v55zM157 770h56v-55h-56v55zM75 644h55v-644h-55v644z" />
    <glyph glyph-name="Eth" unicode="&#xd0;" horiz-adv-x="673" 
d="M116 294l-81.001 -0.000976562v45h81v305h243c62 0 111.833 -11.167 149.5 -33.5s65.334 -57.333 83.001 -105s26.5 -110.5 26.5 -188.5c0 -74 -8.66699 -134.167 -26 -180.5s-45 -80.666 -83 -102.999s-88 -33.5 -150 -33.5h-243v294zM345.999 43.999
c52 0 93.5 7.66895 124.5 23.002s54.333 42.666 70 81.999s23.5 95.333 23.5 168c0 73.333 -7.16699 130.166 -21.5 170.499s-37 68.833 -68 85.5s-73.833 25 -128.5 25h-175v-259h190v-45h-190v-250h175z" />
    <glyph glyph-name="Ntilde" unicode="&#xd1;" horiz-adv-x="656" 
d="M365 718c-11.333 3.33301 -24.334 8.33301 -39.001 15c-26.667 11.333 -46.667 17 -60 17c-33.333 0 -59.666 -11.667 -78.999 -35v47c8 8.66699 19.167 15.667 33.5 21s29.166 8 44.499 8c12 0 22.833 -1.5 32.5 -4.5s22.167 -7.83301 37.5 -14.5
c13.333 -6 24.5 -10.5 33.5 -13.5s18.5 -4.5 28.5 -4.5c16 0 30 2.83301 42 8.5s22.333 14.5 31 26.5v-47c-6.66699 -9.33301 -16.167 -16.5 -28.5 -21.5s-26.5 -7.5 -42.5 -7.5c-11.333 0 -22.666 1.66699 -33.999 5zM74.999 644h52l399 -562v562h55v-644h-53l-398 561
v-561h-55v644z" />
    <glyph glyph-name="Ograve" unicode="&#xd2;" horiz-adv-x="688" 
d="M253 846h52l67 -158h-45zM126 73c-47.333 55.333 -71 137.333 -71 246c0 115.333 23.333 200 70 254s119.667 81 219 81s172.333 -27 219 -81s70 -138.667 70 -254c0 -108.667 -23.667 -190.667 -71 -246s-120 -83 -218 -83s-170.667 27.667 -218 83zM520.5 105.5
c38.333 45.667 57.501 116.834 57.501 213.501c0 70 -8.5 126 -25.5 168s-42.5 72.333 -76.5 91s-78 28 -132 28s-98.167 -9.33301 -132.5 -28s-60 -49 -77 -91s-25.5 -98 -25.5 -168c0 -96.667 19.167 -167.834 57.5 -213.501s97.5 -68.5 177.5 -68.5
c79.333 0 138.166 22.833 176.499 68.5z" />
    <glyph glyph-name="Oacute" unicode="&#xd3;" horiz-adv-x="688" 
d="M389 846h52l-74 -158h-45zM126 73c-47.333 55.333 -71 137.333 -71 246c0 115.333 23.333 200 70 254s119.667 81 219 81s172.333 -27 219 -81s70 -138.667 70 -254c0 -108.667 -23.667 -190.667 -71 -246s-120 -83 -218 -83s-170.667 27.667 -218 83zM520.5 105.5
c38.333 45.667 57.501 116.834 57.501 213.501c0 70 -8.5 126 -25.5 168s-42.5 72.333 -76.5 91s-78 28 -132 28s-98.167 -9.33301 -132.5 -28s-60 -49 -77 -91s-25.5 -98 -25.5 -168c0 -96.667 19.167 -167.834 57.5 -213.501s97.5 -68.5 177.5 -68.5
c79.333 0 138.166 22.833 176.499 68.5z" />
    <glyph glyph-name="Ocircumflex" unicode="&#xd4;" horiz-adv-x="688" 
d="M320 822h48l105 -135h-50l-79 103l-79 -103h-50zM126 73c-47.333 55.333 -71 137.333 -71 246c0 115.333 23.333 200 70 254s119.667 81 219 81s172.333 -27 219 -81s70 -138.667 70 -254c0 -108.667 -23.667 -190.667 -71 -246s-120 -83 -218 -83
s-170.667 27.667 -218 83zM520.5 105.5c38.333 45.667 57.501 116.834 57.501 213.501c0 70 -8.5 126 -25.5 168s-42.5 72.333 -76.5 91s-78 28 -132 28s-98.167 -9.33301 -132.5 -28s-60 -49 -77 -91s-25.5 -98 -25.5 -168c0 -96.667 19.167 -167.834 57.5 -213.501
s97.5 -68.5 177.5 -68.5c79.333 0 138.166 22.833 176.499 68.5z" />
    <glyph glyph-name="Otilde" unicode="&#xd5;" horiz-adv-x="688" 
d="M381 720c-11.333 3.33301 -24.334 8.33301 -39.001 15c-26.667 11.333 -46.667 17 -60 17c-33.333 0 -59.666 -11.667 -78.999 -35v47c8 8.66699 19.167 15.667 33.5 21s29.166 8 44.499 8c12 0 22.833 -1.5 32.5 -4.5s22.167 -7.83301 37.5 -14.5
c13.333 -6 24.5 -10.5 33.5 -13.5s18.5 -4.5 28.5 -4.5c16 0 30 2.83301 42 8.5s22.333 14.5 31 26.5v-47c-6.66699 -9.33301 -16.167 -16.5 -28.5 -21.5s-26.5 -7.5 -42.5 -7.5c-11.333 0 -22.666 1.66699 -33.999 5zM125.999 73c-47.333 55.333 -71 137.333 -71 246
c0 115.333 23.333 200 70 254s119.667 81 219 81s172.333 -27 219 -81s70 -138.667 70 -254c0 -108.667 -23.667 -190.667 -71 -246s-120 -83 -218 -83s-170.667 27.667 -218 83zM520.499 105.5c38.333 45.667 57.501 116.834 57.501 213.501c0 70 -8.5 126 -25.5 168
s-42.5 72.333 -76.5 91s-78 28 -132 28s-98.167 -9.33301 -132.5 -28s-60 -49 -77 -91s-25.5 -98 -25.5 -168c0 -96.667 19.167 -167.834 57.5 -213.501s97.5 -68.5 177.5 -68.5c79.333 0 138.166 22.833 176.499 68.5z" />
    <glyph glyph-name="Odieresis" unicode="&#xd6;" horiz-adv-x="688" 
d="M233 769h57v-55h-57v55zM400 769h56v-55h-56v55zM126 73c-47.333 55.333 -71 137.333 -71 246c0 115.333 23.333 200 70 254s119.667 81 219 81s172.333 -27 219 -81s70 -138.667 70 -254c0 -108.667 -23.667 -190.667 -71 -246s-120 -83 -218 -83
s-170.667 27.667 -218 83zM520.5 105.5c38.333 45.667 57.501 116.834 57.501 213.501c0 70 -8.5 126 -25.5 168s-42.5 72.333 -76.5 91s-78 28 -132 28s-98.167 -9.33301 -132.5 -28s-60 -49 -77 -91s-25.5 -98 -25.5 -168c0 -96.667 19.167 -167.834 57.5 -213.501
s97.5 -68.5 177.5 -68.5c79.333 0 138.166 22.833 176.499 68.5z" />
    <glyph glyph-name="multiply" unicode="&#xd7;" horiz-adv-x="403" 
d="M203 222l-112 -111l-31 31l111 112l-116 115l30 31l115 -117l117 116l31 -31l-116 -117l116 -116l-29 -29z" />
    <glyph glyph-name="Oslash" unicode="&#xd8;" horiz-adv-x="688" 
d="M199 17c-96 45.333 -144 146.001 -144 302.001c0 115.333 23.333 200 70 254s119.667 81 219 81c31.333 0 58.666 -2.33301 81.999 -7l17 46h50l-21 -59c54.667 -20 95.167 -55.833 121.5 -107.5s39.5 -120.834 39.5 -207.501c0 -108.667 -23.667 -190.667 -71 -246
s-120 -83 -218 -83c-37.333 0 -70.666 4 -99.999 12l-20 -55h-50zM409 600.001c-20 4 -41.667 6 -65 6c-54 0 -98.167 -9.33301 -132.5 -28s-60 -49 -77 -91s-25.5 -98 -25.5 -168c0 -66 8.83301 -120 26.5 -162s44.5 -73 80.5 -93zM520.5 105.501
c38.333 45.667 57.501 116.833 57.501 213.5c0 76 -10 135.667 -30 179s-51 73.333 -93 90l-195 -541c24 -6.66699 52 -10 84 -10c79.333 0 138.166 22.833 176.499 68.5z" />
    <glyph glyph-name="Ugrave" unicode="&#xd9;" horiz-adv-x="663" 
d="M255 846h52l67 -158h-45zM136 52c-44 41.333 -66 101.666 -66 180.999v411h55v-417c0 -62.667 17.833 -109.834 53.5 -141.501s86.834 -47.5 153.501 -47.5c66 0 116.833 15.833 152.5 47.5s53.5 78.834 53.5 141.501v417h55v-411
c0 -79.333 -21.833 -139.666 -65.5 -180.999s-108.834 -62 -195.501 -62s-152 20.667 -196 62z" />
    <glyph glyph-name="Uacute" unicode="&#xda;" horiz-adv-x="663" 
d="M368 846h52l-74 -158h-45zM136 52c-44 41.333 -66 101.666 -66 180.999v411h55v-417c0 -62.667 17.833 -109.834 53.5 -141.501s86.834 -47.5 153.501 -47.5c66 0 116.833 15.833 152.5 47.5s53.5 78.834 53.5 141.501v417h55v-411
c0 -79.333 -21.833 -139.666 -65.5 -180.999s-108.834 -62 -195.501 -62s-152 20.667 -196 62z" />
    <glyph glyph-name="Ucircumflex" unicode="&#xdb;" horiz-adv-x="663" 
d="M307 822h48l105 -135h-50l-79 103l-79 -103h-50zM136 52c-44 41.333 -66 101.666 -66 180.999v411h55v-417c0 -62.667 17.833 -109.834 53.5 -141.501s86.834 -47.5 153.501 -47.5c66 0 116.833 15.833 152.5 47.5s53.5 78.834 53.5 141.501v417h55v-411
c0 -79.333 -21.833 -139.666 -65.5 -180.999s-108.834 -62 -195.501 -62s-152 20.667 -196 62z" />
    <glyph glyph-name="Udieresis" unicode="&#xdc;" horiz-adv-x="663" 
d="M213 769h57v-55h-57v55zM380 769h56v-55h-56v55zM136 52c-44 41.333 -66 101.666 -66 180.999v411h55v-417c0 -62.667 17.833 -109.834 53.5 -141.501s86.834 -47.5 153.501 -47.5c66 0 116.833 15.833 152.5 47.5s53.5 78.834 53.5 141.501v417h55v-411
c0 -79.333 -21.833 -139.666 -65.5 -180.999s-108.834 -62 -195.501 -62s-152 20.667 -196 62z" />
    <glyph glyph-name="Yacute" unicode="&#xdd;" horiz-adv-x="624" 
d="M343 846h52l-74 -158h-45zM284 241l-229 403h57l200 -355l200 355h57l-230 -403v-241h-55v241z" />
    <glyph glyph-name="Thorn" unicode="&#xde;" horiz-adv-x="571" 
d="M75 644l55 -0.000976562v-125h201c68 0 119.167 -17.667 153.5 -53s51.5 -84 51.5 -146c0 -61.333 -18.667 -109.666 -56 -144.999s-88.333 -53 -153 -53h-197v-122h-55v644zM322 166.999c51.333 0 90.667 13.668 118 41.001s41 64.666 41 111.999
c0 50 -12.833 88.167 -38.5 114.5s-64.167 39.5 -115.5 39.5h-197v-307h192z" />
    <glyph glyph-name="germandbls" unicode="&#xdf;" horiz-adv-x="620" 
d="M224 12v47.998c36 -15.333 82 -23 138 -23c47.333 0 83.833 13.333 109.5 40s38.5 64.667 38.5 114c0 46.667 -11.833 82.334 -35.5 107.001s-62.834 37 -117.501 37h-87v44h91c42.667 0 74.167 12.333 94.5 37s30.5 56.667 30.5 96c0 44 -13.833 78.333 -41.5 103
s-74.167 37 -139.5 37c-59.333 0 -104.166 -15 -134.499 -45s-45.5 -74.333 -45.5 -133v-474h-55v478c0 68.667 20.833 122.834 62.5 162.501s99.167 59.5 172.5 59.5c76.667 0 134.667 -17.5 174 -52.5s59 -80.167 59 -135.5c0 -36.667 -8 -68.5 -24 -95.5
s-37.333 -46.5 -64 -58.5c36 -10 64.167 -29.333 84.5 -58s30.5 -65.667 30.5 -111c0 -63.333 -17 -112.333 -51 -147s-82.667 -52 -146 -52c-59.333 0 -107.333 7.33301 -144 22z" />
    <glyph glyph-name="agrave" unicode="&#xe0;" horiz-adv-x="531" 
d="M194 680h52l67 -158h-45zM101.5 24c-31 22.667 -46.501 56.667 -46.501 102c0 44.667 14 79.5 42 104.5s72.667 37.5 134 37.5h177v45c0 31.333 -4 55.833 -12 73.5s-22.667 30.5 -44 38.5s-52 12 -92 12c-52 0 -102.333 -8.66699 -151 -26v47
c44.667 17.333 98.334 26 161.001 26c66 0 114.333 -13.333 145 -40s46 -70 46 -130v-314h-45l-5 59c-22 -24 -48.167 -41.5 -78.5 -52.5s-67.833 -16.5 -112.5 -16.5c-48 0 -87.5 11.333 -118.5 34zM407.999 110v114h-175c-45.333 0 -77.333 -8 -96 -24
s-28 -40.667 -28 -74c0 -32 10.667 -55 32 -69s52.333 -21 93 -21c74 0 132 24.667 174 74z" />
    <glyph glyph-name="aacute" unicode="&#xe1;" horiz-adv-x="531" 
d="M319 680h52l-74 -158h-45zM101.5 24c-31 22.667 -46.501 56.667 -46.501 102c0 44.667 14 79.5 42 104.5s72.667 37.5 134 37.5h177v45c0 31.333 -4 55.833 -12 73.5s-22.667 30.5 -44 38.5s-52 12 -92 12c-52 0 -102.333 -8.66699 -151 -26v47
c44.667 17.333 98.334 26 161.001 26c66 0 114.333 -13.333 145 -40s46 -70 46 -130v-314h-45l-5 59c-22 -24 -48.167 -41.5 -78.5 -52.5s-67.833 -16.5 -112.5 -16.5c-48 0 -87.5 11.333 -118.5 34zM407.999 110v114h-175c-45.333 0 -77.333 -8 -96 -24
s-28 -40.667 -28 -74c0 -32 10.667 -55 32 -69s52.333 -21 93 -21c74 0 132 24.667 174 74z" />
    <glyph glyph-name="acircumflex" unicode="&#xe2;" horiz-adv-x="531" 
d="M254 656h48l105 -135h-50l-79 103l-79 -103h-50zM101.5 24c-31 22.667 -46.501 56.667 -46.501 102c0 44.667 14 79.5 42 104.5s72.667 37.5 134 37.5h177v45c0 31.333 -4 55.833 -12 73.5s-22.667 30.5 -44 38.5s-52 12 -92 12c-52 0 -102.333 -8.66699 -151 -26v47
c44.667 17.333 98.334 26 161.001 26c66 0 114.333 -13.333 145 -40s46 -70 46 -130v-314h-45l-5 59c-22 -24 -48.167 -41.5 -78.5 -52.5s-67.833 -16.5 -112.5 -16.5c-48 0 -87.5 11.333 -118.5 34zM407.999 110v114h-175c-45.333 0 -77.333 -8 -96 -24
s-28 -40.667 -28 -74c0 -32 10.667 -55 32 -69s52.333 -21 93 -21c74 0 132 24.667 174 74z" />
    <glyph glyph-name="atilde" unicode="&#xe3;" horiz-adv-x="531" 
d="M315 552c-11.333 3.33301 -24.334 8.33301 -39.001 15c-26.667 11.333 -46.667 17 -60 17c-33.333 0 -59.666 -11.667 -78.999 -35v47c8 8.66699 19.167 15.667 33.5 21s29.166 8 44.499 8c12 0 22.833 -1.5 32.5 -4.5s22.167 -7.83301 37.5 -14.5
c13.333 -6 24.5 -10.5 33.5 -13.5s18.5 -4.5 28.5 -4.5c16 0 30 2.83301 42 8.5s22.333 14.5 31 26.5v-47c-6.66699 -9.33301 -16.167 -16.5 -28.5 -21.5s-26.5 -7.5 -42.5 -7.5c-11.333 0 -22.666 1.66699 -33.999 5zM101.499 24c-31 22.667 -46.501 56.667 -46.501 102
c0 44.667 14 79.5 42 104.5s72.667 37.5 134 37.5h177v45c0 31.333 -4 55.833 -12 73.5s-22.667 30.5 -44 38.5s-52 12 -92 12c-52 0 -102.333 -8.66699 -151 -26v47c44.667 17.333 98.334 26 161.001 26c66 0 114.333 -13.333 145 -40s46 -70 46 -130v-314h-45l-5 59
c-22 -24 -48.167 -41.5 -78.5 -52.5s-67.833 -16.5 -112.5 -16.5c-48 0 -87.5 11.333 -118.5 34zM407.998 110v114h-175c-45.333 0 -77.333 -8 -96 -24s-28 -40.667 -28 -74c0 -32 10.667 -55 32 -69s52.333 -21 93 -21c74 0 132 24.667 174 74z" />
    <glyph glyph-name="adieresis" unicode="&#xe4;" horiz-adv-x="531" 
d="M171 603h57v-55h-57v55zM338 603h56v-55h-56v55zM101.5 24c-31 22.667 -46.501 56.667 -46.501 102c0 44.667 14 79.5 42 104.5s72.667 37.5 134 37.5h177v45c0 31.333 -4 55.833 -12 73.5s-22.667 30.5 -44 38.5s-52 12 -92 12c-52 0 -102.333 -8.66699 -151 -26v47
c44.667 17.333 98.334 26 161.001 26c66 0 114.333 -13.333 145 -40s46 -70 46 -130v-314h-45l-5 59c-22 -24 -48.167 -41.5 -78.5 -52.5s-67.833 -16.5 -112.5 -16.5c-48 0 -87.5 11.333 -118.5 34zM407.999 110v114h-175c-45.333 0 -77.333 -8 -96 -24
s-28 -40.667 -28 -74c0 -32 10.667 -55 32 -69s52.333 -21 93 -21c74 0 132 24.667 174 74z" />
    <glyph glyph-name="aring" unicode="&#xe5;" horiz-adv-x="531" 
d="M211 550.5c-19.333 19.667 -29 43.5 -29 71.5c0 28.667 9.66699 52.834 29 72.501s43.666 29.5 72.999 29.5c30 0 54.667 -9.83301 74 -29.5s29 -43.834 29 -72.501c0 -28 -9.66699 -51.833 -29 -71.5s-44 -29.5 -74 -29.5c-29.333 0 -53.666 9.83301 -72.999 29.5z
M331.5 575.5c12.333 12.333 18.5 27.833 18.5 46.5c0 19.333 -6.16699 35.166 -18.5 47.499s-28.166 18.5 -47.499 18.5c-18.667 0 -34.334 -6.16699 -47.001 -18.5s-19 -28.166 -19 -47.499c0 -18.667 6.33301 -34.167 19 -46.5s28.334 -18.5 47.001 -18.5
c19.333 0 35.166 6.16699 47.499 18.5zM101.5 24c-31 22.667 -46.501 56.667 -46.501 102c0 44.667 14 79.5 42 104.5s72.667 37.5 134 37.5h177v45c0 31.333 -4 55.833 -12 73.5s-22.667 30.5 -44 38.5s-52 12 -92 12c-52 0 -102.333 -8.66699 -151 -26v47
c44.667 17.333 98.334 26 161.001 26c66 0 114.333 -13.333 145 -40s46 -70 46 -130v-314h-45l-5 59c-22 -24 -48.167 -41.5 -78.5 -52.5s-67.833 -16.5 -112.5 -16.5c-48 0 -87.5 11.333 -118.5 34zM407.999 110v114h-175c-45.333 0 -77.333 -8 -96 -24
s-28 -40.667 -28 -74c0 -32 10.667 -55 32 -69s52.333 -21 93 -21c74 0 132 24.667 174 74z" />
    <glyph glyph-name="ae" unicode="&#xe6;" horiz-adv-x="879" 
d="M101.5 24c-31 22.667 -46.5 56.667 -46.5 102c0 44.667 14 79.5 42 104.5s72.667 37.5 134 37.5h177v33c0 45.333 -11.167 79.333 -33.5 102s-59.833 34 -112.5 34c-53.333 0 -104.333 -8.66699 -153 -26v47c44.667 17.333 98.334 26 161.001 26
c89.333 0 145.666 -30.333 168.999 -91c16 30 39.667 52.667 71 68s69.666 23 114.999 23c65.333 0 114.833 -17.667 148.5 -53s50.5 -81 50.5 -137v-86h-361c1.33301 -42.667 8.66602 -76.5 21.999 -101.5s34.333 -43.167 63 -54.5s67.334 -17 116.001 -17
c43.333 0 86.333 8.33301 129 25v-45c-42 -16.667 -88.333 -25 -139 -25c-56 0 -101.5 8.33301 -136.5 25s-61.167 43 -78.5 79c-19.333 -32 -47.166 -57.333 -83.499 -76s-81.5 -28 -135.5 -28c-48 0 -87.5 11.333 -118.5 34zM773 251v45c0 45.333 -12 80.333 -36 105
s-61 37 -111 37c-60.667 0 -103 -14.833 -127 -44.5s-36 -77.167 -36 -142.5h310zM408 136v88h-175c-45.333 0 -77.333 -8 -96 -24s-28 -40.667 -28 -74c0 -32 10.667 -55 32 -69s52.333 -21 93 -21c92.667 0 150.667 33.333 174 100z" />
    <glyph glyph-name="ccedilla" unicode="&#xe7;" horiz-adv-x="483" 
d="M293 -10l-14 -41c37.333 0 65.666 -7.5 84.999 -22.5s29 -36.833 29 -65.5c0 -33.333 -11.167 -58.5 -33.5 -75.5s-57.5 -25.5 -105.5 -25.5c-10 0 -21.5 0.833008 -34.5 2.5s-23.5 3.5 -31.5 5.5v37c19.333 -5.33301 40.333 -8 63 -8
c34.667 0 59.834 4.83301 75.501 14.5s23.5 26.167 23.5 49.5c0 20.667 -7.16699 35 -21.5 43s-37.833 12 -70.5 12h-33l25 76c-130 13.333 -195 95 -195 245c0 81.333 21.5 142.833 64.5 184.5s102.5 62.5 178.5 62.5c28.667 0 52.5 -2 71.5 -6s38.167 -10.667 57.5 -20
v-45c-35.333 16.667 -75.333 25 -120 25c-132 0 -198 -67 -198 -201c0 -70 15 -121.167 45 -153.5s79.667 -48.5 149 -48.5c43.333 0 85 8.66699 125 26v-46c-38.667 -16.667 -83.667 -25 -135 -25z" />
    <glyph glyph-name="egrave" unicode="&#xe8;" horiz-adv-x="525" 
d="M173 680h52l67 -158h-45zM113.5 50.5c-39 40.333 -58.499 103.5 -58.499 189.5c0 162.667 73 244 219 244c65.333 0 114.333 -17.5 147 -52.5s49 -80.833 49 -137.5v-86h-360c2 -42 9.66699 -75.5 23 -100.5s34.166 -43.333 62.499 -55s66.833 -17.5 115.5 -17.5
c44 0 86.667 8.33301 128 25v-45c-40.667 -16.667 -87 -25 -139 -25c-85.333 0 -147.5 20.167 -186.5 60.5zM420.001 251v45c0 94.667 -48.333 142 -145 142c-60 0 -102.5 -15.5 -127.5 -46.5s-37.5 -77.833 -37.5 -140.5h310z" />
    <glyph glyph-name="eacute" unicode="&#xe9;" horiz-adv-x="525" 
d="M306 680h52l-74 -158h-45zM113.5 50.5c-39 40.333 -58.499 103.5 -58.499 189.5c0 162.667 73 244 219 244c65.333 0 114.333 -17.5 147 -52.5s49 -80.833 49 -137.5v-86h-360c2 -42 9.66699 -75.5 23 -100.5s34.166 -43.333 62.499 -55s66.833 -17.5 115.5 -17.5
c44 0 86.667 8.33301 128 25v-45c-40.667 -16.667 -87 -25 -139 -25c-85.333 0 -147.5 20.167 -186.5 60.5zM420.001 251v45c0 94.667 -48.333 142 -145 142c-60 0 -102.5 -15.5 -127.5 -46.5s-37.5 -77.833 -37.5 -140.5h310z" />
    <glyph glyph-name="ecircumflex" unicode="&#xea;" horiz-adv-x="525" 
d="M244 656h48l105 -135h-50l-79 103l-79 -103h-50zM113.5 50.5c-39 40.333 -58.499 103.5 -58.499 189.5c0 162.667 73 244 219 244c65.333 0 114.333 -17.5 147 -52.5s49 -80.833 49 -137.5v-86h-360c2 -42 9.66699 -75.5 23 -100.5s34.166 -43.333 62.499 -55
s66.833 -17.5 115.5 -17.5c44 0 86.667 8.33301 128 25v-45c-40.667 -16.667 -87 -25 -139 -25c-85.333 0 -147.5 20.167 -186.5 60.5zM420.001 251v45c0 94.667 -48.333 142 -145 142c-60 0 -102.5 -15.5 -127.5 -46.5s-37.5 -77.833 -37.5 -140.5h310z" />
    <glyph glyph-name="edieresis" unicode="&#xeb;" horiz-adv-x="525" 
d="M155 603h57v-55h-57v55zM322 603h56v-55h-56v55zM113.5 50.5c-39 40.333 -58.499 103.5 -58.499 189.5c0 162.667 73 244 219 244c65.333 0 114.333 -17.5 147 -52.5s49 -80.833 49 -137.5v-86h-360c2 -42 9.66699 -75.5 23 -100.5s34.166 -43.333 62.499 -55
s66.833 -17.5 115.5 -17.5c44 0 86.667 8.33301 128 25v-45c-40.667 -16.667 -87 -25 -139 -25c-85.333 0 -147.5 20.167 -186.5 60.5zM420.001 251v45c0 94.667 -48.333 142 -145 142c-60 0 -102.5 -15.5 -127.5 -46.5s-37.5 -77.833 -37.5 -140.5h310z" />
    <glyph glyph-name="igrave" unicode="&#xec;" horiz-adv-x="270" 
d="M71 680h52l67 -158h-45zM140 428h-75l4 46h126v-474h-55v428z" />
    <glyph glyph-name="iacute" unicode="&#xed;" horiz-adv-x="270" 
d="M200 680h52l-74 -158h-45zM140 428h-75l4 46h126v-474h-55v428z" />
    <glyph glyph-name="icircumflex" unicode="&#xee;" horiz-adv-x="270" 
d="M124 656h48l105 -135h-50l-79 103l-79 -103h-50zM140 428h-75l4 46h126v-474h-55v428z" />
    <glyph glyph-name="idieresis" unicode="&#xef;" horiz-adv-x="270" 
d="M31 603h57v-55h-57v55zM198 603h56v-55h-56v55zM140 428h-75l4 46h126v-474h-55v428z" />
    <glyph glyph-name="eth" unicode="&#xf0;" horiz-adv-x="570" 
d="M112.5 44.5c-38.333 36.333 -57.5029 86.499 -57.5029 150.499c0 66 18.667 116.667 56 152s91.333 53 162 53c28.667 0 59 -5.16699 91 -15.5s61.667 -25.5 89 -45.5v56c0 66 -10.667 116.667 -32 152l-136 -60v39l112 49c-27.333 24 -65 36 -113 36
c-54 0 -101 -7 -141 -21v44c44.667 13.333 93.334 20 146.001 20c66.667 0 118.334 -19.333 155.001 -58l96 42v-39l-74 -33c26.667 -43.333 40 -101.666 40 -174.999v-160c0 -83.333 -18.833 -144.333 -56.5 -183s-94.167 -58 -169.5 -58
c-73.333 0 -129.166 18.167 -167.499 54.5zM452.997 207.999l0.000976562 87.999c-25.333 18.667 -53 33.5 -83 44.5s-59.333 16.5 -88 16.5c-62.667 0 -107.834 -14 -135.501 -42s-41.5 -68 -41.5 -120c0 -51.333 14.833 -91.166 44.5 -119.499s73.167 -42.5 130.5 -42.5
c115.333 0 173 58.333 173 175z" />
    <glyph glyph-name="ntilde" unicode="&#xf1;" horiz-adv-x="559" 
d="M324 552c-11.333 3.33301 -24.334 8.33301 -39.001 15c-26.667 11.333 -46.667 17 -60 17c-33.333 0 -59.666 -11.667 -78.999 -35v47c8 8.66699 19.167 15.667 33.5 21s29.166 8 44.499 8c12 0 22.833 -1.5 32.5 -4.5s22.167 -7.83301 37.5 -14.5
c13.333 -6 24.5 -10.5 33.5 -13.5s18.5 -4.5 28.5 -4.5c16 0 30 2.83301 42 8.5s22.333 14.5 31 26.5v-47c-6.66699 -9.33301 -16.167 -16.5 -28.5 -21.5s-26.5 -7.5 -42.5 -7.5c-11.333 0 -22.666 1.66699 -33.999 5zM74.999 474l48 -0.00195312l5 -58
c26 22 54.5 38.833 85.5 50.5s66.5 17.5 106.5 17.5c58.667 0 101.5 -13.667 128.5 -41s40.5 -70.666 40.5 -129.999v-313h-55v312c0 32 -4.16699 57 -12.5 75s-22.333 31 -42 39s-47.167 12 -82.5 12c-32.667 0 -63.167 -6.16699 -91.5 -18.5s-53.5 -29.166 -75.5 -50.499
v-369h-55v474z" />
    <glyph glyph-name="ograve" unicode="&#xf2;" horiz-adv-x="563" 
d="M192 680h52l67 -158h-45zM109 52c-36 41.333 -54 103 -54 185c0 81.333 18.333 142.833 55 184.5s93.667 62.5 171 62.5s134.5 -20.833 171.5 -62.5s55.5 -103.167 55.5 -184.5c0 -82 -18.167 -143.667 -54.5 -185s-93.833 -62 -172.5 -62s-136 20.667 -172 62zM413.5 85
c26.333 32 39.5 82.667 39.5 152c0 68.667 -13.333 119 -40 151s-70.667 48 -132 48s-105.333 -16 -132 -48s-40 -82.333 -40 -151c0 -69.333 13.167 -120 39.5 -152s70.5 -48 132.5 -48s106.167 16 132.5 48z" />
    <glyph glyph-name="oacute" unicode="&#xf3;" horiz-adv-x="563" 
d="M328 680h52l-74 -158h-45zM109 52c-36 41.333 -54 103 -54 185c0 81.333 18.333 142.833 55 184.5s93.667 62.5 171 62.5s134.5 -20.833 171.5 -62.5s55.5 -103.167 55.5 -184.5c0 -82 -18.167 -143.667 -54.5 -185s-93.833 -62 -172.5 -62s-136 20.667 -172 62z
M413.5 85c26.333 32 39.5 82.667 39.5 152c0 68.667 -13.333 119 -40 151s-70.667 48 -132 48s-105.333 -16 -132 -48s-40 -82.333 -40 -151c0 -69.333 13.167 -120 39.5 -152s70.5 -48 132.5 -48s106.167 16 132.5 48z" />
    <glyph glyph-name="ocircumflex" unicode="&#xf4;" horiz-adv-x="563" 
d="M257 656h48l105 -135h-50l-79 103l-79 -103h-50zM109 52c-36 41.333 -54 103 -54 185c0 81.333 18.333 142.833 55 184.5s93.667 62.5 171 62.5s134.5 -20.833 171.5 -62.5s55.5 -103.167 55.5 -184.5c0 -82 -18.167 -143.667 -54.5 -185s-93.833 -62 -172.5 -62
s-136 20.667 -172 62zM413.5 85c26.333 32 39.5 82.667 39.5 152c0 68.667 -13.333 119 -40 151s-70.667 48 -132 48s-105.333 -16 -132 -48s-40 -82.333 -40 -151c0 -69.333 13.167 -120 39.5 -152s70.5 -48 132.5 -48s106.167 16 132.5 48z" />
    <glyph glyph-name="otilde" unicode="&#xf5;" horiz-adv-x="563" 
d="M318 554c-11.333 3.33301 -24.334 8.33301 -39.001 15c-26.667 11.333 -46.667 17 -60 17c-33.333 0 -59.666 -11.667 -78.999 -35v47c8 8.66699 19.167 15.667 33.5 21s29.166 8 44.499 8c12 0 22.833 -1.5 32.5 -4.5s22.167 -7.83301 37.5 -14.5
c13.333 -6 24.5 -10.5 33.5 -13.5s18.5 -4.5 28.5 -4.5c16 0 30 2.83301 42 8.5s22.333 14.5 31 26.5v-47c-6.66699 -9.33301 -16.167 -16.5 -28.5 -21.5s-26.5 -7.5 -42.5 -7.5c-11.333 0 -22.666 1.66699 -33.999 5zM108.999 52c-36 41.333 -54 103 -54 185
c0 81.333 18.333 142.833 55 184.5s93.667 62.5 171 62.5s134.5 -20.833 171.5 -62.5s55.5 -103.167 55.5 -184.5c0 -82 -18.167 -143.667 -54.5 -185s-93.833 -62 -172.5 -62s-136 20.667 -172 62zM413.499 85c26.333 32 39.5 82.667 39.5 152
c0 68.667 -13.333 119 -40 151s-70.667 48 -132 48s-105.333 -16 -132 -48s-40 -82.333 -40 -151c0 -69.333 13.167 -120 39.5 -152s70.5 -48 132.5 -48s106.167 16 132.5 48z" />
    <glyph glyph-name="odieresis" unicode="&#xf6;" horiz-adv-x="563" 
d="M170 603h57v-55h-57v55zM337 603h56v-55h-56v55zM109 52c-36 41.333 -54 103 -54 185c0 81.333 18.333 142.833 55 184.5s93.667 62.5 171 62.5s134.5 -20.833 171.5 -62.5s55.5 -103.167 55.5 -184.5c0 -82 -18.167 -143.667 -54.5 -185s-93.833 -62 -172.5 -62
s-136 20.667 -172 62zM413.5 85c26.333 32 39.5 82.667 39.5 152c0 68.667 -13.333 119 -40 151s-70.667 48 -132 48s-105.333 -16 -132 -48s-40 -82.333 -40 -151c0 -69.333 13.167 -120 39.5 -152s70.5 -48 132.5 -48s106.167 16 132.5 48z" />
    <glyph glyph-name="divide" unicode="&#xf7;" horiz-adv-x="481" 
d="M213 442h54v-54h-54v54zM55 280h371v-45h-371v45zM213 133h54v-54h-54v54z" />
    <glyph glyph-name="oslash" unicode="&#xf8;" horiz-adv-x="563" 
d="M179 5c-42.667 16 -74 43.167 -94 81.5s-30 88.5 -30 150.5c0 81.333 18.333 142.833 55 184.5s93.667 62.5 171 62.5c26 0 48.667 -2.33301 68 -7l18 51h49l-23 -64c76.667 -34 115 -109.667 115 -227c0 -82 -18.167 -143.667 -54.5 -185s-93.833 -62 -172.5 -62
c-22 0 -41 1.33301 -57 4l-17 -48h-49zM332 431c-16.667 3.33301 -33.668 4.99902 -51.001 4.99902c-61.333 0 -105.333 -16 -132 -48s-40 -82.333 -40 -151c0 -51.333 6.83301 -92.166 20.5 -122.499s35.834 -51.5 66.501 -63.5zM413.499 84.999
c26.333 32 39.5 82.668 39.5 152.001c0 47.333 -6.16699 85.666 -18.5 114.999s-31.833 51 -58.5 65l-135 -378c16 -1.33301 29.333 -2 40 -2c62 0 106.167 16 132.5 48z" />
    <glyph glyph-name="ugrave" unicode="&#xf9;" horiz-adv-x="559" 
d="M187 680h52l67 -158h-45zM114 37.5c-29.333 31.667 -44.001 77.168 -44.001 136.501v300h55v-302c0 -46 11.333 -80.333 34 -103s58.334 -34 107.001 -34c32 0 61.833 6.16699 89.5 18.5s52.167 29.166 73.5 50.499v370h55v-474h-49l-5 58
c-25.333 -22 -53 -38.833 -83 -50.5s-64.667 -17.5 -104 -17.5c-56.667 0 -99.667 15.833 -129 47.5z" />
    <glyph glyph-name="uacute" unicode="&#xfa;" horiz-adv-x="559" 
d="M309 680h52l-74 -158h-45zM114 37.5c-29.333 31.667 -44.001 77.168 -44.001 136.501v300h55v-302c0 -46 11.333 -80.333 34 -103s58.334 -34 107.001 -34c32 0 61.833 6.16699 89.5 18.5s52.167 29.166 73.5 50.499v370h55v-474h-49l-5 58
c-25.333 -22 -53 -38.833 -83 -50.5s-64.667 -17.5 -104 -17.5c-56.667 0 -99.667 15.833 -129 47.5z" />
    <glyph glyph-name="ucircumflex" unicode="&#xfb;" horiz-adv-x="559" 
d="M252 656h48l105 -135h-50l-79 103l-79 -103h-50zM114 37.5c-29.333 31.667 -44.001 77.168 -44.001 136.501v300h55v-302c0 -46 11.333 -80.333 34 -103s58.334 -34 107.001 -34c32 0 61.833 6.16699 89.5 18.5s52.167 29.166 73.5 50.499v370h55v-474h-49l-5 58
c-25.333 -22 -53 -38.833 -83 -50.5s-64.667 -17.5 -104 -17.5c-56.667 0 -99.667 15.833 -129 47.5z" />
    <glyph glyph-name="udieresis" unicode="&#xfc;" horiz-adv-x="559" 
d="M162 601h57v-55h-57v55zM329 601h56v-55h-56v55zM114 37.5c-29.333 31.667 -44.001 77.168 -44.001 136.501v300h55v-302c0 -46 11.333 -80.333 34 -103s58.334 -34 107.001 -34c32 0 61.833 6.16699 89.5 18.5s52.167 29.166 73.5 50.499v370h55v-474h-49l-5 58
c-25.333 -22 -53 -38.833 -83 -50.5s-64.667 -17.5 -104 -17.5c-56.667 0 -99.667 15.833 -129 47.5z" />
    <glyph glyph-name="yacute" unicode="&#xfd;" horiz-adv-x="566" 
d="M325 680h52l-74 -158h-45zM74 -165v45.999c18 -6.66699 38.333 -10 61 -10c22 0 40 4.83301 54 14.5s25.833 23 35.5 40s22.167 42.833 37.5 77.5l-207 471h57l178 -412l185 412h56l-205 -459c-20 -45.333 -37.167 -80.666 -51.5 -105.999s-32 -45.833 -53 -61.5
s-46.167 -23.5 -75.5 -23.5c-28.667 0 -52.667 3.66699 -72 11z" />
    <glyph glyph-name="thorn" unicode="&#xfe;" horiz-adv-x="564" 
d="M75 700h55.001v-272c45.333 37.333 101 56 167 56c141.333 0 212 -82 212 -246c0 -84 -18.833 -146.333 -56.5 -187s-90.834 -61 -159.501 -61c-33.333 0 -63 3.83301 -89 11.5s-50.667 20.167 -74 37.5v-255h-55v916zM411.501 84c29 32.667 43.5 84 43.5 154
c0 68.667 -13.333 119.167 -40 151.5s-70.334 48.5 -131.001 48.5c-62.667 0 -114 -21.333 -154 -64v-286c40.667 -35.333 90.334 -53 149.001 -53c59.333 0 103.5 16.333 132.5 49z" />
    <glyph glyph-name="ydieresis" unicode="&#xff;" horiz-adv-x="566" 
d="M184 606h57v-55h-57v55zM351 606h56v-55h-56v55zM74 -165v45.999c18 -6.66699 38.333 -10 61 -10c22 0 40 4.83301 54 14.5s25.833 23 35.5 40s22.167 42.833 37.5 77.5l-207 471h57l178 -412l185 412h56l-205 -459c-20 -45.333 -37.167 -80.666 -51.5 -105.999
s-32 -45.833 -53 -61.5s-46.167 -23.5 -75.5 -23.5c-28.667 0 -52.667 3.66699 -72 11z" />
    <glyph glyph-name="Amacron" unicode="&#x100;" horiz-adv-x="667" 
d="M195 757h277v-42h-277v42zM299 644h70l243 -644h-56l-71 188h-302l-71 -188h-57zM472 233l-139 367l-138 -367h277z" />
    <glyph glyph-name="amacron" unicode="&#x101;" horiz-adv-x="531" 
d="M138 591h277v-42h-277v42zM101.5 24c-31 22.667 -46.501 56.667 -46.501 102c0 44.667 14 79.5 42 104.5s72.667 37.5 134 37.5h177v45c0 31.333 -4 55.833 -12 73.5s-22.667 30.5 -44 38.5s-52 12 -92 12c-52 0 -102.333 -8.66699 -151 -26v47
c44.667 17.333 98.334 26 161.001 26c66 0 114.333 -13.333 145 -40s46 -70 46 -130v-314h-45l-5 59c-22 -24 -48.167 -41.5 -78.5 -52.5s-67.833 -16.5 -112.5 -16.5c-48 0 -87.5 11.333 -118.5 34zM407.999 110v114h-175c-45.333 0 -77.333 -8 -96 -24
s-28 -40.667 -28 -74c0 -32 10.667 -55 32 -69s52.333 -21 93 -21c74 0 132 24.667 174 74z" />
    <glyph glyph-name="Abreve" unicode="&#x102;" horiz-adv-x="667" 
d="M252.5 718c-20.333 20.667 -30.502 47.334 -30.502 80.001h42c0 -22.667 6.33301 -40.334 19 -53.001s29.334 -19 50.001 -19c21.333 0 38.333 6.33301 51 19s19 30.334 19 53.001h42c0 -32.667 -10.167 -59.334 -30.5 -80.001s-47.5 -31 -81.5 -31
c-33.333 0 -60.166 10.333 -80.499 31zM298.998 644h70l243 -644h-56l-71 188h-302l-71 -188h-57zM471.998 233l-139 367l-138 -367h277z" />
    <glyph glyph-name="abreve" unicode="&#x103;" horiz-adv-x="531" 
d="M204.5 552c-20.333 20.667 -30.502 47.334 -30.502 80.001h42c0 -22.667 6.33301 -40.334 19 -53.001s29.334 -19 50.001 -19c21.333 0 38.333 6.33301 51 19s19 30.334 19 53.001h42c0 -32.667 -10.167 -59.334 -30.5 -80.001s-47.5 -31 -81.5 -31
c-33.333 0 -60.166 10.333 -80.499 31zM101.498 24c-31 22.667 -46.501 56.667 -46.501 102c0 44.667 14 79.5 42 104.5s72.667 37.5 134 37.5h177v45c0 31.333 -4 55.833 -12 73.5s-22.667 30.5 -44 38.5s-52 12 -92 12c-52 0 -102.333 -8.66699 -151 -26v47
c44.667 17.333 98.334 26 161.001 26c66 0 114.333 -13.333 145 -40s46 -70 46 -130v-314h-45l-5 59c-22 -24 -48.167 -41.5 -78.5 -52.5s-67.833 -16.5 -112.5 -16.5c-48 0 -87.5 11.333 -118.5 34zM407.997 110v114h-175c-45.333 0 -77.333 -8 -96 -24
s-28 -40.667 -28 -74c0 -32 10.667 -55 32 -69s52.333 -21 93 -21c74 0 132 24.667 174 74z" />
    <glyph glyph-name="Aogonek" unicode="&#x104;" horiz-adv-x="667" 
d="M506 -199.5c-16.667 13.667 -25 35.5 -25 65.5c0 26 7 51 21 75s32 43.667 54 59l-71 188h-302l-71 -188h-57l244 644h70l243 -644c-56 -30 -84 -72.667 -84 -128c0 -18 4.16699 -31 12.5 -39s21.833 -12 40.5 -12c8.66699 0 17.667 1 27 3s17 4.66699 23 8v-41
c-14 -7.33301 -33.667 -11 -59 -11c-27.333 0 -49.333 6.83301 -66 20.5zM472 233l-139 367l-138 -367h277z" />
    <glyph glyph-name="aogonek" unicode="&#x105;" horiz-adv-x="531" 
d="M365 -199.5c-16.667 13.667 -25.001 35.5 -25.001 65.5c0 26 7.16699 51 21.5 75s32.5 43.667 54.5 59l-5 59c-22 -24 -48.167 -41.5 -78.5 -52.5s-67.833 -16.5 -112.5 -16.5c-48 0 -87.5 11.333 -118.5 34s-46.5 56.667 -46.5 102c0 44.667 14 79.5 42 104.5
s72.667 37.5 134 37.5h177v45c0 31.333 -4 55.833 -12 73.5s-22.667 30.5 -44 38.5s-52 12 -92 12c-52 0 -102.333 -8.66699 -151 -26v47c44.667 17.333 98.334 26 161.001 26c66 0 114.333 -13.333 145 -40s46 -70 46 -130v-314c-24.667 -18 -43.167 -38 -55.5 -60
s-18.5 -44.667 -18.5 -68c0 -18 4.16699 -31 12.5 -39s21.833 -12 40.5 -12c8.66699 0 17.667 1 27 3s17 4.66699 23 8v-41c-14 -7.33301 -33.667 -11 -59 -11c-27.333 0 -49.333 6.83301 -66 20.5zM407.999 110v114h-175c-45.333 0 -77.333 -8 -96 -24s-28 -40.667 -28 -74
c0 -32 10.667 -55 32 -69s52.333 -21 93 -21c74 0 132 24.667 174 74z" />
    <glyph glyph-name="Cacute" unicode="&#x106;" horiz-adv-x="589" 
d="M381 846h52l-74 -158h-45zM129 74c-49.333 56 -73.999 132.666 -73.999 229.999c0 110.667 23.5 196.667 70.5 258s121.833 92 224.5 92c68 0 129.333 -9.66699 184 -29v-49c-54 20 -113.667 30 -179 30c-88.667 0 -151.834 -25.833 -189.501 -77.5
s-56.5 -126.5 -56.5 -224.5c0 -178 83 -267 249 -267c30.667 0 61.5 2.33301 92.5 7s58.833 11.334 83.5 20.001v-49c-53.333 -16.667 -114.333 -25 -183 -25c-98.667 0 -172.667 28 -222 84z" />
    <glyph glyph-name="cacute" unicode="&#x107;" horiz-adv-x="483" 
d="M310 680h52l-74 -158h-45zM55 237c0 81.333 21.5 142.833 64.5 184.5s102.5 62.5 178.5 62.5c28.667 0 52.5 -2 71.5 -6s38.167 -10.667 57.5 -20v-45c-35.333 16.667 -75.333 25 -120 25c-132 0 -198 -67 -198 -201c0 -70 15 -121.167 45 -153.5s79.667 -48.5 149 -48.5
c43.333 0 85 8.66699 125 26v-46c-39.333 -16.667 -85.333 -25 -138 -25c-156.667 0 -235 82.333 -235 247z" />
    <glyph glyph-name="Ccircumflex" unicode="&#x108;" horiz-adv-x="589" 
d="M311 822h48l105 -135h-50l-79 103l-79 -103h-50zM129 74c-49.333 56 -73.999 132.666 -73.999 229.999c0 110.667 23.5 196.667 70.5 258s121.833 92 224.5 92c68 0 129.333 -9.66699 184 -29v-49c-54 20 -113.667 30 -179 30c-88.667 0 -151.834 -25.833 -189.501 -77.5
s-56.5 -126.5 -56.5 -224.5c0 -178 83 -267 249 -267c30.667 0 61.5 2.33301 92.5 7s58.833 11.334 83.5 20.001v-49c-53.333 -16.667 -114.333 -25 -183 -25c-98.667 0 -172.667 28 -222 84z" />
    <glyph glyph-name="ccircumflex" unicode="&#x109;" horiz-adv-x="483" 
d="M251 656h48l105 -135h-50l-79 103l-79 -103h-50zM55 237c0 81.333 21.5 142.833 64.5 184.5s102.5 62.5 178.5 62.5c28.667 0 52.5 -2 71.5 -6s38.167 -10.667 57.5 -20v-45c-35.333 16.667 -75.333 25 -120 25c-132 0 -198 -67 -198 -201c0 -70 15 -121.167 45 -153.5
s79.667 -48.5 149 -48.5c43.333 0 85 8.66699 125 26v-46c-39.333 -16.667 -85.333 -25 -138 -25c-156.667 0 -235 82.333 -235 247z" />
    <glyph glyph-name="Cdotaccent" unicode="&#x10a;" horiz-adv-x="589" 
d="M321 770h57v-56h-57v56zM129 74c-49.333 56 -73.999 132.666 -73.999 229.999c0 110.667 23.5 196.667 70.5 258s121.833 92 224.5 92c68 0 129.333 -9.66699 184 -29v-49c-54 20 -113.667 30 -179 30c-88.667 0 -151.834 -25.833 -189.501 -77.5
s-56.5 -126.5 -56.5 -224.5c0 -178 83 -267 249 -267c30.667 0 61.5 2.33301 92.5 7s58.833 11.334 83.5 20.001v-49c-53.333 -16.667 -114.333 -25 -183 -25c-98.667 0 -172.667 28 -222 84z" />
    <glyph glyph-name="cdotaccent" unicode="&#x10b;" horiz-adv-x="483" 
d="M254 604h57v-56h-57v56zM55 237c0 81.333 21.5 142.833 64.5 184.5s102.5 62.5 178.5 62.5c28.667 0 52.5 -2 71.5 -6s38.167 -10.667 57.5 -20v-45c-35.333 16.667 -75.333 25 -120 25c-132 0 -198 -67 -198 -201c0 -70 15 -121.167 45 -153.5s79.667 -48.5 149 -48.5
c43.333 0 85 8.66699 125 26v-46c-39.333 -16.667 -85.333 -25 -138 -25c-156.667 0 -235 82.333 -235 247z" />
    <glyph glyph-name="Ccaron" unicode="&#x10c;" horiz-adv-x="589" 
d="M230 822h50l79 -103l79 103h50l-105 -135h-48zM129 74c-49.333 56 -73.999 132.666 -73.999 229.999c0 110.667 23.5 196.667 70.5 258s121.833 92 224.5 92c68 0 129.333 -9.66699 184 -29v-49c-54 20 -113.667 30 -179 30c-88.667 0 -151.834 -25.833 -189.501 -77.5
s-56.5 -126.5 -56.5 -224.5c0 -178 83 -267 249 -267c30.667 0 61.5 2.33301 92.5 7s58.833 11.334 83.5 20.001v-49c-53.333 -16.667 -114.333 -25 -183 -25c-98.667 0 -172.667 28 -222 84z" />
    <glyph glyph-name="ccaron" unicode="&#x10d;" horiz-adv-x="483" 
d="M144 656h50l79 -103l79 103h50l-105 -135h-48zM55 237c0 81.333 21.5 142.833 64.5 184.5s102.5 62.5 178.5 62.5c28.667 0 52.5 -2 71.5 -6s38.167 -10.667 57.5 -20v-45c-35.333 16.667 -75.333 25 -120 25c-132 0 -198 -67 -198 -201c0 -70 15 -121.167 45 -153.5
s79.667 -48.5 149 -48.5c43.333 0 85 8.66699 125 26v-46c-39.333 -16.667 -85.333 -25 -138 -25c-156.667 0 -235 82.333 -235 247z" />
    <glyph glyph-name="Dcaron" unicode="&#x10e;" horiz-adv-x="632" 
d="M174 844h50l79 -103l79 103h50l-105 -135h-48zM75 644l242 -0.000976562c62 0 112 -11.167 150 -33.5s65.833 -57.333 83.5 -105s26.5 -110.5 26.5 -188.5c0 -74 -8.66699 -134.167 -26 -180.5s-45 -80.666 -83 -102.999s-88.333 -33.5 -151 -33.5h-242v644zM305 43.999
c51.333 0 92.5 7.66699 123.5 23s54.333 42.666 70 81.999s23.5 95.333 23.5 168c0 73.333 -7.16699 130.333 -21.5 171s-37 69.334 -68 86.001s-73.5 25 -127.5 25h-175v-555h175z" />
    <glyph glyph-name="dcaron" unicode="&#x10f;" horiz-adv-x="685" 
d="M609 708h51l-75 -161h-44zM111.5 49.5c-37.667 39.667 -56.502 100.833 -56.502 183.5c0 84 19 146.833 57 188.5s91.333 62.5 160 62.5c32.667 0 61.834 -3.83301 87.501 -11.5s50.5 -20.5 74.5 -38.5v240h55v-674h-46l-5 53c-23.333 -22 -48.666 -38 -75.999 -48
s-59 -15 -95 -15c-66 0 -117.833 19.833 -155.5 59.5zM433.998 98.999v286.999c-40 34.667 -89 52 -147 52c-59.333 0 -103.833 -16.667 -133.5 -50s-44.5 -85 -44.5 -155c0 -67.333 14 -117.166 42 -149.499s71 -48.5 129 -48.5c62.667 0 114 21.333 154 64z" />
    <glyph glyph-name="Dcroat" unicode="&#x110;" horiz-adv-x="663" 
d="M106 294l-81.001 -0.000976562v45h81v305h243c62 0 111.833 -11.167 149.5 -33.5s65.334 -57.333 83.001 -105s26.5 -110.5 26.5 -188.5c0 -74 -8.66699 -134.167 -26 -180.5s-45 -80.666 -83 -102.999s-88 -33.5 -150 -33.5h-243v294zM335.999 43.999
c52 0 93.5 7.66895 124.5 23.002s54.333 42.666 70 81.999s23.5 95.333 23.5 168c0 73.333 -7.16699 130.166 -21.5 170.499s-37 68.833 -68 85.5s-73.833 25 -128.5 25h-175v-259h190v-45h-190v-250h175z" />
    <glyph glyph-name="dcroat" unicode="&#x111;" horiz-adv-x="573" 
d="M111.5 49.5c-37.667 39.667 -56.502 100.833 -56.502 183.5c0 84 19 146.833 57 188.5s91.333 62.5 160 62.5c32.667 0 61.834 -3.83301 87.501 -11.5s50.5 -20.5 74.5 -38.5v122h-176v45h176v81h55v-81h59v-45h-59v-556h-46l-5 53c-23.333 -22 -48.666 -38 -75.999 -48
s-59 -15 -95 -15c-66 0 -117.833 19.833 -155.5 59.5zM433.998 98.999v286.999c-40 34.667 -89 52 -147 52c-59.333 0 -103.833 -16.667 -133.5 -50s-44.5 -85 -44.5 -155c0 -67.333 14 -117.166 42 -149.499s71 -48.5 129 -48.5c62.667 0 114 21.333 154 64z" />
    <glyph glyph-name="Emacron" unicode="&#x112;" horiz-adv-x="541" 
d="M142 761h277v-42h-277v42zM75 644h421v-45h-366v-255h331v-44h-331v-256h366v-44h-421v644z" />
    <glyph glyph-name="emacron" unicode="&#x113;" horiz-adv-x="525" 
d="M132 595h277v-42h-277v42zM113.5 50.5c-39 40.333 -58.499 103.5 -58.499 189.5c0 162.667 73 244 219 244c65.333 0 114.333 -17.5 147 -52.5s49 -80.833 49 -137.5v-86h-360c2 -42 9.66699 -75.5 23 -100.5s34.166 -43.333 62.499 -55s66.833 -17.5 115.5 -17.5
c44 0 86.667 8.33301 128 25v-45c-40.667 -16.667 -87 -25 -139 -25c-85.333 0 -147.5 20.167 -186.5 60.5zM420.001 251v45c0 94.667 -48.333 142 -145 142c-60 0 -102.5 -15.5 -127.5 -46.5s-37.5 -77.833 -37.5 -140.5h310z" />
    <glyph glyph-name="Ebreve" unicode="&#x114;" horiz-adv-x="541" 
d="M210.5 718c-20.333 20.667 -30.502 47.334 -30.502 80.001h42c0 -22.667 6.33301 -40.334 19 -53.001s29.334 -19 50.001 -19c21.333 0 38.333 6.33301 51 19s19 30.334 19 53.001h42c0 -32.667 -10.167 -59.334 -30.5 -80.001s-47.5 -31 -81.5 -31
c-33.333 0 -60.166 10.333 -80.499 31zM74.998 644h421v-45h-366v-255h331v-44h-331v-256h366v-44h-421v644z" />
    <glyph glyph-name="ebreve" unicode="&#x115;" horiz-adv-x="525" 
d="M191.5 552c-20.333 20.667 -30.502 47.334 -30.502 80.001h42c0 -22.667 6.33301 -40.334 19 -53.001s29.334 -19 50.001 -19c21.333 0 38.333 6.33301 51 19s19 30.334 19 53.001h42c0 -32.667 -10.167 -59.334 -30.5 -80.001s-47.5 -31 -81.5 -31
c-33.333 0 -60.166 10.333 -80.499 31zM113.498 50.5c-39 40.333 -58.499 103.5 -58.499 189.5c0 162.667 73 244 219 244c65.333 0 114.333 -17.5 147 -52.5s49 -80.833 49 -137.5v-86h-360c2 -42 9.66699 -75.5 23 -100.5s34.166 -43.333 62.499 -55
s66.833 -17.5 115.5 -17.5c44 0 86.667 8.33301 128 25v-45c-40.667 -16.667 -87 -25 -139 -25c-85.333 0 -147.5 20.167 -186.5 60.5zM419.999 251v45c0 94.667 -48.333 142 -145 142c-60 0 -102.5 -15.5 -127.5 -46.5s-37.5 -77.833 -37.5 -140.5h310z" />
    <glyph glyph-name="Edotaccent" unicode="&#x116;" horiz-adv-x="541" 
d="M256 770h57v-56h-57v56zM75 644h421v-45h-366v-255h331v-44h-331v-256h366v-44h-421v644z" />
    <glyph glyph-name="edotaccent" unicode="&#x117;" horiz-adv-x="525" 
d="M242 604h57v-56h-57v56zM113.5 50.5c-39 40.333 -58.499 103.5 -58.499 189.5c0 162.667 73 244 219 244c65.333 0 114.333 -17.5 147 -52.5s49 -80.833 49 -137.5v-86h-360c2 -42 9.66699 -75.5 23 -100.5s34.166 -43.333 62.499 -55s66.833 -17.5 115.5 -17.5
c44 0 86.667 8.33301 128 25v-45c-40.667 -16.667 -87 -25 -139 -25c-85.333 0 -147.5 20.167 -186.5 60.5zM420.001 251v45c0 94.667 -48.333 142 -145 142c-60 0 -102.5 -15.5 -127.5 -46.5s-37.5 -77.833 -37.5 -140.5h310z" />
    <glyph glyph-name="Eogonek" unicode="&#x118;" horiz-adv-x="541" 
d="M130 599v-255h331v-44h-331v-256h366v-44h-41c-24.667 -18 -43.167 -38 -55.5 -60s-18.5 -44.667 -18.5 -68c0 -18 4.16699 -31 12.5 -39s21.833 -12 40.5 -12c8.66699 0 17.667 1 27 3s17 4.66699 23 8v-41c-14 -7.33301 -33.667 -11 -59 -11
c-27.333 0 -49.333 6.83301 -66 20.5s-25 35.5 -25 65.5c0 26 7 51 21 75s32 43.667 54 59h-334v644h421v-45h-366z" />
    <glyph glyph-name="eogonek" unicode="&#x119;" horiz-adv-x="525" 
d="M470 208h-359.999c2 -42 9.66699 -75.5 23 -100.5s34.166 -43.333 62.499 -55s66.833 -17.5 115.5 -17.5c44 0 86.667 8.33301 128 25v-45c-14 -5.33301 -30.333 -10.333 -49 -15c-24.667 -18 -43.167 -38 -55.5 -60s-18.5 -44.667 -18.5 -68c0 -18 4.16699 -31 12.5 -39
s21.833 -12 40.5 -12c8.66699 0 17.667 1 27 3s17 4.66699 23 8v-41c-14 -7.33301 -33.667 -11 -59 -11c-27.333 0 -49.333 6.83301 -66 20.5s-25 35.5 -25 65.5c0 23.333 5.83301 46 17.5 68s26.834 41 45.501 57c-6.66699 -0.666992 -17.334 -1 -32.001 -1
c-85.333 0 -147.5 20.167 -186.5 60.5s-58.5 103.5 -58.5 189.5c0 162.667 73 244 219 244c65.333 0 114.333 -17.5 147 -52.5s49 -80.833 49 -137.5v-86zM420.001 296c0 94.667 -48.333 142 -145 142c-60 0 -102.5 -15.5 -127.5 -46.5s-37.5 -77.833 -37.5 -140.5h310v45z
" />
    <glyph glyph-name="Ecaron" unicode="&#x11a;" horiz-adv-x="541" 
d="M163 822h50l79 -103l79 103h50l-105 -135h-48zM75 644h421v-45h-366v-255h331v-44h-331v-256h366v-44h-421v644z" />
    <glyph glyph-name="ecaron" unicode="&#x11b;" horiz-adv-x="525" 
d="M149 656h50l79 -103l79 103h50l-105 -135h-48zM113.5 50.5c-39 40.333 -58.499 103.5 -58.499 189.5c0 162.667 73 244 219 244c65.333 0 114.333 -17.5 147 -52.5s49 -80.833 49 -137.5v-86h-360c2 -42 9.66699 -75.5 23 -100.5s34.166 -43.333 62.499 -55
s66.833 -17.5 115.5 -17.5c44 0 86.667 8.33301 128 25v-45c-40.667 -16.667 -87 -25 -139 -25c-85.333 0 -147.5 20.167 -186.5 60.5zM420.001 251v45c0 94.667 -48.333 142 -145 142c-60 0 -102.5 -15.5 -127.5 -46.5s-37.5 -77.833 -37.5 -140.5h310z" />
    <glyph glyph-name="Gcircumflex" unicode="&#x11c;" horiz-adv-x="633" 
d="M329 822h48l105 -135h-50l-79 103l-79 -103h-50zM129 74c-49.333 56 -74.0029 132.668 -74.0029 230.001c0 110.667 23.5 196.667 70.5 258s121.833 92 224.5 92c68.667 0 130 -9 184 -27v-49c-56 18.667 -115.333 28 -178 28c-89.333 0 -152.833 -25.833 -190.5 -77.5
s-56.5 -126.5 -56.5 -224.5c0 -178 82.667 -267 248 -267c30.667 0 61.334 2.66699 92.001 8s57 12.666 79 21.999v229h-183v44h233v-301c-21.333 -14 -50.666 -25.667 -87.999 -35s-83.666 -14 -138.999 -14c-98.667 0 -172.667 28 -222 84z" />
    <glyph glyph-name="gcircumflex" unicode="&#x11d;" horiz-adv-x="542" 
d="M244 656h48l105 -135h-50l-79 103l-79 -103h-50zM71 -152l-0.000976562 47.002c52 -17.333 112.667 -26 182 -26c57.333 0 98.333 4.5 123 13.5s37 27.5 37 55.5c0 22.667 -7.16699 38.5 -21.5 47.5s-40.166 13.5 -77.499 13.5h-129c-43.333 0 -75.5 6.83301 -96.5 20.5
s-31.5 34.5 -31.5 62.5c0 20 7.16699 38.167 21.5 54.5s34.5 27.833 60.5 34.5c-54.667 22 -82 69.667 -82 143c0 58.667 16.333 101.667 49 129s83.334 41 152.001 41c21.333 0 47 -3.33301 77 -10h167l-2 -41h-92c32.667 -28 49 -67.667 49 -119
c0 -110.667 -63 -166 -189 -166c-18.667 0 -40 2 -64 6c-26.667 -2.66699 -48.834 -9.83398 -66.501 -21.501s-26.5 -26.5 -26.5 -44.5c0 -14.667 6 -25.334 18 -32.001s33.333 -10 64 -10h133c94.667 0 142 -35 142 -105c0 -44 -17.5 -74.5 -52.5 -91.5
s-88.5 -25.5 -160.5 -25.5c-78.667 0 -140 8 -184 24zM370.999 219.002c21.333 18.667 32 50.332 32 94.999s-11.167 77 -33.5 97s-59.5 30 -111.5 30s-89.333 -9.66699 -112 -29s-34 -52 -34 -98c0 -43.333 11 -74.666 33 -93.999s59.667 -29 113 -29
c54 0 91.667 9.33301 113 28z" />
    <glyph glyph-name="Gbreve" unicode="&#x11e;" horiz-adv-x="633" 
d="M269.5 718c-20.333 20.667 -30.502 47.334 -30.502 80.001h42c0 -22.667 6.33301 -40.334 19 -53.001s29.334 -19 50.001 -19c21.333 0 38.333 6.33301 51 19s19 30.334 19 53.001h42c0 -32.667 -10.167 -59.334 -30.5 -80.001s-47.5 -31 -81.5 -31
c-33.333 0 -60.166 10.333 -80.499 31zM128.998 74c-49.333 56 -74.0029 132.668 -74.0029 230.001c0 110.667 23.5 196.667 70.5 258s121.833 92 224.5 92c68.667 0 130 -9 184 -27v-49c-56 18.667 -115.333 28 -178 28c-89.333 0 -152.833 -25.833 -190.5 -77.5
s-56.5 -126.5 -56.5 -224.5c0 -178 82.667 -267 248 -267c30.667 0 61.334 2.66699 92.001 8s57 12.666 79 21.999v229h-183v44h233v-301c-21.333 -14 -50.666 -25.667 -87.999 -35s-83.666 -14 -138.999 -14c-98.667 0 -172.667 28 -222 84z" />
    <glyph glyph-name="gbreve" unicode="&#x11f;" horiz-adv-x="542" 
d="M192.5 552c-20.333 20.667 -30.502 47.334 -30.502 80.001h42c0 -22.667 6.33301 -40.334 19 -53.001s29.334 -19 50.001 -19c21.333 0 38.333 6.33301 51 19s19 30.334 19 53.001h42c0 -32.667 -10.167 -59.334 -30.5 -80.001s-47.5 -31 -81.5 -31
c-33.333 0 -60.166 10.333 -80.499 31zM70.998 -152l-0.000976562 47.002c52 -17.333 112.667 -26 182 -26c57.333 0 98.333 4.5 123 13.5s37 27.5 37 55.5c0 22.667 -7.16699 38.5 -21.5 47.5s-40.166 13.5 -77.499 13.5h-129c-43.333 0 -75.5 6.83301 -96.5 20.5
s-31.5 34.5 -31.5 62.5c0 20 7.16699 38.167 21.5 54.5s34.5 27.833 60.5 34.5c-54.667 22 -82 69.667 -82 143c0 58.667 16.333 101.667 49 129s83.334 41 152.001 41c21.333 0 47 -3.33301 77 -10h167l-2 -41h-92c32.667 -28 49 -67.667 49 -119
c0 -110.667 -63 -166 -189 -166c-18.667 0 -40 2 -64 6c-26.667 -2.66699 -48.834 -9.83398 -66.501 -21.501s-26.5 -26.5 -26.5 -44.5c0 -14.667 6 -25.334 18 -32.001s33.333 -10 64 -10h133c94.667 0 142 -35 142 -105c0 -44 -17.5 -74.5 -52.5 -91.5
s-88.5 -25.5 -160.5 -25.5c-78.667 0 -140 8 -184 24zM370.997 219.002c21.333 18.667 32 50.332 32 94.999s-11.167 77 -33.5 97s-59.5 30 -111.5 30s-89.333 -9.66699 -112 -29s-34 -52 -34 -98c0 -43.333 11 -74.666 33 -93.999s59.667 -29 113 -29
c54 0 91.667 9.33301 113 28z" />
    <glyph glyph-name="Gdotaccent" unicode="&#x120;" horiz-adv-x="633" 
d="M322 770h57v-56h-57v56zM129 74c-49.333 56 -74.0029 132.668 -74.0029 230.001c0 110.667 23.5 196.667 70.5 258s121.833 92 224.5 92c68.667 0 130 -9 184 -27v-49c-56 18.667 -115.333 28 -178 28c-89.333 0 -152.833 -25.833 -190.5 -77.5
s-56.5 -126.5 -56.5 -224.5c0 -178 82.667 -267 248 -267c30.667 0 61.334 2.66699 92.001 8s57 12.666 79 21.999v229h-183v44h233v-301c-21.333 -14 -50.666 -25.667 -87.999 -35s-83.666 -14 -138.999 -14c-98.667 0 -172.667 28 -222 84z" />
    <glyph glyph-name="gdotaccent" unicode="&#x121;" horiz-adv-x="542" 
d="M240 601h57v-56h-57v56zM71 -152l-0.000976562 47.002c52 -17.333 112.667 -26 182 -26c57.333 0 98.333 4.5 123 13.5s37 27.5 37 55.5c0 22.667 -7.16699 38.5 -21.5 47.5s-40.166 13.5 -77.499 13.5h-129c-43.333 0 -75.5 6.83301 -96.5 20.5s-31.5 34.5 -31.5 62.5
c0 20 7.16699 38.167 21.5 54.5s34.5 27.833 60.5 34.5c-54.667 22 -82 69.667 -82 143c0 58.667 16.333 101.667 49 129s83.334 41 152.001 41c21.333 0 47 -3.33301 77 -10h167l-2 -41h-92c32.667 -28 49 -67.667 49 -119c0 -110.667 -63 -166 -189 -166
c-18.667 0 -40 2 -64 6c-26.667 -2.66699 -48.834 -9.83398 -66.501 -21.501s-26.5 -26.5 -26.5 -44.5c0 -14.667 6 -25.334 18 -32.001s33.333 -10 64 -10h133c94.667 0 142 -35 142 -105c0 -44 -17.5 -74.5 -52.5 -91.5s-88.5 -25.5 -160.5 -25.5
c-78.667 0 -140 8 -184 24zM370.999 219.002c21.333 18.667 32 50.332 32 94.999s-11.167 77 -33.5 97s-59.5 30 -111.5 30s-89.333 -9.66699 -112 -29s-34 -52 -34 -98c0 -43.333 11 -74.666 33 -93.999s59.667 -29 113 -29c54 0 91.667 9.33301 113 28z" />
    <glyph glyph-name="Gcommaaccent" unicode="&#x122;" horiz-adv-x="633" 
d="M129 74c-49.333 56 -74.0029 132.668 -74.0029 230.001c0 110.667 23.5 196.667 70.5 258s121.833 92 224.5 92c68.667 0 130 -9 184 -27v-49c-56 18.667 -115.333 28 -178 28c-89.333 0 -152.833 -25.833 -190.5 -77.5s-56.5 -126.5 -56.5 -224.5
c0 -178 82.667 -267 248 -267c30.667 0 61.334 2.66699 92.001 8s57 12.666 79 21.999v229h-183v44h233v-301c-21.333 -14 -50.666 -25.667 -87.999 -35s-83.666 -14 -138.999 -14c-98.667 0 -172.667 28 -222 84zM337.997 -41.999h53l-38 -165h-41z" />
    <glyph glyph-name="gcommaaccent" unicode="&#x123;" horiz-adv-x="542" 
d="M262 687h41l-26 -165h-53zM71 -152l-0.000976562 47.002c52 -17.333 112.667 -26 182 -26c57.333 0 98.333 4.5 123 13.5s37 27.5 37 55.5c0 22.667 -7.16699 38.5 -21.5 47.5s-40.166 13.5 -77.499 13.5h-129c-43.333 0 -75.5 6.83301 -96.5 20.5s-31.5 34.5 -31.5 62.5
c0 20 7.16699 38.167 21.5 54.5s34.5 27.833 60.5 34.5c-54.667 22 -82 69.667 -82 143c0 58.667 16.333 101.667 49 129s83.334 41 152.001 41c21.333 0 47 -3.33301 77 -10h167l-2 -41h-92c32.667 -28 49 -67.667 49 -119c0 -110.667 -63 -166 -189 -166
c-18.667 0 -40 2 -64 6c-26.667 -2.66699 -48.834 -9.83398 -66.501 -21.501s-26.5 -26.5 -26.5 -44.5c0 -14.667 6 -25.334 18 -32.001s33.333 -10 64 -10h133c94.667 0 142 -35 142 -105c0 -44 -17.5 -74.5 -52.5 -91.5s-88.5 -25.5 -160.5 -25.5
c-78.667 0 -140 8 -184 24zM370.999 219.002c21.333 18.667 32 50.332 32 94.999s-11.167 77 -33.5 97s-59.5 30 -111.5 30s-89.333 -9.66699 -112 -29s-34 -52 -34 -98c0 -43.333 11 -74.666 33 -93.999s59.667 -29 113 -29c54 0 91.667 9.33301 113 28z" />
    <glyph glyph-name="Hcircumflex" unicode="&#x124;" horiz-adv-x="630" 
d="M291 822h48l105 -135h-50l-79 103l-79 -103h-50zM75 644h55v-300h370v300h55v-644h-55v300h-370v-300h-55v644z" />
    <glyph glyph-name="hcircumflex" unicode="&#x125;" horiz-adv-x="559" 
d="M183 834h48l105 -135h-50l-79 103l-79 -103h-50zM75 674h55v-257c25.333 21.333 53.333 37.833 84 49.5s66 17.5 106 17.5c58 0 100.667 -13.833 128 -41.5s41 -70.834 41 -129.501v-313h-55v312c0 46.667 -10 79.334 -30 98.001s-55 28 -105 28
c-31.333 0 -61.833 -6.33301 -91.5 -19s-55.5 -29.667 -77.5 -51v-368h-55v674z" />
    <glyph glyph-name="Hbar" unicode="&#x126;" horiz-adv-x="671" 
d="M89 471h-64v45h64v128h55v-128h370v128h55v-128h77v-45h-77v-471h-55v300h-370v-300h-55v471zM514 344v127h-370v-127h370z" />
    <glyph glyph-name="hbar" unicode="&#x127;" horiz-adv-x="581" 
d="M97 548h-62v45h62v81h55v-81h175v-45h-175v-131c52.667 44.667 116.334 67 191.001 67c57.333 0 99.666 -13.833 126.999 -41.5s41 -70.834 41 -129.501v-313h-55v312c0 46.667 -10 79.334 -30 98.001s-55 28 -105 28c-31.333 0 -62 -6.33301 -92 -19
s-55.667 -29.667 -77 -51v-368h-55v548z" />
    <glyph glyph-name="Itilde" unicode="&#x128;" horiz-adv-x="205" 
d="M139 695c-11.333 3.33301 -24.334 8.33301 -39.001 15c-26.667 11.333 -46.667 17 -60 17c-33.333 0 -59.666 -11.667 -78.999 -35v47c8 8.66699 19.167 15.667 33.5 21s29.166 8 44.499 8c12 0 22.833 -1.5 32.5 -4.5s22.167 -7.83301 37.5 -14.5
c13.333 -6 24.5 -10.5 33.5 -13.5s18.5 -4.5 28.5 -4.5c16 0 30 2.83301 42 8.5s22.333 14.5 31 26.5v-47c-6.66699 -9.33301 -16.167 -16.5 -28.5 -21.5s-26.5 -7.5 -42.5 -7.5c-11.333 0 -22.666 1.66699 -33.999 5zM74.999 644h55v-644h-55v644z" />
    <glyph glyph-name="itilde" unicode="&#x129;" horiz-adv-x="270" 
d="M176 529c-11.333 3.33301 -24.334 8.33301 -39.001 15c-26.667 11.333 -46.667 17 -60 17c-33.333 0 -59.666 -11.667 -78.999 -35v47c8 8.66699 19.167 15.667 33.5 21s29.166 8 44.499 8c12 0 22.833 -1.5 32.5 -4.5s22.167 -7.83301 37.5 -14.5
c13.333 -6 24.5 -10.5 33.5 -13.5s18.5 -4.5 28.5 -4.5c16 0 30 2.83301 42 8.5s22.333 14.5 31 26.5v-47c-6.66699 -9.33301 -16.167 -16.5 -28.5 -21.5s-26.5 -7.5 -42.5 -7.5c-11.333 0 -22.666 1.66699 -33.999 5zM139.999 428h-75l4 46h126v-474h-55v428z" />
    <glyph glyph-name="Imacron" unicode="&#x12a;" horiz-adv-x="205" 
d="M-36 761h277v-42h-277v42zM75 644h55v-644h-55v644z" />
    <glyph glyph-name="imacron" unicode="&#x12b;" horiz-adv-x="270" 
d="M1 598h267v-42h-267v42zM140 428h-75l4 46h126v-474h-55v428z" />
    <glyph glyph-name="Ibreve" unicode="&#x12c;" horiz-adv-x="205" 
d="M21.5 722c-20.333 20.667 -30.502 47.334 -30.502 80.001h42c0 -22.667 6.33301 -40.334 19 -53.001s29.334 -19 50.001 -19c21.333 0 38.333 6.33301 51 19s19 30.334 19 53.001h42c0 -32.667 -10.167 -59.334 -30.5 -80.001s-47.5 -31 -81.5 -31
c-33.333 0 -60.166 10.333 -80.499 31zM74.998 644h55v-644h-55v644z" />
    <glyph glyph-name="ibreve" unicode="&#x12d;" horiz-adv-x="270" 
d="M67 551.5c-20 20.333 -30.001 46.833 -30.001 79.5h41c0 -22 6.33301 -39.5 19 -52.5s29.334 -19.5 50.001 -19.5c22 0 39.333 6.5 52 19.5s19 30.5 19 52.5h41c0 -32.667 -10.167 -59.167 -30.5 -79.5s-47.5 -30.5 -81.5 -30.5c-33.333 0 -60 10.167 -80 30.5z
M139.999 428h-75l4 46h126v-474h-55v428z" />
    <glyph glyph-name="Iogonek" unicode="&#x12e;" horiz-adv-x="205" 
d="M132 -176c9.33301 2 17 4.66699 23 8v-41c-14 -7.33301 -33.667 -11 -59 -11c-27.333 0 -49.333 6.83301 -66 20.5s-25 35.5 -25 65.5c0 26 7 51 21 75s32 43.667 54 59h-5v644h55v-644h-4c-24.667 -18 -43.167 -38 -55.5 -60s-18.5 -44.667 -18.5 -68
c0 -18 4.16699 -31 12.5 -39s21.833 -12 40.5 -12c8.66699 0 17.667 1 27 3z" />
    <glyph glyph-name="iogonek" unicode="&#x12f;" horiz-adv-x="270" 
d="M195 597h-63v60h63v-60zM192 -176c9.33301 2 17 4.66699 23 8v-41c-14 -7.33301 -33.667 -11 -59 -11c-27.333 0 -49.333 6.83301 -66 20.5s-25 35.5 -25 65.5c0 26 7 51 21 75s32 43.667 54 59h-1v428h-74l6 46h123v-474h-8c-24.667 -18 -43.167 -38 -55.5 -60
s-18.5 -44.667 -18.5 -68c0 -18 4.16699 -31 12.5 -39s21.833 -12 40.5 -12c8.66699 0 17.667 1 27 3z" />
    <glyph glyph-name="Idotaccent" unicode="&#x130;" horiz-adv-x="205" 
d="M74 771h57v-56h-57v56zM75 644h55v-644h-55v644z" />
    <glyph glyph-name="dotlessi" unicode="&#x131;" horiz-adv-x="270" 
d="M140 428h-75l4 46h126v-474h-55v428z" />
    <glyph glyph-name="IJ" unicode="&#x132;" horiz-adv-x="602" 
d="M75 644h55v-644h-55v644zM218 13v47.999c16 -7.33301 35 -13.166 57 -17.499s44 -6.5 66 -6.5c49.333 0 84.333 10.333 105 31s31 54 31 100v476h55v-479c0 -116.667 -61.333 -175 -184 -175c-48.667 0 -92 7.66699 -130 23z" />
    <glyph glyph-name="ij" unicode="&#x133;" horiz-adv-x="469" 
d="M132 657h63v-60h-63v60zM331 657h63v-60h-63v60zM139 428h-74l6 46h123v-474h-55v428zM179 -222l0.000976562 44.999c20.667 -6.66699 41 -10 61 -10c36 0 61.333 7 76 21s22 36.333 22 67v527h-74l6 46h123v-576c0 -41.333 -11.833 -73.666 -35.5 -96.999
s-56.834 -35 -99.501 -35c-30.667 0 -57 4 -79 12z" />
    <glyph glyph-name="Jcircumflex" unicode="&#x134;" horiz-adv-x="419" 
d="M295 822h48l105 -135h-50l-79 103l-79 -103h-50zM35 13v47.999c16 -7.33301 35 -13.166 57 -17.499s44 -6.5 66 -6.5c49.333 0 84.333 10.333 105 31s31 54 31 100v476h55v-479c0 -116.667 -61.333 -175 -184 -175c-48.667 0 -92 7.66699 -130 23z" />
    <glyph glyph-name="jcircumflex" unicode="&#x135;" horiz-adv-x="269" 
d="M121 656h48l105 -135h-50l-79 103l-79 -103h-50zM-20 -222l0.000976562 44.999c20.667 -6.66699 41 -10 61 -10c36 0 61.333 7 76 21s22 36.333 22 67v527h-74l6 46h123v-576c0 -41.333 -11.833 -73.666 -35.5 -96.999s-56.834 -35 -99.501 -35c-30.667 0 -57 4 -79 12z
" />
    <glyph glyph-name="Kcommaaccent" unicode="&#x136;" horiz-adv-x="585" 
d="M75 644h55v-342l327 342h67l-245 -256l251 -388h-60l-225 352l-115 -121v-231h-55v644zM267 -37h53l-38 -165h-41z" />
    <glyph glyph-name="kcommaaccent" unicode="&#x137;" horiz-adv-x="506" 
d="M75 674h55v-428l244 228h66l-195 -185l206 -289h-58l-184 258l-79 -74v-184h-55v674zM226 -37h53l-38 -165h-41z" />
    <glyph glyph-name="kgreenlandic" unicode="&#x138;" horiz-adv-x="506" 
d="M75 474h55v-249l244 249h66l-195 -200l206 -274h-58l-183 243l-80 -82v-161h-55v474z" />
    <glyph glyph-name="Lacute" unicode="&#x139;" horiz-adv-x="521" 
d="M144 846h52l-74 -158h-45zM75 644h55v-600h356v-44h-411v644z" />
    <glyph glyph-name="lacute" unicode="&#x13a;" horiz-adv-x="246" 
d="M144 881h52l-74 -158h-45zM97.5 13.5c-15 15.667 -22.502 41.5 -22.502 77.5v583h55v-581c0 -20.667 3.33301 -35.167 10 -43.5s17.334 -12.5 32.001 -12.5s29.334 2 44.001 6v-46c-14 -4.66699 -31.667 -7 -53 -7c-28.667 0 -50.5 7.83301 -65.5 23.5z" />
    <glyph glyph-name="Lcommaaccent" unicode="&#x13b;" horiz-adv-x="521" 
d="M75 644h55v-600h356v-44h-411v644zM251 -37h53l-38 -165h-41z" />
    <glyph glyph-name="lcommaaccent" unicode="&#x13c;" horiz-adv-x="246" 
d="M97.5 13.5c-15 15.667 -22.502 41.5 -22.502 77.5v583h55v-581c0 -20.667 3.33301 -35.167 10 -43.5s17.334 -12.5 32.001 -12.5s29.334 2 44.001 6v-46c-14 -4.66699 -31.667 -7 -53 -7c-28.667 0 -50.5 7.83301 -65.5 23.5zM134.998 -37h53l-38 -165h-41z" />
    <glyph glyph-name="Lcaron" unicode="&#x13d;" horiz-adv-x="521" 
d="M317 735h53l-38 -165h-41zM75 644h55v-600h356v-44h-411v644z" />
    <glyph glyph-name="lcaron" unicode="&#x13e;" horiz-adv-x="296" 
d="M218 794h53l-38 -165h-41zM97.5 13.5c-15 15.667 -22.502 41.5 -22.502 77.5v583h55v-581c0 -20.667 3.33301 -35.167 10 -43.5s17.334 -12.5 32.001 -12.5s29.334 2 44.001 6v-46c-14 -4.66699 -31.667 -7 -53 -7c-28.667 0 -50.5 7.83301 -65.5 23.5z" />
    <glyph glyph-name="Ldot" unicode="&#x13f;" horiz-adv-x="521" 
d="M75 644h55v-600h356v-44h-411v644zM307 309h59v-57h-59v57z" />
    <glyph glyph-name="ldot" unicode="&#x140;" horiz-adv-x="270" 
d="M97.5 13.5c-15 15.667 -22.502 41.5 -22.502 77.5v583h55v-581c0 -20.667 3.33301 -35.167 10 -43.5s17.334 -12.5 32.001 -12.5s29.334 2 44.001 6v-46c-14 -4.66699 -31.667 -7 -53 -7c-28.667 0 -50.5 7.83301 -65.5 23.5zM190.998 312h59v-57h-59v57z" />
    <glyph glyph-name="Lslash" unicode="&#x141;" horiz-adv-x="545" 
d="M98 292l-98 -43v48l98 43v304h55v-280l153 67v-48l-153 -67v-272h357v-44h-412v292z" />
    <glyph glyph-name="lslash" unicode="&#x142;" horiz-adv-x="246" 
d="M97.5 13.5c-15 15.667 -22.502 41.5 -22.502 77.5v205l-108 -47v48l108 47v330h55v-306l122 53v-48l-122 -53v-227c0 -20.667 3.33301 -35.167 10 -43.5s17.334 -12.5 32.001 -12.5s29.334 2 44.001 6v-46c-14 -4.66699 -31.667 -7 -53 -7
c-28.667 0 -50.5 7.83301 -65.5 23.5z" />
    <glyph glyph-name="Nacute" unicode="&#x143;" horiz-adv-x="656" 
d="M376 846h52l-74 -158h-45zM75 644h52l399 -562v562h55v-644h-53l-398 561v-561h-55v644z" />
    <glyph glyph-name="nacute" unicode="&#x144;" horiz-adv-x="559" 
d="M321 680h52l-74 -158h-45zM75 474l48 -0.00195312l5 -58c26 22 54.5 38.833 85.5 50.5s66.5 17.5 106.5 17.5c58.667 0 101.5 -13.667 128.5 -41s40.5 -70.666 40.5 -129.999v-313h-55v312c0 32 -4.16699 57 -12.5 75s-22.333 31 -42 39s-47.167 12 -82.5 12
c-32.667 0 -63.167 -6.16699 -91.5 -18.5s-53.5 -29.166 -75.5 -50.499v-369h-55v474z" />
    <glyph glyph-name="Ncommaaccent" unicode="&#x145;" horiz-adv-x="656" 
d="M75 644h52l399 -562v562h55v-644h-53l-398 561v-561h-55v644zM306 -37h53l-38 -165h-41z" />
    <glyph glyph-name="ncommaaccent" unicode="&#x146;" horiz-adv-x="559" 
d="M75 474l48 -0.00195312l5 -58c26 22 54.5 38.833 85.5 50.5s66.5 17.5 106.5 17.5c58.667 0 101.5 -13.667 128.5 -41s40.5 -70.666 40.5 -129.999v-313h-55v312c0 32 -4.16699 57 -12.5 75s-22.333 31 -42 39s-47.167 12 -82.5 12
c-32.667 0 -63.167 -6.16699 -91.5 -18.5s-53.5 -29.166 -75.5 -50.499v-369h-55v474zM265 -37.002h53l-38 -165h-41z" />
    <glyph glyph-name="Ncaron" unicode="&#x147;" horiz-adv-x="656" 
d="M219 822h50l79 -103l79 103h50l-105 -135h-48zM75 644h52l399 -562v562h55v-644h-53l-398 561v-561h-55v644z" />
    <glyph glyph-name="ncaron" unicode="&#x148;" horiz-adv-x="559" 
d="M148 656h50l79 -103l79 103h50l-105 -135h-48zM75 474l48 -0.00195312l5 -58c26 22 54.5 38.833 85.5 50.5s66.5 17.5 106.5 17.5c58.667 0 101.5 -13.667 128.5 -41s40.5 -70.666 40.5 -129.999v-313h-55v312c0 32 -4.16699 57 -12.5 75s-22.333 31 -42 39
s-47.167 12 -82.5 12c-32.667 0 -63.167 -6.16699 -91.5 -18.5s-53.5 -29.166 -75.5 -50.499v-369h-55v474z" />
    <glyph glyph-name="napostrophe" unicode="&#x149;" horiz-adv-x="625" 
d="M58 650h53l-38 -165h-41zM141 474l48 -0.00195312l5 -58c26 22 54.5 38.833 85.5 50.5s66.5 17.5 106.5 17.5c58.667 0 101.5 -13.667 128.5 -41s40.5 -70.666 40.5 -129.999v-313h-55v312c0 32 -4.16699 57 -12.5 75s-22.333 31 -42 39s-47.167 12 -82.5 12
c-32.667 0 -63.167 -6.16699 -91.5 -18.5s-53.5 -29.166 -75.5 -50.499v-369h-55v474z" />
    <glyph glyph-name="Eng" unicode="&#x14a;" horiz-adv-x="656" 
d="M366 -222l0.000976562 44.999c22 -6.66699 42.333 -10 61 -10c36 0 61.5 7 76.5 21s22.5 36.333 22.5 67v102l-396 558v-561h-55v644h52l399 -562v562h55v-746c0 -41.333 -11.833 -73.666 -35.5 -96.999s-56.834 -35 -99.501 -35c-31.333 0 -58 4 -80 12z" />
    <glyph glyph-name="eng" unicode="&#x14b;" horiz-adv-x="559" 
d="M274 -222l0.000976562 44.9971c22 -6.66699 42.333 -10 61 -10c36 0 61.5 7 76.5 21s22.5 36.333 22.5 67v411c0 32 -4.16699 57 -12.5 75s-22.333 31 -42 39s-47.167 12 -82.5 12c-32.667 0 -63.167 -6.16699 -91.5 -18.5s-53.5 -29.166 -75.5 -50.499v-369h-55v474h48
l5 -58c26 22 54.5 38.833 85.5 50.5s66.5 17.5 106.5 17.5c58.667 0 101.5 -13.667 128.5 -41s40.5 -70.666 40.5 -129.999v-415c0 -41.333 -11.833 -73.666 -35.5 -96.999s-56.834 -35 -99.501 -35c-31.333 0 -58 4 -80 12z" />
    <glyph glyph-name="Omacron" unicode="&#x14c;" horiz-adv-x="688" 
d="M205 761h277v-42h-277v42zM126 73c-47.333 55.333 -71 137.333 -71 246c0 115.333 23.333 200 70 254s119.667 81 219 81s172.333 -27 219 -81s70 -138.667 70 -254c0 -108.667 -23.667 -190.667 -71 -246s-120 -83 -218 -83s-170.667 27.667 -218 83zM520.5 105.5
c38.333 45.667 57.501 116.834 57.501 213.501c0 70 -8.5 126 -25.5 168s-42.5 72.333 -76.5 91s-78 28 -132 28s-98.167 -9.33301 -132.5 -28s-60 -49 -77 -91s-25.5 -98 -25.5 -168c0 -96.667 19.167 -167.834 57.5 -213.501s97.5 -68.5 177.5 -68.5
c79.333 0 138.166 22.833 176.499 68.5z" />
    <glyph glyph-name="omacron" unicode="&#x14d;" horiz-adv-x="563" 
d="M143 595h277v-42h-277v42zM109 52c-36 41.333 -54 103 -54 185c0 81.333 18.333 142.833 55 184.5s93.667 62.5 171 62.5s134.5 -20.833 171.5 -62.5s55.5 -103.167 55.5 -184.5c0 -82 -18.167 -143.667 -54.5 -185s-93.833 -62 -172.5 -62s-136 20.667 -172 62z
M413.5 85c26.333 32 39.5 82.667 39.5 152c0 68.667 -13.333 119 -40 151s-70.667 48 -132 48s-105.333 -16 -132 -48s-40 -82.333 -40 -151c0 -69.333 13.167 -120 39.5 -152s70.5 -48 132.5 -48s106.167 16 132.5 48z" />
    <glyph glyph-name="Obreve" unicode="&#x14e;" horiz-adv-x="688" 
d="M263.5 718c-20.333 20.667 -30.502 47.334 -30.502 80.001h42c0 -22.667 6.33301 -40.334 19 -53.001s29.334 -19 50.001 -19c21.333 0 38.333 6.33301 51 19s19 30.334 19 53.001h42c0 -32.667 -10.167 -59.334 -30.5 -80.001s-47.5 -31 -81.5 -31
c-33.333 0 -60.166 10.333 -80.499 31zM125.998 73c-47.333 55.333 -71 137.333 -71 246c0 115.333 23.333 200 70 254s119.667 81 219 81s172.333 -27 219 -81s70 -138.667 70 -254c0 -108.667 -23.667 -190.667 -71 -246s-120 -83 -218 -83s-170.667 27.667 -218 83z
M520.498 105.5c38.333 45.667 57.501 116.834 57.501 213.501c0 70 -8.5 126 -25.5 168s-42.5 72.333 -76.5 91s-78 28 -132 28s-98.167 -9.33301 -132.5 -28s-60 -49 -77 -91s-25.5 -98 -25.5 -168c0 -96.667 19.167 -167.834 57.5 -213.501s97.5 -68.5 177.5 -68.5
c79.333 0 138.166 22.833 176.499 68.5z" />
    <glyph glyph-name="obreve" unicode="&#x14f;" horiz-adv-x="563" 
d="M200.5 552c-20.333 20.667 -30.502 47.334 -30.502 80.001h42c0 -22.667 6.33301 -40.334 19 -53.001s29.334 -19 50.001 -19c21.333 0 38.333 6.33301 51 19s19 30.334 19 53.001h42c0 -32.667 -10.167 -59.334 -30.5 -80.001s-47.5 -31 -81.5 -31
c-33.333 0 -60.166 10.333 -80.499 31zM108.998 52c-36 41.333 -54 103 -54 185c0 81.333 18.333 142.833 55 184.5s93.667 62.5 171 62.5s134.5 -20.833 171.5 -62.5s55.5 -103.167 55.5 -184.5c0 -82 -18.167 -143.667 -54.5 -185s-93.833 -62 -172.5 -62
s-136 20.667 -172 62zM413.498 85c26.333 32 39.5 82.667 39.5 152c0 68.667 -13.333 119 -40 151s-70.667 48 -132 48s-105.333 -16 -132 -48s-40 -82.333 -40 -151c0 -69.333 13.167 -120 39.5 -152s70.5 -48 132.5 -48s106.167 16 132.5 48z" />
    <glyph glyph-name="Ohungarumlaut" unicode="&#x150;" horiz-adv-x="688" 
d="M269 828h54l-76 -141h-45zM468 828h54l-76 -141h-45zM126 73c-47.333 55.333 -71 137.333 -71 246c0 115.333 23.333 200 70 254s119.667 81 219 81s172.333 -27 219 -81s70 -138.667 70 -254c0 -108.667 -23.667 -190.667 -71 -246s-120 -83 -218 -83
s-170.667 27.667 -218 83zM520.5 105.5c38.333 45.667 57.501 116.834 57.501 213.501c0 70 -8.5 126 -25.5 168s-42.5 72.333 -76.5 91s-78 28 -132 28s-98.167 -9.33301 -132.5 -28s-60 -49 -77 -91s-25.5 -98 -25.5 -168c0 -96.667 19.167 -167.834 57.5 -213.501
s97.5 -68.5 177.5 -68.5c79.333 0 138.166 22.833 176.499 68.5z" />
    <glyph glyph-name="ohungarumlaut" unicode="&#x151;" horiz-adv-x="563" 
d="M233 662h54l-76 -141h-45zM432 662h54l-76 -141h-45zM109 52c-36 41.333 -54 103 -54 185c0 81.333 18.333 142.833 55 184.5s93.667 62.5 171 62.5s134.5 -20.833 171.5 -62.5s55.5 -103.167 55.5 -184.5c0 -82 -18.167 -143.667 -54.5 -185s-93.833 -62 -172.5 -62
s-136 20.667 -172 62zM413.5 85c26.333 32 39.5 82.667 39.5 152c0 68.667 -13.333 119 -40 151s-70.667 48 -132 48s-105.333 -16 -132 -48s-40 -82.333 -40 -151c0 -69.333 13.167 -120 39.5 -152s70.5 -48 132.5 -48s106.167 16 132.5 48z" />
    <glyph glyph-name="OE" unicode="&#x152;" horiz-adv-x="1056" 
d="M634 599l0.000976562 -255h331v-44h-331v-256h366v-44h-421v95c-48 -70 -126.333 -105 -235 -105c-98 0 -170.667 27.667 -218 83s-71 137.333 -71 246c0 115.333 23.333 200 70 254s119.667 81 219 81c111.333 0 189.666 -34 234.999 -102v92h421v-45h-366z
M520.501 105.5c38.333 45.667 57.501 116.834 57.501 213.501c0 70 -8.5 126 -25.5 168s-42.5 72.333 -76.5 91s-78 28 -132 28s-98.167 -9.33301 -132.5 -28s-60 -49 -77 -91s-25.5 -98 -25.5 -168c0 -96.667 19.167 -167.834 57.5 -213.501s97.5 -68.5 177.5 -68.5
c79.333 0 138.166 22.833 176.499 68.5z" />
    <glyph glyph-name="oe" unicode="&#x153;" horiz-adv-x="924" 
d="M109 52c-36 41.333 -54.002 103 -54.002 185c0 81.333 18.333 142.833 55 184.5s93.667 62.5 171 62.5c100 0 166.333 -36.667 199 -110c31.333 73.333 95.666 110 192.999 110c64.667 0 113.5 -17.667 146.5 -53s49.5 -81 49.5 -137v-86h-361
c2 -42 9.66699 -75.5 23 -100.5s34.333 -43.333 63 -55s67 -17.5 115 -17.5c43.333 0 86.333 8.33301 129 25v-45c-41.333 -16.667 -87.666 -25 -138.999 -25c-57.333 0 -103.666 9 -138.999 27s-61.666 45.667 -78.999 83c-32 -73.333 -98.667 -110 -200 -110
c-78.667 0 -136 20.667 -172 62zM817.998 251v45c0 94.667 -48 142 -144 142c-60 0 -102.667 -15.5 -128 -46.5s-38 -77.833 -38 -140.5h310zM413.498 85.5c26.333 32.333 39.5 83.5 39.5 153.5c0 68 -13.5 117.833 -40.5 149.5s-70.833 47.5 -131.5 47.5
c-61.333 0 -105.333 -16 -132 -48s-40 -82.333 -40 -151c0 -69.333 13.167 -120 39.5 -152s70.5 -48 132.5 -48s106.167 16.167 132.5 48.5z" />
    <glyph glyph-name="Racute" unicode="&#x154;" horiz-adv-x="592" 
d="M328 846h52l-74 -158h-45zM75 644l269.001 0.000976562c65.333 0 113.666 -16.833 144.999 -50.5s47 -80.834 47 -141.501c0 -50 -12 -90.667 -36 -122s-59.333 -51.333 -106 -60c14 -6.66699 24.5 -14.834 31.5 -24.501s15.167 -24.5 24.5 -44.5l86 -201h-56l-85 194
c-7.33301 16.667 -15 29.334 -23 38.001s-19 15.167 -33 19.5s-33.333 6.5 -58 6.5h-151v-258h-55v644zM328.001 302.001c102 0 153 50 153 150c0 98 -47 147 -141 147h-210v-297h198z" />
    <glyph glyph-name="racute" unicode="&#x155;" horiz-adv-x="342" 
d="M186 680h52l-74 -158h-45zM75 474h47.999l6 -66c24 16.667 51.833 31.667 83.5 45s63.167 23.666 94.5 30.999v-45c-30 -7.33301 -62.167 -18.166 -96.5 -32.499s-61.166 -28.5 -80.499 -42.5v-364h-55v474z" />
    <glyph glyph-name="Rcommaaccent" unicode="&#x156;" horiz-adv-x="592" 
d="M75 644l269.001 0.000976562c65.333 0 113.666 -16.833 144.999 -50.5s47 -80.834 47 -141.501c0 -50 -12 -90.667 -36 -122s-59.333 -51.333 -106 -60c14 -6.66699 24.5 -14.834 31.5 -24.501s15.167 -24.5 24.5 -44.5l86 -201h-56l-85 194
c-7.33301 16.667 -15 29.334 -23 38.001s-19 15.167 -33 19.5s-33.333 6.5 -58 6.5h-151v-258h-55v644zM328.001 302.001c102 0 153 50 153 150c0 98 -47 147 -141 147h-210v-297h198zM251.001 -36.999h53l-38 -165h-41z" />
    <glyph glyph-name="rcommaaccent" unicode="&#x157;" horiz-adv-x="342" 
d="M75 474h47.999l6 -66c24 16.667 51.833 31.667 83.5 45s63.167 23.666 94.5 30.999v-45c-30 -7.33301 -62.167 -18.166 -96.5 -32.499s-61.166 -28.5 -80.499 -42.5v-364h-55v474zM73.999 -37h53l-38 -165h-41z" />
    <glyph glyph-name="Rcaron" unicode="&#x158;" horiz-adv-x="592" 
d="M164 822h50l79 -103l79 103h50l-105 -135h-48zM75 644l269.001 0.000976562c65.333 0 113.666 -16.833 144.999 -50.5s47 -80.834 47 -141.501c0 -50 -12 -90.667 -36 -122s-59.333 -51.333 -106 -60c14 -6.66699 24.5 -14.834 31.5 -24.501s15.167 -24.5 24.5 -44.5
l86 -201h-56l-85 194c-7.33301 16.667 -15 29.334 -23 38.001s-19 15.167 -33 19.5s-33.333 6.5 -58 6.5h-151v-258h-55v644zM328.001 302.001c102 0 153 50 153 150c0 98 -47 147 -141 147h-210v-297h198z" />
    <glyph glyph-name="rcaron" unicode="&#x159;" horiz-adv-x="342" 
d="M0 656h50l79 -103l79 103h50l-105 -135h-48zM75 474h47.999l6 -66c24 16.667 51.833 31.667 83.5 45s63.167 23.666 94.5 30.999v-45c-30 -7.33301 -62.167 -18.166 -96.5 -32.499s-61.166 -28.5 -80.499 -42.5v-364h-55v474z" />
    <glyph glyph-name="Sacute" unicode="&#x15a;" horiz-adv-x="553" 
d="M306 852h52l-74 -158h-45zM71 18v48.999c54.667 -20 115.667 -30 183 -30c64 0 111.667 10 143 30s47 52.333 47 97c0 27.333 -6.16699 49.666 -18.5 66.999s-32 31.833 -59 43.5s-64.833 22.834 -113.5 33.501c-72.667 16 -123.834 37.333 -153.501 64
s-44.5 63 -44.5 109c0 54 19.333 96.333 58 127s96.334 46 173.001 46c33.333 0 65.833 -2.5 97.5 -7.5s56.834 -10.5 75.501 -16.5v-49c-48 16.667 -102 25 -162 25c-62 0 -108.833 -10 -140.5 -30s-47.5 -51.667 -47.5 -95c0 -24.667 5.5 -44.667 16.5 -60
s29.167 -28.5 54.5 -39.5s62.666 -22.167 111.999 -33.5c76.667 -18 130.167 -41.333 160.5 -70s45.5 -66.667 45.5 -114c0 -57.333 -20.333 -100.666 -61 -129.999s-100.334 -44 -179.001 -44c-77.333 0 -139.666 9.33301 -186.999 28z" />
    <glyph glyph-name="sacute" unicode="&#x15b;" horiz-adv-x="447" 
d="M264 680h52l-74 -158h-45zM68 10l0.000976562 48.998c43.333 -14.667 89.666 -22 138.999 -22c46.667 0 80 6.33301 100 19s30 34 30 64c0 18.667 -3.83301 33.334 -11.5 44.001s-18.834 19.334 -33.501 26.001s-37.667 15.334 -69 26.001l-25 9
c-36 12 -62.833 22.167 -80.5 30.5s-32.5 20.666 -44.5 36.999s-18 38.5 -18 66.5c0 42 13.833 73.333 41.5 94s71.834 31 132.501 31c45.333 0 87.333 -5.66699 126 -17v-49c-38.667 12 -78 18 -118 18c-46.667 0 -79.667 -5.83301 -99 -17.5s-29 -31.167 -29 -58.5
c0 -18 4 -32.167 12 -42.5s19.833 -18.833 35.5 -25.5s41.167 -15.667 76.5 -27c40 -12.667 70.833 -24.5 92.5 -35.5s38.167 -25 49.5 -42s17 -39.5 17 -67.5c0 -86.667 -59.333 -130 -178 -130c-57.333 0 -106 6.66699 -146 20z" />
    <glyph glyph-name="Scircumflex" unicode="&#x15c;" horiz-adv-x="553" 
d="M252 838h48l105 -135h-50l-79 103l-79 -103h-50zM71 18v48.999c54.667 -20 115.667 -30 183 -30c64 0 111.667 10 143 30s47 52.333 47 97c0 27.333 -6.16699 49.666 -18.5 66.999s-32 31.833 -59 43.5s-64.833 22.834 -113.5 33.501
c-72.667 16 -123.834 37.333 -153.501 64s-44.5 63 -44.5 109c0 54 19.333 96.333 58 127s96.334 46 173.001 46c33.333 0 65.833 -2.5 97.5 -7.5s56.834 -10.5 75.501 -16.5v-49c-48 16.667 -102 25 -162 25c-62 0 -108.833 -10 -140.5 -30s-47.5 -51.667 -47.5 -95
c0 -24.667 5.5 -44.667 16.5 -60s29.167 -28.5 54.5 -39.5s62.666 -22.167 111.999 -33.5c76.667 -18 130.167 -41.333 160.5 -70s45.5 -66.667 45.5 -114c0 -57.333 -20.333 -100.666 -61 -129.999s-100.334 -44 -179.001 -44c-77.333 0 -139.666 9.33301 -186.999 28z" />
    <glyph glyph-name="scircumflex" unicode="&#x15d;" horiz-adv-x="447" 
d="M208 666h48l105 -135h-50l-79 103l-79 -103h-50zM68 10l0.000976562 48.998c43.333 -14.667 89.666 -22 138.999 -22c46.667 0 80 6.33301 100 19s30 34 30 64c0 18.667 -3.83301 33.334 -11.5 44.001s-18.834 19.334 -33.501 26.001s-37.667 15.334 -69 26.001l-25 9
c-36 12 -62.833 22.167 -80.5 30.5s-32.5 20.666 -44.5 36.999s-18 38.5 -18 66.5c0 42 13.833 73.333 41.5 94s71.834 31 132.501 31c45.333 0 87.333 -5.66699 126 -17v-49c-38.667 12 -78 18 -118 18c-46.667 0 -79.667 -5.83301 -99 -17.5s-29 -31.167 -29 -58.5
c0 -18 4 -32.167 12 -42.5s19.833 -18.833 35.5 -25.5s41.167 -15.667 76.5 -27c40 -12.667 70.833 -24.5 92.5 -35.5s38.167 -25 49.5 -42s17 -39.5 17 -67.5c0 -86.667 -59.333 -130 -178 -130c-57.333 0 -106 6.66699 -146 20z" />
    <glyph glyph-name="Scedilla" unicode="&#x15e;" horiz-adv-x="553" 
d="M444.5 39.5c-35.667 -29 -88.167 -45.167 -157.5 -48.5l-14 -42c37.333 0 65.666 -7.5 84.999 -22.5s29 -36.833 29 -65.5c0 -33.333 -11.167 -58.5 -33.5 -75.5s-57.5 -25.5 -105.5 -25.5c-10 0 -21.5 0.833008 -34.5 2.5s-23.5 3.5 -31.5 5.5v37
c19.333 -5.33301 40.333 -8 63 -8c34.667 0 59.834 4.83301 75.501 14.5s23.5 26.167 23.5 49.5c0 20.667 -7.16699 35 -21.5 43s-37.833 12 -70.5 12h-33l25 74c-71.333 0.666992 -129 10 -173 28v49c54.667 -20 115.667 -30 183 -30c64 0 111.667 10 143 30
s47 52.333 47 97c0 27.333 -6.16699 49.666 -18.5 66.999s-32 31.833 -59 43.5s-64.833 22.834 -113.5 33.501c-72.667 16 -123.834 37.333 -153.501 64s-44.5 63 -44.5 109c0 54 19.333 96.333 58 127s96.334 46 173.001 46c33.333 0 65.833 -2.5 97.5 -7.5
s56.834 -10.5 75.501 -16.5v-49c-48 16.667 -102 25 -162 25c-62 0 -108.833 -10 -140.5 -30s-47.5 -51.667 -47.5 -95c0 -24.667 5.5 -44.667 16.5 -60s29.167 -28.5 54.5 -39.5s62.666 -22.167 111.999 -33.5c76.667 -18 130.167 -41.333 160.5 -70
s45.5 -66.667 45.5 -114c0 -54 -17.833 -95.5 -53.5 -124.5z" />
    <glyph glyph-name="scedilla" unicode="&#x15f;" horiz-adv-x="447" 
d="M247 -9l-13.999 -42.0029c37.333 0 65.666 -7.5 84.999 -22.5s29 -36.833 29 -65.5c0 -33.333 -11.167 -58.5 -33.5 -75.5s-57.5 -25.5 -105.5 -25.5c-10 0 -21.5 0.833008 -34.5 2.5s-23.5 3.5 -31.5 5.5v37c19.333 -5.33301 40.333 -8 63 -8
c34.667 0 59.834 4.83301 75.501 14.5s23.5 26.167 23.5 49.5c0 20.667 -7.16699 35 -21.5 43s-37.833 12 -70.5 12h-33l25 74c-52.667 0.666992 -98 7.33398 -136 20.001v49c43.333 -14.667 89.666 -22 138.999 -22c46.667 0 80 6.33301 100 19s30 34 30 64
c0 18.667 -3.83301 33.334 -11.5 44.001s-18.834 19.334 -33.501 26.001s-37.667 15.334 -69 26.001l-25 9c-36 12 -62.833 22.167 -80.5 30.5s-32.5 20.666 -44.5 36.999s-18 38.5 -18 66.5c0 42 13.833 73.333 41.5 94s71.834 31 132.501 31
c45.333 0 87.333 -5.66699 126 -17v-49c-38.667 12 -78 18 -118 18c-46.667 0 -79.667 -5.83301 -99 -17.5s-29 -31.167 -29 -58.5c0 -18 4 -32.167 12 -42.5s19.833 -18.833 35.5 -25.5s41.167 -15.667 76.5 -27c40 -12.667 70.833 -24.5 92.5 -35.5s38.167 -25 49.5 -42
s17 -39.5 17 -67.5c0 -78.667 -48.333 -121.667 -145 -129z" />
    <glyph glyph-name="Scaron" unicode="&#x160;" horiz-adv-x="553" 
d="M162 822h50l79 -103l79 103h50l-105 -135h-48zM71 18v48.999c54.667 -20 115.667 -30 183 -30c64 0 111.667 10 143 30s47 52.333 47 97c0 27.333 -6.16699 49.666 -18.5 66.999s-32 31.833 -59 43.5s-64.833 22.834 -113.5 33.501
c-72.667 16 -123.834 37.333 -153.501 64s-44.5 63 -44.5 109c0 54 19.333 96.333 58 127s96.334 46 173.001 46c33.333 0 65.833 -2.5 97.5 -7.5s56.834 -10.5 75.501 -16.5v-49c-48 16.667 -102 25 -162 25c-62 0 -108.833 -10 -140.5 -30s-47.5 -51.667 -47.5 -95
c0 -24.667 5.5 -44.667 16.5 -60s29.167 -28.5 54.5 -39.5s62.666 -22.167 111.999 -33.5c76.667 -18 130.167 -41.333 160.5 -70s45.5 -66.667 45.5 -114c0 -57.333 -20.333 -100.666 -61 -129.999s-100.334 -44 -179.001 -44c-77.333 0 -139.666 9.33301 -186.999 28z" />
    <glyph glyph-name="scaron" unicode="&#x161;" horiz-adv-x="447" 
d="M100 656h50l79 -103l79 103h50l-105 -135h-48zM68 10l0.000976562 48.998c43.333 -14.667 89.666 -22 138.999 -22c46.667 0 80 6.33301 100 19s30 34 30 64c0 18.667 -3.83301 33.334 -11.5 44.001s-18.834 19.334 -33.501 26.001s-37.667 15.334 -69 26.001l-25 9
c-36 12 -62.833 22.167 -80.5 30.5s-32.5 20.666 -44.5 36.999s-18 38.5 -18 66.5c0 42 13.833 73.333 41.5 94s71.834 31 132.501 31c45.333 0 87.333 -5.66699 126 -17v-49c-38.667 12 -78 18 -118 18c-46.667 0 -79.667 -5.83301 -99 -17.5s-29 -31.167 -29 -58.5
c0 -18 4 -32.167 12 -42.5s19.833 -18.833 35.5 -25.5s41.167 -15.667 76.5 -27c40 -12.667 70.833 -24.5 92.5 -35.5s38.167 -25 49.5 -42s17 -39.5 17 -67.5c0 -86.667 -59.333 -130 -178 -130c-57.333 0 -106 6.66699 -146 20z" />
    <glyph glyph-name="uni0162" unicode="&#x162;" horiz-adv-x="569" 
d="M305 0l-17 -51c37.333 0 65.666 -7.5 84.999 -22.5s29 -36.833 29 -65.5c0 -33.333 -11.167 -58.5 -33.5 -75.5s-57.5 -25.5 -105.5 -25.5c-10 0 -21.5 0.833008 -34.5 2.5s-23.5 3.5 -31.5 5.5v37c19.333 -5.33301 40.333 -8 63 -8c34.667 0 59.834 4.83301 75.501 14.5
s23.5 26.167 23.5 49.5c0 20.667 -7.16699 35 -21.5 43s-37.833 12 -70.5 12h-33l28 84h-5v599h-222v45h499v-45h-222v-599h-7z" />
    <glyph glyph-name="uni0163" unicode="&#x163;" horiz-adv-x="350" 
d="M313 -73.5c19.333 -15 29 -36.832 29 -65.499c0 -33.333 -11.167 -58.5 -33.5 -75.5s-57.5 -25.5 -105.5 -25.5c-10 0 -21.5 0.833008 -34.5 2.5s-23.5 3.5 -31.5 5.5v37c19.333 -5.33301 40.333 -8 63 -8c34.667 0 59.834 4.83301 75.501 14.5s23.5 26.167 23.5 49.5
c0 20.667 -7.16699 35 -21.5 43s-37.833 12 -70.5 12h-33l26 78c-29.333 7.33301 -51.833 22 -67.5 44s-23.5 50.333 -23.5 85v305h-74v46h74v124l55 18v-142h137l-3 -46h-134v-303c0 -30.667 7.33301 -53.334 22 -68.001s38 -22 70 -22c18 0 37.667 3.66699 59 11v-44
c-22 -8 -46.333 -12 -73 -12l-14 -41c37.333 0 65.666 -7.5 84.999 -22.5z" />
    <glyph glyph-name="Tcaron" unicode="&#x164;" horiz-adv-x="569" 
d="M155 838h50l79 -103l79 103h50l-105 -135h-48zM257 599h-222v45h499v-45h-222v-599h-55v599z" />
    <glyph glyph-name="tcaron" unicode="&#x165;" horiz-adv-x="386" 
d="M318 725h53l-38 -165h-41zM143 25c-22.667 23.333 -34 56.001 -34 98.001v305h-74v46h74v124l55 18v-142h137l-3 -46h-134v-303c0 -30.667 7.33301 -53.334 22 -68.001s38 -22 70 -22c18 0 37.667 3.66699 59 11v-44c-22 -8 -47 -12 -75 -12c-42 0 -74.333 11.667 -97 35
z" />
    <glyph glyph-name="Tbar" unicode="&#x166;" horiz-adv-x="569" 
d="M257 333h-160v44h160v222h-222v45h499v-45h-222v-222h143v-44h-143v-333h-55v333z" />
    <glyph glyph-name="tbar" unicode="&#x167;" horiz-adv-x="350" 
d="M143 25c-22.667 23.333 -34 56.001 -34 98.001v109h-69v42h69v154h-74v46h74v124l55 18v-142h137l-3 -46h-134v-154h142v-42h-142v-107c0 -30.667 7.33301 -53.334 22 -68.001s38.667 -22 72 -22c16.667 0 35.667 3.66699 57 11v-44c-22 -8 -47 -12 -75 -12
c-42 0 -74.333 11.667 -97 35z" />
    <glyph glyph-name="Utilde" unicode="&#x168;" horiz-adv-x="663" 
d="M368 718c-11.333 3.33301 -24.334 8.33301 -39.001 15c-26.667 11.333 -46.667 17 -60 17c-33.333 0 -59.666 -11.667 -78.999 -35v47c8 8.66699 19.167 15.667 33.5 21s29.166 8 44.499 8c12 0 22.833 -1.5 32.5 -4.5s22.167 -7.83301 37.5 -14.5
c13.333 -6 24.5 -10.5 33.5 -13.5s18.5 -4.5 28.5 -4.5c16 0 30 2.83301 42 8.5s22.333 14.5 31 26.5v-47c-6.66699 -9.33301 -16.167 -16.5 -28.5 -21.5s-26.5 -7.5 -42.5 -7.5c-11.333 0 -22.666 1.66699 -33.999 5zM135.999 52c-44 41.333 -66 101.666 -66 180.999v411
h55v-417c0 -62.667 17.833 -109.834 53.5 -141.501s86.834 -47.5 153.501 -47.5c66 0 116.833 15.833 152.5 47.5s53.5 78.834 53.5 141.501v417h55v-411c0 -79.333 -21.833 -139.666 -65.5 -180.999s-108.834 -62 -195.501 -62s-152 20.667 -196 62z" />
    <glyph glyph-name="utilde" unicode="&#x169;" horiz-adv-x="559" 
d="M317 552c-11.333 3.33301 -24.334 8.33301 -39.001 15c-26.667 11.333 -46.667 17 -60 17c-33.333 0 -59.666 -11.667 -78.999 -35v47c8 8.66699 19.167 15.667 33.5 21s29.166 8 44.499 8c12 0 22.833 -1.5 32.5 -4.5s22.167 -7.83301 37.5 -14.5
c13.333 -6 24.5 -10.5 33.5 -13.5s18.5 -4.5 28.5 -4.5c16 0 30 2.83301 42 8.5s22.333 14.5 31 26.5v-47c-6.66699 -9.33301 -16.167 -16.5 -28.5 -21.5s-26.5 -7.5 -42.5 -7.5c-11.333 0 -22.666 1.66699 -33.999 5zM113.999 37.5
c-29.333 31.667 -44.001 77.168 -44.001 136.501v300h55v-302c0 -46 11.333 -80.333 34 -103s58.334 -34 107.001 -34c32 0 61.833 6.16699 89.5 18.5s52.167 29.166 73.5 50.499v370h55v-474h-49l-5 58c-25.333 -22 -53 -38.833 -83 -50.5s-64.667 -17.5 -104 -17.5
c-56.667 0 -99.667 15.833 -129 47.5z" />
    <glyph glyph-name="Umacron" unicode="&#x16a;" horiz-adv-x="663" 
d="M193 761h277v-42h-277v42zM136 52c-44 41.333 -66 101.666 -66 180.999v411h55v-417c0 -62.667 17.833 -109.834 53.5 -141.501s86.834 -47.5 153.501 -47.5c66 0 116.833 15.833 152.5 47.5s53.5 78.834 53.5 141.501v417h55v-411
c0 -79.333 -21.833 -139.666 -65.5 -180.999s-108.834 -62 -195.501 -62s-152 20.667 -196 62z" />
    <glyph glyph-name="umacron" unicode="&#x16b;" horiz-adv-x="559" 
d="M139 595h277v-42h-277v42zM114 37.5c-29.333 31.667 -44.001 77.168 -44.001 136.501v300h55v-302c0 -46 11.333 -80.333 34 -103s58.334 -34 107.001 -34c32 0 61.833 6.16699 89.5 18.5s52.167 29.166 73.5 50.499v370h55v-474h-49l-5 58
c-25.333 -22 -53 -38.833 -83 -50.5s-64.667 -17.5 -104 -17.5c-56.667 0 -99.667 15.833 -129 47.5z" />
    <glyph glyph-name="Ubreve" unicode="&#x16c;" horiz-adv-x="663" 
d="M250.5 718c-20.333 20.667 -30.502 47.334 -30.502 80.001h42c0 -22.667 6.33301 -40.334 19 -53.001s29.334 -19 50.001 -19c21.333 0 38.333 6.33301 51 19s19 30.334 19 53.001h42c0 -32.667 -10.167 -59.334 -30.5 -80.001s-47.5 -31 -81.5 -31
c-33.333 0 -60.166 10.333 -80.499 31zM135.998 52c-44 41.333 -66 101.666 -66 180.999v411h55v-417c0 -62.667 17.833 -109.834 53.5 -141.501s86.834 -47.5 153.501 -47.5c66 0 116.833 15.833 152.5 47.5s53.5 78.834 53.5 141.501v417h55v-411
c0 -79.333 -21.833 -139.666 -65.5 -180.999s-108.834 -62 -195.501 -62s-152 20.667 -196 62z" />
    <glyph glyph-name="ubreve" unicode="&#x16d;" horiz-adv-x="559" 
d="M199.5 552c-20.333 20.667 -30.502 47.334 -30.502 80.001h42c0 -22.667 6.33301 -40.334 19 -53.001s29.334 -19 50.001 -19c21.333 0 38.333 6.33301 51 19s19 30.334 19 53.001h42c0 -32.667 -10.167 -59.334 -30.5 -80.001s-47.5 -31 -81.5 -31
c-33.333 0 -60.166 10.333 -80.499 31zM113.998 37.5c-29.333 31.667 -44.001 77.168 -44.001 136.501v300h55v-302c0 -46 11.333 -80.333 34 -103s58.334 -34 107.001 -34c32 0 61.833 6.16699 89.5 18.5s52.167 29.166 73.5 50.499v370h55v-474h-49l-5 58
c-25.333 -22 -53 -38.833 -83 -50.5s-64.667 -17.5 -104 -17.5c-56.667 0 -99.667 15.833 -129 47.5z" />
    <glyph glyph-name="Uring" unicode="&#x16e;" horiz-adv-x="663" 
d="M258 716.5c-19.333 19.667 -29 43.5 -29 71.5c0 28.667 9.66699 52.834 29 72.501s43.666 29.5 72.999 29.5c30 0 54.667 -9.83301 74 -29.5s29 -43.834 29 -72.501c0 -28 -9.66699 -51.833 -29 -71.5s-44 -29.5 -74 -29.5c-29.333 0 -53.666 9.83301 -72.999 29.5z
M378.5 741.5c12.333 12.333 18.5 27.833 18.5 46.5c0 19.333 -6.16699 35.166 -18.5 47.499s-28.166 18.5 -47.499 18.5c-18.667 0 -34.334 -6.16699 -47.001 -18.5s-19 -28.166 -19 -47.499c0 -18.667 6.33301 -34.167 19 -46.5s28.334 -18.5 47.001 -18.5
c19.333 0 35.166 6.16699 47.499 18.5zM136 52c-44 41.333 -66 101.666 -66 180.999v411h55v-417c0 -62.667 17.833 -109.834 53.5 -141.501s86.834 -47.5 153.501 -47.5c66 0 116.833 15.833 152.5 47.5s53.5 78.834 53.5 141.501v417h55v-411
c0 -79.333 -21.833 -139.666 -65.5 -180.999s-108.834 -62 -195.501 -62s-152 20.667 -196 62z" />
    <glyph glyph-name="uring" unicode="&#x16f;" horiz-adv-x="559" 
d="M209 550.5c-19.333 19.667 -29 43.5 -29 71.5c0 28.667 9.66699 52.834 29 72.501s43.666 29.5 72.999 29.5c30 0 54.667 -9.83301 74 -29.5s29 -43.834 29 -72.501c0 -28 -9.66699 -51.833 -29 -71.5s-44 -29.5 -74 -29.5c-29.333 0 -53.666 9.83301 -72.999 29.5z
M329.5 575.5c12.333 12.333 18.5 27.833 18.5 46.5c0 19.333 -6.16699 35.166 -18.5 47.499s-28.166 18.5 -47.499 18.5c-18.667 0 -34.334 -6.16699 -47.001 -18.5s-19 -28.166 -19 -47.499c0 -18.667 6.33301 -34.167 19 -46.5s28.334 -18.5 47.001 -18.5
c19.333 0 35.166 6.16699 47.499 18.5zM114 37.5c-29.333 31.667 -44.001 77.168 -44.001 136.501v300h55v-302c0 -46 11.333 -80.333 34 -103s58.334 -34 107.001 -34c32 0 61.833 6.16699 89.5 18.5s52.167 29.166 73.5 50.499v370h55v-474h-49l-5 58
c-25.333 -22 -53 -38.833 -83 -50.5s-64.667 -17.5 -104 -17.5c-56.667 0 -99.667 15.833 -129 47.5z" />
    <glyph glyph-name="Uhungarumlaut" unicode="&#x170;" horiz-adv-x="663" 
d="M242 828h54l-76 -141h-45zM441 828h54l-76 -141h-45zM136 52c-44 41.333 -66 101.666 -66 180.999v411h55v-417c0 -62.667 17.833 -109.834 53.5 -141.501s86.834 -47.5 153.501 -47.5c66 0 116.833 15.833 152.5 47.5s53.5 78.834 53.5 141.501v417h55v-411
c0 -79.333 -21.833 -139.666 -65.5 -180.999s-108.834 -62 -195.501 -62s-152 20.667 -196 62z" />
    <glyph glyph-name="uhungarumlaut" unicode="&#x171;" horiz-adv-x="559" 
d="M197 662h54l-76 -141h-45zM396 662h54l-76 -141h-45zM114 37.5c-29.333 31.667 -44.001 77.168 -44.001 136.501v300h55v-302c0 -46 11.333 -80.333 34 -103s58.334 -34 107.001 -34c32 0 61.833 6.16699 89.5 18.5s52.167 29.166 73.5 50.499v370h55v-474h-49l-5 58
c-25.333 -22 -53 -38.833 -83 -50.5s-64.667 -17.5 -104 -17.5c-56.667 0 -99.667 15.833 -129 47.5z" />
    <glyph glyph-name="Uogonek" unicode="&#x172;" horiz-adv-x="663" 
d="M593 644l-0.000976562 -410.999c0 -73.333 -18.5 -130.333 -55.5 -171s-92.5 -64 -166.5 -70c-42 -36 -63 -76 -63 -120c0 -18 4.16699 -31 12.5 -39s21.833 -12 40.5 -12c8.66699 0 17.667 1 27 3s17 4.66699 23 8v-41c-14 -7.33301 -33.667 -11 -59 -11
c-27.333 0 -49.333 6.83301 -66 20.5s-25 35.5 -25 65.5c0 23.333 5.66699 46 17 68s26.333 40.667 45 56c-84 1.33301 -147.167 22.666 -189.5 63.999s-63.5 101 -63.5 179v411h55v-417c0 -62.667 17.833 -109.834 53.5 -141.501s86.834 -47.5 153.501 -47.5
c66 0 116.833 15.833 152.5 47.5s53.5 78.834 53.5 141.501v417h55z" />
    <glyph glyph-name="uogonek" unicode="&#x173;" horiz-adv-x="559" 
d="M388 -199.5c-16.667 13.667 -25.002 35.502 -25.002 65.502c0 26 6.83301 51 20.5 75s30.834 43.667 51.501 59l-5 58c-25.333 -22 -53 -38.833 -83 -50.5s-64.667 -17.5 -104 -17.5c-56.667 0 -99.667 15.833 -129 47.5s-44 77.167 -44 136.5v300h55v-302
c0 -46 11.333 -80.333 34 -103s58.334 -34 107.001 -34c32 0 61.833 6.16699 89.5 18.5s52.167 29.166 73.5 50.499v370h55v-474c-49.333 -36.667 -74 -79.334 -74 -128.001c0 -18 4.16699 -31 12.5 -39s21.833 -12 40.5 -12c8.66699 0 17.667 1 27 3s17 4.66699 23 8v-41
c-14 -7.33301 -33.667 -11 -59 -11c-27.333 0 -49.333 6.83301 -66 20.5z" />
    <glyph glyph-name="Wcircumflex" unicode="&#x174;" horiz-adv-x="850" 
d="M406 822h48l105 -135h-50l-79 103l-79 -103h-50zM55 644h55l133 -577l156 512v65h45l163 -577l134 577h54l-149 -644h-66l-149 530l-159 -530h-67z" />
    <glyph glyph-name="wcircumflex" unicode="&#x175;" horiz-adv-x="719" 
d="M337 656h48l105 -135h-50l-79 103l-79 -103h-50zM55 474h55l104 -418l119 366v52h43l130 -418l103 418h55l-123 -474h-59l-121 377l-123 -377h-60z" />
    <glyph glyph-name="Ycircumflex" unicode="&#x176;" horiz-adv-x="624" 
d="M287 822h48l105 -135h-50l-79 103l-79 -103h-50zM284 241l-229 403h57l200 -355l200 355h57l-230 -403v-241h-55v241z" />
    <glyph glyph-name="ycircumflex" unicode="&#x177;" horiz-adv-x="566" 
d="M269 656h48l105 -135h-50l-79 103l-79 -103h-50zM74 -165v45.999c18 -6.66699 38.333 -10 61 -10c22 0 40 4.83301 54 14.5s25.833 23 35.5 40s22.167 42.833 37.5 77.5l-207 471h57l178 -412l185 412h56l-205 -459c-20 -45.333 -37.167 -80.666 -51.5 -105.999
s-32 -45.833 -53 -61.5s-46.167 -23.5 -75.5 -23.5c-28.667 0 -52.667 3.66699 -72 11z" />
    <glyph glyph-name="Ydieresis" unicode="&#x178;" horiz-adv-x="624" 
d="M201 769h57v-55h-57v55zM368 769h56v-55h-56v55zM284 241l-229 403h57l200 -355l200 355h57l-230 -403v-241h-55v241z" />
    <glyph glyph-name="Zacute" unicode="&#x179;" horiz-adv-x="568" 
d="M346 846h52l-74 -158h-45zM55 34l390 565h-373v45h441v-39l-387 -561h392v-44h-463v34z" />
    <glyph glyph-name="zacute" unicode="&#x17a;" horiz-adv-x="479" 
d="M290 680h52l-74 -158h-45zM55 34l298 394h-284v46h349v-38l-296 -391h302v-45h-369v34z" />
    <glyph glyph-name="Zdotaccent" unicode="&#x17b;" horiz-adv-x="568" 
d="M271 770h57v-56h-57v56zM55 34l390 565h-373v45h441v-39l-387 -561h392v-44h-463v34z" />
    <glyph glyph-name="zdotaccent" unicode="&#x17c;" horiz-adv-x="479" 
d="M219 604h57v-56h-57v56zM55 34l298 394h-284v46h349v-38l-296 -391h302v-45h-369v34z" />
    <glyph glyph-name="Zcaron" unicode="&#x17d;" horiz-adv-x="568" 
d="M178 822h50l79 -103l79 103h50l-105 -135h-48zM55 34l390 565h-373v45h441v-39l-387 -561h392v-44h-463v34z" />
    <glyph glyph-name="zcaron" unicode="&#x17e;" horiz-adv-x="479" 
d="M106 656h50l79 -103l79 103h50l-105 -135h-48zM55 34l298 394h-284v46h349v-38l-296 -391h302v-45h-369v34z" />
    <glyph glyph-name="uni018F" unicode="&#x18f;" horiz-adv-x="662" 
d="M119.5 60.5c-43 47 -64.5 109.168 -64.5 186.501v104h501c-2 59.333 -12.333 107.666 -31 144.999s-48.5 65.333 -89.5 84s-96.167 28 -165.5 28c-59.333 0 -117.333 -11.667 -174 -35v46c27.333 10.667 57.333 19.167 90 25.5s64.667 9.5 96 9.5
c114 0 196.667 -27.333 248 -82s77 -140 77 -256c0 -105.333 -23.333 -186 -70 -242s-120.667 -84 -222 -84c-87.333 0 -152.5 23.5 -195.5 70.5zM498 103.501c38.667 45.667 58 113.833 58 204.5h-451v-67c0 -66.667 18 -117.667 54 -153s88 -53 156 -53
c83.333 0 144.333 22.833 183 68.5z" />
    <glyph glyph-name="florin" unicode="&#x192;" horiz-adv-x="518" 
d="M-80 -111l6.00195 44c17.333 -7.33301 38.333 -11 63 -11c36 0 62.667 6.83301 80 20.5s29.666 37.167 36.999 70.5l88 415h-73l9 46h73l18 80c10 46 28.667 80.167 56 102.5s64.333 33.5 111 33.5c28.667 0 53.667 -4.33301 75 -13l-6 -43
c-20 7.33301 -41.333 11 -64 11c-36 0 -63 -7.5 -81 -22.5s-30.333 -38.167 -37 -69.5l-17 -79h133l-13 -46h-129l-88 -415c-10 -45.333 -28.333 -79.333 -55 -102s-64.334 -34 -113.001 -34c-26 0 -50.333 4 -73 12z" />
    <glyph glyph-name="Ohorn" unicode="&#x1a0;" horiz-adv-x="749" 
d="M126 73c-47.333 55.333 -71.002 137.336 -71.002 246.003c0 115.333 23.333 200 70 254s119.667 81 219 81c101.333 0 176 -29.333 224 -88c27.333 0.666992 48.833 4.66699 64.5 12s26.834 19.666 33.501 36.999s10 41.666 10 72.999h48c0 -56 -10.667 -96.667 -32 -122
s-53.666 -40 -96.999 -44c25.333 -52.667 38 -120.334 38 -203.001c0 -108.667 -23.667 -190.667 -71 -246s-120 -83 -218 -83s-170.667 27.667 -218 83zM520.498 105.503c38.333 45.667 57.501 116.834 57.501 213.501c0 70 -8.5 126 -25.5 168s-42.5 72.333 -76.5 91
s-78 28 -132 28s-98.167 -9.33301 -132.5 -28s-60 -49 -77 -91s-25.5 -98 -25.5 -168c0 -96.667 19.167 -167.834 57.5 -213.501s97.5 -68.5 177.5 -68.5c79.333 0 138.166 22.833 176.499 68.5z" />
    <glyph glyph-name="ohorn" unicode="&#x1a1;" horiz-adv-x="639" 
d="M109 52c-36 41.333 -54 103 -54 185c0 81.333 18.333 142.833 55 184.5s93.667 62.5 171 62.5c83.333 0 143.333 -24.333 180 -73c39.333 0.666992 66.666 10 81.999 28s23 50.333 23 97h48c0 -56.667 -10.667 -97.667 -32 -123s-53.666 -40 -96.999 -44
c15.333 -36.667 23 -80.667 23 -132c0 -82 -18.167 -143.667 -54.5 -185s-93.833 -62 -172.5 -62s-136 20.667 -172 62zM413.5 85c26.333 32 39.5 82.667 39.5 152c0 68.667 -13.333 119 -40 151s-70.667 48 -132 48s-105.333 -16 -132 -48s-40 -82.333 -40 -151
c0 -69.333 13.167 -120 39.5 -152s70.5 -48 132.5 -48s106.167 16 132.5 48z" />
    <glyph glyph-name="Uhorn" unicode="&#x1af;" horiz-adv-x="785" 
d="M136 52c-44 41.333 -66.001 101.665 -66.001 180.998v411h55v-417c0 -62.667 17.833 -109.834 53.5 -141.501s86.834 -47.5 153.501 -47.5c66 0 116.833 15.833 152.5 47.5s53.5 78.834 53.5 141.501v417h55v-80c28 0 49.833 3.83301 65.5 11.5
s26.834 20.334 33.501 38.001s10 42.5 10 74.5h48c0 -62 -12.833 -105.5 -38.5 -130.5s-65.167 -37.833 -118.5 -38.5v-286c0 -79.333 -21.833 -139.666 -65.5 -180.999s-108.834 -62 -195.501 -62s-152 20.667 -196 62z" />
    <glyph glyph-name="uhorn" unicode="&#x1b0;" horiz-adv-x="659" 
d="M114 37.5c-29.333 31.667 -44.001 77.167 -44.001 136.5v300h55v-302c0 -46 11.333 -80.333 34 -103s58.334 -34 107.001 -34c32 0 61.833 6.16699 89.5 18.5s52.167 29.166 73.5 50.499v370h55v-63c34 2.66699 57.833 13.167 71.5 31.5s20.5 49.5 20.5 93.5h48
c0 -57.333 -11.833 -99.166 -35.5 -125.499s-58.5 -40.5 -104.5 -42.5v-368h-49l-5 58c-25.333 -22 -53 -38.833 -83 -50.5s-64.667 -17.5 -104 -17.5c-56.667 0 -99.667 15.833 -129 47.5z" />
    <glyph glyph-name="uni01CD" unicode="&#x1cd;" horiz-adv-x="667" 
d="M204 823h50l79 -103l79 103h50l-105 -135h-48zM299 644h70l243 -644h-56l-71 188h-302l-71 -188h-57zM472 233l-139 367l-138 -367h277z" />
    <glyph glyph-name="uni01CE" unicode="&#x1ce;" horiz-adv-x="531" 
d="M147 656h50l79 -103l79 103h50l-105 -135h-48zM101.5 24c-31 22.667 -46.501 56.667 -46.501 102c0 44.667 14 79.5 42 104.5s72.667 37.5 134 37.5h177v45c0 31.333 -4 55.833 -12 73.5s-22.667 30.5 -44 38.5s-52 12 -92 12c-52 0 -102.333 -8.66699 -151 -26v47
c44.667 17.333 98.334 26 161.001 26c66 0 114.333 -13.333 145 -40s46 -70 46 -130v-314h-45l-5 59c-22 -24 -48.167 -41.5 -78.5 -52.5s-67.833 -16.5 -112.5 -16.5c-48 0 -87.5 11.333 -118.5 34zM407.999 110v114h-175c-45.333 0 -77.333 -8 -96 -24
s-28 -40.667 -28 -74c0 -32 10.667 -55 32 -69s52.333 -21 93 -21c74 0 132 24.667 174 74z" />
    <glyph glyph-name="uni01CF" unicode="&#x1cf;" horiz-adv-x="205" 
d="M-27 822h50l79 -103l79 103h50l-105 -135h-48zM75 644h55v-644h-55v644z" />
    <glyph glyph-name="uni01D0" unicode="&#x1d0;" horiz-adv-x="270" 
d="M29 656h50l79 -103l79 103h50l-105 -135h-48zM140 428h-75l4 46h126v-474h-55v428z" />
    <glyph glyph-name="uni01D1" unicode="&#x1d1;" horiz-adv-x="688" 
d="M215 822h50l79 -103l79 103h50l-105 -135h-48zM126 73c-47.333 55.333 -71 137.333 -71 246c0 115.333 23.333 200 70 254s119.667 81 219 81s172.333 -27 219 -81s70 -138.667 70 -254c0 -108.667 -23.667 -190.667 -71 -246s-120 -83 -218 -83s-170.667 27.667 -218 83
zM520.5 105.5c38.333 45.667 57.501 116.834 57.501 213.501c0 70 -8.5 126 -25.5 168s-42.5 72.333 -76.5 91s-78 28 -132 28s-98.167 -9.33301 -132.5 -28s-60 -49 -77 -91s-25.5 -98 -25.5 -168c0 -96.667 19.167 -167.834 57.5 -213.501s97.5 -68.5 177.5 -68.5
c79.333 0 138.166 22.833 176.499 68.5z" />
    <glyph glyph-name="uni01D2" unicode="&#x1d2;" horiz-adv-x="563" 
d="M152 656h50l79 -103l79 103h50l-105 -135h-48zM109 52c-36 41.333 -54 103 -54 185c0 81.333 18.333 142.833 55 184.5s93.667 62.5 171 62.5s134.5 -20.833 171.5 -62.5s55.5 -103.167 55.5 -184.5c0 -82 -18.167 -143.667 -54.5 -185s-93.833 -62 -172.5 -62
s-136 20.667 -172 62zM413.5 85c26.333 32 39.5 82.667 39.5 152c0 68.667 -13.333 119 -40 151s-70.667 48 -132 48s-105.333 -16 -132 -48s-40 -82.333 -40 -151c0 -69.333 13.167 -120 39.5 -152s70.5 -48 132.5 -48s106.167 16 132.5 48z" />
    <glyph glyph-name="uni01D3" unicode="&#x1d3;" horiz-adv-x="663" 
d="M202 822h50l79 -103l79 103h50l-105 -135h-48zM136 52c-44 41.333 -66 101.666 -66 180.999v411h55v-417c0 -62.667 17.833 -109.834 53.5 -141.501s86.834 -47.5 153.501 -47.5c66 0 116.833 15.833 152.5 47.5s53.5 78.834 53.5 141.501v417h55v-411
c0 -79.333 -21.833 -139.666 -65.5 -180.999s-108.834 -62 -195.501 -62s-152 20.667 -196 62z" />
    <glyph glyph-name="uni01D4" unicode="&#x1d4;" horiz-adv-x="559" 
d="M149 656h50l79 -103l79 103h50l-105 -135h-48zM114 37.5c-29.333 31.667 -44.001 77.168 -44.001 136.501v300h55v-302c0 -46 11.333 -80.333 34 -103s58.334 -34 107.001 -34c32 0 61.833 6.16699 89.5 18.5s52.167 29.166 73.5 50.499v370h55v-474h-49l-5 58
c-25.333 -22 -53 -38.833 -83 -50.5s-64.667 -17.5 -104 -17.5c-56.667 0 -99.667 15.833 -129 47.5z" />
    <glyph glyph-name="uni01D5" unicode="&#x1d5;" horiz-adv-x="663" 
d="M193 861h277v-42h-277v42zM220 766h57v-55h-57v55zM387 766h56v-55h-56v55zM136 52c-44 41.333 -66 101.666 -66 180.999v411h55v-417c0 -62.667 17.833 -109.834 53.5 -141.501s86.834 -47.5 153.501 -47.5c66 0 116.833 15.833 152.5 47.5s53.5 78.834 53.5 141.501
v417h55v-411c0 -79.333 -21.833 -139.666 -65.5 -180.999s-108.834 -62 -195.501 -62s-152 20.667 -196 62z" />
    <glyph glyph-name="uni01D6" unicode="&#x1d6;" horiz-adv-x="559" 
d="M144 708h277v-42h-277v42zM170 600h57v-55h-57v55zM337 600h56v-55h-56v55zM114 37.5c-29.333 31.667 -44.001 77.168 -44.001 136.501v300h55v-302c0 -46 11.333 -80.333 34 -103s58.334 -34 107.001 -34c32 0 61.833 6.16699 89.5 18.5s52.167 29.166 73.5 50.499v370
h55v-474h-49l-5 58c-25.333 -22 -53 -38.833 -83 -50.5s-64.667 -17.5 -104 -17.5c-56.667 0 -99.667 15.833 -129 47.5z" />
    <glyph glyph-name="uni01D7" unicode="&#x1d7;" horiz-adv-x="663" 
d="M365 881h51l-66 -117h-45zM212 742h57v-55h-57v55zM389 742h56v-55h-56v55zM136 52c-44 41.333 -66 101.666 -66 180.999v411h55v-417c0 -62.667 17.833 -109.834 53.5 -141.501s86.834 -47.5 153.501 -47.5c66 0 116.833 15.833 152.5 47.5s53.5 78.834 53.5 141.501
v417h55v-411c0 -79.333 -21.833 -139.666 -65.5 -180.999s-108.834 -62 -195.501 -62s-152 20.667 -196 62z" />
    <glyph glyph-name="uni01D8" unicode="&#x1d8;" horiz-adv-x="559" 
d="M312 715h51l-66 -117h-45zM159 576h57v-55h-57v55zM336 576h56v-55h-56v55zM114 37.5c-29.333 31.667 -44.001 77.168 -44.001 136.501v300h55v-302c0 -46 11.333 -80.333 34 -103s58.334 -34 107.001 -34c32 0 61.833 6.16699 89.5 18.5s52.167 29.166 73.5 50.499v370
h55v-474h-49l-5 58c-25.333 -22 -53 -38.833 -83 -50.5s-64.667 -17.5 -104 -17.5c-56.667 0 -99.667 15.833 -129 47.5z" />
    <glyph glyph-name="uni01D9" unicode="&#x1d9;" horiz-adv-x="663" 
d="M204 874h49l78 -85l78 85h49l-103 -110h-48zM212 742h57v-55h-57v55zM389 742h56v-55h-56v55zM136 52c-44 41.333 -66 101.666 -66 180.999v411h55v-417c0 -62.667 17.833 -109.834 53.5 -141.501s86.834 -47.5 153.501 -47.5c66 0 116.833 15.833 152.5 47.5
s53.5 78.834 53.5 141.501v417h55v-411c0 -79.333 -21.833 -139.666 -65.5 -180.999s-108.834 -62 -195.501 -62s-152 20.667 -196 62z" />
    <glyph glyph-name="uni01DA" unicode="&#x1da;" horiz-adv-x="559" 
d="M150 708h49l78 -85l78 85h49l-103 -110h-48zM158 576h57v-55h-57v55zM335 576h56v-55h-56v55zM114 37.5c-29.333 31.667 -44.001 77.168 -44.001 136.501v300h55v-302c0 -46 11.333 -80.333 34 -103s58.334 -34 107.001 -34c32 0 61.833 6.16699 89.5 18.5
s52.167 29.166 73.5 50.499v370h55v-474h-49l-5 58c-25.333 -22 -53 -38.833 -83 -50.5s-64.667 -17.5 -104 -17.5c-56.667 0 -99.667 15.833 -129 47.5z" />
    <glyph glyph-name="uni01DB" unicode="&#x1db;" horiz-adv-x="663" 
d="M244 881h51l60 -117h-45zM215 742h56v-55h-56v55zM391 742h57v-55h-57v55zM136 52c-44 41.333 -66 101.666 -66 180.999v411h55v-417c0 -62.667 17.833 -109.834 53.5 -141.501s86.834 -47.5 153.501 -47.5c66 0 116.833 15.833 152.5 47.5s53.5 78.834 53.5 141.501v417
h55v-411c0 -79.333 -21.833 -139.666 -65.5 -180.999s-108.834 -62 -195.501 -62s-152 20.667 -196 62z" />
    <glyph glyph-name="uni01DC" unicode="&#x1dc;" horiz-adv-x="559" 
d="M191 715h51l60 -117h-45zM162 576h56v-55h-56v55zM338 576h57v-55h-57v55zM114 37.5c-29.333 31.667 -44.001 77.168 -44.001 136.501v300h55v-302c0 -46 11.333 -80.333 34 -103s58.334 -34 107.001 -34c32 0 61.833 6.16699 89.5 18.5s52.167 29.166 73.5 50.499v370
h55v-474h-49l-5 58c-25.333 -22 -53 -38.833 -83 -50.5s-64.667 -17.5 -104 -17.5c-56.667 0 -99.667 15.833 -129 47.5z" />
    <glyph glyph-name="Gcaron" unicode="&#x1e6;" horiz-adv-x="633" 
d="M222 822h50l79 -103l79 103h50l-105 -135h-48zM129 74c-49.333 56 -74.0029 132.668 -74.0029 230.001c0 110.667 23.5 196.667 70.5 258s121.833 92 224.5 92c68.667 0 130 -9 184 -27v-49c-56 18.667 -115.333 28 -178 28c-89.333 0 -152.833 -25.833 -190.5 -77.5
s-56.5 -126.5 -56.5 -224.5c0 -178 82.667 -267 248 -267c30.667 0 61.334 2.66699 92.001 8s57 12.666 79 21.999v229h-183v44h233v-301c-21.333 -14 -50.666 -25.667 -87.999 -35s-83.666 -14 -138.999 -14c-98.667 0 -172.667 28 -222 84z" />
    <glyph glyph-name="gcaron" unicode="&#x1e7;" horiz-adv-x="542" 
d="M156 656h50l79 -103l79 103h50l-105 -135h-48zM71 -152l-0.000976562 47.002c52 -17.333 112.667 -26 182 -26c57.333 0 98.333 4.5 123 13.5s37 27.5 37 55.5c0 22.667 -7.16699 38.5 -21.5 47.5s-40.166 13.5 -77.499 13.5h-129c-43.333 0 -75.5 6.83301 -96.5 20.5
s-31.5 34.5 -31.5 62.5c0 20 7.16699 38.167 21.5 54.5s34.5 27.833 60.5 34.5c-54.667 22 -82 69.667 -82 143c0 58.667 16.333 101.667 49 129s83.334 41 152.001 41c21.333 0 47 -3.33301 77 -10h167l-2 -41h-92c32.667 -28 49 -67.667 49 -119
c0 -110.667 -63 -166 -189 -166c-18.667 0 -40 2 -64 6c-26.667 -2.66699 -48.834 -9.83398 -66.501 -21.501s-26.5 -26.5 -26.5 -44.5c0 -14.667 6 -25.334 18 -32.001s33.333 -10 64 -10h133c94.667 0 142 -35 142 -105c0 -44 -17.5 -74.5 -52.5 -91.5
s-88.5 -25.5 -160.5 -25.5c-78.667 0 -140 8 -184 24zM370.999 219.002c21.333 18.667 32 50.332 32 94.999s-11.167 77 -33.5 97s-59.5 30 -111.5 30s-89.333 -9.66699 -112 -29s-34 -52 -34 -98c0 -43.333 11 -74.666 33 -93.999s59.667 -29 113 -29
c54 0 91.667 9.33301 113 28z" />
    <glyph glyph-name="Aringacute" unicode="&#x1fa;" horiz-adv-x="667" 
d="M367 994h52l-75 -143h-44zM292 626c-18.667 7.33301 -33.499 19.501 -44.499 36.501s-16.5 35.833 -16.5 56.5c0 28.667 9.66699 52.834 29 72.501s43.666 29.5 72.999 29.5c30 0 54.667 -9.83301 74 -29.5s29 -43.834 29 -72.501c0 -20.667 -5.5 -39.334 -16.5 -56.001
s-25.833 -29 -44.5 -37l237 -626h-56l-71 188h-302l-71 -188h-57zM380.501 672.501c12.333 12.333 18.5 27.833 18.5 46.5c0 19.333 -6.16699 35.166 -18.5 47.499s-28.166 18.5 -47.499 18.5c-18.667 0 -34.334 -6.16699 -47.001 -18.5s-19 -28.166 -19 -47.499
c0 -18.667 6.33301 -34.167 19 -46.5s28.334 -18.5 47.001 -18.5c19.333 0 35.166 6.16699 47.499 18.5zM472.001 233.001l-139 367l-138 -367h277z" />
    <glyph glyph-name="aringacute" unicode="&#x1fb;" horiz-adv-x="531" 
d="M319 907h52l-74 -126h-45zM204 549.5c-19.333 19.667 -29 43.5 -29 71.5c0 28.667 9.66699 52.834 29 72.501s43.666 29.5 72.999 29.5c30 0 54.667 -9.83301 74 -29.5s29 -43.834 29 -72.501c0 -28 -9.66699 -51.833 -29 -71.5s-44 -29.5 -74 -29.5
c-29.333 0 -53.666 9.83301 -72.999 29.5zM324.5 574.5c12.333 12.333 18.5 27.833 18.5 46.5c0 19.333 -6.16699 35.166 -18.5 47.499s-28.166 18.5 -47.499 18.5c-18.667 0 -34.334 -6.16699 -47.001 -18.5s-19 -28.166 -19 -47.499c0 -18.667 6.33301 -34.167 19 -46.5
s28.334 -18.5 47.001 -18.5c19.333 0 35.166 6.16699 47.499 18.5zM101.5 24c-31 22.667 -46.501 56.667 -46.501 102c0 44.667 14 79.5 42 104.5s72.667 37.5 134 37.5h177v45c0 31.333 -4 55.833 -12 73.5s-22.667 30.5 -44 38.5s-52 12 -92 12
c-52 0 -102.333 -8.66699 -151 -26v47c44.667 17.333 98.334 26 161.001 26c66 0 114.333 -13.333 145 -40s46 -70 46 -130v-314h-45l-5 59c-22 -24 -48.167 -41.5 -78.5 -52.5s-67.833 -16.5 -112.5 -16.5c-48 0 -87.5 11.333 -118.5 34zM407.999 110v114h-175
c-45.333 0 -77.333 -8 -96 -24s-28 -40.667 -28 -74c0 -32 10.667 -55 32 -69s52.333 -21 93 -21c74 0 132 24.667 174 74z" />
    <glyph glyph-name="AEacute" unicode="&#x1fc;" horiz-adv-x="832" 
d="M504 846h52l-74 -158h-45zM299 644h478v-46h-312v-254h277v-45h-277v-255h312v-44h-367v189h-225l-72 -189h-58zM410 233v365h-70l-138 -365h208z" />
    <glyph glyph-name="aeacute" unicode="&#x1fd;" horiz-adv-x="879" 
d="M479 680h52l-74 -158h-45zM101.5 24c-31 22.667 -46.5 56.667 -46.5 102c0 44.667 14 79.5 42 104.5s72.667 37.5 134 37.5h177v33c0 45.333 -11.167 79.333 -33.5 102s-59.833 34 -112.5 34c-53.333 0 -104.333 -8.66699 -153 -26v47
c44.667 17.333 98.334 26 161.001 26c89.333 0 145.666 -30.333 168.999 -91c16 30 39.667 52.667 71 68s69.666 23 114.999 23c65.333 0 114.833 -17.667 148.5 -53s50.5 -81 50.5 -137v-86h-361c1.33301 -42.667 8.66602 -76.5 21.999 -101.5s34.333 -43.167 63 -54.5
s67.334 -17 116.001 -17c43.333 0 86.333 8.33301 129 25v-45c-42 -16.667 -88.333 -25 -139 -25c-56 0 -101.5 8.33301 -136.5 25s-61.167 43 -78.5 79c-19.333 -32 -47.166 -57.333 -83.499 -76s-81.5 -28 -135.5 -28c-48 0 -87.5 11.333 -118.5 34zM773 251v45
c0 45.333 -12 80.333 -36 105s-61 37 -111 37c-60.667 0 -103 -14.833 -127 -44.5s-36 -77.167 -36 -142.5h310zM408 136v88h-175c-45.333 0 -77.333 -8 -96 -24s-28 -40.667 -28 -74c0 -32 10.667 -55 32 -69s52.333 -21 93 -21c92.667 0 150.667 33.333 174 100z" />
    <glyph glyph-name="Oslashacute" unicode="&#x1fe;" horiz-adv-x="688" 
d="M382 846h52l-74 -158h-45zM199 17c-96 45.333 -144 146.001 -144 302.001c0 115.333 23.333 200 70 254s119.667 81 219 81c31.333 0 58.666 -2.33301 81.999 -7l17 46h50l-21 -59c54.667 -20 95.167 -55.833 121.5 -107.5s39.5 -120.834 39.5 -207.501
c0 -108.667 -23.667 -190.667 -71 -246s-120 -83 -218 -83c-37.333 0 -70.666 4 -99.999 12l-20 -55h-50zM409 600.001c-20 4 -41.667 6 -65 6c-54 0 -98.167 -9.33301 -132.5 -28s-60 -49 -77 -91s-25.5 -98 -25.5 -168c0 -66 8.83301 -120 26.5 -162s44.5 -73 80.5 -93z
M520.5 105.501c38.333 45.667 57.501 116.833 57.501 213.5c0 76 -10 135.667 -30 179s-51 73.333 -93 90l-195 -541c24 -6.66699 52 -10 84 -10c79.333 0 138.166 22.833 176.499 68.5z" />
    <glyph glyph-name="oslashacute" unicode="&#x1ff;" horiz-adv-x="563" 
d="M317 680h52l-74 -158h-45zM179 5c-42.667 16 -74 43.167 -94 81.5s-30 88.5 -30 150.5c0 81.333 18.333 142.833 55 184.5s93.667 62.5 171 62.5c26 0 48.667 -2.33301 68 -7l18 51h49l-23 -64c76.667 -34 115 -109.667 115 -227c0 -82 -18.167 -143.667 -54.5 -185
s-93.833 -62 -172.5 -62c-22 0 -41 1.33301 -57 4l-17 -48h-49zM332 431c-16.667 3.33301 -33.668 4.99902 -51.001 4.99902c-61.333 0 -105.333 -16 -132 -48s-40 -82.333 -40 -151c0 -51.333 6.83301 -92.166 20.5 -122.499s35.834 -51.5 66.501 -63.5zM413.499 84.999
c26.333 32 39.5 82.668 39.5 152.001c0 47.333 -6.16699 85.666 -18.5 114.999s-31.833 51 -58.5 65l-135 -378c16 -1.33301 29.333 -2 40 -2c62 0 106.167 16 132.5 48z" />
    <glyph glyph-name="Scommaaccent" unicode="&#x218;" horiz-adv-x="553" 
d="M71 18v48.999c54.667 -20 115.667 -30 183 -30c64 0 111.667 10 143 30s47 52.333 47 97c0 27.333 -6.16699 49.666 -18.5 66.999s-32 31.833 -59 43.5s-64.833 22.834 -113.5 33.501c-72.667 16 -123.834 37.333 -153.501 64s-44.5 63 -44.5 109
c0 54 19.333 96.333 58 127s96.334 46 173.001 46c33.333 0 65.833 -2.5 97.5 -7.5s56.834 -10.5 75.501 -16.5v-49c-48 16.667 -102 25 -162 25c-62 0 -108.833 -10 -140.5 -30s-47.5 -51.667 -47.5 -95c0 -24.667 5.5 -44.667 16.5 -60s29.167 -28.5 54.5 -39.5
s62.666 -22.167 111.999 -33.5c76.667 -18 130.167 -41.333 160.5 -70s45.5 -66.667 45.5 -114c0 -57.333 -20.333 -100.666 -61 -129.999s-100.334 -44 -179.001 -44c-77.333 0 -139.666 9.33301 -186.999 28zM246 -55.001h54l-37 -160h-43z" />
    <glyph glyph-name="scommaaccent" unicode="&#x219;" horiz-adv-x="447" 
d="M68 10l0.000976562 48.998c43.333 -14.667 89.666 -22 138.999 -22c46.667 0 80 6.33301 100 19s30 34 30 64c0 18.667 -3.83301 33.334 -11.5 44.001s-18.834 19.334 -33.501 26.001s-37.667 15.334 -69 26.001l-25 9c-36 12 -62.833 22.167 -80.5 30.5
s-32.5 20.666 -44.5 36.999s-18 38.5 -18 66.5c0 42 13.833 73.333 41.5 94s71.834 31 132.501 31c45.333 0 87.333 -5.66699 126 -17v-49c-38.667 12 -78 18 -118 18c-46.667 0 -79.667 -5.83301 -99 -17.5s-29 -31.167 -29 -58.5c0 -18 4 -32.167 12 -42.5
s19.833 -18.833 35.5 -25.5s41.167 -15.667 76.5 -27c40 -12.667 70.833 -24.5 92.5 -35.5s38.167 -25 49.5 -42s17 -39.5 17 -67.5c0 -86.667 -59.333 -130 -178 -130c-57.333 0 -106 6.66699 -146 20zM200.001 -55.002h54l-37 -160h-43z" />
    <glyph glyph-name="uni021A" unicode="&#x21a;" horiz-adv-x="569" 
d="M257 599h-222v45h499v-45h-222v-599h-55v599zM258 -40h53l-38 -165h-41z" />
    <glyph glyph-name="uni021B" unicode="&#x21b;" horiz-adv-x="350" 
d="M143 25c-22.667 23.333 -34 56.001 -34 98.001v305h-74v46h74v124l55 18v-142h137l-3 -46h-134v-303c0 -30.667 7.33301 -53.334 22 -68.001s38 -22 70 -22c18 0 37.667 3.66699 59 11v-44c-22 -8 -47 -12 -75 -12c-42 0 -74.333 11.667 -97 35zM209 -39.999h53l-38 -165
h-41z" />
    <glyph glyph-name="uni0237" unicode="&#x237;" horiz-adv-x="269" 
d="M-20 -222l0.000976562 44.999c20.667 -6.66699 41 -10 61 -10c36 0 61.333 7 76 21s22 36.333 22 67v527h-74l6 46h123v-576c0 -41.333 -11.833 -73.666 -35.5 -96.999s-56.834 -35 -99.501 -35c-30.667 0 -57 4 -79 12z" />
    <glyph glyph-name="uni0251" unicode="&#x251;" horiz-adv-x="564" 
d="M111 44c-37.333 36 -56.002 95.001 -56.002 177.001c0 56 9.33301 103.667 28 143s44.834 69.166 78.501 89.499s72.167 30.5 115.5 30.5c32.667 0 61 -3.83301 85 -11.5s48 -20.5 72 -38.5v40h55v-474h-46l-5 53c-23.333 -22 -48.666 -38 -75.999 -48s-59 -15 -95 -15
c-66.667 0 -118.667 18 -156 54zM433.998 99.001l0.000976562 287.001c-20 17.333 -41 30.333 -63 39s-48 13 -78 13c-59.333 0 -104.833 -18.667 -136.5 -56s-47.5 -91 -47.5 -161c0 -66.667 13.667 -114.334 41 -143.001s70.666 -43 129.999 -43
c62.667 0 114 21.333 154 64z" />
    <glyph glyph-name="uni0259" unicode="&#x259;" horiz-adv-x="525" 
d="M104 42.5c-32.667 35 -49.001 80.833 -49.001 137.5v85h360c-2 42 -9.66699 75.5 -23 100.5s-34.166 43.333 -62.499 55s-66.833 17.5 -115.5 17.5c-46 0 -88.667 -8.33301 -128 -25v45c40 17.333 86.333 26 139 26c85.333 0 147.5 -20.167 186.5 -60.5
s58.5 -103.5 58.5 -189.5c0 -162.667 -73 -244 -219 -244c-65.333 0 -114.333 17.5 -147 52.5zM377.499 81.5c25 31 37.5 78.167 37.5 141.5h-310v-46c0 -94.667 48.333 -142 145 -142c60 0 102.5 15.5 127.5 46.5z" />
    <glyph glyph-name="uni02BB" unicode="&#x2bb;" horiz-adv-x="210" 
d="M113 654h42l-46 -171h-54z" />
    <glyph glyph-name="uni02BC" unicode="&#x2bc;" horiz-adv-x="210" 
d="M101 654h54l-58 -171h-42z" />
    <glyph glyph-name="uni02BE" unicode="&#x2be;" 
d="M-368 516c29.333 0 52 8.33203 68 24.999s24 39.667 24 69c0 28.667 -8 51.334 -24 68.001s-38.667 25 -68 25v37c43.333 0 76.166 -12 98.499 -36s33.5 -55.333 33.5 -94s-11.167 -70.167 -33.5 -94.5s-55.166 -36.5 -98.499 -36.5v37z" />
    <glyph glyph-name="uni02BF" unicode="&#x2bf;" 
d="M-334.5 515.5c-22.333 24.333 -33.5 55.834 -33.5 94.501s11.167 70 33.5 94s55.166 36 98.499 36v-37c-29.333 0 -52 -8.33301 -68 -25s-24 -39.334 -24 -68.001c0 -29.333 8 -52.333 24 -69s38.667 -25 68 -25v-37c-43.333 0 -76.166 12.167 -98.499 36.5z" />
    <glyph glyph-name="circumflex" unicode="&#x2c6;" horiz-adv-x="368" 
d="M160 674h48l105 -135h-50l-79 103l-79 -103h-50z" />
    <glyph glyph-name="caron" unicode="&#x2c7;" horiz-adv-x="368" 
d="M55 674h50l79 -103l79 103h50l-105 -135h-48z" />
    <glyph glyph-name="uni02C8" unicode="&#x2c8;" 
d="M-28 649h43v-161h-43v161z" />
    <glyph glyph-name="uni02C9" unicode="&#x2c9;" 
d="M120 609h277v-42h-277v42z" />
    <glyph glyph-name="uni02CA" unicode="&#x2ca;" 
d="M5 680h52l-75 -158h-44z" />
    <glyph glyph-name="uni02CB" unicode="&#x2cb;" 
d="M-68 680h52l67 -158h-45z" />
    <glyph glyph-name="uni02CC" unicode="&#x2cc;" 
d="M-28 -41h43v-162h-43v162z" />
    <glyph glyph-name="breve" unicode="&#x2d8;" horiz-adv-x="332" 
d="M85 573.5c-20 20.333 -30.001 46.833 -30.001 79.5h41c0 -22 6.33301 -39.5 19 -52.5s29.334 -19.5 50.001 -19.5c22 0 39.333 6.5 52 19.5s19 30.5 19 52.5h41c0 -32.667 -10.167 -59.167 -30.5 -79.5s-47.5 -30.5 -81.5 -30.5c-33.333 0 -60 10.167 -80 30.5z" />
    <glyph glyph-name="dotaccent" unicode="&#x2d9;" horiz-adv-x="167" 
d="M60 609h35v-35h-35v35z" />
    <glyph glyph-name="ring" unicode="&#x2da;" horiz-adv-x="315" 
d="M84 557.5c-19.333 19.667 -29 43.5 -29 71.5c0 28.667 9.66699 52.834 29 72.501s43.666 29.5 72.999 29.5c30 0 54.667 -9.83301 74 -29.5s29 -43.834 29 -72.501c0 -28 -9.66699 -51.833 -29 -71.5s-44 -29.5 -74 -29.5c-29.333 0 -53.666 9.83301 -72.999 29.5z
M204.5 582.5c12.333 12.333 18.5 27.833 18.5 46.5c0 19.333 -6.16699 35.166 -18.5 47.499s-28.166 18.5 -47.499 18.5c-18.667 0 -34.334 -6.16699 -47.001 -18.5s-19 -28.166 -19 -47.499c0 -18.667 6.33301 -34.167 19 -46.5s28.334 -18.5 47.001 -18.5
c19.333 0 35.166 6.16699 47.499 18.5z" />
    <glyph glyph-name="ogonek" unicode="&#x2db;" horiz-adv-x="260" 
d="M80 -199.5c-16.667 13.667 -25 35.5 -25 65.5c0 26 7 51 21 75s32 43.667 54 59h46c-24.667 -18 -43.167 -38 -55.5 -60s-18.5 -44.667 -18.5 -68c0 -18 4.16699 -31 12.5 -39s21.833 -12 40.5 -12c8.66699 0 17.667 1 27 3s17 4.66699 23 8v-41
c-14 -7.33301 -33.667 -11 -59 -11c-27.333 0 -49.333 6.83301 -66 20.5z" />
    <glyph glyph-name="tilde" unicode="&#x2dc;" horiz-adv-x="392" 
d="M232 587c-11.333 3.33301 -24.3359 8.33301 -39.0029 15c-25.333 11.333 -45 17 -59 17c-33.333 0 -59.666 -11.667 -78.999 -35v47c7.33301 8.66699 18.333 15.667 33 21s29.334 8 44.001 8c12 0 22.667 -1.5 32 -4.5s22.333 -7.83301 39 -14.5
c13.333 -6 24.5 -10.5 33.5 -13.5s18.5 -4.5 28.5 -4.5c31.333 0 55.333 11.667 72 35v-47c-6.66699 -9.33301 -16.167 -16.5 -28.5 -21.5s-26.5 -7.5 -42.5 -7.5c-11.333 0 -22.666 1.66699 -33.999 5z" />
    <glyph glyph-name="hungarumlaut" unicode="&#x2dd;" horiz-adv-x="429" 
d="M122 680h53l-75 -141h-45zM321 680h53l-75 -141h-45z" />
    <glyph glyph-name="gravecomb" unicode="&#x300;" 
d="M-424 680h52l67 -158h-45z" />
    <glyph glyph-name="acutecomb" unicode="&#x301;" 
d="M-279 680h52l-74 -158h-45z" />
    <glyph glyph-name="uni0302" unicode="&#x302;" 
d="M-42 674h48l105 -135h-50l-79 103l-79 -103h-50z" />
    <glyph glyph-name="tildecomb" unicode="&#x303;" 
d="M-272 587c-11.333 3.33301 -24.334 8.33301 -39.001 15c-26.667 11.333 -46.667 17 -60 17c-33.333 0 -59.666 -11.667 -78.999 -35v47c8 8.66699 19.167 15.667 33.5 21s29.166 8 44.499 8c12 0 22.833 -1.5 32.5 -4.5s22.167 -7.83301 37.5 -14.5
c13.333 -6 24.5 -10.5 33.5 -13.5s18.5 -4.5 28.5 -4.5c16 0 30 2.83301 42 8.5s22.333 14.5 31 26.5v-47c-6.66699 -9.33301 -16.167 -16.5 -28.5 -21.5s-26.5 -7.5 -42.5 -7.5c-11.333 0 -22.666 1.66699 -33.999 5z" />
    <glyph glyph-name="uni0304" unicode="&#x304;" 
d="M-153 609h277v-42h-277v42z" />
    <glyph glyph-name="uni0306" unicode="&#x306;" 
d="M-86.5 574c-20.333 20.667 -30.502 47.334 -30.502 80.001h42c0 -22.667 6.33301 -40.334 19 -53.001s29.334 -19 50.001 -19c21.333 0 38.333 6.33301 51 19s19 30.334 19 53.001h42c0 -32.667 -10.167 -59.334 -30.5 -80.001s-47.5 -31 -81.5 -31
c-33.333 0 -60.166 10.333 -80.499 31z" />
    <glyph glyph-name="uni0307" unicode="&#x307;" 
d="M-34 623h57v-56h-57v56z" />
    <glyph glyph-name="uni0308" unicode="&#x308;" 
d="M-122 622h57v-55h-57v55zM45 622h56v-55h-56v55z" />
    <glyph glyph-name="hookabovecomb" unicode="&#x309;" 
d="M-337 590c26 1.33301 45.835 4.16504 59.502 8.49805s22.834 10.5 27.501 18.5s7 18.667 7 32c0 18 -6.66699 31.333 -20 40s-34.333 13 -63 13c-10.667 0 -22.334 -1.16699 -35.001 -3.5s-23.334 -5.16602 -32.001 -8.49902v38
c8.66699 3.33301 20.5 6.16602 35.5 8.49902s28.833 3.5 41.5 3.5c38 0 66.833 -7.66699 86.5 -23s29.5 -37 29.5 -65c0 -27.333 -6.83301 -48.166 -20.5 -62.499s-36.834 -23.166 -69.501 -26.499v-52h-47v79z" />
    <glyph glyph-name="uni030A" unicode="&#x30a;" 
d="M-79 557.5c-19.333 19.667 -29 43.5 -29 71.5c0 28.667 9.66699 52.834 29 72.501s43.666 29.5 72.999 29.5c30 0 54.667 -9.83301 74 -29.5s29 -43.834 29 -72.501c0 -28 -9.66699 -51.833 -29 -71.5s-44 -29.5 -74 -29.5c-29.333 0 -53.666 9.83301 -72.999 29.5z
M41.5 582.5c12.333 12.333 18.498 27.833 18.498 46.5c0 19.333 -6.16699 35.166 -18.5 47.499s-28.166 18.5 -47.499 18.5s-35.166 -6.16699 -47.499 -18.5s-18.5 -28.166 -18.5 -47.499c0 -18.667 6.33301 -34.167 19 -46.5s28.334 -18.5 47.001 -18.5
c19.333 0 35.166 6.16699 47.499 18.5z" />
    <glyph glyph-name="uni030B" unicode="&#x30b;" 
d="M-116 680h54l-76 -141h-45zM83 680h54l-76 -141h-45z" />
    <glyph glyph-name="uni030C" unicode="&#x30c;" 
d="M-147 674h50l79 -103l79 103h50l-105 -135h-48z" />
    <glyph glyph-name="uni031B" unicode="&#x31b;" 
d="M-92 576c29.333 0 51.832 3.33594 67.499 10.0029s26.834 18.5 33.501 35.5s10 41.5 10 73.5h48c0 -42.667 -5.83301 -75.834 -17.5 -99.501s-29 -40.334 -52 -50.001s-52.833 -14.834 -89.5 -15.501v46z" />
    <glyph glyph-name="dotbelowcomb" unicode="&#x323;" 
d="M-335 -95h59v-57h-59v57z" />
    <glyph glyph-name="uni0324" unicode="&#x324;" 
d="M-119 -95h57v-56h-57v56zM60 -95h58v-56h-58v56z" />
    <glyph glyph-name="uni0326" unicode="&#x326;" 
d="M-108 -37h53l-38 -165h-41z" />
    <glyph glyph-name="uni0327" unicode="&#x327;" 
d="M-61.5 -237.5c-13 1.66699 -23.5 3.5 -31.5 5.5v37c19.333 -5.33301 40.333 -8 63 -8c34.667 0 59.834 4.83301 75.501 14.5s23.5 26.167 23.5 49.5c0 20.667 -7.16699 35 -21.5 43s-37.833 12 -70.5 12h-33l28 84h43l-17 -51c37.333 0 65.666 -7.5 84.999 -22.5
s29 -36.833 29 -65.5c0 -33.333 -11.167 -58.5 -33.5 -75.5s-57.5 -25.5 -105.5 -25.5c-10 0 -21.5 0.833008 -34.5 2.5z" />
    <glyph glyph-name="uni0328" unicode="&#x328;" 
d="M-56 -199.5c-16.667 13.667 -25 35.5 -25 65.5c0 26 7 51 21 75s32 43.667 54 59h46c-24.667 -18 -43.167 -38 -55.5 -60s-18.5 -44.667 -18.5 -68c0 -18 4.16699 -31 12.5 -39s21.833 -12 40.5 -12c8.66699 0 17.667 1 27 3s17 4.66699 23 8v-41
c-14 -7.33301 -33.667 -11 -59 -11c-27.333 0 -49.333 6.83301 -66 20.5z" />
    <glyph glyph-name="uni032E" unicode="&#x32e;" 
d="M-104.5 -152c-25 22 -37.5 54.333 -37.5 97h42c0 -31.333 8.5 -54.5 25.5 -69.5s39.833 -22.5 68.5 -22.5c29.333 0 52.5 7.5 69.5 22.5s25.5 38.167 25.5 69.5h41c0 -42.667 -12.5 -75 -37.5 -97s-57.833 -33 -98.5 -33s-73.5 11 -98.5 33z" />
    <glyph glyph-name="uni0331" unicode="&#x331;" 
d="M-153 -74h277v-42h-277v42z" />
    <glyph glyph-name="uni0394" unicode="&#x394;" horiz-adv-x="655" 
d="M55 34l240 610h64l241 -611v-33h-545v34zM542 44l-216 550l-216 -550h432z" />
    <glyph glyph-name="uni03A9" unicode="&#x3a9;" horiz-adv-x="771" 
d="M62 44h176c-56 33.333 -100.5 76.833 -133.5 130.5s-49.5 116.167 -49.5 187.5c0 62.667 13.333 119.334 40 170.001s65.167 90.5 115.5 119.5s108.833 43.5 175.5 43.5s125 -14.5 175 -43.5s88.333 -68.833 115 -119.5s40 -107.334 40 -170.001
c0 -71.333 -16.333 -133.833 -49 -187.5s-77 -97.167 -133 -130.5h175v-44h-252v44c68 36 119.167 80.833 153.5 134.5s51.5 114.834 51.5 183.501c0 54.667 -11.667 103.667 -35 147s-56 77.166 -98 101.499s-89.667 36.5 -143 36.5c-54 0 -102 -12.167 -144 -36.5
s-74.667 -58.166 -98 -101.499s-35 -92.333 -35 -147c0 -68.667 17.167 -129.834 51.5 -183.501s85.5 -98.5 153.5 -134.5v-44h-252v44z" />
    <glyph glyph-name="uni03BC" unicode="&#x3bc;" horiz-adv-x="564" 
d="M75 474l55 0.00195312v-302c0 -46 11.5 -80.333 34.5 -103s58.5 -34 106.5 -34c32 0 61.833 6.16699 89.5 18.5s52.167 29.166 73.5 50.499v370h55v-474h-49l-5 58c-25.333 -22 -53 -38.833 -83 -50.5s-64.667 -17.5 -104 -17.5c-25.333 0 -48.333 4.16699 -69 12.5
s-37 20.166 -49 35.499v-181h-55v617z" />
    <glyph glyph-name="pi" unicode="&#x3c0;" horiz-adv-x="658" 
d="M445.5 26c-21 24 -31.5 57 -31.5 99v304h-245v-429h-55v429h-69v45h494v-45h-70v-304c0 -31.333 6.5 -53.833 19.5 -67.5s35.5 -20.5 67.5 -20.5c16 0 35 3.33301 57 10v-45c-22 -8 -47.333 -12 -76 -12c-40 0 -70.5 12 -91.5 36z" />
    <glyph glyph-name="uni0E01" unicode="&#xe01;" horiz-adv-x="600" 
d="M90 243c0 26.667 6.99805 49.501 20.998 68.501s34.667 32.5 62 40.5l-118 26v80c26.667 26.667 60.834 48.667 102.501 66s88.834 26 141.501 26c76.667 0 133.5 -16.5 170.5 -49.5s55.5 -82.167 55.5 -147.5v-353h-55v356c0 52.667 -13.5 90.167 -40.5 112.5
s-70.5 33.5 -130.5 33.5c-40.667 0 -78.5 -6.16699 -113.5 -18.5s-61.833 -28.5 -80.5 -48.5v-28l120 -26v-48c-26.667 -6 -46.667 -16.333 -60 -31s-20 -35.334 -20 -62.001v-240h-55v243z" />
    <glyph glyph-name="uni0E02" unicode="&#xe02;" horiz-adv-x="556" 
d="M118.5 38c-35.667 32 -53.5 78.667 -53.5 140v92c0 18 5 36.167 15 54.5s24 39.5 42 63.5c14 19.333 24.333 34.666 31 45.999s10 21.666 10 30.999c0 12 -2.16699 20 -6.5 24s-13.166 6 -26.499 6h-75l5 45h96c20.667 0 36.167 -5.5 46.5 -16.5s15.5 -26.5 15.5 -46.5
c0 -16.667 -4.16699 -33 -12.5 -49s-20.5 -35 -36.5 -57c-16.667 -23.333 -29 -42.666 -37 -57.999s-12 -31.333 -12 -48v-96c0 -45.333 13.333 -78.666 40 -99.999s64 -32 112 -32s85.667 10.833 113 32.5s41 55.167 41 100.5v370h55v-362
c0 -61.333 -18.167 -108 -54.5 -140s-87.833 -48 -154.5 -48s-117.834 16 -153.501 48z" />
    <glyph glyph-name="uni0E03" unicode="&#xe03;" horiz-adv-x="543" 
d="M67 176l0.00195312 80.001c0 17.333 5.16699 34.666 15.5 51.999s26.166 40 47.499 68c17.333 21.333 30.166 39 38.499 53s12.5 26.667 12.5 38c0 19.333 -9.33301 29 -28 29c-18 0 -35.667 -8 -53 -24v-38h-45v106h45v-28c21.333 18.667 44.666 28 69.999 28
c20 0 35.667 -5.66699 47 -17s17 -27.333 17 -48c0 -18 -4.66699 -35.333 -14 -52s-23.666 -37 -42.999 -61c-18.667 -24.667 -32.5 -45 -41.5 -61s-13.5 -32.333 -13.5 -49v-83c0 -88 48.333 -132 145 -132c97.333 0 146 44.333 146 133v370h55v-362
c0 -62 -17 -108.833 -51 -140.5s-84 -47.5 -150 -47.5c-133.333 0 -200 62 -200 186z" />
    <glyph glyph-name="uni0E04" unicode="&#xe04;" horiz-adv-x="594" 
d="M75 358c0 64 18.168 111.999 54.501 143.999s92.5 48 168.5 48c75.333 0 131 -16 167 -48s54 -80 54 -144v-358h-55v366c0 47.333 -13.833 81.833 -41.5 103.5s-69.167 32.5 -124.5 32.5c-56.667 0 -98.834 -10.833 -126.501 -32.5s-41.5 -56.167 -41.5 -103.5v-139
c37.333 30 79.666 45 126.999 45h67l3 -46h-71c-24 0 -46.167 -3.66699 -66.5 -11s-40.166 -18.666 -59.499 -33.999v-181h-55v358z" />
    <glyph glyph-name="uni0E05" unicode="&#xe05;" horiz-adv-x="594" 
d="M75 416c0 44 10.667 77.334 32 100.001s50.666 34 87.999 34c44.667 0 78.667 -17.333 102 -52c12 17.333 28 30.333 48 39s41 13 63 13c38.667 0 66.834 -10.833 84.501 -32.5s26.5 -55.834 26.5 -102.501v-415h-55v421c0 27.333 -4.66699 47.666 -14 60.999
s-26.333 20 -51 20c-17.333 0 -33.333 -4.33301 -48 -13s-27.334 -21 -38.001 -37h-33c-9.33301 16.667 -19.666 29.167 -30.999 37.5s-25 12.5 -41 12.5c-52 0 -78 -27.333 -78 -82v-193c37.333 30 79.666 45 126.999 45h67l3 -46h-71c-24 0 -46.167 -3.66699 -66.5 -11
s-40.166 -18.666 -59.499 -33.999v-181h-55v416z" />
    <glyph glyph-name="uni0E06" unicode="&#xe06;" horiz-adv-x="577" 
d="M209.5 10.5c-31.667 13.667 -61.499 33.833 -89.499 60.5l-5 -71h-48v244c0 18 5.33301 36.5 16 55.5s26.334 42.5 47.001 70.5c18 26 31 45.833 39 59.5s12 26.167 12 37.5c0 19.333 -9.33301 29 -28 29c-18 0 -35.667 -8 -53 -24v-38h-45v106h45v-28
c21.333 18.667 44.666 28 69.999 28c20 0 35.667 -5.66699 47 -17s17 -27.333 17 -48c0 -18 -4.83301 -36.167 -14.5 -54.5s-23.834 -39.833 -42.501 -64.5c-18.667 -27.333 -32.5 -49.333 -41.5 -66s-13.5 -33.334 -13.5 -50.001v-119c54 -56 115 -84 183 -84
c48.667 0 84.5 11.5 107.5 34.5s34.5 58.833 34.5 107.5v361h55v-358c0 -63.333 -15.333 -111.166 -46 -143.499s-75 -48.5 -133 -48.5c-44 0 -81.833 6.83301 -113.5 20.5z" />
    <glyph glyph-name="uni0E07" unicode="&#xe07;" horiz-adv-x="559" 
d="M207 -1l-152.001 370.001h54l137 -332c6 -0.666992 14.333 -1 25 -1c119.333 0 179 84.333 179 253c0 51.333 -4.66699 91.666 -14 120.999s-25 50.5 -47 63.5s-52.667 19.5 -92 19.5h-32v47h36c74 0 126.333 -19.833 157 -59.5s46 -103.167 46 -190.5
c0 -102 -20.167 -177.5 -60.5 -226.5s-93.833 -73.5 -160.5 -73.5c-35.333 0 -60.666 3 -75.999 9z" />
    <glyph glyph-name="uni0E08" unicode="&#xe08;" horiz-adv-x="555" 
d="M205 -1l-90.001 240h-60l3 47h93l93 -249c5.33301 -0.666992 13 -1 23 -1c32 0 61.5 8.33301 88.5 25s48.833 43.167 65.5 79.5s25 81.833 25 136.5s-6.83301 98.167 -20.5 130.5s-36 56.166 -67 71.499s-73.167 23 -126.5 23c-63.333 0 -119.666 -8.33301 -168.999 -25
v47c53.333 17.333 114.666 26 183.999 26c87.333 0 151.333 -23 192 -69s61 -114 61 -204c0 -61.333 -10.167 -113.666 -30.5 -156.999s-48.166 -75.833 -83.499 -97.5s-75 -32.5 -119 -32.5c-26 0 -46.667 3 -62 9z" />
    <glyph glyph-name="uni0E09" unicode="&#xe09;" horiz-adv-x="564" 
d="M62 179l-0.00195312 121h55v-124c0 -49.333 9.83301 -84.833 29.5 -106.5s54.5 -32.5 104.5 -32.5c69.333 0 130.333 28 183 84v232c0 37.333 -6.16699 66.666 -18.5 87.999s-32.166 36.833 -59.499 46.5s-64.333 14.5 -111 14.5c-28.667 0 -61 -2.66699 -97 -8
s-67 -12.333 -93 -21v47c26 8.66699 57.833 15.834 95.5 21.501s74.167 8.5 109.5 8.5c77.333 0 134.833 -16 172.5 -48s56.5 -81.667 56.5 -149v-353h-48l-5 71c-27.333 -26 -57.166 -46 -89.499 -60s-70.5 -21 -114.5 -21c-113.333 0 -170 63 -170 189z" />
    <glyph glyph-name="uni0E0A" unicode="&#xe0a;" horiz-adv-x="562" 
d="M119.5 38c-36.333 32 -54.501 78.668 -54.501 140.001v92c0 18 5 36.167 15 54.5s24 39.5 42 63.5c14 19.333 24.333 34.666 31 45.999s10 21.666 10 30.999c0 12 -2.16699 20 -6.5 24s-13.166 6 -26.499 6h-75l5 45h96c20.667 0 36.167 -5.5 46.5 -16.5
s15.5 -26.5 15.5 -46.5c0 -16.667 -4.16699 -33 -12.5 -49s-20.5 -35 -36.5 -57c-16.667 -23.333 -29 -42.666 -37 -57.999s-12 -31.333 -12 -48v-96c0 -45.333 13.833 -78.666 41.5 -99.999s65.5 -32 113.5 -32c49.333 0 87.666 10.667 114.999 32s41 55 41 101v71
c0 43.333 -7 73.166 -21 89.499s-39.667 24.5 -77 24.5h-28l4 45h24c38 0 63.833 8.83301 77.5 26.5s20.5 46.167 20.5 85.5v38h55v-37c0 -37.333 -5.33301 -66.833 -16 -88.5s-31 -37.167 -61 -46.5c32 -10.667 52.833 -26.5 62.5 -47.5s14.5 -50.833 14.5 -89.5v-63
c0 -61.333 -18.667 -108 -56 -140s-89 -48 -155 -48c-67.333 0 -119.166 16 -155.499 48z" />
    <glyph glyph-name="uni0E0B" unicode="&#xe0b;" horiz-adv-x="559" 
d="M120.5 38c-35.667 32 -53.4971 78.668 -53.4971 140.001v78c0 17.333 5.16699 34.666 15.5 51.999s26.166 40 47.499 68c17.333 21.333 30.166 39 38.499 53s12.5 26.667 12.5 38c0 19.333 -9.33301 29 -28 29c-18 0 -35.667 -8 -53 -24v-38h-45v106h45v-28
c21.333 18.667 44.666 28 69.999 28c20 0 35.667 -5.66699 47 -17s17 -27.333 17 -48c0 -18 -4.66699 -35.333 -14 -52s-23.666 -37 -42.999 -61c-18.667 -24.667 -32.5 -45 -41.5 -61s-13.5 -32.333 -13.5 -49v-83c0 -45.333 13.333 -78.666 40 -99.999s64 -32 112 -32
c102.667 0 154 44.333 154 133v71c0 43.333 -7 73.166 -21 89.499s-39.667 24.5 -77 24.5h-28l4 45h24c38 0 63.833 8.83301 77.5 26.5s20.5 46.167 20.5 85.5v38h55v-37c0 -37.333 -5.33301 -66.833 -16 -88.5s-31 -37.167 -61 -46.5c32 -10.667 52.833 -26.5 62.5 -47.5
s14.5 -50.833 14.5 -89.5v-63c0 -61.333 -18.167 -108 -54.5 -140s-87.833 -48 -154.5 -48s-117.834 16 -153.501 48z" />
    <glyph glyph-name="uni0E0C" unicode="&#xe0c;" horiz-adv-x="951" 
d="M597 10.5c-29.333 13.667 -58.3359 33.833 -87.0029 60.5l-5 -71h-48v356c0 53.333 -12.667 91 -38 113s-67.333 33 -126 33c-39.333 0 -75.666 -6.16699 -108.999 -18.5s-59.666 -28.5 -78.999 -48.5v-28l120 -26v-48c-53.333 -12.667 -80 -43.667 -80 -93v-139
c0 -18.667 4.33301 -32.5 13 -41.5s21.667 -13.5 39 -13.5h59v-46h-80c-27.333 0 -48.5 8.16699 -63.5 24.5s-22.5 38.5 -22.5 66.5v152c0 26.667 7 49.5 21 68.5s34.667 32.5 62 40.5l-118 26v80c26.667 26.667 60.167 48.667 100.5 66s86.5 26 138.5 26
c75.333 0 130.333 -16.333 165 -49s52 -82 52 -148v-232c26 -26.667 53 -47.334 81 -62.001s59.333 -22 94 -22c46.667 0 80.834 11.333 102.501 34s32.5 58.667 32.5 108v361h55v-358c0 -63.333 -14.667 -111.166 -44 -143.499s-72 -48.5 -128 -48.5
c-42 0 -77.667 6.83301 -107 20.5z" />
    <glyph glyph-name="uni0E0D" unicode="&#xe0d;" horiz-adv-x="962" 
d="M566 -39.5c-32.667 7 -61.0039 17.168 -85.0039 30.501v49c24.667 -14 54.334 -24.667 89.001 -32s68.334 -11 101.001 -11c109.333 0 164 25.667 164 77c0 11.333 -1.66699 21 -5 29s-9 15 -17 21c-35.333 -26 -82.666 -39 -141.999 -39
c-73.333 0 -127.833 17.167 -163.5 51.5s-53.5 86.166 -53.5 155.499v64c0 53.333 -12.167 91 -36.5 113s-65.833 33 -124.5 33c-39.333 0 -75.666 -6.16699 -108.999 -18.5s-59.666 -28.5 -78.999 -48.5v-28l120 -26v-48c-53.333 -12.667 -80 -43.667 -80 -93v-139
c0 -18.667 4.33301 -32.5 13 -41.5s21.667 -13.5 39 -13.5h59v-46h-80c-27.333 0 -48.5 8.16699 -63.5 24.5s-22.5 38.5 -22.5 66.5v152c0 26.667 7 49.5 21 68.5s34.667 32.5 62 40.5l-118 26v80c26.667 26.667 60.167 48.667 100.5 66s86.5 26 138.5 26
c74.667 0 129.167 -16.333 163.5 -49s51.5 -82 51.5 -148v-68c0 -52.667 13.167 -91.334 39.5 -116.001s67.166 -37 122.499 -37c54.667 0 95.167 12.333 121.5 37s39.5 63.334 39.5 116.001v255h55v-248c0 -30 -3.16699 -55.667 -9.5 -77s-15.833 -40.333 -28.5 -57
c25.333 -18.667 38 -46.667 38 -84c0 -82.667 -72 -124 -216 -124c-37.333 0 -72.333 3.5 -105 10.5z" />
    <glyph glyph-name="uni0E0E" unicode="&#xe0e;" horiz-adv-x="641" 
d="M183 -147c54 26 111.336 39.001 172.003 39.001c63.333 0 115.333 -12.333 156 -37v501c0 52.667 -13.5 90.167 -40.5 112.5s-70.5 33.5 -130.5 33.5c-40.667 0 -78.834 -6.16699 -114.501 -18.5s-63.167 -28.5 -82.5 -48.5v-28l123 -26v-48
c-24.667 -6.66699 -41.834 -16.834 -51.501 -30.501s-14.5 -34.5 -14.5 -62.5v-142c0 -32 -7.5 -56.333 -22.5 -73s-37.167 -25 -66.5 -25h-56v46h43c16 0 27.833 4.33301 35.5 13s11.5 22.334 11.5 41.001v143c0 28 5.16699 51.167 15.5 69.5s28.166 31.5 53.499 39.5
l-121 26v80c26 26 60.5 47.833 103.5 65.5s90.833 26.5 143.5 26.5c76.667 0 133.5 -16.5 170.5 -49.5s55.5 -82.167 55.5 -147.5v-547h-53c-25.333 13.333 -50.333 23.166 -75 29.499s-53.334 9.5 -86.001 9.5c-30.667 0 -59.167 -3.16699 -85.5 -9.5
s-54.166 -16.5 -83.499 -30.5v48z" />
    <glyph glyph-name="uni0E0F" unicode="&#xe0f;" horiz-adv-x="641" 
d="M384 -182.5c-18 8.33301 -31.3311 18.834 -39.998 31.501c-7.33301 -13.333 -18.666 -23.833 -33.999 -31.5s-34.333 -11.5 -57 -11.5h-83l4 49h71c20 0 36 3.16699 48 9.5s23 17.5 33 33.5h33c17.333 -30 44 -45 80 -45c26 0 44.5 6.16699 55.5 18.5
s16.5 32.833 16.5 61.5v423c0 52.667 -13.5 90.167 -40.5 112.5s-70.5 33.5 -130.5 33.5c-40.667 0 -78.834 -6.16699 -114.501 -18.5s-63.167 -28.5 -82.5 -48.5v-28l123 -26v-48c-24.667 -6.66699 -41.834 -16.834 -51.501 -30.501s-14.5 -34.5 -14.5 -62.5v-142
c0 -32 -7.5 -56.333 -22.5 -73s-37.167 -25 -66.5 -25h-56v46h43c16 0 27.833 4.33301 35.5 13s11.5 22.334 11.5 41.001v143c0 28 5.16699 51.167 15.5 69.5s28.166 31.5 53.499 39.5l-121 26v80c26 26 60.5 47.833 103.5 65.5s90.833 26.5 143.5 26.5
c76.667 0 133.5 -16.5 170.5 -49.5s55.5 -82.167 55.5 -147.5v-425c0 -40.667 -10.667 -71.334 -32 -92.001s-51.333 -31 -90 -31c-22 0 -42 4.16699 -60 12.5z" />
    <glyph glyph-name="uni0E10" unicode="&#xe10;" horiz-adv-x="592" 
d="M205 -1l-90.001 240h-60l3 47h93l93 -249c5.33301 -0.666992 13 -1 23 -1c32 0 61.5 8.33301 88.5 25s48.833 43.167 65.5 79.5s25 81.833 25 136.5s-6.83301 98.167 -20.5 130.5s-36 56.166 -67 71.499s-73.167 23 -126.5 23c-63.333 0 -119.666 -8.33301 -168.999 -25
v47c53.333 17.333 114.666 26 183.999 26c30 0 59.333 -3.33301 88 -10h202l-3 -47h-111c51.333 -44 77 -116 77 -216c0 -61.333 -10.167 -113.666 -30.5 -156.999s-48.166 -75.833 -83.499 -97.5s-75 -32.5 -119 -32.5c-26 0 -46.667 3 -62 9zM303.999 -182.5
c-18 8.33301 -31.334 18.834 -40.001 31.501c-7.33301 -13.333 -18.666 -23.833 -33.999 -31.5s-34.333 -11.5 -57 -11.5h-83l4 49h71c20 0 36 3.16699 48 9.5s23 17.5 33 33.5h33c17.333 -30 44 -45 80 -45c26 0 44.5 6.16699 55.5 18.5s16.5 32.833 16.5 61.5v27h55v-32
c0 -40.667 -10.667 -71.334 -32 -92.001s-51.333 -31 -90 -31c-22 0 -42 4.16699 -60 12.5z" />
    <glyph glyph-name="uni0E11" unicode="&#xe11;" horiz-adv-x="580" 
d="M90 246c0 18 4.33203 36.667 12.999 56s21.334 42 38.001 68c14.667 24.667 25.167 43.834 31.5 57.501s9.5 26.5 9.5 38.5c0 20 -9.33301 30 -28 30s-36.667 -8 -54 -24v-38h-45v106h45v-28c21.333 18.667 44.666 28 69.999 28c26.667 0 44.667 -10.333 54 -31
c38.667 27.333 80.667 41 126 41c56 0 95.833 -14.833 119.5 -44.5s35.5 -76.834 35.5 -141.501v-364h-55v367c0 33.333 -3.16699 59.666 -9.5 78.999s-17.666 33.5 -33.999 42.5s-40.166 13.5 -71.499 13.5c-18 0 -36.5 -3.5 -55.5 -10.5s-34.833 -16.5 -47.5 -28.5
c0 -15.333 -3.5 -30.666 -10.5 -45.999s-17.5 -35.333 -31.5 -60c-14.667 -24.667 -25.834 -45.667 -33.501 -63s-11.5 -35 -11.5 -53v-241h-55v246z" />
    <glyph glyph-name="uni0E12" unicode="&#xe12;" horiz-adv-x="977" 
d="M110.5 59c-37 46 -55.5029 115.665 -55.5029 208.998c0 90.667 13.167 160.334 39.5 209.001s64.5 73 114.5 73c24 0 43.667 -4 59 -12s31 -21.333 47 -40c32 34.667 70.333 52 115 52c34.667 0 61.167 -10.167 79.5 -30.5s27.5 -51.166 27.5 -92.499v-306
c26 -26.667 53 -47.334 81 -62.001s59.333 -22 94 -22c46.667 0 80.834 11.333 102.501 34s32.5 58.667 32.5 108v361h55v-358c0 -63.333 -14.667 -111.166 -44 -143.499s-72 -48.5 -128 -48.5c-42 0 -77.667 6.83301 -107 20.5s-58.333 33.834 -87 60.501l-5 -71h-48v421
c0 30 -5 51 -15 63s-27.667 18 -53 18c-36 0 -63.667 -16.667 -83 -50h-35c-12.667 18.667 -24.667 31.667 -36 39s-26.666 11 -45.999 11c-38 0 -65.167 -20.333 -81.5 -61s-24.5 -98.334 -24.5 -173.001c0 -82 14 -141 42 -177s69.333 -54 124 -54
c29.333 0 52 2.66699 68 8v-47c-19.333 -5.33301 -45.666 -8 -78.999 -8c-65.333 0 -116.5 23 -153.5 69z" />
    <glyph glyph-name="uni0E13" unicode="&#xe13;" horiz-adv-x="951" 
d="M499.5 38.5c-28.333 32.333 -42.5029 80.168 -42.5029 143.501v174c0 53.333 -12.667 91 -38 113s-67.333 33 -126 33c-39.333 0 -75.666 -6.16699 -108.999 -18.5s-59.666 -28.5 -78.999 -48.5v-28l120 -26v-48c-53.333 -12.667 -80 -43.667 -80 -93v-139
c0 -18.667 4.33301 -32.5 13 -41.5s21.667 -13.5 39 -13.5h59v-46h-80c-27.333 0 -48.5 8.16699 -63.5 24.5s-22.5 38.5 -22.5 66.5v152c0 26.667 7 49.5 21 68.5s34.667 32.5 62 40.5l-118 26v80c26.667 26.667 60.167 48.667 100.5 66s86.5 26 138.5 26
c75.333 0 130.333 -16.333 165 -49s52 -82 52 -148v-174c0 -48.667 10.5 -84.5 31.5 -107.5s54.5 -34.5 100.5 -34.5c64.667 0 124 28 178 84v419h55v-540h-49l-5 71c-28 -26.667 -57.333 -46.834 -88 -60.501s-67 -20.5 -109 -20.5c-55.333 0 -97.166 16.167 -125.499 48.5
z" />
    <glyph glyph-name="uni0E14" unicode="&#xe14;" horiz-adv-x="628" 
d="M110.5 59c-37 46 -55.501 115.668 -55.501 209.001c0 89.333 21.667 158.666 65 207.999s109.333 74 198 74c79.333 0 138.333 -19.833 177 -59.5s58 -89.834 58 -150.501v-340h-55v343c0 48 -14.5 86.5 -43.5 115.5s-74.833 43.5 -137.5 43.5
c-138.667 0 -208 -78 -208 -234c0 -81.333 13.833 -140.166 41.5 -176.499s69.167 -54.5 124.5 -54.5c29.333 0 52 2.66699 68 8v-47c-19.333 -5.33301 -45.666 -8 -78.999 -8c-65.333 0 -116.5 23 -153.5 69z" />
    <glyph glyph-name="uni0E15" unicode="&#xe15;" horiz-adv-x="628" 
d="M110.5 59c-37 46 -55.5029 115.666 -55.5029 208.999c0 90.667 13.333 160.334 40 209.001s66 73 118 73c24.667 0 45.334 -4.16699 62.001 -12.5s32.667 -21.5 48 -39.5c15.333 17.333 33.333 30.333 54 39s42 13 64 13c36 0 63.667 -10.167 83 -30.5
s29 -51.166 29 -92.499v-427h-55v421c0 30 -5.33301 51 -16 63s-29 18 -55 18c-17.333 0 -33.833 -4.16699 -49.5 -12.5s-28.167 -20.833 -37.5 -37.5h-35c-12.667 18 -25.167 30.833 -37.5 38.5s-28.166 11.5 -47.499 11.5c-40 0 -68.5 -20.333 -85.5 -61
s-25.5 -98.334 -25.5 -173.001c0 -82 14 -141 42 -177s69.333 -54 124 -54c29.333 0 52 2.66699 68 8v-47c-19.333 -5.33301 -45.666 -8 -78.999 -8c-65.333 0 -116.5 23 -153.5 69z" />
    <glyph glyph-name="uni0E16" unicode="&#xe16;" horiz-adv-x="600" 
d="M112.5 24.5c-15 16.333 -22.498 38.5 -22.498 66.5v152c0 26.667 7 49.5 21 68.5s34.667 32.5 62 40.5l-118 26v80c26 26 60.333 47.833 103 65.5s90.667 26.5 144 26.5c76 0 132.167 -16.5 168.5 -49.5s54.5 -82.167 54.5 -147.5v-353h-55v356
c0 53.333 -13.167 91 -39.5 113s-69.5 33 -129.5 33c-40.667 0 -78.834 -6.16699 -114.501 -18.5s-62.834 -28.5 -81.501 -48.5v-28l120 -26v-48c-53.333 -12.667 -80 -43.667 -80 -93v-139c0 -18.667 4.33301 -32.5 13 -41.5s21.667 -13.5 39 -13.5h59v-46h-80
c-27.333 0 -48.5 8.16699 -63.5 24.5z" />
    <glyph glyph-name="uni0E17" unicode="&#xe17;" horiz-adv-x="585" 
d="M75 540h48l5 -71c28 26 58 46 90 60s70 21 114 21c57.333 0 101.333 -16.333 132 -49s46 -80.334 46 -143.001v-358h-55v361c0 48.667 -11.5 84.334 -34.5 107.001s-58.833 34 -107.5 34c-68 0 -129 -28 -183 -84v-418h-55v540z" />
    <glyph glyph-name="uni0E18" unicode="&#xe18;" horiz-adv-x="520" 
d="M156 0.5c-34.667 7 -65.0039 15.5039 -91.0039 25.5039v207h52v-172c46 -16 93.667 -24 143 -24c50.667 0 88.5 8.66699 113.5 26s37.5 46 37.5 86c0 32.667 -6.16699 57.667 -18.5 75s-29 29.833 -50 37.5s-54.167 16.5 -99.5 26.5c-46 10 -80.167 18.667 -102.5 26
s-42.166 19.666 -59.499 36.999s-26 41.666 -26 72.999c0 44.667 18.333 76.834 55 96.501s89.334 29.5 158.001 29.5c30 0 61.5 -2.5 94.5 -7.5s59.5 -11.167 79.5 -18.5v-49c-22 8 -48.333 14.5 -79 19.5s-59.667 7.5 -87 7.5c-55.333 0 -97.333 -5.16699 -126 -15.5
s-43 -30.833 -43 -61.5c0 -18.667 5.33301 -33.5 16 -44.5s24.667 -19.333 42 -25s44 -12.834 80 -21.501c8.66699 -1.33301 16.334 -2.83301 23.001 -4.5l18 -4.5c41.333 -10 73.833 -20.333 97.5 -31s43.167 -27.334 58.5 -50.001s23 -54.334 23 -95.001
c0 -54 -17.667 -94 -53 -120s-84.666 -39 -147.999 -39c-37.333 0 -73.333 3.5 -108 10.5z" />
    <glyph glyph-name="uni0E19" unicode="&#xe19;" horiz-adv-x="585" 
d="M119.5 38.5c-29.667 32.333 -44.502 80.167 -44.502 143.5v358h55v-361c0 -48.667 11 -84.5 33 -107.5s57.333 -34.5 106 -34.5c70 0 132 28 186 84v419h55v-540h-48l-5 71c-27.333 -26 -57.666 -46 -90.999 -60s-71.666 -21 -114.999 -21
c-58 0 -101.833 16.167 -131.5 48.5z" />
    <glyph glyph-name="uni0E1A" unicode="&#xe1a;" horiz-adv-x="603" 
d="M132.5 42c-38.333 34.667 -57.5 86.333 -57.5 155v343h55v-350c0 -102 57.333 -153 172 -153c114 0 171 51 171 153v350h55v-343c0 -68 -19.167 -119.5 -57.5 -154.5s-94.5 -52.5 -168.5 -52.5c-74.667 0 -131.167 17.333 -169.5 52z" />
    <glyph glyph-name="uni0E1B" unicode="&#xe1b;" horiz-adv-x="603" 
d="M132.5 42c-38.333 34.667 -57.5 86.333 -57.5 155v343h55v-350c0 -102 57.333 -153 172 -153c114 0 171 51 171 153v510h55v-503c0 -68 -19.167 -119.5 -57.5 -154.5s-94.5 -52.5 -168.5 -52.5c-74.667 0 -131.167 17.333 -169.5 52z" />
    <glyph glyph-name="uni0E1C" unicode="&#xe1c;" horiz-adv-x="637" 
d="M75 447c0 27.333 7.83301 49.667 23.5 67s36.834 26 63.501 26h76l2 -47h-57c-18.667 0 -32.334 -4.5 -41.001 -13.5s-13 -23.5 -13 -43.5v-363l173 302h33l173 -302v467h54v-540h-61l-182 319l-183 -319h-61v447z" />
    <glyph glyph-name="uni0E1D" unicode="&#xe1d;" horiz-adv-x="637" 
d="M75 447c0 27.333 7.83301 49.667 23.5 67s36.834 26 63.501 26h76l2 -47h-57c-18.667 0 -32.334 -4.5 -41.001 -13.5s-13 -23.5 -13 -43.5v-363l173 302h33l173 -302v627h54v-700h-61l-182 319l-183 -319h-61v447z" />
    <glyph glyph-name="uni0E1E" unicode="&#xe1e;" horiz-adv-x="707" 
d="M45 540h56l101 -469l129 410v59h41l135 -469l100 469h55l-121 -540h-60l-122 420l-132 -420h-60z" />
    <glyph glyph-name="uni0E1F" unicode="&#xe1f;" horiz-adv-x="707" 
d="M45 540h56l101 -469l129 410v59h41l135 -469l134 629h55l-155 -700h-60l-122 420l-132 -420h-60z" />
    <glyph glyph-name="uni0E20" unicode="&#xe20;" horiz-adv-x="639" 
d="M55 46h43.0029c16 0 27.833 4.33301 35.5 13s11.5 22.334 11.5 41.001v143c0 28 5.16699 51.167 15.5 69.5s28.166 31.5 53.499 39.5l-121 26v80c26 26 60.5 47.833 103.5 65.5s90.833 26.5 143.5 26.5c76.667 0 133.167 -16.5 169.5 -49.5s54.5 -82.167 54.5 -147.5
v-353h-55v356c0 53.333 -13.333 91 -40 113s-69.667 33 -129 33c-40.667 0 -78.834 -6.16699 -114.501 -18.5s-63.167 -28.5 -82.5 -48.5v-28l123 -26v-48c-24.667 -6.66699 -41.834 -16.834 -51.501 -30.501s-14.5 -34.5 -14.5 -62.5v-142c0 -32 -7.5 -56.333 -22.5 -73
s-37.167 -25 -66.5 -25h-56v46z" />
    <glyph glyph-name="uni0E21" unicode="&#xe21;" horiz-adv-x="585" 
d="M217.5 10.5c-31.667 13.667 -61.5 33.832 -89.5 60.499l-5 -71h-48v540h55v-419c54 -56 115 -84 183 -84c48.667 0 84.5 11.5 107.5 34.5s34.5 58.833 34.5 107.5v361h55v-358c0 -63.333 -15.333 -111.166 -46 -143.499s-75 -48.5 -133 -48.5
c-44 0 -81.833 6.83301 -113.5 20.5z" />
    <glyph glyph-name="uni0E22" unicode="&#xe22;" horiz-adv-x="578" 
d="M113.5 30.5c-39 27 -58.499 66.499 -58.499 118.499c0 34 7.83301 62.167 23.5 84.5s37.5 38.5 65.5 48.5c-26 6.66699 -46.833 20.334 -62.5 41.001s-23.5 47.667 -23.5 81c0 48 13.833 84.333 41.5 109s63.834 37 108.501 37c28 0 54.333 -3.33301 79 -10v-47
c-18.667 6 -41.334 9 -68.001 9c-70.667 0 -106 -32.667 -106 -98c0 -66 39.667 -99 119 -99h58l5 -44h-66c-38.667 0 -68.334 -9.66699 -89.001 -29s-31 -47 -31 -83c0 -74.667 57.333 -112 172 -112c56 0 97.833 11.333 125.5 34s41.5 57.667 41.5 105v364h55v-332
c0 -73.333 -16.667 -128 -50 -164s-90.333 -54 -171 -54c-73.333 0 -129.5 13.5 -168.5 40.5z" />
    <glyph glyph-name="uni0E23" unicode="&#xe23;" horiz-adv-x="502" 
d="M145.5 -3.5c-30.333 4.33301 -55.501 10.4971 -75.501 18.4971v49c49.333 -18 103.333 -27 162 -27c54.667 0 95.167 6.83301 121.5 20.5s39.5 39.167 39.5 76.5c0 22 -5.33301 39.833 -16 53.5s-24.667 24.334 -42 32.001s-42 16.5 -74 26.5
c-6.66699 2.66699 -16.667 6 -30 10c-38.667 12.667 -69.5 24.334 -92.5 35.001s-42.667 25.834 -59 45.501s-24.5 44.834 -24.5 75.501c0 92 67 138 201 138c26.667 0 53.5 -2.16699 80.5 -6.5s51.167 -10.166 72.5 -17.499v-49c-44 16.667 -92.333 25 -145 25
c-54.667 0 -94.167 -6.5 -118.5 -19.5s-36.5 -36.167 -36.5 -69.5c0 -21.333 6.33301 -38.833 19 -52.5s29.5 -25 50.5 -34s52.5 -20.167 94.5 -33.5c38 -12 68.833 -23.833 92.5 -35.5s43.167 -27.334 58.5 -47.001s23 -44.834 23 -75.501
c0 -52 -18.167 -89.167 -54.5 -111.5s-87.166 -33.5 -152.499 -33.5c-32.667 0 -64.167 2.16699 -94.5 6.5z" />
    <glyph glyph-name="uni0E24" unicode="&#xe24;" horiz-adv-x="603" 
d="M473 356c0 53.333 -13.665 91 -40.998 113s-71 33 -131 33c-40.667 0 -78.834 -6.16699 -114.501 -18.5s-62.834 -28.5 -81.501 -48.5v-28l120 -26v-48c-53.333 -12.667 -80 -43.667 -80 -93v-139c0 -18.667 4.33301 -32.5 13 -41.5s21.667 -13.5 39 -13.5h59v-46h-80
c-27.333 0 -48.5 8.16699 -63.5 24.5s-22.5 38.5 -22.5 66.5v152c0 26.667 7 49.5 21 68.5s34.667 32.5 62 40.5l-118 26v80c26 26 60.333 47.833 103 65.5s90.667 26.5 144 26.5c150.667 0 226 -65.667 226 -197v-513h-55v516z" />
    <glyph glyph-name="uni0E25" unicode="&#xe25;" horiz-adv-x="578" 
d="M102.5 28.5c-31.667 25.667 -47.499 64.835 -47.499 117.502c0 50.667 16.667 90.167 50 118.5s84.333 42.5 153 42.5h190v53c0 35.333 -5 63.166 -15 83.499s-26.833 35.166 -50.5 44.499s-56.834 14 -99.501 14c-63.333 0 -120 -8.33301 -170 -25v47
c52 17.333 112.667 26 182 26c73.333 0 126.333 -15.333 159 -46s49 -79.334 49 -146.001v-358h-55v260h-186c-53.333 0 -92.333 -9.16699 -117 -27.5s-37 -47.166 -37 -86.499c0 -38 11.167 -65.667 33.5 -83s56.833 -26 103.5 -26c26 0 48.667 2.66699 68 8v-47
c-23.333 -5.33301 -51 -8 -83 -8c-53.333 0 -95.833 12.833 -127.5 38.5z" />
    <glyph glyph-name="uni0E26" unicode="&#xe26;" horiz-adv-x="641" 
d="M511 356c0 52.667 -13.4971 90.167 -40.4971 112.5s-70.5 33.5 -130.5 33.5c-40.667 0 -78.834 -6.16699 -114.501 -18.5s-63.167 -28.5 -82.5 -48.5v-28l123 -26v-48c-24.667 -6.66699 -41.834 -16.834 -51.501 -30.501s-14.5 -34.5 -14.5 -62.5v-142
c0 -32 -7.5 -56.333 -22.5 -73s-37.167 -25 -66.5 -25h-56v46h43c16 0 27.833 4.33301 35.5 13s11.5 22.334 11.5 41.001v143c0 28 5.16699 51.167 15.5 69.5s28.166 31.5 53.499 39.5l-121 26v80c26 26 60.5 47.833 103.5 65.5s90.833 26.5 143.5 26.5
c76.667 0 133.5 -16.5 170.5 -49.5s55.5 -82.167 55.5 -147.5v-513h-55v516z" />
    <glyph glyph-name="uni0E27" unicode="&#xe27;" horiz-adv-x="490" 
d="M55 16l0.000976562 47.001c42.667 -17.333 85 -26 127 -26c52 0 92.333 8.16699 121 24.5s48.667 41.166 60 74.499s17 78 17 134c0 80.667 -15.5 139.5 -46.5 176.5s-82.833 55.5 -155.5 55.5c-42 0 -83 -8.66699 -123 -26v48c19.333 8.66699 39.166 15.167 59.499 19.5
s44.833 6.5 73.5 6.5c84 0 146.167 -23.333 186.5 -70s60.5 -116.667 60.5 -210s-18.167 -163.333 -54.5 -210s-98.166 -70 -185.499 -70c-54.667 0 -101.334 8.66699 -140.001 26z" />
    <glyph glyph-name="uni0E28" unicode="&#xe28;" horiz-adv-x="609" 
d="M75 358c0 64 18.168 111.999 54.501 143.999s92.5 48 168.5 48c31.333 0 61.333 -3.33301 90 -10h181l-3 -47h-96c32.667 -32 49 -77 49 -135v-358h-55v366c0 47.333 -13.833 81.833 -41.5 103.5s-69.167 32.5 -124.5 32.5c-56.667 0 -98.834 -10.833 -126.501 -32.5
s-41.5 -56.167 -41.5 -103.5v-139c37.333 30 79.666 45 126.999 45h67l3 -46h-71c-24 0 -46.167 -3.66699 -66.5 -11s-40.166 -18.666 -59.499 -33.999v-181h-55v358z" />
    <glyph glyph-name="uni0E29" unicode="&#xe29;" horiz-adv-x="623" 
d="M132.5 42c-38.333 34.667 -57.5 86.333 -57.5 155v343h55v-350c0 -102 57.333 -153 172 -153c114 0 171 51 171 153v94h-157v46h157v210h55v-210h65l-5 -46h-60v-87c0 -68 -19.167 -119.5 -57.5 -154.5s-94.5 -52.5 -168.5 -52.5c-74.667 0 -131.167 17.333 -169.5 52z
" />
    <glyph glyph-name="uni0E2A" unicode="&#xe2a;" horiz-adv-x="603" 
d="M102.5 28.5c-31.667 25.667 -47.499 64.834 -47.499 117.501c0 50.667 16.667 90.167 50 118.5s84.333 42.5 153 42.5h190v53c0 35.333 -5 63.166 -15 83.499s-26.833 35.166 -50.5 44.499s-56.834 14 -99.501 14c-63.333 0 -120 -8.33301 -170 -25v47
c52 17.333 112.667 26 182 26c35.333 0 65.333 -3.33301 90 -10h163l-3 -47h-81c26 -30 39 -75 39 -135v-358h-55v260h-186c-53.333 0 -92.333 -9.16699 -117 -27.5s-37 -47.166 -37 -86.499c0 -38 11.167 -65.667 33.5 -83s56.833 -26 103.5 -26c26 0 48.667 2.66699 68 8
v-47c-23.333 -5.33301 -51 -8 -83 -8c-53.333 0 -95.833 12.833 -127.5 38.5z" />
    <glyph glyph-name="uni0E2B" unicode="&#xe2b;" horiz-adv-x="585" 
d="M75 540l55.001 0.000976562v-182h201c47.333 0 80.666 9.66699 99.999 29s29 49 29 89v64h55v-64c0 -76.667 -30 -123.667 -90 -141c33.333 -10 55.5 -26.333 66.5 -49s16.5 -53 16.5 -91v-195h-55v191c0 31.333 -3.83301 55.666 -11.5 72.999s-20.5 29.5 -38.5 36.5
s-43.667 10.5 -77 10.5h-196v-311h-55v540z" />
    <glyph glyph-name="uni0E2C" unicode="&#xe2c;" horiz-adv-x="707" 
d="M45 540l56 0.00195312l102 -469l128 370v59h41l133 -429l83 381c4 17.333 6 31.333 6 42c0 17.333 -4.5 29.666 -13.5 36.999s-23.833 11 -44.5 11h-40l7 45h39c28.667 0 49.667 5 63 15s22.666 28 27.999 54l9 44h54l-11 -49c-6 -28 -15.167 -49 -27.5 -63
s-28.166 -22.667 -47.499 -26c24.667 -10.667 37 -32.667 37 -66c0 -10.667 -1.66699 -24.334 -5 -41.001l-101 -455h-60l-122 383l-133 -383h-59z" />
    <glyph glyph-name="uni0E2D" unicode="&#xe2d;" horiz-adv-x="551" 
d="M146 0.5c-34.667 7 -65 15.499 -91 25.499v266h182l3 -47h-130v-184c46 -16 92.667 -24 140 -24c46.667 0 84 7.66699 112 23s48.333 39.833 61 73.5s19 78.834 19 135.501c0 58.667 -6.5 104.667 -19.5 138s-34.5 57.5 -64.5 72.5s-71.333 22.5 -124 22.5
c-64 0 -121 -8.33301 -171 -25v47c50.667 17.333 112.667 26 186 26c88 0 151.167 -22.667 189.5 -68s57.5 -116.333 57.5 -213c0 -94 -19.167 -164 -57.5 -210s-100.166 -69 -185.499 -69c-36.667 0 -72.334 3.5 -107.001 10.5z" />
    <glyph glyph-name="uni0E2E" unicode="&#xe2e;" horiz-adv-x="583" 
d="M146 0.5c-34.667 7 -65 15.5 -91 25.5v266h182l3 -47h-130v-184c46 -16 92.667 -24 140 -24c46.667 0 84 7.66699 112 23s48.333 39.833 61 73.5s19 78.834 19 135.501c0 58.667 -6.5 104.667 -19.5 138s-34.5 57.5 -64.5 72.5s-71.333 22.5 -124 22.5
c-64 0 -121 -8.33301 -171 -25v47c50.667 17.333 112.667 26 186 26c31.333 0 61.333 -3.33301 90 -10h189l-3 -47h-102c26 -22.667 44.667 -52.334 56 -89.001s17 -81.667 17 -135c0 -94 -19.167 -164 -57.5 -210s-100.166 -69 -185.499 -69
c-36.667 0 -72.334 3.5 -107.001 10.5z" />
    <glyph glyph-name="uni0E2F" unicode="&#xe2f;" horiz-adv-x="494" 
d="M364 342c-40 -28 -87.665 -42.001 -142.998 -42.001c-51.333 0 -91.833 13.167 -121.5 39.5s-44.5 60.5 -44.5 102.5c0 36.667 5.66699 69.334 17 98.001h55c-12.667 -25.333 -19 -57 -19 -95c0 -30.667 9.66699 -54.5 29 -71.5s48.666 -25.5 87.999 -25.5
c57.333 0 103.666 14 138.999 42v150h55v-540h-55v342z" />
    <glyph glyph-name="uni0E30" unicode="&#xe30;" horiz-adv-x="322" 
d="M55 443h49v-49h163l-2 -45h-210v94zM55 163h49v-50h163l-2 -44h-210v94z" />
    <glyph glyph-name="uni0E31" unicode="&#xe31;" 
d="M-274 758h49v-76h279l-3 -43h-325v119z" />
    <glyph glyph-name="uni0E32" unicode="&#xe32;" horiz-adv-x="435" 
d="M305 357c0 35.333 -3.66992 63.168 -11.0029 83.501s-21.166 35.666 -41.499 45.999s-50.166 15.5 -89.499 15.5c-21.333 0 -44.666 -2.16699 -69.999 -6.5s-48 -10.5 -68 -18.5v47c20 8 43.167 14.333 69.5 19s52.5 7 78.5 7c65.333 0 112.833 -14.667 142.5 -44
s44.5 -77.333 44.5 -144v-362h-55v357z" />
    <glyph glyph-name="uni0E33" unicode="&#xe33;" horiz-adv-x="435" 
d="M-174 628.5c-18.667 18.333 -28 40.833 -28 67.5s9.33301 49.167 28 67.5s41.667 27.5 69 27.5c26.667 0 49.334 -9.16699 68.001 -27.5s28 -40.833 28 -67.5s-9.33301 -49.167 -28 -67.5s-41.334 -27.5 -68.001 -27.5c-27.333 0 -50.333 9.16699 -69 27.5zM-65.5 656.5
c11 11 16.5 24.167 16.5 39.5s-5.5 28.5 -16.5 39.5s-24.167 16.5 -39.5 16.5c-16 0 -29.5 -5.5 -40.5 -16.5s-16.5 -24.167 -16.5 -39.5s5.5 -28.5 16.5 -39.5s24.5 -16.5 40.5 -16.5c15.333 0 28.5 5.5 39.5 16.5zM305 357c0 35.333 -3.66992 63.168 -11.0029 83.501
s-21.166 35.666 -41.499 45.999s-50.166 15.5 -89.499 15.5c-21.333 0 -44.666 -2.16699 -69.999 -6.5s-48 -10.5 -68 -18.5v47c20 8 43.167 14.333 69.5 19s52.5 7 78.5 7c65.333 0 112.833 -14.667 142.5 -44s44.5 -77.333 44.5 -144v-362h-55v357z" />
    <glyph glyph-name="uni0E34" unicode="&#xe34;" 
d="M-449 682h374v-43h-377z" />
    <glyph glyph-name="uni0E35" unicode="&#xe35;" 
d="M-449 682h325v87h49v-130h-377z" />
    <glyph glyph-name="uni0E36" unicode="&#xe36;" 
d="M-449 682l242 -0.000976562c-7.33301 8.66699 -11 19.667 -11 33c0 22.667 7.16699 40.834 21.5 54.501s32.833 20.5 55.5 20.5c24 0 42.833 -7.16699 56.5 -21.5s20.5 -31.833 20.5 -52.5c0 -22 -7.5 -40.333 -22.5 -55s-34.167 -22 -57.5 -22h-308zM-110.5 685.999
c7.66699 8 11.5 17.667 11.5 29c0 12.667 -3.83301 23 -11.5 31s-17.834 12 -30.501 12c-12 0 -22 -4 -30 -12s-12 -18.333 -12 -31c0 -11.333 4 -21 12 -29s18 -12 30 -12c12.667 0 22.834 4 30.501 12z" />
    <glyph glyph-name="uni0E37" unicode="&#xe37;" 
d="M-449 682h216v87h45v-87h68v87h45v-130h-377z" />
    <glyph glyph-name="uni0E38" unicode="&#xe38;" 
d="M-125 -110h-68l3 41h115v-179h-50v138z" />
    <glyph glyph-name="uni0E39" unicode="&#xe39;" 
d="M-234.5 -234c-16.333 14 -24.501 31.667 -24.501 53v72h-52l2 40h94v-110c0 -11.333 4 -20.166 12 -26.499s19.333 -9.5 34 -9.5s26.5 3.16699 35.5 9.5s13.5 15.166 13.5 26.499v110h45v-112c0 -21.333 -8.66699 -39 -26 -53s-40 -21 -68 -21
c-27.333 0 -49.166 7 -65.499 21z" />
    <glyph glyph-name="uni0E3A" unicode="&#xe3a;" 
d="M-125.5 -121.5c-6.33301 6.33301 -9.5 13.833 -9.5 22.5c0 9.33301 3.16699 17.166 9.5 23.499s14.166 9.5 23.499 9.5s17.166 -3.16699 23.499 -9.5s9.5 -14.166 9.5 -23.499s-3.16699 -17 -9.5 -23s-14.166 -9 -23.499 -9s-17.166 3.16699 -23.499 9.5z" />
    <glyph glyph-name="uni0E3F" unicode="&#xe3f;" horiz-adv-x="619" 
d="M268 0l-192.999 0.000976562v644h193v86h45v-86h45c62 0 107.5 -14.333 136.5 -43s43.5 -70.334 43.5 -125.001c0 -35.333 -7.33301 -65 -22 -89s-35.334 -42 -62.001 -54c73.333 -16.667 110 -67 110 -151c0 -62.667 -15.5 -108.667 -46.5 -138s-77.833 -44 -140.5 -44
h-64v-86h-45v86zM268.001 354.001v245h-138v-245h138zM363.001 354.001c42.667 0 73.833 10.668 93.5 32.001s29.5 50.333 29.5 87c0 43.333 -10 75.166 -30 95.499s-56.667 30.5 -110 30.5h-33v-245h50zM268 43.002v268h-138v-268h138zM372 43.002
c48 0 83 10.832 105 32.499s33 57.834 33 108.501c0 43.333 -11.5 75.333 -34.5 96s-62.5 31 -118.5 31h-44v-268h59z" />
    <glyph glyph-name="uni0E40" unicode="&#xe40;" horiz-adv-x="286" 
d="M97.5 24.5c-15 16.333 -22.5 38.5 -22.5 66.5v449h55v-439c0 -18.667 4.33301 -32.5 13 -41.5s21.667 -13.5 39 -13.5h49v-46h-70c-27.333 0 -48.5 8.16699 -63.5 24.5z" />
    <glyph glyph-name="uni0E41" unicode="&#xe41;" horiz-adv-x="496" 
d="M97.5 24.5c-15 16.333 -22.5 38.5 -22.5 66.5v449h55v-439c0 -18.667 4.33301 -32.5 13 -41.5s21.667 -13.5 39 -13.5h44v-46h-65c-27.333 0 -48.5 8.16699 -63.5 24.5zM312.5 24.5c-15 16.333 -22.5 38.5 -22.5 66.5v449h55v-417c0 -28 3.5 -47.833 10.5 -59.5
s20.833 -17.5 41.5 -17.5h44v-46h-65c-27.333 0 -48.5 8.16699 -63.5 24.5z" />
    <glyph glyph-name="uni0E42" unicode="&#xe42;" horiz-adv-x="300" 
d="M141.5 24.5c-15 16.333 -22.5 38.501 -22.5 66.501v372c0 38 -3.33301 67.833 -10 89.5s-17.5 39.167 -32.5 52.5s-37.167 26.666 -66.5 39.999v49h256v-46h-185c24.667 -13.333 43.5 -27.5 56.5 -42.5s22.333 -34.667 28 -59s8.5 -56.833 8.5 -97.5v-326
c0 -28 3.5 -47.833 10.5 -59.5s20.833 -17.5 41.5 -17.5h49v-46h-70c-27.333 0 -48.5 8.16699 -63.5 24.5z" />
    <glyph glyph-name="uni0E43" unicode="&#xe43;" horiz-adv-x="278" 
d="M84.5 24.5c-15 16.333 -22.4971 38.4971 -22.4971 66.4971v260c0 26 4 48.667 12 68s17.5 35.333 28.5 48s25.5 27.334 43.5 44.001c18 16 31.167 29.5 39.5 40.5s12.5 23.5 12.5 37.5c0 23.333 -6.33301 39.333 -19 48s-33 13 -61 13
c-38.667 0 -76.334 -10.333 -113.001 -31v45c18 10.667 38.167 18.834 60.5 24.501s44.166 8.5 65.499 8.5c41.333 0 72 -9 92 -27s30 -44 30 -78c0 -20.667 -5 -38.167 -15 -52.5s-25.333 -30.833 -46 -49.5c-24.667 -22 -43.334 -42.667 -56.001 -62
s-19 -44.666 -19 -75.999v-251c0 -18.667 4.33301 -32.5 13 -41.5s21.667 -13.5 39 -13.5h49v-46h-70c-27.333 0 -48.5 8.16699 -63.5 24.5z" />
    <glyph glyph-name="uni0E44" unicode="&#xe44;" horiz-adv-x="285" 
d="M115.5 24.5c-15 16.333 -22.5 38.5 -22.5 66.5v374c0 42.667 8.83301 79.334 26.5 110.001s41.5 55 71.5 73h-181v46h250v-48c-39.333 -18 -67.833 -42.333 -85.5 -73s-26.5 -71.334 -26.5 -122.001v-350c0 -18.667 4.33301 -32.5 13 -41.5s21.667 -13.5 39 -13.5h49v-46
h-70c-27.333 0 -48.5 8.16699 -63.5 24.5z" />
    <glyph glyph-name="uni0E45" unicode="&#xe45;" horiz-adv-x="435" 
d="M305 357c0 35.333 -3.66992 63.168 -11.0029 83.501s-21.166 35.666 -41.499 45.999s-50.166 15.5 -89.499 15.5c-21.333 0 -44.666 -2.16699 -69.999 -6.5s-48 -10.5 -68 -18.5v47c20 8 43.167 14.333 69.5 19s52.5 7 78.5 7c65.333 0 112.833 -14.667 142.5 -44
s44.5 -77.333 44.5 -144v-522h-55v517z" />
    <glyph glyph-name="uni0E46" unicode="&#xe46;" horiz-adv-x="553" 
d="M423 423c0 21.333 -2.66895 38.333 -8.00195 51s-15.333 20.667 -30 24c-8 1.33301 -13.667 2 -17 2c-5.33301 0 -14 -1.33301 -26 -4c-24.667 -5.33301 -43.334 -20.333 -56.001 -45h-34c-10 18.667 -19.5 31.834 -28.5 39.501s-22.167 11.5 -39.5 11.5
c-23.333 0 -41.666 -9.5 -54.999 -28.5s-20 -48.5 -20 -88.5c0 -38 8.83301 -65.333 26.5 -82s43.5 -25 77.5 -25c29.333 0 52.333 2.66699 69 8v-47c-22 -6 -48.333 -9 -79 -9c-46.667 0 -83 13 -109 39s-39 64.667 -39 116c0 53.333 11.333 94.166 34 122.499
s52 42.5 88 42.5c22.667 0 40.834 -3.83301 54.501 -11.5s26.167 -20.5 37.5 -38.5c25.333 33.333 60 50 104 50c40.667 0 68.334 -11.833 83.001 -35.5s22 -63.5 22 -119.5v-395h-55v423z" />
    <glyph glyph-name="uni0E47" unicode="&#xe47;" 
d="M-430.5 666c-20.333 18 -30.4971 43.334 -30.4971 76.001c0 34.667 10.667 62 32 82s51.666 30 90.999 30h234l-4 -39h-227c-28.667 0 -49.5 -5.83301 -62.5 -17.5s-19.5 -30.167 -19.5 -55.5c0 -43.333 24.667 -65 74 -65c22.667 0 39 3.5 49 10.5s15 18.167 15 33.5v28
h41v-28c0 -15.333 4 -26 12 -32s21.333 -9 40 -9h65v-39h-68c-16.667 0 -31.334 2.5 -44.001 7.5s-21.334 12.833 -26.001 23.5c-6 -10.667 -17.167 -18.834 -33.5 -24.501s-33.833 -8.5 -52.5 -8.5c-36.667 0 -65.167 9 -85.5 27z" />
    <glyph glyph-name="uni0E48" unicode="&#xe48;" 
d="M-129 799h55v-160h-55v160z" />
    <glyph glyph-name="uni0E49" unicode="&#xe49;" 
d="M-281 736h-79v42h123v-96h221l-3 -43h-262v97z" />
    </font>
</defs>
</svg>
