<?xml version="1.0" standalone="no"?>
<!DOCTYPE svg PUBLIC "-//W3C//DTD SVG 1.1//EN" "http://www.w3.org/Graphics/SVG/1.1/DTD/svg11.dtd" >
<svg>
<metadata>
Created by FontForge 20090914 at Fri Oct 11 09:26:52 2019
 By www-data
Copyright (c) 2015, Cadson Demak (info@cadsondemak.com)
</metadata>
<defs>
<font id="Kanit-Regular" horiz-adv-x="0" >
  <font-face 
    font-family="Kanit"
    font-weight="400"
    font-stretch="normal"
    units-per-em="1000"
    panose-1="0 0 5 0 0 0 0 0 0 0"
    ascent="750"
    descent="-250"
    x-height="474"
    cap-height="644"
    bbox="-594 -351 1157 1061"
    underline-thickness="50"
    underline-position="-50"
    unicode-range="U+000D-U+FB02"
  />
<missing-glyph horiz-adv-x="487" 
d="M37 714h411v-714h-411v714zM397 51v612h-309v-612h309z" />
    <glyph glyph-name="fi" unicode="fi" horiz-adv-x="530" 
d="M92 389l-69 0.000976562v85h69v49c0 32 7.83301 60.667 23.5 86s37.667 45.166 66 59.499s61.5 21.5 99.5 21.5c50 0 89 -5.66699 117 -17v-81c-8.66699 4 -21 7 -37 9s-32 3 -48 3c-38.667 0 -67.167 -6.66699 -85.5 -20s-27.5 -34.333 -27.5 -63v-47h267v-474h-109v389
h-158v-389h-108v389z" />
    <glyph glyph-name="fl" unicode="fl" horiz-adv-x="530" 
d="M92 389l-69.001 -0.000976562v85h69v51c0 48.667 16.333 88.334 49 119.001s76.334 46 131.001 46c39.333 0 74.333 -5 105 -15h90v-675h-109v389h-158v-389h-108v389zM357.999 473.999v123c-18 6 -38.667 9 -62 9c-64 0 -96 -28 -96 -84v-48h158z" />
    <glyph glyph-name="ru_lakkhangyaothai" unicode="&#xe24;&#xe45;" horiz-adv-x="881" 
d="M768.5 503c32.333 -31.333 48.5 -81.001 48.5 -149.001v-514h-109v500c0 29.333 -3 52.5 -9 69.5s-17.5 30 -34.5 39s-41.5 13.5 -73.5 13.5c-24 0 -46.667 -2.33301 -68 -7c17.333 -31.333 26 -71.333 26 -120v-495h-109v498c0 46 -10.667 78.167 -32 96.5
s-58 27.5 -110 27.5c-32.667 0 -63.5 -4.66699 -92.5 -14s-51.833 -21.666 -68.5 -36.999v-18l114 -29v-72c-26 -6.66699 -44.333 -17.334 -55 -32.001s-16 -36.667 -16 -66v-65c0 -15.333 3.33301 -26.333 10 -33s17.334 -10 32.001 -10h55v-86h-108
c-30 0 -53.667 9.33301 -71 28s-26 43 -26 73v94c0 66.667 26.333 108 79 124l-108 27v112c30 26.667 67.167 48.667 111.5 66s93.5 26 147.5 26c64 0 115 -10 153 -30c20.667 8.66699 45.167 15.834 73.5 21.501s56.166 8.5 83.499 8.5c72 0 124.167 -15.667 156.5 -47z
" />
    <glyph glyph-name="lu_lakkhangyaothai" unicode="&#xe26;&#xe45;" horiz-adv-x="919" 
d="M806.5 503c32.333 -31.333 48.5 -81 48.5 -149v-514h-109v500c0 29.333 -3 52.5 -9 69.5s-17.5 30 -34.5 39s-41.5 13.5 -73.5 13.5c-18.667 0 -42.667 -2.33301 -72 -7c17.333 -32.667 26 -72.667 26 -120v-495h-108v498c0 45.333 -10.333 77.333 -31 96
s-55.667 28 -105 28c-33.333 0 -64.5 -4.66699 -93.5 -14s-51.5 -21.666 -67.5 -36.999v-18l117 -29v-72c-24.667 -7.33301 -41.167 -17.833 -49.5 -31.5s-12.5 -35.834 -12.5 -66.501v-72c0 -81.333 -39.333 -122 -118 -122h-67v86h37c14 0 23.833 3.16699 29.5 9.5
s8.5 17.166 8.5 32.499v67c0 32 5 58.167 15 78.5s28.667 35.5 56 45.5l-110 27v112c29.333 26 66.166 47.833 110.499 65.5s93.5 26.5 147.5 26.5c61.333 0 111.333 -10.333 150 -31v1c20.667 8.66699 45.334 15.834 74.001 21.501s56.667 8.5 84 8.5
c72 0 124.167 -15.667 156.5 -47z" />
    <glyph glyph-name=".notdef" horiz-adv-x="487" 
d="M37 714h411v-714h-411v714zM397 51v612h-309v-612h309z" />
    <glyph glyph-name="nonmarkingreturn" unicode="&#xd;" horiz-adv-x="400" 
 />
    <glyph glyph-name="space" unicode=" " horiz-adv-x="370" 
 />
    <glyph glyph-name="exclam" unicode="!" horiz-adv-x="203" 
d="M47 483v161h109v-161l-6 -322h-97zM43 82h116v-82h-116v82z" />
    <glyph glyph-name="quotedbl" unicode="&#x22;" horiz-adv-x="341" 
d="M43 644h94l-13 -189h-81v189zM203 644h94l-13 -189h-81v189z" />
    <glyph glyph-name="numbersign" unicode="#" horiz-adv-x="702" 
d="M127 172h-84v73h107l48 153h-109v74h132l54 172h94l-54 -172h169l54 172h95l-54 -172h80v-74h-104l-48 -153h106v-73h-129l-54 -172h-94l54 172h-170l-54 -172h-93zM413 245l48 153h-170l-48 -153h170z" />
    <glyph glyph-name="dollar" unicode="$" horiz-adv-x="555" 
d="M239 -10c-77.333 2 -137.998 12.6621 -181.998 31.9951v96c59.333 -23.333 120 -35.333 182 -36v206c-2.66699 0 -5.33398 0.666992 -8.00098 2c-69.333 18 -118 40.833 -146 68.5s-42 65.834 -42 114.501c0 50.667 16.667 91.334 50 122.001s82 49.334 146 56.001v79h82
v-77c30 -1.33301 58.333 -4.33301 85 -9s49 -10 67 -16v-96c-46.667 17.333 -97.334 27 -152.001 29v-198c71.333 -19.333 121 -44.166 149 -74.499s42 -69.166 42 -116.499c0 -50 -16.167 -90.333 -48.5 -121s-79.833 -49.667 -142.5 -57v-80h-82v76zM239.002 555.995
c-28.667 -5.33301 -50.167 -14.5 -64.5 -27.5s-21.5 -31.5 -21.5 -55.5c0 -22.667 6.16699 -40.167 18.5 -52.5s34.833 -23.833 67.5 -34.5v170zM382.002 113.995c13.333 13.333 20.001 32.6689 20.001 58.002c0 23.333 -6 41.666 -18 54.999s-33 25.666 -63 36.999v-177
c27.333 4.66699 47.666 13.667 60.999 27z" />
    <glyph glyph-name="percent" unicode="%" horiz-adv-x="727" 
d="M79.5 398c-24.333 25.333 -36.501 59.333 -36.501 102c0 48.667 12 86.5 36 113.5s59.333 40.5 106 40.5c46 0 81 -13.5 105 -40.5s36 -64.833 36 -113.5c0 -42.667 -12.167 -76.667 -36.5 -102s-59.166 -38 -104.499 -38c-46 0 -81.167 12.667 -105.5 38zM481.999 644
h102l-341 -644h-102zM257.999 502c0 29.333 -5.83301 50.833 -17.5 64.5s-30.167 20.5 -55.5 20.5s-43.833 -6.83301 -55.5 -20.5s-17.5 -35.167 -17.5 -64.5c0 -50.667 24.333 -76 73 -76s73 25.333 73 76zM437.499 28c-24.333 25.333 -36.501 59.333 -36.501 102
c0 48.667 12 86.5 36 113.5s59.333 40.5 106 40.5c46 0 81 -13.5 105 -40.5s36 -64.833 36 -113.5c0 -42.667 -12.167 -76.667 -36.5 -102s-59.166 -38 -104.499 -38c-46 0 -81.167 12.667 -105.5 38zM615.998 132c0 29.333 -5.83301 50.833 -17.5 64.5
s-30.167 20.5 -55.5 20.5s-43.833 -6.83301 -55.5 -20.5s-17.5 -35.167 -17.5 -64.5c0 -50.667 24.333 -76 73 -76s73 25.333 73 76z" />
    <glyph glyph-name="ampersand" unicode="&#x26;" horiz-adv-x="668" 
d="M105.5 35.5c-41.667 30.333 -62.501 70.834 -62.501 121.501c0 43.333 12.667 80.666 38 111.999s63 60.666 113 87.999c-29.333 26 -51 50.167 -65 72.5s-21 47.833 -21 76.5c0 43.333 15.167 78.833 45.5 106.5s71.5 41.5 123.5 41.5c51.333 0 92 -13.5 122 -40.5
s45 -62.833 45 -107.5c0 -34 -8.16699 -63.333 -24.5 -88s-43.166 -49.334 -80.499 -74.001l148 -151c10.667 22.667 16 49.334 16 80.001v17h83v-19c0 -25.333 -3.33301 -50.166 -10 -74.499s-15.667 -45.5 -27 -63.5l81 -82l-66 -60l-72 72
c-46.667 -48.667 -119.667 -73 -219 -73c-70 0 -125.833 15.167 -167.5 45.5zM337.499 443.501c12.333 14.333 18.498 33.5 18.498 57.5c0 50.667 -26.333 76 -79 76c-27.333 0 -47.666 -7 -60.999 -21s-20 -32.333 -20 -55c0 -20 5.83301 -38 17.5 -54
s30.834 -34.667 57.501 -56c32 20.667 54.167 38.167 66.5 52.5zM425.997 123.001l-167 169c-38 -16 -66 -34.5 -84 -55.5s-27 -46.833 -27 -77.5c0 -30 11.5 -53 34.5 -69s53.167 -24 90.5 -24c66.667 0 117.667 19 153 57z" />
    <glyph glyph-name="quotesingle" unicode="'" horiz-adv-x="181" 
d="M43 644h94l-13 -189h-81v189z" />
    <glyph glyph-name="parenleft" unicode="(" horiz-adv-x="325" 
d="M75.5 89.5c-21.667 67 -32.5 138.167 -32.5 213.5s10.833 146.333 32.5 213s55.834 120.667 102.501 162h123c-98.667 -85.333 -148 -210.333 -148 -375s49.333 -289.667 148 -375h-123c-46.667 40.667 -80.834 94.5 -102.501 161.5z" />
    <glyph glyph-name="parenright" unicode=")" horiz-adv-x="325" 
d="M136 89c23.333 62.667 35 133.999 35 213.999c0 165.333 -49.333 290.333 -148 375h124c46 -41.333 79.833 -95.5 101.5 -162.5s32.5 -137.833 32.5 -212.5c0 -75.333 -10.833 -146.5 -32.5 -213.5s-55.5 -120.833 -101.5 -161.5h-124
c52 44.667 89.667 98.334 113 161.001z" />
    <glyph glyph-name="asterisk" unicode="*" horiz-adv-x="432" 
d="M70 370l89 97l-116 48l34 68l102 -50l-5 111h84l-5 -111l102 50l33 -68l-116 -48l89 -97l-64 -47l-81 107l-82 -107z" />
    <glyph glyph-name="plus" unicode="+" horiz-adv-x="473" 
d="M193 227h-147v85h147v146h87v-146h147v-85h-147v-141h-87v141z" />
    <glyph glyph-name="comma" unicode="," horiz-adv-x="211" 
d="M73 69h95l-46 -189h-79z" />
    <glyph glyph-name="hyphen" unicode="-" horiz-adv-x="468" 
d="M43 312h382v-85h-382v85z" />
    <glyph glyph-name="period" unicode="." horiz-adv-x="179" 
d="M43 85h92v-85h-92v85z" />
    <glyph glyph-name="slash" unicode="/" horiz-adv-x="431" 
d="M277 662h111l-234 -662h-111z" />
    <glyph glyph-name="zero" unicode="0" horiz-adv-x="651" 
d="M110.5 67c-45 56.667 -67.5 139 -67.5 247c0 112 22 196.667 66 254s116.333 86 217 86c100 0 172 -28.667 216 -86s66 -142 66 -254c0 -108 -22.5 -190.333 -67.5 -247s-116.5 -85 -214.5 -85c-98.667 0 -170.5 28.333 -215.5 85zM458 136c26.667 40.667 40 100 40 178
c0 83.333 -13 145.333 -39 186s-70.333 61 -133 61c-63.333 0 -108 -20.333 -134 -61s-39 -102.667 -39 -186c0 -78.667 13.333 -138.167 40 -178.5s71 -60.5 133 -60.5c61.333 0 105.333 20.333 132 61z" />
    <glyph glyph-name="one" unicode="1" horiz-adv-x="319" 
d="M147 548l-104 -18v91l212 33v-654h-108v548z" />
    <glyph glyph-name="two" unicode="2" horiz-adv-x="509" 
d="M43 54c16 36.667 38 70.835 66 102.502s63.333 65.834 106 102.501c40.667 35.333 69.667 61.833 87 79.5s29.666 35.167 36.999 52.5s11 38.666 11 63.999c0 35.333 -10.333 61.833 -31 79.5s-53.667 26.5 -99 26.5c-48.667 0 -99.667 -10 -153 -30v96
c24 8 51.833 14.5 83.5 19.5s61.834 7.5 90.501 7.5c70.667 0 124.667 -17.5 162 -52.5s56 -83.5 56 -145.5c0 -42 -10.167 -78.333 -30.5 -109s-51.833 -65.334 -94.5 -104.001l-17 -15c-37.333 -32.667 -65.833 -58.834 -85.5 -78.501s-36.167 -41.5 -49.5 -65.5h284v-84
h-423v54z" />
    <glyph glyph-name="three" unicode="3" horiz-adv-x="519" 
d="M127.5 -1.5c-35.667 5.66699 -63.8311 12.4971 -84.498 20.4971v95c50 -20.667 106 -31 168 -31c53.333 0 92.333 7.83301 117 23.5s37 42.5 37 80.5c0 65.333 -44.333 98 -133 98h-97l9 81h81c84.667 0 127 33.333 127 100c0 32.667 -11.333 56.667 -34 72
s-58.334 23 -107.001 23c-26.667 0 -53.834 -2.66699 -81.501 -8s-52.5 -12.666 -74.5 -21.999v93c21.333 8.66699 48 15.834 80 21.501s63 8.5 93 8.5c76 0 133.833 -16.167 173.5 -48.5s59.5 -75.5 59.5 -129.5c0 -34 -8.16699 -64.667 -24.5 -92
s-40.5 -46.666 -72.5 -57.999c37.333 -10 65.166 -27.667 83.499 -53s27.5 -56.333 27.5 -93c0 -62.667 -22.167 -110 -66.5 -142s-105.166 -48 -182.499 -48c-30 0 -62.833 2.83301 -98.5 8.5z" />
    <glyph glyph-name="four" unicode="4" horiz-adv-x="543" 
d="M345 141h-322v77l335 426h95v-415h66v-88h-66v-141h-108v141zM362 226v294l-233 -294h233z" />
    <glyph glyph-name="five" unicode="5" horiz-adv-x="515" 
d="M128 -2.5c-33.333 5 -60.6689 12.167 -82.002 21.5v95c22.667 -10 48.834 -17.667 78.501 -23s58.5 -8 86.5 -8c52 0 90 9 114 27s36 47 36 87c0 38.667 -9.16699 66.667 -27.5 84s-51.833 26 -100.5 26h-190v66l17 271h366l-9 -84h-265l-11 -169h109
c76 0 131.833 -16.167 167.5 -48.5s53.5 -81.5 53.5 -147.5c0 -64.667 -21 -115 -63 -151s-103 -54 -183 -54c-31.333 0 -63.666 2.5 -96.999 7.5z" />
    <glyph glyph-name="six" unicode="6" horiz-adv-x="573" 
d="M104 50.5c-40.667 40.333 -61.001 103.167 -61.001 188.5v145c0 53.333 11.167 100.333 33.5 141s54 72.334 95 95.001s88.833 34 143.5 34c59.333 0 110.333 -7.66699 153 -23v-93c-42 15.333 -90.667 23 -146 23c-58.667 0 -102.667 -13.833 -132 -41.5
s-44 -65.834 -44 -114.501v-40c22.667 16 48.834 28.5 78.501 37.5s57.834 13.5 84.501 13.5c74 0 129.333 -18 166 -54s55 -88.333 55 -157c0 -66.667 -20.333 -119.167 -61 -157.5s-101.334 -57.5 -182.001 -57.5c-81.333 0 -142.333 20.167 -183 60.5zM395.499 106.001
c24.333 22.667 36.502 54.333 36.502 95c0 44 -10.333 76.833 -31 98.5s-56.667 32.5 -108 32.5c-26 0 -51.833 -4.33301 -77.5 -13s-48.834 -20.667 -69.501 -36v-69c0 -94.667 47.333 -142 142 -142c47.333 0 83.166 11.333 107.499 34z" />
    <glyph glyph-name="seven" unicode="7" horiz-adv-x="498" 
d="M347 560h-314v84h431v-70l-243 -574h-111z" />
    <glyph glyph-name="eight" unicode="8" horiz-adv-x="590" 
d="M106.5 36.5c-42.333 31 -63.501 76.8359 -63.501 137.503c0 37.333 10 70.166 30 98.499s48 48.5 84 60.5c-32 12 -56 30.167 -72 54.5s-24 51.833 -24 82.5c0 57.333 19.667 102.333 59 135s97.666 49 174.999 49c78.667 0 137.334 -16.167 176.001 -48.5
s58 -77.5 58 -135.5c0 -32.667 -8 -61.834 -24 -87.501s-41.667 -45.167 -77 -58.5c40.667 -12 70.5 -30.333 89.5 -55s28.5 -56.334 28.5 -95.001c0 -60.667 -21 -106.5 -63 -137.5s-104.667 -46.5 -188 -46.5s-146.166 15.5 -188.499 46.5zM402.999 396.503
c16.667 16.333 25 40.167 25 71.5c0 66.667 -44.333 100 -133 100s-133 -33.333 -133 -100c0 -26 7.5 -47.167 22.5 -63.5s37.167 -27.166 66.5 -32.499l71 -14c37.333 9.33301 64.333 22.166 81 38.499zM407.999 99.5039c24.667 16.333 37.001 41.833 37.001 76.5
c0 30 -8.33301 52.333 -25 67s-44.334 26 -83.001 34l-82 17c-36.667 -8 -64.334 -20.833 -83.001 -38.5s-28 -43.5 -28 -77.5c0 -35.333 12.5 -61.333 37.5 -78s62.833 -25 113.5 -25s88.334 8.16699 113.001 24.5z" />
    <glyph glyph-name="nine" unicode="9" horiz-adv-x="573" 
d="M105 12v94.002c40.667 -16 89.334 -24 146.001 -24c58.667 0 102.667 13.833 132 41.5s44 66.167 44 115.5v40c-22.667 -16 -48.834 -28.5 -78.501 -37.5s-57.834 -13.5 -84.501 -13.5c-74 0 -129.333 18 -166 54s-55 88.333 -55 157c0 66 20.333 118.333 61 157
s101.334 58 182.001 58c81.333 0 142.333 -20.333 183 -61s61 -103.334 61 -188.001v-145c0 -53.333 -11.167 -100.333 -33.5 -141s-54 -72.334 -95 -95.001s-88.833 -34 -143.5 -34c-58 0 -109 7.33301 -153 22zM357 324.502c25.333 9 48.666 20.834 69.999 35.501v70
c0 94 -47.333 141 -142 141c-47.333 0 -83.166 -11.333 -107.499 -34s-36.5 -54.334 -36.5 -95.001c0 -43.333 10.333 -76 31 -98s56.667 -33 108 -33c26 0 51.667 4.5 77 13.5z" />
    <glyph glyph-name="colon" unicode=":" horiz-adv-x="179" 
d="M43 412h92v-86h-92v86zM43 111h92v-86h-92v86z" />
    <glyph glyph-name="semicolon" unicode=";" horiz-adv-x="212" 
d="M76 412h91v-86h-91v86zM73 77h95l-46 -189h-79z" />
    <glyph glyph-name="less" unicode="&#x3c;" horiz-adv-x="544" 
d="M43 255v89l458 208v-101l-343 -151l343 -152v-102z" />
    <glyph glyph-name="equal" unicode="=" horiz-adv-x="473" 
d="M43 385h386v-77h-386v77zM43 232h386v-78h-386v78z" />
    <glyph glyph-name="greater" unicode="&#x3e;" horiz-adv-x="544" 
d="M43 148l344 152l-344 151v101l458 -208v-89l-458 -209v102z" />
    <glyph glyph-name="question" unicode="?" horiz-adv-x="495" 
d="M154 184c0 24.667 5.16797 46.667 15.501 66s22.5 35.5 36.5 48.5s33.667 29.833 59 50.5s44.333 39.334 57 56.001s19 36 19 58c0 35.333 -10.5 60.5 -31.5 75.5s-57.167 22.5 -108.5 22.5c-26.667 0 -54.167 -3.33301 -82.5 -10s-53.5 -15.334 -75.5 -26.001v92
c23.333 11.333 51.166 20.333 83.499 27s66.5 10 102.5 10c72 0 127 -16 165 -48s57 -77 57 -135c0 -34.667 -7.66699 -63.167 -23 -85.5s-40 -47.5 -74 -75.5l-37 -30.5c-20 -16.333 -34 -32.333 -42 -48s-12 -33.167 -12 -52.5v-17h-109v22zM150.001 82h116v-82h-116v82z
" />
    <glyph glyph-name="at" unicode="@" horiz-adv-x="764" 
d="M136.5 -55.5c-62.333 51 -93.5 132.166 -93.5 243.499c0 114 31 198.667 93 254s150.333 83 265 83c103.333 0 182.333 -23.5 237 -70.5s82 -114.167 82 -201.5c0 -66 -15.333 -117.333 -46 -154s-77 -55 -139 -55h-31c-36.667 -35.333 -87 -53 -151 -53
c-42 0 -75.833 10.333 -101.5 31s-38.5 50 -38.5 88c0 38.667 12 69.334 36 92.001s61.667 34 113 34h120v22c0 20.667 -2.83301 36.667 -8.5 48s-15.834 19.5 -30.501 24.5s-35.667 7.5 -63 7.5c-42 0 -82.333 -6.66699 -121 -20v56c34 14.667 80.333 22 139 22
c53.333 0 92.5 -11.333 117.5 -34s37.5 -58.667 37.5 -108v-147c30 0 51.833 11.5 65.5 34.5s20.5 59.167 20.5 108.5c0 68.667 -19.333 119.667 -58 153s-98.667 50 -180 50c-93.333 0 -162.666 -21 -207.999 -63s-68 -109.667 -68 -203c0 -89.333 23 -153 69 -191
s110.667 -57 194 -57c73.333 0 131 6.33301 173 19v-72c-50.667 -12 -107.667 -18 -171 -18c-106.667 0 -191.167 25.5 -253.5 76.5zM436 58.499c18 7.66699 33.333 19.834 46 36.501v87h-105c-32.667 0 -55.5 -6 -68.5 -18s-19.5 -30 -19.5 -54
c0 -22.667 6.66699 -38.834 20 -48.501s34 -14.5 62 -14.5c25.333 0 47 3.83301 65 11.5z" />
    <glyph glyph-name="A" unicode="A" horiz-adv-x="700" 
d="M290 644h122l244 -644h-112l-64 166h-259l-64 -166h-113zM462 250l-112 295l-112 -295h224z" />
    <glyph glyph-name="B" unicode="B" horiz-adv-x="631" 
d="M63 644l311.999 0.000976562c62.667 0 109.667 -14.833 141 -44.5s47 -72.167 47 -127.5c0 -34 -6.83301 -62.833 -20.5 -86.5s-32.5 -41.834 -56.5 -54.501c32.667 -9.33301 57.834 -25.5 75.501 -48.5s26.5 -55.167 26.5 -96.5c0 -62 -16.833 -108.5 -50.5 -139.5
s-83.167 -46.5 -148.5 -46.5h-326v644zM359.999 369.001c68 0 102.001 31.332 102.001 93.999c0 34.667 -8.33301 59.834 -25 75.501s-46.334 23.5 -89.001 23.5h-176v-193h188zM366 80c39.333 0 67.832 8.33301 85.499 25s26.5 45 26.5 85c0 34 -9.16699 59 -27.5 75
s-50.166 24 -95.499 24h-183v-209h194z" />
    <glyph glyph-name="C" unicode="C" horiz-adv-x="597" 
d="M126 75.5c-55.333 57 -82.999 135.831 -82.999 236.498c0 108.667 26.667 192.834 80 252.501s133.666 89.5 240.999 89.5c67.333 0 130.333 -10.333 189 -31v-95c-56.667 22 -117 33 -181 33c-78 0 -134 -20.667 -168 -62s-51 -103.666 -51 -186.999
c0 -76 18.167 -133.333 54.5 -172s91.833 -58 166.5 -58c66 0 126 10.333 180 31v-96c-57.333 -18 -120.333 -27 -189 -27c-104 0 -183.667 28.5 -239 85.5z" />
    <glyph glyph-name="D" unicode="D" horiz-adv-x="649" 
d="M63 644h261c96.667 0 167.667 -25.667 213 -77s68 -134.333 68 -249c0 -110 -22.667 -190.5 -68 -241.5s-116.333 -76.5 -213 -76.5h-261v644zM307 84c44.667 0 80.5 6.49902 107.5 19.499s47.333 36.5 61 70.5s20.5 82 20.5 144c0 62.667 -6.33301 111.334 -19 146.001
s-32.5 59.167 -59.5 73.5s-63.833 21.5 -110.5 21.5h-135v-475h135z" />
    <glyph glyph-name="E" unicode="E" horiz-adv-x="550" 
d="M63 644h449v-85h-340v-195h303v-84h-303v-196h340v-84h-449v644z" />
    <glyph glyph-name="F" unicode="F" horiz-adv-x="524" 
d="M63 644h438v-85h-329v-195h292v-84h-292v-280h-109v644z" />
    <glyph glyph-name="G" unicode="G" horiz-adv-x="641" 
d="M125 74.5c-54.667 56.333 -82 134.5 -82 234.5c0 108.667 27 193.334 81 254.001s134.667 91 242 91c71.333 0 135 -9.66699 191 -29v-94c-55.333 20 -116 30 -182 30c-79.333 0 -136.166 -20.833 -170.499 -62.5s-51.5 -104.834 -51.5 -189.501
c0 -151.333 71 -227 213 -227c57.333 0 103.666 6.66699 138.999 20v180h-161v71h254v-310c-24 -15.333 -55.5 -28 -94.5 -38s-85.833 -15 -140.5 -15c-104 0 -183.333 28.167 -238 84.5z" />
    <glyph glyph-name="H" unicode="H" horiz-adv-x="654" 
d="M63 644h109v-280h310v280h109v-644h-109v280h-310v-280h-109v644z" />
    <glyph glyph-name="I" unicode="I" horiz-adv-x="235" 
d="M63 644h109v-644h-109v644z" />
    <glyph glyph-name="J" unicode="J" horiz-adv-x="431" 
d="M23 13v92c16 -7.33301 34.833 -13 56.5 -17s43.167 -6 64.5 -6c44 0 75 9 93 27s27 47.667 27 89v446h109v-464c0 -62 -17.667 -109.167 -53 -141.5s-87.666 -48.5 -156.999 -48.5c-54.667 0 -101.334 7.66699 -140.001 23z" />
    <glyph glyph-name="K" unicode="K" horiz-adv-x="625" 
d="M63 644h109v-296l274 296h126l-237 -260l247 -384h-116l-199 315l-95 -102v-213h-109v644z" />
    <glyph glyph-name="L" unicode="L" horiz-adv-x="525" 
d="M63 644h109v-560h330v-84h-439v644z" />
    <glyph glyph-name="M" unicode="M" horiz-adv-x="757" 
d="M63 644h112l204 -417l203 417h112v-644h-108v467l-174 -356h-66l-175 356v-467h-108v644z" />
    <glyph glyph-name="N" unicode="N" horiz-adv-x="667" 
d="M63 644h96l336 -474v474h108v-644h-96l-335 473v-473h-109v644z" />
    <glyph glyph-name="O" unicode="O" horiz-adv-x="697" 
d="M118.5 70.5c-50.333 53.667 -75.5 136.834 -75.5 249.501c0 116 25 200.667 75 254s126.667 80 230 80s180 -26.667 230 -80s75 -138 75 -254c0 -112.667 -25.167 -195.834 -75.5 -249.501s-126.833 -80.5 -229.5 -80.5s-179.167 26.833 -229.5 80.5zM497 138
c31.333 37.333 47.001 98 47.001 182c0 87.333 -15.5 149.333 -46.5 186s-80.833 55 -149.5 55c-68 0 -117.5 -18.333 -148.5 -55s-46.5 -98.667 -46.5 -186c0 -83.333 15.667 -143.833 47 -181.5s80.666 -56.5 147.999 -56.5c68 0 117.667 18.667 149 56z" />
    <glyph glyph-name="P" unicode="P" horiz-adv-x="590" 
d="M63 644h287.001c71.333 0 125.166 -19.667 161.499 -59s54.5 -91.333 54.5 -156c0 -64 -19.833 -115.333 -59.5 -154s-93.167 -58 -160.5 -58h-174v-217h-109v644zM326.001 303c42 0 74.332 11.168 96.999 33.501s34 53.166 34 92.499c0 41.333 -10.667 73.333 -32 96
s-52.666 34 -93.999 34h-159v-256h154z" />
    <glyph glyph-name="Q" unicode="Q" horiz-adv-x="697" 
d="M293 -7c-84 9.33301 -146.668 40.666 -188.001 93.999s-62 131 -62 233c0 116 25 200.667 75 254s126.667 80 230 80s180 -26.667 230 -80s75 -138 75 -254c0 -104.667 -21.667 -183.667 -65 -237s-109.333 -83.666 -198 -90.999
c0.666992 -30.667 6.5 -51.834 17.5 -63.501s29.833 -17.5 56.5 -17.5c24 0 47.667 3.33301 71 10v-81c-11.333 -3.33301 -25.666 -6.16602 -42.999 -8.49902s-34.333 -3.5 -51 -3.5c-96.667 0 -146 55 -148 165zM496.999 138c31.333 37.333 47.001 98 47.001 182
c0 87.333 -15.5 149.333 -46.5 186s-80.833 55 -149.5 55c-68 0 -117.5 -18.333 -148.5 -55s-46.5 -98.667 -46.5 -186c0 -83.333 15.667 -143.833 47 -181.5s80.666 -56.5 147.999 -56.5c68 0 117.667 18.667 149 56z" />
    <glyph glyph-name="R" unicode="R" horiz-adv-x="610" 
d="M63 644l296 0.000976562c70 0 122 -18 156 -54s51 -86.667 51 -152c0 -46 -11.5 -84.833 -34.5 -116.5s-55.5 -53.834 -97.5 -66.501c11.333 -8 20.333 -16.833 27 -26.5s13.667 -23.5 21 -41.5l81 -187h-112l-79 180c-8 18 -17.333 30.5 -28 37.5s-27.667 10.5 -51 10.5
h-121v-228h-109v644zM330 316.001c84.667 0 127 40.667 127 122c0 80.667 -39 121 -117 121h-168v-243h158z" />
    <glyph glyph-name="S" unicode="S" horiz-adv-x="555" 
d="M57 22v95.999c62 -24 125.667 -36 191 -36c54 0 93.167 6.33301 117.5 19s36.5 36.334 36.5 71.001c0 22 -5.16699 39.5 -15.5 52.5s-27.166 24.167 -50.499 33.5s-58.333 20 -105 32c-69.333 18 -118 40.833 -146 68.5s-42 65.834 -42 114.501
c0 57.333 21 101.833 63 133.5s103.333 47.5 184 47.5c35.333 0 69.5 -2.5 102.5 -7.5s59.833 -11.167 80.5 -18.5v-96c-50.667 19.333 -106.667 29 -168 29c-50.667 0 -88.667 -6.66699 -114 -20s-38 -36 -38 -68c0 -19.333 4.66699 -34.833 14 -46.5s24.833 -22 46.5 -31
s54.167 -18.833 97.5 -29.5c75.333 -19.333 127.666 -44.333 156.999 -75s44 -70.334 44 -119.001c0 -57.333 -21.5 -102 -64.5 -134s-106.167 -48 -189.5 -48s-150.333 10.667 -201 32z" />
    <glyph glyph-name="T" unicode="T" horiz-adv-x="568" 
d="M230 559h-206v85h520v-85h-205v-559h-109v559z" />
    <glyph glyph-name="U" unicode="U" horiz-adv-x="674" 
d="M131 54c-48.667 42.667 -72.999 104.334 -72.999 185.001v405h109v-401c0 -53.333 14.667 -93.5 44 -120.5s71.666 -40.5 126.999 -40.5c54.667 0 96.667 13.5 126 40.5s44 67.167 44 120.5v401h108v-405c0 -80.667 -24.167 -142.334 -72.5 -185.001
s-116.833 -64 -205.5 -64c-89.333 0 -158.333 21.333 -207 64z" />
    <glyph glyph-name="V" unicode="V" horiz-adv-x="700" 
d="M44 644h113l193 -527l193 527h113l-244 -644h-122z" />
    <glyph glyph-name="W" unicode="W" horiz-adv-x="869" 
d="M44 644h107l109 -483l122 405v78h89l137 -483l111 483h106l-149 -644h-107l-129 451l-137 -451h-109z" />
    <glyph glyph-name="X" unicode="X" horiz-adv-x="677" 
d="M273 321l-225 323h126l164 -239l164 239h127l-226 -323l230 -321h-128l-167 236l-167 -236h-128z" />
    <glyph glyph-name="Y" unicode="Y" horiz-adv-x="656" 
d="M274 239l-231 405h113l172 -313l172 313h113l-231 -405v-239h-108v239z" />
    <glyph glyph-name="Z" unicode="Z" horiz-adv-x="575" 
d="M43 58l346 497h-329v89h469v-67l-343 -493h348v-84h-491v58z" />
    <glyph glyph-name="bracketleft" unicode="[" horiz-adv-x="351" 
d="M43 706h271l3 -85h-165v-636h166l-4 -84h-271v805z" />
    <glyph glyph-name="backslash" unicode="\" horiz-adv-x="451" 
d="M43 662h112l252 -716h-111z" />
    <glyph glyph-name="bracketright" unicode="]" horiz-adv-x="351" 
d="M33 -15h166v636h-165l3 85h271v-805h-271z" />
    <glyph glyph-name="asciicircum" unicode="^" horiz-adv-x="476" 
d="M196 624h79l157 -237h-101l-93 158l-93 -158h-102z" />
    <glyph glyph-name="underscore" unicode="_" horiz-adv-x="541" 
d="M43 0h454v-77h-454v77z" />
    <glyph glyph-name="grave" unicode="`" horiz-adv-x="261" 
d="M44 699h96l75 -177h-87z" />
    <glyph glyph-name="a" unicode="a" horiz-adv-x="547" 
d="M91 27.5c-32 25 -48.001 60.833 -48.001 107.5s15.833 83.5 47.5 110.5s79.167 40.5 142.5 40.5h152v21c0 23.333 -3.5 41.5 -10.5 54.5s-19.833 22.5 -38.5 28.5s-45.334 9 -80.001 9c-56 0 -108.333 -8.33301 -157 -25v81c22.667 8.66699 49.334 15.667 80.001 21
s63 8 97 8c70.667 0 123.834 -14.333 159.501 -43s53.5 -74 53.5 -136v-305h-93l-7 48c-20 -19.333 -44.333 -33.833 -73 -43.5s-63.667 -14.5 -105 -14.5c-48 0 -88 12.5 -120 37.5zM323.999 84c24.667 10.667 45 25.667 61 45v83h-150c-32 0 -55.167 -6 -69.5 -18
s-21.5 -31 -21.5 -57c0 -24 8 -41.5 24 -52.5s40 -16.5 72 -16.5c31.333 0 59.333 5.33301 84 16z" />
    <glyph glyph-name="b" unicode="b" horiz-adv-x="582" 
d="M234 3.5c-25.333 9 -49 23.501 -71 43.501l-6 -47h-94v674h109v-231c40.667 27.333 90.334 41 149.001 41c70 0 123.833 -19.833 161.5 -59.5s56.5 -100.834 56.5 -183.501c0 -84 -18.833 -146.833 -56.5 -188.5s-90.834 -62.5 -159.501 -62.5
c-34 0 -63.667 4.5 -89 13.5zM397.5 113.001c21 27.333 31.5 70 31.5 128s-10.833 99.167 -32.5 123.5s-56.5 36.5 -104.5 36.5c-49.333 0 -89.333 -13.667 -120 -41v-238c31.333 -33.333 72 -50 122 -50c48 0 82.5 13.667 103.5 41z" />
    <glyph glyph-name="c" unicode="c" horiz-adv-x="493" 
d="M107 53c-42.667 42 -63.998 103.333 -63.998 184c0 81.333 23 142.833 69 184.5s109.333 62.5 190 62.5c32 0 59.167 -2.33301 81.5 -7s44.166 -12 65.499 -22v-81c-34.667 17.333 -76.667 26 -126 26c-56.667 0 -99.167 -12.667 -127.5 -38s-42.5 -67 -42.5 -125
c0 -57.333 13.167 -99 39.5 -125s69.166 -39 128.499 -39c47.333 0 90.333 9 129 27v-83c-44 -18 -95.333 -27 -154 -27c-83.333 0 -146.333 21 -189 63z" />
    <glyph glyph-name="d" unicode="d" horiz-adv-x="582" 
d="M99.5 44.5c-37.667 36.333 -56.5 95.502 -56.5 177.502c0 55.333 9.66699 102.666 29 141.999s46 69.166 80 89.499s73 30.5 117 30.5c28 0 53.333 -3.33301 76 -10s44.334 -17 65.001 -31v231h109v-674h-93l-7 47c-22 -20 -45.667 -34.5 -71 -43.5s-55 -13.5 -89 -13.5
c-68.667 0 -121.834 18.167 -159.501 54.5zM410 122.002l-0.00195312 237.001c-31.333 28 -70.666 42 -117.999 42c-46 0 -80.667 -15.333 -104 -46s-35 -75.334 -35 -134.001c0 -55.333 10.5 -94 31.5 -116s55.5 -33 103.5 -33c48.667 0 89.334 16.667 122.001 50z" />
    <glyph glyph-name="e" unicode="e" horiz-adv-x="537" 
d="M110 52c-44.667 41.333 -66.998 103.333 -66.998 186c0 78 19.667 138.5 59 181.5s97.666 64.5 174.999 64.5c70 0 123.667 -18.333 161 -55s56 -85.667 56 -147v-88h-347c5.33301 -45.333 21.666 -76.833 48.999 -94.5s70.333 -26.5 129 -26.5c24 0 48.5 2.33301 73.5 7
s47.167 10.667 66.5 18v-80c-42 -18.667 -96 -28 -162 -28c-84 0 -148.333 20.667 -193 62zM398.002 265v33c0 34 -9.33301 59.833 -28 77.5s-48.667 26.5 -90 26.5c-49.333 0 -83.833 -10.667 -103.5 -32s-29.5 -56.333 -29.5 -105h251z" />
    <glyph glyph-name="f" unicode="f" horiz-adv-x="350" 
d="M92 389h-69v85h69v58c0 48 13.5 86.333 40.5 115s65.833 43 116.5 43c34 0 66.333 -5.66699 97 -17v-78c-20.667 7.33301 -41.667 11 -63 11c-31.333 0 -53 -5.5 -65 -16.5s-18 -30.5 -18 -58.5v-57h124l-5 -85h-119v-389h-108v389z" />
    <glyph glyph-name="g" unicode="g" horiz-adv-x="554" 
d="M147.5 -169c-35 4.66699 -64.5029 11.001 -88.5029 19.001v84c25.333 -8.66699 55.333 -15.334 90 -20.001s68.334 -7 101.001 -7c50.667 0 86.334 2.83301 107.001 8.5s31 17.5 31 35.5c0 14 -5.5 23.833 -16.5 29.5s-31.167 8.5 -60.5 8.5h-128
c-42 0 -74 7.83301 -96 23.5s-33 38.167 -33 67.5c0 20.667 6 39.167 18 55.5s29.667 28.5 53 36.5c-53.333 26 -80 72.333 -80 139c0 60 18 103.833 54 131.5s90.667 41.5 164 41.5c26.667 0 55.667 -3.33301 87 -10h174l-3 -71h-80c24.667 -22 37 -52.667 37 -92
c0 -52 -15.5 -92.167 -46.5 -120.5s-77.167 -42.5 -138.5 -42.5c-16 0 -35.667 1.66699 -59 5c-21.333 -2 -39.666 -7.5 -54.999 -16.5s-23 -20.5 -23 -34.5c0 -10 4 -17.167 12 -21.5s21.333 -6.5 40 -6.5h133c47.333 0 83.833 -10.167 109.5 -30.5
s38.5 -49.833 38.5 -88.5c0 -46 -19.5 -79.333 -58.5 -100s-97.5 -31 -175.5 -31c-36.667 0 -72.5 2.33301 -107.5 7zM353.497 238.501c17 14.333 25.498 39.5 25.498 75.5s-8.66699 61.833 -26 77.5s-47.333 23.5 -90 23.5c-41.333 0 -71.166 -7.83301 -89.499 -23.5
s-27.5 -41.5 -27.5 -77.5c0 -34.667 8.83301 -59.5 26.5 -74.5s47.834 -22.5 90.501 -22.5c43.333 0 73.5 7.16699 90.5 21.5z" />
    <glyph glyph-name="h" unicode="h" horiz-adv-x="578" 
d="M63 674h109.001v-246c21.333 17.333 46.5 31 75.5 41s60.833 15 95.5 15c60 0 104.333 -14.333 133 -43s43 -73.334 43 -134.001v-307h-108v302c0 36.667 -7.83301 62.334 -23.5 77.001s-42.834 22 -81.501 22c-24 0 -48.333 -5.16699 -73 -15.5s-45 -23.833 -61 -40.5
v-345h-109v674z" />
    <glyph glyph-name="i" unicode="i" horiz-adv-x="308" 
d="M126 663h119v-90h-119v90zM135 391h-72l10 83h171v-474h-109v391z" />
    <glyph glyph-name="j" unicode="j" horiz-adv-x="306" 
d="M124 663h119v-90h-119v90zM-10 -218l0.000976562 79c20.667 -6.66699 41 -10 61 -10c31.333 0 53.166 5.5 65.499 16.5s18.5 29.833 18.5 56.5v467h-72l10 83h170v-560c0 -46 -13.167 -82.167 -39.5 -108.5s-64.5 -39.5 -114.5 -39.5c-38.667 0 -71.667 5.33301 -99 16z
" />
    <glyph glyph-name="k" unicode="k" horiz-adv-x="550" 
d="M63 674h109v-390l199 190h125l-193 -191l204 -283h-115l-157 225l-63 -60v-165h-109v674z" />
    <glyph glyph-name="l" unicode="l" horiz-adv-x="280" 
d="M92 19c-19.333 19.333 -29 50.667 -29 94v561h109v-551c0 -18 3.16699 -30.5 9.5 -37.5s16.5 -10.5 30.5 -10.5c16 0 31.333 2 46 6v-79c-22 -8 -47.667 -12 -77 -12c-40 0 -69.667 9.66699 -89 29z" />
    <glyph glyph-name="m" unicode="m" horiz-adv-x="856" 
d="M63 474h100l5 -50c50.667 40 106.334 60 167.001 60c32.667 0 58.667 -5.16699 78 -15.5s34.333 -25.833 45 -46.5c24 19.333 50.5 34.5 79.5 45.5s62.167 16.5 99.5 16.5c54.667 0 95 -14 121 -42s39 -71 39 -129v-313h-107v302c0 36 -7.66699 61.5 -23 76.5
s-40.333 22.5 -75 22.5c-22.667 0 -44.334 -4 -65.001 -12s-38 -20 -52 -36c3.33301 -12.667 5 -29 5 -49v-304h-101v301c0 36 -6.16699 61.667 -18.5 77s-34.833 23 -67.5 23c-42 0 -83 -18.667 -123 -56v-345h-107v474z" />
    <glyph glyph-name="n" unicode="n" horiz-adv-x="578" 
d="M63 474h100.001l5 -50c22.667 18 49 32.5 79 43.5s62 16.5 96 16.5c61.333 0 106 -14.333 134 -43s42 -73.334 42 -134.001v-307h-108v302c0 36.667 -7.66699 62.334 -23 77.001s-43.333 22 -84 22c-24.667 0 -48.834 -5 -72.501 -15s-43.5 -23 -59.5 -39v-347h-109v474z
" />
    <glyph glyph-name="o" unicode="o" horiz-adv-x="581" 
d="M43 237c0 164.667 82.333 247 247 247c165.333 0 248 -82.333 248 -247s-82.667 -247 -248 -247c-164.667 0 -247 82.333 -247 247zM396.5 118c21 24 31.5 63.667 31.5 119c0 54.667 -10.5 94 -31.5 118s-56.5 36 -106.5 36c-49.333 0 -84.5 -12 -105.5 -36
s-31.5 -63.333 -31.5 -118c0 -55.333 10.5 -95 31.5 -119s56.167 -36 105.5 -36c50 0 85.5 12 106.5 36z" />
    <glyph glyph-name="p" unicode="p" horiz-adv-x="582" 
d="M63 474l93.999 0.000976562l6 -47c22 19.333 45.667 33.666 71 42.999s55 14 89 14c70.667 0 124.334 -19 161.001 -57s55 -98.667 55 -182c0 -84 -19.333 -147.5 -58 -190.5s-92.667 -64.5 -162 -64.5c-57.333 0 -106.333 13.333 -147 40v-246h-109v690z
M394.999 115.001c22.667 28.667 34.001 72.333 34.001 131c0 56 -10.333 95.833 -31 119.5s-55.334 35.5 -104.001 35.5s-89.334 -16.667 -122.001 -50v-237c32 -28 71.667 -42 119 -42c46.667 0 81.334 14.333 104.001 43z" />
    <glyph glyph-name="q" unicode="q" horiz-adv-x="631" 
d="M441.5 -210c-21 21.333 -31.5 54.666 -31.5 99.999v140c-40.667 -26.667 -89.667 -40 -147 -40c-146.667 0 -220 79.667 -220 239c0 84 19 147.5 57 190.5s91.333 64.5 160 64.5c34 0 63.5 -4.66699 88.5 -14s48.5 -23.666 70.5 -42.999l7 47h93v-576
c0 -21.333 3.5 -35.833 10.5 -43.5s20.5 -11.5 40.5 -11.5c12 0 26 2 42 6v-79c-22.667 -8 -47.667 -12 -75 -12c-42.667 0 -74.5 10.667 -95.5 32zM410 114v236.999c-32.667 33.333 -73 50 -121 50c-47.333 0 -81.833 -14.167 -103.5 -42.5s-32.5 -71.166 -32.5 -128.499
s11 -98 33 -122s57 -36 105 -36c47.333 0 87 14 119 42z" />
    <glyph glyph-name="r" unicode="r" horiz-adv-x="367" 
d="M63 474h100l6 -55c22.667 14.667 49.667 28 81 40s62.333 20.333 93 25v-83c-28.667 -5.33301 -59.667 -13.5 -93 -24.5s-59.333 -22.5 -78 -34.5v-342h-109v474z" />
    <glyph glyph-name="s" unicode="s" horiz-adv-x="464" 
d="M128 -3.5c-30 4.33301 -54.666 10.167 -73.999 17.5v92c22 -8.66699 46.5 -15.334 73.5 -20.001s53.5 -7 79.5 -7c38.667 0 65.667 3.33301 81 10s23 19.667 23 39c0 17.333 -7 30.166 -21 38.499s-40.333 18.5 -79 30.5l-30 10c-48 16 -83 33.833 -105 53.5
s-33 48.834 -33 87.501c0 44.667 16 78.5 48 101.5s82 34.5 150 34.5c26 0 51.5 -2 76.5 -6s46.5 -9 64.5 -15v-91c-18 7.33301 -38.167 13 -60.5 17s-43.5 6 -63.5 6c-36.667 0 -63.334 -3.16699 -80.001 -9.5s-25 -18.166 -25 -35.499c0 -15.333 6.33301 -26.833 19 -34.5
s37.667 -17.5 75 -29.5l22 -7c38.667 -12 68.667 -24.167 90 -36.5s36.833 -27.333 46.5 -45s14.5 -40.5 14.5 -68.5c0 -92.667 -66.333 -139 -199 -139c-32 0 -63 2.16699 -93 6.5z" />
    <glyph glyph-name="t" unicode="t" horiz-adv-x="363" 
d="M131 29.5c-25.333 26.333 -37.999 63.5 -37.999 111.5v248h-70v85h70v109l108 33v-142h126l-7 -85h-119v-242c0 -27.333 6.16699 -46.5 18.5 -57.5s33.166 -16.5 62.499 -16.5c18 0 37 3.33301 57 10v-77c-26 -10.667 -57.667 -16 -95 -16
c-50 0 -87.667 13.167 -113 39.5z" />
    <glyph glyph-name="u" unicode="u" horiz-adv-x="578" 
d="M103.5 37.5c-30.333 31.667 -45.5 77.5 -45.5 137.5v299h109v-299c0 -35.333 8.66699 -61.333 26 -78s44 -25 80 -25c26 0 50.333 4.83301 73 14.5s42.667 23.167 60 40.5v347h108v-474h-99l-5 49c-50 -39.333 -108.667 -59 -176 -59
c-56.667 0 -100.167 15.833 -130.5 47.5z" />
    <glyph glyph-name="v" unicode="v" horiz-adv-x="578" 
d="M43 474h113l133 -368l133 368h112l-186 -474h-118z" />
    <glyph glyph-name="w" unicode="w" horiz-adv-x="746" 
d="M43 474h109l82 -345l93 287v58h83l103 -345l82 345h108l-124 -474h-103l-101 310l-103 -310h-104z" />
    <glyph glyph-name="x" unicode="x" horiz-adv-x="567" 
d="M224 241l-174 233h117l116 -158l116 158h117l-173 -233l180 -241h-118l-122 165l-122 -165h-118z" />
    <glyph glyph-name="y" unicode="y" horiz-adv-x="598" 
d="M78 -162v81.002c18.667 -6.66699 39 -10 61 -10c20 0 36.333 3.16699 49 9.5s23.667 16.166 33 29.499s20.333 32.666 33 57.999l-211 468h113l152 -352l154 352h112l-193 -447c-28.667 -68 -58.5 -118.833 -89.5 -152.5s-71.5 -50.5 -121.5 -50.5
c-36 0 -66.667 4.66699 -92 14z" />
    <glyph glyph-name="z" unicode="z" horiz-adv-x="487" 
d="M43 57l259 328h-247v89h381v-67l-254 -323h261v-84h-400v57z" />
    <glyph glyph-name="braceleft" unicode="{" horiz-adv-x="304" 
d="M112.5 -76c-16.333 18.667 -24.5 47.998 -24.5 87.998v160c0 30 -4.66699 52.167 -14 66.5s-26.333 22.833 -51 25.5v68c26.667 3.33301 44.167 12.5 52.5 27.5s12.5 39.5 12.5 73.5v157c0 40 8.33301 68.333 25 85s47 25 91 25h66v-84h-29
c-17.333 0 -29.166 -3.66699 -35.499 -11s-9.5 -20.666 -9.5 -39.999v-174c0 -20.667 -4.5 -39.5 -13.5 -56.5s-22.833 -29.167 -41.5 -36.5c18.667 -7.33301 32.5 -19.5 41.5 -36.5s13.5 -35.833 13.5 -56.5v-174c0 -19.333 3.16699 -32.666 9.5 -39.999
s18.166 -11 35.499 -11h29v-84h-75c-38.667 0 -66.167 9.33301 -82.5 28z" />
    <glyph glyph-name="bar" unicode="|" horiz-adv-x="196" 
d="M43 735h109v-855h-109v855z" />
    <glyph glyph-name="braceright" unicode="}" horiz-adv-x="304" 
d="M33 -20l29 0.00195312c17.333 0 29.166 3.66699 35.499 11s9.5 20.666 9.5 39.999v174c0 20.667 4.5 39.5 13.5 56.5s22.833 29.167 41.5 36.5c-18.667 7.33301 -32.5 19.5 -41.5 36.5s-13.5 35.833 -13.5 56.5v174c0 19.333 -3.16699 32.666 -9.5 39.999
s-18.166 11 -35.499 11h-29v84h66c44 0 74.333 -8.33301 91 -25s25 -45 25 -85v-157c0 -34 4.16699 -58.5 12.5 -73.5s25.833 -24.167 52.5 -27.5v-68c-24.667 -2.66699 -41.667 -11.167 -51 -25.5s-14 -36.5 -14 -66.5v-160c0 -40 -8.16699 -69.333 -24.5 -88
s-43.833 -28 -82.5 -28h-75v84z" />
    <glyph glyph-name="asciitilde" unicode="~" horiz-adv-x="562" 
d="M347.5 225.5c-17 5.66699 -39.1689 14.5 -66.502 26.5c-24.667 11.333 -46 20 -64 26s-36.333 9 -55 9c-25.333 0 -47.5 -4.83301 -66.5 -14.5s-36.5 -24.834 -52.5 -45.501v108c11.333 15.333 27.833 27.833 49.5 37.5s44.834 14.5 69.501 14.5
c20.667 0 40.334 -3.16699 59.001 -9.5s41.334 -15.5 68.001 -27.5c25.333 -11.333 46 -19.666 62 -24.999s32.667 -8 50 -8c25.333 0 47.166 4.66699 65.499 14s35.5 24.333 51.5 45v-108c-11.333 -16 -27.333 -28.5 -48 -37.5s-43.667 -13.5 -69 -13.5
c-18.667 0 -36.5 2.83301 -53.5 8.5z" />
    <glyph glyph-name="uni00A0" unicode="&#xa0;" horiz-adv-x="370" 
 />
    <glyph glyph-name="exclamdown" unicode="&#xa1;" horiz-adv-x="203" 
d="M43 608h116v-82h-116v82zM47 125l6 322h97l6 -322v-161h-109v161z" />
    <glyph glyph-name="cent" unicode="&#xa2;" horiz-adv-x="493" 
d="M260 -8c-71.333 5.33301 -125.334 29.001 -162.001 71.001s-55 100 -55 174c0 73.333 19.167 130.666 57.5 171.999s91.5 65.666 159.5 72.999v78h80v-77c40 -2.66699 76.333 -12 109 -28v-81c-29.333 14.667 -65.666 23 -108.999 25v-326c39.333 2 76 11 110 27v-83
c-32 -13.333 -68.667 -21.666 -110 -24.999v-78h-80v78zM259.999 394.001c-36 -8 -62.833 -24.666 -80.5 -49.999s-26.5 -61 -26.5 -107c0 -46.667 8.5 -82.834 25.5 -108.501s44.167 -42.5 81.5 -50.5v316z" />
    <glyph glyph-name="sterling" unicode="&#xa3;" horiz-adv-x="498" 
d="M43 84l25 -0.000976562c18.667 0 32.667 5.66699 42 17s14 27.333 14 48v150h-68v84h68v106c0 50.667 16.167 90.834 48.5 120.501s74.5 44.5 126.5 44.5c46.667 0 85.667 -7 117 -21v-78c-8.66699 4.66699 -21 8.33398 -37 11.001s-31.667 4 -47 4
c-34 0 -59.167 -6.83301 -75.5 -20.5s-24.5 -35.834 -24.5 -66.501v-100h182l-4 -84h-178v-145c0 -17.333 -1.83301 -31.5 -5.5 -42.5s-10.167 -20.167 -19.5 -27.5h247v-84h-411v84z" />
    <glyph glyph-name="currency" unicode="&#xa4;" horiz-adv-x="572" 
d="M43 114l82 60c-19.333 27.333 -29 59 -29 95c0 35.333 9.66699 66.333 29 93l-81 62l48 59l83 -65c33.333 25.333 70 38 110 38c41.333 0 78.333 -13 111 -39l84 66l48 -59l-82 -62c20 -28.667 30 -59.667 30 -93s-10 -65 -30 -95l82 -61l-48 -59l-84 64
c-32 -24.667 -68.667 -37 -110 -37s-78 12.333 -110 37l-84 -64zM363 191c21.333 21.333 32.001 47.333 32.001 78s-10.833 56.667 -32.5 78s-47.5 32 -77.5 32c-30.667 0 -56.334 -10.667 -77.001 -32s-31 -47.333 -31 -78s10.5 -56.667 31.5 -78s46.5 -32 76.5 -32
c30.667 0 56.667 10.667 78 32z" />
    <glyph glyph-name="yen" unicode="&#xa5;" horiz-adv-x="656" 
d="M274 90h-151v68h151v54h-151v68h127l-207 364h113l172 -313l172 313h113l-208 -364h128v-68h-151v-54h151v-68h-151v-90h-108v90z" />
    <glyph glyph-name="brokenbar" unicode="&#xa6;" horiz-adv-x="196" 
d="M43 735h109v-321h-109v321zM43 200h109v-320h-109v320z" />
    <glyph glyph-name="section" unicode="&#xa7;" horiz-adv-x="555" 
d="M57 22l-0.000976562 96.001c62 -24 125.667 -36 191 -36c52.667 0 91.5 6.5 116.5 19.5s37.5 36.5 37.5 70.5c0 21.333 -6.16699 38.666 -18.5 51.999s-30 24.5 -53 33.5s-56.5 19.167 -100.5 30.5c-47.333 12.667 -84.333 26.167 -111 40.5s-46 31.333 -58 51
s-18 43.834 -18 72.501c0 26.667 6.33301 49 19 67c-12 20.667 -18 44.667 -18 72c0 55.333 20.5 98.166 61.5 128.499s102.5 45.5 184.5 45.5c32.667 0 66 -2.66699 100 -8s61.667 -11.333 83 -18v-96c-54 19.333 -110.667 29 -170 29
c-45.333 0 -81.666 -6.33301 -108.999 -19s-41 -35.667 -41 -69c0 -19.333 4.83301 -35.166 14.5 -47.499s25.5 -23 47.5 -32s54 -18.5 96 -28.5c54 -13.333 95.333 -27.166 124 -41.499s48.667 -30.833 60 -49.5s17 -42.334 17 -71.001
c0 -10.667 -1.83301 -23.334 -5.5 -38.001s-8.16699 -26.667 -13.5 -36c12.667 -21.333 19 -45 19 -71c0 -58.667 -21.667 -103.167 -65 -133.5s-106.333 -45.5 -189 -45.5c-83.333 0 -150.333 10.667 -201 32zM418.999 326.001c0 10.667 -4.33203 19.8311 -12.999 27.498
s-23.334 15.167 -44.001 22.5s-51 16 -91 26c-32.667 8.66699 -58.5 16.834 -77.5 24.501s-33.833 16.834 -44.5 27.501c-2.66699 -8 -4 -15 -4 -21c0 -11.333 4.16699 -20.5 12.5 -27.5s21.5 -13.667 39.5 -20s46.333 -14.5 85 -24.5c68.667 -18 112.667 -38 132 -60
c3.33301 8.66699 5 17 5 25z" />
    <glyph glyph-name="dieresis" unicode="&#xa8;" horiz-adv-x="365" 
d="M43 645h92v-86h-92v86zM229 645h92v-86h-92v86z" />
    <glyph glyph-name="copyright" unicode="&#xa9;" horiz-adv-x="751" 
d="M208.5 34.5c-51 29.667 -91.333 70 -121 121s-44.5 106.5 -44.5 166.5s14.833 115.5 44.5 166.5s70 91.333 121 121s106.5 44.5 166.5 44.5s115.5 -14.833 166.5 -44.5s91.333 -70 121 -121s44.5 -106.5 44.5 -166.5s-14.833 -115.5 -44.5 -166.5s-70 -91.333 -121 -121
s-106.5 -44.5 -166.5 -44.5s-115.5 14.833 -166.5 44.5zM509 91c40 22.667 71.333 54.167 94 94.5s34 85.833 34 136.5c0 50 -11.333 95 -34 135s-54 71.5 -94 94.5s-84.667 34.5 -134 34.5s-93.666 -11.5 -132.999 -34.5s-70.333 -54.5 -93 -94.5s-34 -85 -34 -135
c0 -50.667 11.333 -96.167 34 -136.5s53.667 -71.833 93 -94.5s83.666 -34 132.999 -34s94 11.333 134 34zM216.5 158.5c-38.333 39.667 -57.501 93.834 -57.501 162.501c0 47.333 9.83301 87.666 29.5 120.999s46.167 58.5 79.5 75.5s71 25.5 113 25.5
c50 0 92.667 -11 128 -33v-61c-33.333 18 -70.333 27 -111 27c-49.333 0 -88.5 -12.5 -117.5 -37.5s-43.5 -64.167 -43.5 -117.5c0 -55.333 13 -95.166 39 -119.499s65.333 -36.5 118 -36.5c20 0 40.333 2.66699 61 8s39 12.666 55 21.999v-64
c-38.667 -21.333 -83.667 -32 -135 -32c-67.333 0 -120.166 19.833 -158.499 59.5z" />
    <glyph glyph-name="ordfeminine" unicode="&#xaa;" horiz-adv-x="343" 
d="M69.5 399.5c-17.667 13 -26.499 32.833 -26.499 59.5c0 58 35.667 87 107 87h82v9c0 17.333 -4.66699 29.333 -14 36s-28 10 -56 10c-28.667 0 -57 -4.66699 -85 -14v51c29.333 10.667 62.333 16 99 16c39.333 0 69.666 -8.16699 90.999 -24.5s32 -41.5 32 -75.5v-168
h-60l-4 26c-12.667 -11.333 -26.5 -19.5 -41.5 -24.5s-33.5 -7.5 -55.5 -7.5c-28 0 -50.833 6.5 -68.5 19.5zM232.001 462l-0.00195312 39.001h-70c-20 0 -34.167 -2.83301 -42.5 -8.5s-12.5 -15.834 -12.5 -30.501c0 -12.667 4.33301 -21.667 13 -27s21.334 -8 38.001 -8
c32.667 0 57.334 11.667 74.001 35z" />
    <glyph glyph-name="guillemotleft" unicode="&#xab;" horiz-adv-x="620" 
d="M43 263v46l258 190l43 -62l-204 -152l204 -151l-43 -61zM276 263v46l258 190l42 -62l-203 -152l203 -151l-42 -61z" />
    <glyph glyph-name="logicalnot" unicode="&#xac;" horiz-adv-x="524" 
d="M393 286h-350v85h437v-230h-87v145z" />
    <glyph glyph-name="uni00AD" unicode="&#xad;" horiz-adv-x="468" 
d="M43 312h382v-85h-382v85z" />
    <glyph glyph-name="registered" unicode="&#xae;" horiz-adv-x="751" 
d="M208.5 34.5c-51 29.667 -91.333 70 -121 121s-44.5 106.5 -44.5 166.5s14.833 115.5 44.5 166.5s70 91.333 121 121s106.5 44.5 166.5 44.5s115.5 -14.833 166.5 -44.5s91.333 -70 121 -121s44.5 -106.5 44.5 -166.5s-14.833 -115.5 -44.5 -166.5s-70 -91.333 -121 -121
s-106.5 -44.5 -166.5 -44.5s-115.5 14.833 -166.5 44.5zM509 91c40 22.667 71.333 54.167 94 94.5s34 85.833 34 136.5c0 50 -11.333 95 -34 135s-54 71.5 -94 94.5s-84.667 34.5 -134 34.5s-93.666 -11.5 -132.999 -34.5s-70.333 -54.5 -93 -94.5s-34 -85 -34 -135
c0 -50.667 11.333 -96.167 34 -136.5s53.667 -71.833 93 -94.5s83.666 -34 132.999 -34s94 11.333 134 34zM226 527l187.003 0.000976562c43.333 0 76.666 -11.333 99.999 -34s35 -53.667 35 -93c0 -30.667 -8 -56.334 -24 -77.001s-38.333 -34.334 -67 -41.001
c7.33301 -5.33301 13.166 -11.166 17.499 -17.499s9.16602 -15.5 14.499 -27.5l48 -117h-67l-49 121c-5.33301 11.333 -11.833 18.833 -19.5 22.5s-21.5 5.5 -41.5 5.5h-65v-149h-69v407zM376.003 324.001c36 0 62.167 4.83203 78.5 14.499s24.5 30.167 24.5 61.5
c0 26.667 -6 45.334 -18 56.001s-32 16 -60 16h-106v-148h81z" />
    <glyph glyph-name="macron" unicode="&#xaf;" horiz-adv-x="365" 
d="M33 634h298v-71h-298v71z" />
    <glyph glyph-name="degree" unicode="&#xb0;" horiz-adv-x="312" 
d="M75 531.5c-22 21 -33 47.834 -33 80.501c0 32 11 58.5 33 79.5s48.667 31.5 80 31.5c32 0 59 -10.333 81 -31s33 -47.334 33 -80.001s-11 -59.5 -33 -80.5s-49 -31.5 -81 -31.5c-31.333 0 -58 10.5 -80 31.5zM191.5 576.001c9.66699 9.33301 14.5 21.333 14.5 36
c0 14 -4.83301 25.833 -14.5 35.5s-21.834 14.5 -36.501 14.5c-14 0 -25.667 -4.83301 -35 -14.5s-14 -21.5 -14 -35.5c0 -14.667 4.66699 -26.667 14 -36s21 -14 35 -14c14.667 0 26.834 4.66699 36.501 14z" />
    <glyph glyph-name="plusminus" unicode="&#xb1;" horiz-adv-x="473" 
d="M193 267h-147v85h147v146h87v-146h147v-85h-147v-141h-87v141zM46 85h381v-85h-381v85z" />
    <glyph glyph-name="uni00B2" unicode="&#xb2;" horiz-adv-x="301" 
d="M43 408c8.66699 14 18.3291 26 28.9961 36s26.334 23.667 47.001 41c24 20 40 34.667 48 44s12 19.333 12 30c0 12.667 -4.16699 21.667 -12.5 27s-22.5 8 -42.5 8c-23.333 0 -47.666 -5 -72.999 -15v59c12.667 4 27.834 7.66699 45.501 11s34.834 5 51.501 5
c33.333 0 59.5 -8 78.5 -24s28.5 -36.333 28.5 -61c0 -18 -3.83301 -33.333 -11.5 -46s-21.167 -28 -40.5 -46l-21 -18c-14 -12 -24.667 -22 -32 -30h107v-59h-214v38z" />
    <glyph glyph-name="uni00B3" unicode="&#xb3;" horiz-adv-x="304" 
d="M83.5 365.5c-17.667 2.33301 -31.167 5.50195 -40.5 9.50195v54c22.667 -9.33301 47 -14 73 -14c24 0 41 2.66699 51 8s15 14.333 15 27c0 23.333 -19.667 35 -59 35h-39l4 48h32c19.333 0 33.5 3 42.5 9s13.5 15.333 13.5 28c0 10.667 -4.83301 18.167 -14.5 22.5
s-24.5 6.5 -44.5 6.5c-24 0 -47 -4.33301 -69 -13v55c10 3.33301 23.167 6.33301 39.5 9s32.5 4 48.5 4c79.333 0 119 -26.667 119 -80c0 -14.667 -3.33301 -27.834 -10 -39.501s-17 -20.167 -31 -25.5c31.333 -8.66699 47 -29.334 47 -62.001
c0 -56.667 -42.333 -85 -127 -85c-16 0 -32.833 1.16699 -50.5 3.5z" />
    <glyph glyph-name="acute" unicode="&#xb4;" horiz-adv-x="261" 
d="M120 699h95l-83 -177h-88z" />
    <glyph glyph-name="paragraph" unicode="&#xb6;" horiz-adv-x="632" 
d="M296 253c-168.667 0 -253 74.667 -253 224c0 80 23.167 138.833 69.5 176.5s109.833 56.5 190.5 56.5h295v-787h-109v703h-85v-703h-108v330z" />
    <glyph glyph-name="periodcentered" unicode="&#xb7;" horiz-adv-x="179" 
d="M43 327h92v-85h-92v85z" />
    <glyph glyph-name="cedilla" unicode="&#xb8;" horiz-adv-x="293" 
d="M72 -237.5c-15.333 1.66699 -26.668 3.50098 -34.001 5.50098v59c19.333 -5.33301 40 -8 62 -8c31.333 0 53.333 3 66 9s19 18 19 36c0 17.333 -6.16699 28.5 -18.5 33.5s-33.166 7.5 -62.499 7.5h-40l29 95h73l-16 -47c35.333 0 62.333 -7.83301 81 -23.5
s28 -37.834 28 -66.501c0 -68.667 -49.333 -103 -148 -103c-10.667 0 -23.667 0.833008 -39 2.5z" />
    <glyph glyph-name="uni00B9" unicode="&#xb9;" horiz-adv-x="203" 
d="M104 581l-72 -15v59l147 29v-284h-75v211z" />
    <glyph glyph-name="ordmasculine" unicode="&#xba;" horiz-adv-x="363" 
d="M43 517c0 44.667 11.5 78.667 34.5 102s57.5 35 103.5 35c92 0 138 -45.667 138 -137s-46 -137 -138 -137s-138 45.667 -138 137zM234 452.5c10.667 13.667 16 35.167 16 64.5c0 28.667 -5.33301 49.834 -16 63.501s-28.334 20.5 -53.001 20.5
s-42.5 -6.83301 -53.5 -20.5s-16.5 -34.834 -16.5 -63.501c0 -29.333 5.5 -50.833 16.5 -64.5s28.833 -20.5 53.5 -20.5s42.334 6.83301 53.001 20.5z" />
    <glyph glyph-name="guillemotright" unicode="&#xbb;" horiz-adv-x="620" 
d="M43 134l204 151l-204 152l43 62l258 -190v-46l-258 -190zM276 134l203 151l-203 152l42 62l258 -190v-46l-258 -190z" />
    <glyph glyph-name="onequarter" unicode="&#xbc;" horiz-adv-x="644" 
d="M115 581l-72 -15v59l147 29v-284h-75v211zM435 644h102l-341 -644h-102zM495 54h-144v52l139 178h80v-177h30v-53h-30v-54h-75v54zM511 108v114l-87 -114h87z" />
    <glyph glyph-name="onehalf" unicode="&#xbd;" horiz-adv-x="651" 
d="M115 581l-72 -15v59l147 29v-284h-75v211zM435 644h102l-341 -644h-102zM383 38c8.66699 14 18.3291 26 28.9961 36s26.334 23.667 47.001 41c24 20 40 34.667 48 44s12 19.333 12 30c0 12.667 -4.16699 21.667 -12.5 27s-22.5 8 -42.5 8
c-23.333 0 -47.666 -5 -72.999 -15v59c12.667 4 27.834 7.66699 45.501 11s34.834 5 51.501 5c33.333 0 59.5 -8 78.5 -24s28.5 -36.333 28.5 -61c0 -18 -3.83301 -33.333 -11.5 -46s-21.167 -28 -40.5 -46l-21 -18c-14 -12 -24.667 -22 -32 -30h107v-59h-214v38z" />
    <glyph glyph-name="threequarters" unicode="&#xbe;" horiz-adv-x="660" 
d="M83.5 365.5c-17.667 2.33301 -31.167 5.50195 -40.5 9.50195v53c22.667 -9.33301 47 -14 73 -14c24 0 41 2.66699 51 8s15 14.666 15 27.999c0 23.333 -19.667 35 -59 35h-39l4 48h32c19.333 0 33.5 3 42.5 9s13.5 15.333 13.5 28c0 10.667 -4.83301 18.334 -14.5 23.001
s-24.5 7 -44.5 7c-24 0 -47 -4.33301 -69 -13v54c10 3.33301 23.167 6.33301 39.5 9s32.5 4 48.5 4c79.333 0 119 -26.667 119 -80c0 -14.667 -3.33301 -27.834 -10 -39.501s-17 -20.167 -31 -25.5c31.333 -8.66699 47 -29.334 47 -62.001c0 -56.667 -42.333 -85 -127 -85
c-16 0 -32.833 1.16699 -50.5 3.5zM439 644.002h103l-341 -644h-102zM500 54.002h-145v52l140 178h79v-177h31v-53h-31v-54h-74v54zM516 108.002v114l-88 -114h88z" />
    <glyph glyph-name="questiondown" unicode="&#xbf;" horiz-adv-x="495" 
d="M261 608h116v-82h-116v82zM133 2c-38 32 -57.001 77 -57.001 135c0 34.667 7.66699 63.167 23 85.5s40 47.5 74 75.5l37 30.5c20 16.333 34 32.333 42 48s12 33.167 12 52.5v17h109v-22c0 -24.667 -5.16699 -46.667 -15.5 -66s-22.5 -35.5 -36.5 -48.5
s-33.667 -29.833 -59 -50.5s-44.333 -39.334 -57 -56.001s-19 -36 -19 -58c0 -35.333 10.5 -60.5 31.5 -75.5s57.167 -22.5 108.5 -22.5c26.667 0 54.167 3.33301 82.5 10s53.5 15.334 75.5 26.001v-92c-23.333 -11.333 -51.166 -20.333 -83.499 -27s-66.5 -10 -102.5 -10
c-72 0 -127 16 -165 48z" />
    <glyph glyph-name="Agrave" unicode="&#xc0;" horiz-adv-x="700" 
d="M215 865h95l76 -177h-88zM290 644h122l244 -644h-112l-64 166h-259l-64 -166h-113zM462 250l-112 295l-112 -295h224z" />
    <glyph glyph-name="Aacute" unicode="&#xc1;" horiz-adv-x="700" 
d="M385 865h96l-84 -177h-87zM290 644h122l244 -644h-112l-64 166h-259l-64 -166h-113zM462 250l-112 295l-112 -295h224z" />
    <glyph glyph-name="Acircumflex" unicode="&#xc2;" horiz-adv-x="700" 
d="M311 848h76l125 -161h-87l-76 101l-74 -101h-89zM290 644h122l244 -644h-112l-64 166h-259l-64 -166h-113zM462 250l-112 295l-112 -295h224z" />
    <glyph glyph-name="Atilde" unicode="&#xc3;" horiz-adv-x="700" 
d="M394 700c-11.333 3.33301 -27.0039 8.66602 -47.0039 15.999c-16.667 6 -29.834 10.5 -39.501 13.5s-19.5 4.5 -29.5 4.5c-36.667 0 -65.667 -12 -87 -36v80c8.66699 8.66699 20.834 15.834 36.501 21.501s31.834 8.5 48.501 8.5c13.333 0 25.833 -1.66699 37.5 -5
s25.834 -8.33301 42.501 -15c15.333 -6 28.333 -10.667 39 -14s22 -5 34 -5c34.667 0 61.334 12.333 80.001 37v-80c-6.66699 -9.33301 -17.167 -16.833 -31.5 -22.5s-30.166 -8.5 -47.499 -8.5c-12.667 0 -24.667 1.66699 -36 5zM289.996 644h122l244 -644h-112l-64 166
h-259l-64 -166h-113zM461.996 250l-112 295l-112 -295h224z" />
    <glyph glyph-name="Adieresis" unicode="&#xc4;" horiz-adv-x="700" 
d="M210 797h92v-86h-92v86zM396 797h92v-86h-92v86zM290 644h122l244 -644h-112l-64 166h-259l-64 -166h-113zM462 250l-112 295l-112 -295h224z" />
    <glyph glyph-name="Aring" unicode="&#xc5;" horiz-adv-x="700" 
d="M656 0l-112.001 0.000976562l-64 166h-259l-64 -166h-113l237 620c-15.333 10.667 -27.166 24.167 -35.499 40.5s-12.5 34.166 -12.5 53.499c0 32.667 10.667 59.834 32 81.501s49.333 32.5 84 32.5c35.333 0 63.833 -10.833 85.5 -32.5s32.5 -48.834 32.5 -81.501
c0 -19.333 -4.16699 -37 -12.5 -53s-19.833 -29 -34.5 -39zM306.499 756.001c-11 -11.333 -16.5 -25.333 -16.5 -42s5.5 -30.667 16.5 -42s25.167 -17 42.5 -17c18 0 32.667 5.66699 44 17s17 25.333 17 42s-5.66699 30.667 -17 42s-26 17 -44 17
c-17.333 0 -31.5 -5.66699 -42.5 -17zM461.999 250.001l-112 295l-112 -295h224z" />
    <glyph glyph-name="AE" unicode="&#xc6;" horiz-adv-x="845" 
d="M290 644h512v-85h-287v-195h250v-84h-250v-196h287v-84h-395v167h-182l-64 -167h-117zM407 251v310h-39l-115 -310h154z" />
    <glyph glyph-name="Ccedilla" unicode="&#xc7;" horiz-adv-x="597" 
d="M388 -10l-13 -37.001c35.333 0 62.333 -7.83301 81 -23.5s28 -37.834 28 -66.501c0 -68.667 -49.333 -103 -148 -103c-10.667 0 -23.667 0.833008 -39 2.5s-26.666 3.5 -33.999 5.5v59c19.333 -5.33301 40 -8 62 -8c31.333 0 53.333 3 66 9s19 18 19 36
c0 17.333 -6.16699 28.5 -18.5 33.5s-33.166 7.5 -62.499 7.5h-40l27 87c-88.667 9.33301 -156.334 42 -203.001 98s-70 130 -70 222c0 108.667 26.667 192.834 80 252.501s133.666 89.5 240.999 89.5c67.333 0 130.333 -10.333 189 -31v-95c-56.667 22 -117 33 -181 33
c-78 0 -134 -20.667 -168 -62s-51 -103.666 -51 -186.999c0 -76 18.167 -133.333 54.5 -172s91.833 -58 166.5 -58c66 0 126 10.333 180 31v-96c-52 -16 -107.333 -25 -166 -27z" />
    <glyph glyph-name="Egrave" unicode="&#xc8;" horiz-adv-x="550" 
d="M169 865h95l76 -177h-88zM63 644h449v-85h-340v-195h303v-84h-303v-196h340v-84h-449v644z" />
    <glyph glyph-name="Eacute" unicode="&#xc9;" horiz-adv-x="550" 
d="M305 865h96l-84 -177h-87zM63 644h449v-85h-340v-195h303v-84h-303v-196h340v-84h-449v644z" />
    <glyph glyph-name="Ecircumflex" unicode="&#xca;" horiz-adv-x="550" 
d="M242 848h76l125 -161h-87l-76 101l-74 -101h-89zM63 644h449v-85h-340v-195h303v-84h-303v-196h340v-84h-449v644z" />
    <glyph glyph-name="Edieresis" unicode="&#xcb;" horiz-adv-x="550" 
d="M146 798h92v-86h-92v86zM332 798h92v-86h-92v86zM63 644h449v-85h-340v-195h303v-84h-303v-196h340v-84h-449v644z" />
    <glyph glyph-name="Igrave" unicode="&#xcc;" horiz-adv-x="235" 
d="M-9 865h95l76 -177h-88zM63 644h109v-644h-109v644z" />
    <glyph glyph-name="Iacute" unicode="&#xcd;" horiz-adv-x="236" 
d="M145 865h96l-84 -177h-87zM63 644h109v-644h-109v644z" />
    <glyph glyph-name="Icircumflex" unicode="&#xce;" horiz-adv-x="235" 
d="M79 848h76l125 -161h-87l-76 101l-74 -101h-89zM63 644h109v-644h-109v644z" />
    <glyph glyph-name="Idieresis" unicode="&#xcf;" horiz-adv-x="235" 
d="M-22 801h92v-86h-92v86zM164 801h92v-86h-92v86zM63 644h109v-644h-109v644z" />
    <glyph glyph-name="Eth" unicode="&#xd0;" horiz-adv-x="689" 
d="M103 274h-70v84h70v286h261c96.667 0 167.667 -25.667 213 -77s68 -134.333 68 -249c0 -110 -22.667 -190.5 -68 -241.5s-116.333 -76.5 -213 -76.5h-261v274zM347 84c44.667 0 80.5 6.49902 107.5 19.499s47.333 36.5 61 70.5s20.5 82 20.5 144
c0 62.667 -6.33301 111.334 -19 146.001s-32.5 59.167 -59.5 73.5s-63.833 21.5 -110.5 21.5h-135v-201h165v-84h-165v-190h135z" />
    <glyph glyph-name="Ntilde" unicode="&#xd1;" horiz-adv-x="667" 
d="M380 708c-11.333 3.33301 -27.0039 8.66602 -47.0039 15.999c-16.667 6 -29.834 10.5 -39.501 13.5s-19.5 4.5 -29.5 4.5c-36.667 0 -65.667 -12 -87 -36v80c8.66699 8.66699 20.834 15.834 36.501 21.501s31.834 8.5 48.501 8.5c13.333 0 25.833 -1.66699 37.5 -5
s25.834 -8.33301 42.501 -15c15.333 -6 28.333 -10.667 39 -14s22 -5 34 -5c34.667 0 61.334 12.333 80.001 37v-80c-6.66699 -9.33301 -17.167 -16.833 -31.5 -22.5s-30.166 -8.5 -47.499 -8.5c-12.667 0 -24.667 1.66699 -36 5zM62.9961 644h96l336 -474v474h108v-644h-96
l-335 473v-473h-109v644z" />
    <glyph glyph-name="Ograve" unicode="&#xd2;" horiz-adv-x="697" 
d="M227 865h95l76 -177h-88zM118.5 70.5c-50.333 53.667 -75.5 136.834 -75.5 249.501c0 116 25 200.667 75 254s126.667 80 230 80s180 -26.667 230 -80s75 -138 75 -254c0 -112.667 -25.167 -195.834 -75.5 -249.501s-126.833 -80.5 -229.5 -80.5
s-179.167 26.833 -229.5 80.5zM497 138c31.333 37.333 47.001 98 47.001 182c0 87.333 -15.5 149.333 -46.5 186s-80.833 55 -149.5 55c-68 0 -117.5 -18.333 -148.5 -55s-46.5 -98.667 -46.5 -186c0 -83.333 15.667 -143.833 47 -181.5s80.666 -56.5 147.999 -56.5
c68 0 117.667 18.667 149 56z" />
    <glyph glyph-name="Oacute" unicode="&#xd3;" horiz-adv-x="697" 
d="M375 865h96l-84 -177h-87zM118.5 70.5c-50.333 53.667 -75.5 136.834 -75.5 249.501c0 116 25 200.667 75 254s126.667 80 230 80s180 -26.667 230 -80s75 -138 75 -254c0 -112.667 -25.167 -195.834 -75.5 -249.501s-126.833 -80.5 -229.5 -80.5
s-179.167 26.833 -229.5 80.5zM497 138c31.333 37.333 47.001 98 47.001 182c0 87.333 -15.5 149.333 -46.5 186s-80.833 55 -149.5 55c-68 0 -117.5 -18.333 -148.5 -55s-46.5 -98.667 -46.5 -186c0 -83.333 15.667 -143.833 47 -181.5s80.666 -56.5 147.999 -56.5
c68 0 117.667 18.667 149 56z" />
    <glyph glyph-name="Ocircumflex" unicode="&#xd4;" horiz-adv-x="697" 
d="M310 848h76l125 -161h-87l-76 101l-74 -101h-89zM118.5 70.5c-50.333 53.667 -75.5 136.834 -75.5 249.501c0 116 25 200.667 75 254s126.667 80 230 80s180 -26.667 230 -80s75 -138 75 -254c0 -112.667 -25.167 -195.834 -75.5 -249.501s-126.833 -80.5 -229.5 -80.5
s-179.167 26.833 -229.5 80.5zM497 138c31.333 37.333 47.001 98 47.001 182c0 87.333 -15.5 149.333 -46.5 186s-80.833 55 -149.5 55c-68 0 -117.5 -18.333 -148.5 -55s-46.5 -98.667 -46.5 -186c0 -83.333 15.667 -143.833 47 -181.5s80.666 -56.5 147.999 -56.5
c68 0 117.667 18.667 149 56z" />
    <glyph glyph-name="Otilde" unicode="&#xd5;" horiz-adv-x="697" 
d="M392 700c-11.333 3.33301 -27.0039 8.66602 -47.0039 15.999c-16.667 6 -29.834 10.5 -39.501 13.5s-19.5 4.5 -29.5 4.5c-36.667 0 -65.667 -12 -87 -36v80c8.66699 8.66699 20.834 15.834 36.501 21.501s31.834 8.5 48.501 8.5c13.333 0 25.833 -1.66699 37.5 -5
s25.834 -8.33301 42.501 -15c15.333 -6 28.333 -10.667 39 -14s22 -5 34 -5c34.667 0 61.334 12.333 80.001 37v-80c-6.66699 -9.33301 -17.167 -16.833 -31.5 -22.5s-30.166 -8.5 -47.499 -8.5c-12.667 0 -24.667 1.66699 -36 5zM118.496 70.5
c-50.333 53.667 -75.5 136.834 -75.5 249.501c0 116 25 200.667 75 254s126.667 80 230 80s180 -26.667 230 -80s75 -138 75 -254c0 -112.667 -25.167 -195.834 -75.5 -249.501s-126.833 -80.5 -229.5 -80.5s-179.167 26.833 -229.5 80.5zM496.996 138
c31.333 37.333 47.001 98 47.001 182c0 87.333 -15.5 149.333 -46.5 186s-80.833 55 -149.5 55c-68 0 -117.5 -18.333 -148.5 -55s-46.5 -98.667 -46.5 -186c0 -83.333 15.667 -143.833 47 -181.5s80.666 -56.5 147.999 -56.5c68 0 117.667 18.667 149 56z" />
    <glyph glyph-name="Odieresis" unicode="&#xd6;" horiz-adv-x="697" 
d="M209 798h92v-86h-92v86zM395 798h92v-86h-92v86zM118.5 70.5c-50.333 53.667 -75.5 136.834 -75.5 249.501c0 116 25 200.667 75 254s126.667 80 230 80s180 -26.667 230 -80s75 -138 75 -254c0 -112.667 -25.167 -195.834 -75.5 -249.501s-126.833 -80.5 -229.5 -80.5
s-179.167 26.833 -229.5 80.5zM497 138c31.333 37.333 47.001 98 47.001 182c0 87.333 -15.5 149.333 -46.5 186s-80.833 55 -149.5 55c-68 0 -117.5 -18.333 -148.5 -55s-46.5 -98.667 -46.5 -186c0 -83.333 15.667 -143.833 47 -181.5s80.666 -56.5 147.999 -56.5
c68 0 117.667 18.667 149 56z" />
    <glyph glyph-name="multiply" unicode="&#xd7;" horiz-adv-x="414" 
d="M208 199l-105 -104l-55 55l104 105l-109 108l55 55l107 -109l110 108l55 -55l-109 -109l109 -109l-53 -54z" />
    <glyph glyph-name="Oslash" unicode="&#xd8;" horiz-adv-x="697" 
d="M192 18c-50 22.667 -87.333 59.001 -112 109.001s-37 114.333 -37 193c0 116 25 200.667 75 254s126.667 80 230 80c28 0 54.333 -2 79 -6l17 45h74l-24 -63c54 -21.333 94 -57.333 120 -108s39 -118 39 -202c0 -112.667 -25.167 -195.834 -75.5 -249.501
s-126.833 -80.5 -229.5 -80.5c-31.333 0 -61.333 2.66699 -90 8l-19 -51h-74zM393 558.001c-14 2 -29 3 -45 3c-68 0 -117.5 -18.333 -148.5 -55s-46.5 -98.667 -46.5 -186c0 -52.667 6 -96 18 -130s30.667 -59.667 56 -77zM497 138.001c31.333 37.333 47 98 47 182
c0 58 -7 104.667 -21 140s-35.333 61 -64 77l-168 -450c18.667 -3.33301 37.667 -5 57 -5c68 0 117.667 18.667 149 56z" />
    <glyph glyph-name="Ugrave" unicode="&#xd9;" horiz-adv-x="674" 
d="M224 865h95l76 -177h-88zM131 54c-48.667 42.667 -72.999 104.334 -72.999 185.001v405h109v-401c0 -53.333 14.667 -93.5 44 -120.5s71.666 -40.5 126.999 -40.5c54.667 0 96.667 13.5 126 40.5s44 67.167 44 120.5v401h108v-405
c0 -80.667 -24.167 -142.334 -72.5 -185.001s-116.833 -64 -205.5 -64c-89.333 0 -158.333 21.333 -207 64z" />
    <glyph glyph-name="Uacute" unicode="&#xda;" horiz-adv-x="674" 
d="M363 865h96l-84 -177h-87zM131 54c-48.667 42.667 -72.999 104.334 -72.999 185.001v405h109v-401c0 -53.333 14.667 -93.5 44 -120.5s71.666 -40.5 126.999 -40.5c54.667 0 96.667 13.5 126 40.5s44 67.167 44 120.5v401h108v-405
c0 -80.667 -24.167 -142.334 -72.5 -185.001s-116.833 -64 -205.5 -64c-89.333 0 -158.333 21.333 -207 64z" />
    <glyph glyph-name="Ucircumflex" unicode="&#xdb;" horiz-adv-x="674" 
d="M299 848h76l125 -161h-87l-76 101l-74 -101h-89zM131 54c-48.667 42.667 -72.999 104.334 -72.999 185.001v405h109v-401c0 -53.333 14.667 -93.5 44 -120.5s71.666 -40.5 126.999 -40.5c54.667 0 96.667 13.5 126 40.5s44 67.167 44 120.5v401h108v-405
c0 -80.667 -24.167 -142.334 -72.5 -185.001s-116.833 -64 -205.5 -64c-89.333 0 -158.333 21.333 -207 64z" />
    <glyph glyph-name="Udieresis" unicode="&#xdc;" horiz-adv-x="674" 
d="M192 798h92v-86h-92v86zM378 798h92v-86h-92v86zM131 54c-48.667 42.667 -72.999 104.334 -72.999 185.001v405h109v-401c0 -53.333 14.667 -93.5 44 -120.5s71.666 -40.5 126.999 -40.5c54.667 0 96.667 13.5 126 40.5s44 67.167 44 120.5v401h108v-405
c0 -80.667 -24.167 -142.334 -72.5 -185.001s-116.833 -64 -205.5 -64c-89.333 0 -158.333 21.333 -207 64z" />
    <glyph glyph-name="Yacute" unicode="&#xdd;" horiz-adv-x="656" 
d="M349 865h96l-84 -177h-87zM274 239l-231 405h113l172 -313l172 313h113l-231 -405v-239h-108v239z" />
    <glyph glyph-name="Thorn" unicode="&#xde;" horiz-adv-x="590" 
d="M63 644h109.001v-110h178c71.333 0 125.166 -19.5 161.499 -58.5s54.5 -90.833 54.5 -155.5c0 -64 -19.833 -115.5 -59.5 -154.5s-93.167 -58.5 -160.5 -58.5h-174v-107h-109v644zM326.001 193c42 0 74.332 11.333 96.999 34s34 53.667 34 93c0 41.333 -10.667 73 -32 95
s-52.666 33 -93.999 33h-159v-255h154z" />
    <glyph glyph-name="germandbls" unicode="&#xdf;" horiz-adv-x="630" 
d="M238 12v91.9961c33.333 -14.667 74.666 -22 123.999 -22c36 0 64.167 9.66699 84.5 29s30.5 46.666 30.5 81.999c0 38 -9.83301 66.167 -29.5 84.5s-51.167 27.5 -94.5 27.5h-78v83h77c37.333 0 64.666 9.66699 81.999 29s26 46.333 26 81s-11.333 61.5 -34 80.5
s-60.667 28.5 -114 28.5c-48 0 -84.833 -12.5 -110.5 -37.5s-38.5 -63.167 -38.5 -114.5v-455h-105v458c0 46.667 10.5 88.334 31.5 125.001s50.667 65.334 89 86.001s82.833 31 133.5 31c54 0 99.833 -9.16699 137.5 -27.5s65.834 -42.666 84.501 -72.999
s28 -64.166 28 -101.499c0 -35.333 -7.33301 -66.166 -22 -92.499s-34 -45.833 -58 -58.5c32.667 -10 58.334 -29 77.001 -57s28 -62.333 28 -103c0 -62.667 -17.833 -111.167 -53.5 -145.5s-86.167 -51.5 -151.5 -51.5c-56.667 0 -104.667 7.33301 -144 22z" />
    <glyph glyph-name="agrave" unicode="&#xe0;" horiz-adv-x="547" 
d="M168 699h95l76 -177h-88zM91 27.5c-32 25 -48.001 60.833 -48.001 107.5s15.833 83.5 47.5 110.5s79.167 40.5 142.5 40.5h152v21c0 23.333 -3.5 41.5 -10.5 54.5s-19.833 22.5 -38.5 28.5s-45.334 9 -80.001 9c-56 0 -108.333 -8.33301 -157 -25v81
c22.667 8.66699 49.334 15.667 80.001 21s63 8 97 8c70.667 0 123.834 -14.333 159.501 -43s53.5 -74 53.5 -136v-305h-93l-7 48c-20 -19.333 -44.333 -33.833 -73 -43.5s-63.667 -14.5 -105 -14.5c-48 0 -88 12.5 -120 37.5zM323.999 84c24.667 10.667 45 25.667 61 45v83
h-150c-32 0 -55.167 -6 -69.5 -18s-21.5 -31 -21.5 -57c0 -24 8 -41.5 24 -52.5s40 -16.5 72 -16.5c31.333 0 59.333 5.33301 84 16z" />
    <glyph glyph-name="aacute" unicode="&#xe1;" horiz-adv-x="549" 
d="M311 699h96l-84 -177h-87zM91 27.5c-32 25 -48.001 60.833 -48.001 107.5s15.833 83.5 47.5 110.5s79.167 40.5 142.5 40.5h152v21c0 23.333 -3.5 41.5 -10.5 54.5s-19.833 22.5 -38.5 28.5s-45.334 9 -80.001 9c-56 0 -108.333 -8.33301 -157 -25v81
c22.667 8.66699 49.334 15.667 80.001 21s63 8 97 8c70.667 0 123.834 -14.333 159.501 -43s53.5 -74 53.5 -136v-305h-93l-7 48c-20 -19.333 -44.333 -33.833 -73 -43.5s-63.667 -14.5 -105 -14.5c-48 0 -88 12.5 -120 37.5zM323.999 84c24.667 10.667 45 25.667 61 45v83
h-150c-32 0 -55.167 -6 -69.5 -18s-21.5 -31 -21.5 -57c0 -24 8 -41.5 24 -52.5s40 -16.5 72 -16.5c31.333 0 59.333 5.33301 84 16z" />
    <glyph glyph-name="acircumflex" unicode="&#xe2;" horiz-adv-x="547" 
d="M247 682h76l125 -161h-87l-76 101l-74 -101h-89zM91 27.5c-32 25 -48.001 60.833 -48.001 107.5s15.833 83.5 47.5 110.5s79.167 40.5 142.5 40.5h152v21c0 23.333 -3.5 41.5 -10.5 54.5s-19.833 22.5 -38.5 28.5s-45.334 9 -80.001 9c-56 0 -108.333 -8.33301 -157 -25
v81c22.667 8.66699 49.334 15.667 80.001 21s63 8 97 8c70.667 0 123.834 -14.333 159.501 -43s53.5 -74 53.5 -136v-305h-93l-7 48c-20 -19.333 -44.333 -33.833 -73 -43.5s-63.667 -14.5 -105 -14.5c-48 0 -88 12.5 -120 37.5zM323.999 84c24.667 10.667 45 25.667 61 45
v83h-150c-32 0 -55.167 -6 -69.5 -18s-21.5 -31 -21.5 -57c0 -24 8 -41.5 24 -52.5s40 -16.5 72 -16.5c31.333 0 59.333 5.33301 84 16z" />
    <glyph glyph-name="atilde" unicode="&#xe3;" horiz-adv-x="547" 
d="M332 542c-11.333 3.33301 -27.0039 8.66602 -47.0039 15.999c-16.667 6 -29.834 10.5 -39.501 13.5s-19.5 4.5 -29.5 4.5c-36.667 0 -65.667 -12 -87 -36v80c8.66699 8.66699 20.834 15.834 36.501 21.501s31.834 8.5 48.501 8.5c13.333 0 25.833 -1.66699 37.5 -5
s25.834 -8.33301 42.501 -15c15.333 -6 28.333 -10.667 39 -14s22 -5 34 -5c34.667 0 61.334 12.333 80.001 37v-80c-6.66699 -9.33301 -17.167 -16.833 -31.5 -22.5s-30.166 -8.5 -47.499 -8.5c-12.667 0 -24.667 1.66699 -36 5zM90.9961 27.5
c-32 25 -48.001 60.833 -48.001 107.5s15.833 83.5 47.5 110.5s79.167 40.5 142.5 40.5h152v21c0 23.333 -3.5 41.5 -10.5 54.5s-19.833 22.5 -38.5 28.5s-45.334 9 -80.001 9c-56 0 -108.333 -8.33301 -157 -25v81c22.667 8.66699 49.334 15.667 80.001 21s63 8 97 8
c70.667 0 123.834 -14.333 159.501 -43s53.5 -74 53.5 -136v-305h-93l-7 48c-20 -19.333 -44.333 -33.833 -73 -43.5s-63.667 -14.5 -105 -14.5c-48 0 -88 12.5 -120 37.5zM323.995 84c24.667 10.667 45 25.667 61 45v83h-150c-32 0 -55.167 -6 -69.5 -18
s-21.5 -31 -21.5 -57c0 -24 8 -41.5 24 -52.5s40 -16.5 72 -16.5c31.333 0 59.333 5.33301 84 16z" />
    <glyph glyph-name="adieresis" unicode="&#xe4;" horiz-adv-x="547" 
d="M152 632h92v-86h-92v86zM338 632h92v-86h-92v86zM91 27.5c-32 25 -48.001 60.833 -48.001 107.5s15.833 83.5 47.5 110.5s79.167 40.5 142.5 40.5h152v21c0 23.333 -3.5 41.5 -10.5 54.5s-19.833 22.5 -38.5 28.5s-45.334 9 -80.001 9c-56 0 -108.333 -8.33301 -157 -25
v81c22.667 8.66699 49.334 15.667 80.001 21s63 8 97 8c70.667 0 123.834 -14.333 159.501 -43s53.5 -74 53.5 -136v-305h-93l-7 48c-20 -19.333 -44.333 -33.833 -73 -43.5s-63.667 -14.5 -105 -14.5c-48 0 -88 12.5 -120 37.5zM323.999 84c24.667 10.667 45 25.667 61 45
v83h-150c-32 0 -55.167 -6 -69.5 -18s-21.5 -31 -21.5 -57c0 -24 8 -41.5 24 -52.5s40 -16.5 72 -16.5c31.333 0 59.333 5.33301 84 16z" />
    <glyph glyph-name="aring" unicode="&#xe5;" horiz-adv-x="547" 
d="M207 553.5c-21.333 21.667 -32 48.5 -32 80.5c0 32.667 10.667 59.834 32 81.501s49.333 32.5 84 32.5c35.333 0 63.833 -10.833 85.5 -32.5s32.5 -48.834 32.5 -81.501c0 -32 -10.833 -58.833 -32.5 -80.5s-50.167 -32.5 -85.5 -32.5c-34.667 0 -62.667 10.833 -84 32.5
zM335 592c11.333 11.333 17 25.333 17 42s-5.66699 30.667 -17 42s-26 17 -44 17c-17.333 0 -31.5 -5.66699 -42.5 -17s-16.5 -25.333 -16.5 -42s5.5 -30.667 16.5 -42s25.167 -17 42.5 -17c18 0 32.667 5.66699 44 17zM91 27.5c-32 25 -48.001 60.833 -48.001 107.5
s15.833 83.5 47.5 110.5s79.167 40.5 142.5 40.5h152v21c0 23.333 -3.5 41.5 -10.5 54.5s-19.833 22.5 -38.5 28.5s-45.334 9 -80.001 9c-56 0 -108.333 -8.33301 -157 -25v81c22.667 8.66699 49.334 15.667 80.001 21s63 8 97 8c70.667 0 123.834 -14.333 159.501 -43
s53.5 -74 53.5 -136v-305h-93l-7 48c-20 -19.333 -44.333 -33.833 -73 -43.5s-63.667 -14.5 -105 -14.5c-48 0 -88 12.5 -120 37.5zM323.999 84c24.667 10.667 45 25.667 61 45v83h-150c-32 0 -55.167 -6 -69.5 -18s-21.5 -31 -21.5 -57c0 -24 8 -41.5 24 -52.5
s40 -16.5 72 -16.5c31.333 0 59.333 5.33301 84 16z" />
    <glyph glyph-name="ae" unicode="&#xe6;" horiz-adv-x="881" 
d="M92.5 27.5c-33 25 -49.4971 60.833 -49.4971 107.5s15.833 83.5 47.5 110.5s79.167 40.5 142.5 40.5h152v21c0 23.333 -3.5 41.5 -10.5 54.5s-19.833 22.5 -38.5 28.5s-45.334 9 -80.001 9c-56 0 -108.333 -8.33301 -157 -25v81c22.667 8.66699 49.334 15.667 80.001 21
s63 8 97 8c81.333 0 139 -21 173 -63c19.333 20 43.666 35.5 72.999 46.5s62.333 16.5 99 16.5c70 0 123.667 -18.333 161 -55s56 -85.667 56 -147v-88h-347c5.33301 -45.333 21.666 -77 48.999 -95s70.333 -27 129 -27c24.667 0 49.5 2.16699 74.5 6.5
s46.833 10.5 65.5 18.5v-79c-42 -18.667 -96 -28 -162 -28c-44.667 0 -84.334 7 -119.001 21s-62 34.667 -82 62c-27.333 -26.667 -58.333 -47.167 -93 -61.5s-80 -21.5 -136 -21.5c-50 0 -91.5 12.5 -124.5 37.5zM742.003 265v33c0 34 -9.33301 59.833 -28 77.5
s-48.667 26.5 -90 26.5c-49.333 0 -83.833 -10.667 -103.5 -32s-29.5 -56.333 -29.5 -105h251zM324.503 83c23 10 43.167 24.667 60.5 44v85h-150c-32 0 -55.167 -6 -69.5 -18s-21.5 -31 -21.5 -57c0 -24 8 -41.5 24 -52.5s40 -16.5 72 -16.5c33.333 0 61.5 5 84.5 15z" />
    <glyph glyph-name="ccedilla" unicode="&#xe7;" horiz-adv-x="493" 
d="M318 -10l-13 -36.999c35.333 0 62.333 -7.83301 81 -23.5s28 -37.834 28 -66.501c0 -68.667 -49.333 -103 -148 -103c-10.667 0 -23.667 0.833008 -39 2.5s-26.666 3.5 -33.999 5.5v59c19.333 -5.33301 40 -8 62 -8c31.333 0 53.333 3 66 9s19 18 19 36
c0 17.333 -6.16699 28.5 -18.5 33.5s-33.166 7.5 -62.499 7.5h-40l27 88c-66.667 8 -117.167 32.667 -151.5 74s-51.5 98 -51.5 170c0 81.333 23 142.833 69 184.5s109.333 62.5 190 62.5c32 0 59.167 -2.33301 81.5 -7s44.166 -12 65.499 -22v-81
c-34.667 17.333 -76.667 26 -126 26c-56.667 0 -99.167 -12.667 -127.5 -38s-42.5 -67 -42.5 -125c0 -57.333 13.167 -99 39.5 -125s69.166 -39 128.499 -39c47.333 0 90.333 9 129 27v-83c-39.333 -16 -83.333 -25 -132 -27z" />
    <glyph glyph-name="egrave" unicode="&#xe8;" horiz-adv-x="537" 
d="M146 699h95l76 -177h-88zM110 52c-44.667 41.333 -66.998 103.333 -66.998 186c0 78 19.667 138.5 59 181.5s97.666 64.5 174.999 64.5c70 0 123.667 -18.333 161 -55s56 -85.667 56 -147v-88h-347c5.33301 -45.333 21.666 -76.833 48.999 -94.5s70.333 -26.5 129 -26.5
c24 0 48.5 2.33301 73.5 7s47.167 10.667 66.5 18v-80c-42 -18.667 -96 -28 -162 -28c-84 0 -148.333 20.667 -193 62zM398.002 265v33c0 34 -9.33301 59.833 -28 77.5s-48.667 26.5 -90 26.5c-49.333 0 -83.833 -10.667 -103.5 -32s-29.5 -56.333 -29.5 -105h251z" />
    <glyph glyph-name="eacute" unicode="&#xe9;" horiz-adv-x="537" 
d="M300 699h96l-84 -177h-87zM110 52c-44.667 41.333 -66.998 103.333 -66.998 186c0 78 19.667 138.5 59 181.5s97.666 64.5 174.999 64.5c70 0 123.667 -18.333 161 -55s56 -85.667 56 -147v-88h-347c5.33301 -45.333 21.666 -76.833 48.999 -94.5s70.333 -26.5 129 -26.5
c24 0 48.5 2.33301 73.5 7s47.167 10.667 66.5 18v-80c-42 -18.667 -96 -28 -162 -28c-84 0 -148.333 20.667 -193 62zM398.002 265v33c0 34 -9.33301 59.833 -28 77.5s-48.667 26.5 -90 26.5c-49.333 0 -83.833 -10.667 -103.5 -32s-29.5 -56.333 -29.5 -105h251z" />
    <glyph glyph-name="ecircumflex" unicode="&#xea;" horiz-adv-x="537" 
d="M234 682h76l125 -161h-87l-76 101l-74 -101h-89zM110 52c-44.667 41.333 -66.998 103.333 -66.998 186c0 78 19.667 138.5 59 181.5s97.666 64.5 174.999 64.5c70 0 123.667 -18.333 161 -55s56 -85.667 56 -147v-88h-347c5.33301 -45.333 21.666 -76.833 48.999 -94.5
s70.333 -26.5 129 -26.5c24 0 48.5 2.33301 73.5 7s47.167 10.667 66.5 18v-80c-42 -18.667 -96 -28 -162 -28c-84 0 -148.333 20.667 -193 62zM398.002 265v33c0 34 -9.33301 59.833 -28 77.5s-48.667 26.5 -90 26.5c-49.333 0 -83.833 -10.667 -103.5 -32
s-29.5 -56.333 -29.5 -105h251z" />
    <glyph glyph-name="edieresis" unicode="&#xeb;" horiz-adv-x="537" 
d="M132 632h92v-86h-92v86zM318 632h92v-86h-92v86zM110 52c-44.667 41.333 -66.998 103.333 -66.998 186c0 78 19.667 138.5 59 181.5s97.666 64.5 174.999 64.5c70 0 123.667 -18.333 161 -55s56 -85.667 56 -147v-88h-347c5.33301 -45.333 21.666 -76.833 48.999 -94.5
s70.333 -26.5 129 -26.5c24 0 48.5 2.33301 73.5 7s47.167 10.667 66.5 18v-80c-42 -18.667 -96 -28 -162 -28c-84 0 -148.333 20.667 -193 62zM398.002 265v33c0 34 -9.33301 59.833 -28 77.5s-48.667 26.5 -90 26.5c-49.333 0 -83.833 -10.667 -103.5 -32
s-29.5 -56.333 -29.5 -105h251z" />
    <glyph glyph-name="igrave" unicode="&#xec;" horiz-adv-x="308" 
d="M62 699h95l76 -177h-88zM135 391h-72l10 83h171v-474h-109v391z" />
    <glyph glyph-name="iacute" unicode="&#xed;" horiz-adv-x="308" 
d="M208 699h96l-84 -177h-87zM135 391h-72l10 83h171v-474h-109v391z" />
    <glyph glyph-name="icircumflex" unicode="&#xee;" horiz-adv-x="308" 
d="M130 682h76l125 -161h-87l-76 101l-74 -101h-89zM135 391h-72l10 83h171v-474h-109v391z" />
    <glyph glyph-name="idieresis" unicode="&#xef;" horiz-adv-x="308" 
d="M20 632h92v-86h-92v86zM206 632h92v-86h-92v86zM135 391h-72l10 83h171v-474h-109v391z" />
    <glyph glyph-name="eth" unicode="&#xf0;" horiz-adv-x="573" 
d="M103.5 44.5c-40.333 36.333 -60.501 87.166 -60.501 152.499c0 67.333 19.333 118.5 58 153.5s93.667 52.5 165 52.5c26 0 53.667 -4.5 83 -13.5s55.333 -21.5 78 -37.5v41c0 50.667 -6.66699 90.334 -20 119.001l-128 -56v56l95 41c-24 18 -57.333 27 -100 27
c-50 0 -97.667 -8.33301 -143 -25v75c44.667 16 97.334 24 158.001 24c73.333 0 130.666 -20.667 171.999 -62l92 40v-57l-60 -26c24.667 -44.667 37 -100.334 37 -167.001v-143c0 -85.333 -20.333 -148.166 -61 -188.499s-101.667 -60.5 -183 -60.5
s-142.166 18.167 -182.499 54.5zM391.999 101c23.333 23.333 35.001 59.667 35.001 109v72c-21.333 14.667 -44.333 26.5 -69 35.5s-48.667 13.5 -72 13.5c-51.333 0 -88.333 -11.5 -111 -34.5s-34 -56.167 -34 -99.5c0 -41.333 12.167 -73.5 36.5 -96.5
s60.166 -34.5 107.499 -34.5c48 0 83.667 11.667 107 35z" />
    <glyph glyph-name="ntilde" unicode="&#xf1;" horiz-adv-x="578" 
d="M336 542c-11.333 3.33301 -27.0039 8.66602 -47.0039 15.999c-16.667 6 -29.834 10.5 -39.501 13.5s-19.5 4.5 -29.5 4.5c-36.667 0 -65.667 -12 -87 -36v80c8.66699 8.66699 20.834 15.834 36.501 21.501s31.834 8.5 48.501 8.5c13.333 0 25.833 -1.66699 37.5 -5
s25.834 -8.33301 42.501 -15c15.333 -6 28.333 -10.667 39 -14s22 -5 34 -5c34.667 0 61.334 12.333 80.001 37v-80c-6.66699 -9.33301 -17.167 -16.833 -31.5 -22.5s-30.166 -8.5 -47.499 -8.5c-12.667 0 -24.667 1.66699 -36 5zM62.9961 474h100.001l5 -50
c22.667 18 49 32.5 79 43.5s62 16.5 96 16.5c61.333 0 106 -14.333 134 -43s42 -73.334 42 -134.001v-307h-108v302c0 36.667 -7.66699 62.334 -23 77.001s-43.333 22 -84 22c-24.667 0 -48.834 -5 -72.501 -15s-43.5 -23 -59.5 -39v-347h-109v474z" />
    <glyph glyph-name="ograve" unicode="&#xf2;" horiz-adv-x="581" 
d="M168 699h95l76 -177h-88zM43 237c0 164.667 82.333 247 247 247c165.333 0 248 -82.333 248 -247s-82.667 -247 -248 -247c-164.667 0 -247 82.333 -247 247zM396.5 118c21 24 31.5 63.667 31.5 119c0 54.667 -10.5 94 -31.5 118s-56.5 36 -106.5 36
c-49.333 0 -84.5 -12 -105.5 -36s-31.5 -63.333 -31.5 -118c0 -55.333 10.5 -95 31.5 -119s56.167 -36 105.5 -36c50 0 85.5 12 106.5 36z" />
    <glyph glyph-name="oacute" unicode="&#xf3;" horiz-adv-x="581" 
d="M317 699h96l-84 -177h-87zM43 237c0 164.667 82.333 247 247 247c165.333 0 248 -82.333 248 -247s-82.667 -247 -248 -247c-164.667 0 -247 82.333 -247 247zM396.5 118c21 24 31.5 63.667 31.5 119c0 54.667 -10.5 94 -31.5 118s-56.5 36 -106.5 36
c-49.333 0 -84.5 -12 -105.5 -36s-31.5 -63.333 -31.5 -118c0 -55.333 10.5 -95 31.5 -119s56.167 -36 105.5 -36c50 0 85.5 12 106.5 36z" />
    <glyph glyph-name="ocircumflex" unicode="&#xf4;" horiz-adv-x="581" 
d="M252 682h76l125 -161h-87l-76 101l-74 -101h-89zM43 237c0 164.667 82.333 247 247 247c165.333 0 248 -82.333 248 -247s-82.667 -247 -248 -247c-164.667 0 -247 82.333 -247 247zM396.5 118c21 24 31.5 63.667 31.5 119c0 54.667 -10.5 94 -31.5 118
s-56.5 36 -106.5 36c-49.333 0 -84.5 -12 -105.5 -36s-31.5 -63.333 -31.5 -118c0 -55.333 10.5 -95 31.5 -119s56.167 -36 105.5 -36c50 0 85.5 12 106.5 36z" />
    <glyph glyph-name="otilde" unicode="&#xf5;" horiz-adv-x="581" 
d="M334 550c-11.333 3.33301 -27.0039 8.66602 -47.0039 15.999c-16.667 6 -29.834 10.5 -39.501 13.5s-19.5 4.5 -29.5 4.5c-36.667 0 -65.667 -12 -87 -36v80c8.66699 8.66699 20.834 15.834 36.501 21.501s31.834 8.5 48.501 8.5c13.333 0 25.833 -1.66699 37.5 -5
s25.834 -8.33301 42.501 -15c15.333 -6 28.333 -10.667 39 -14s22 -5 34 -5c34.667 0 61.334 12.333 80.001 37v-80c-6.66699 -9.33301 -17.167 -16.833 -31.5 -22.5s-30.166 -8.5 -47.499 -8.5c-12.667 0 -24.667 1.66699 -36 5zM42.9961 237c0 164.667 82.333 247 247 247
c165.333 0 248 -82.333 248 -247s-82.667 -247 -248 -247c-164.667 0 -247 82.333 -247 247zM396.496 118c21 24 31.5 63.667 31.5 119c0 54.667 -10.5 94 -31.5 118s-56.5 36 -106.5 36c-49.333 0 -84.5 -12 -105.5 -36s-31.5 -63.333 -31.5 -118
c0 -55.333 10.5 -95 31.5 -119s56.167 -36 105.5 -36c50 0 85.5 12 106.5 36z" />
    <glyph glyph-name="odieresis" unicode="&#xf6;" horiz-adv-x="581" 
d="M151 632h92v-86h-92v86zM337 632h92v-86h-92v86zM43 237c0 164.667 82.333 247 247 247c165.333 0 248 -82.333 248 -247s-82.667 -247 -248 -247c-164.667 0 -247 82.333 -247 247zM396.5 118c21 24 31.5 63.667 31.5 119c0 54.667 -10.5 94 -31.5 118
s-56.5 36 -106.5 36c-49.333 0 -84.5 -12 -105.5 -36s-31.5 -63.333 -31.5 -118c0 -55.333 10.5 -95 31.5 -119s56.167 -36 105.5 -36c50 0 85.5 12 106.5 36z" />
    <glyph glyph-name="divide" unicode="&#xf7;" horiz-adv-x="468" 
d="M192 478h88v-81h-88v81zM46 312h381v-85h-381v85zM192 147h88v-81h-88v81z" />
    <glyph glyph-name="oslash" unicode="&#xf8;" horiz-adv-x="581" 
d="M168 10c-83.333 34 -125 109.666 -125 226.999c0 164.667 82.333 247 247 247c19.333 0 37 -1 53 -3l18 47h74l-24 -65c84.667 -33.333 127 -108.666 127 -225.999c0 -164.667 -82.667 -247 -248 -247c-14 0 -32.333 1.33301 -55 4l-17 -48h-74zM309 389.999l-19 1
c-49.333 0 -84.5 -12 -105.5 -36s-31.5 -63.333 -31.5 -118c0 -35.333 3.83301 -63.833 11.5 -85.5s20.167 -38.167 37.5 -49.5zM396.5 117.999c21 24 31.5 63.667 31.5 119c0 68 -17.333 112.667 -52 134l-107 -288c4 -0.666992 11 -1 21 -1c50 0 85.5 12 106.5 36z" />
    <glyph glyph-name="ugrave" unicode="&#xf9;" horiz-adv-x="578" 
d="M170 699h95l76 -177h-88zM103.5 37.5c-30.333 31.667 -45.5 77.5 -45.5 137.5v299h109v-299c0 -35.333 8.66699 -61.333 26 -78s44 -25 80 -25c26 0 50.333 4.83301 73 14.5s42.667 23.167 60 40.5v347h108v-474h-99l-5 49c-50 -39.333 -108.667 -59 -176 -59
c-56.667 0 -100.167 15.833 -130.5 47.5z" />
    <glyph glyph-name="uacute" unicode="&#xfa;" horiz-adv-x="578" 
d="M302 699h96l-84 -177h-87zM103.5 37.5c-30.333 31.667 -45.5 77.5 -45.5 137.5v299h109v-299c0 -35.333 8.66699 -61.333 26 -78s44 -25 80 -25c26 0 50.333 4.83301 73 14.5s42.667 23.167 60 40.5v347h108v-474h-99l-5 49c-50 -39.333 -108.667 -59 -176 -59
c-56.667 0 -100.167 15.833 -130.5 47.5z" />
    <glyph glyph-name="ucircumflex" unicode="&#xfb;" horiz-adv-x="578" 
d="M247 682h76l125 -161h-87l-76 101l-74 -101h-89zM103.5 37.5c-30.333 31.667 -45.5 77.5 -45.5 137.5v299h109v-299c0 -35.333 8.66699 -61.333 26 -78s44 -25 80 -25c26 0 50.333 4.83301 73 14.5s42.667 23.167 60 40.5v347h108v-474h-99l-5 49
c-50 -39.333 -108.667 -59 -176 -59c-56.667 0 -100.167 15.833 -130.5 47.5z" />
    <glyph glyph-name="udieresis" unicode="&#xfc;" horiz-adv-x="578" 
d="M145 630h92v-86h-92v86zM331 630h92v-86h-92v86zM103.5 37.5c-30.333 31.667 -45.5 77.5 -45.5 137.5v299h109v-299c0 -35.333 8.66699 -61.333 26 -78s44 -25 80 -25c26 0 50.333 4.83301 73 14.5s42.667 23.167 60 40.5v347h108v-474h-99l-5 49
c-50 -39.333 -108.667 -59 -176 -59c-56.667 0 -100.167 15.833 -130.5 47.5z" />
    <glyph glyph-name="yacute" unicode="&#xfd;" horiz-adv-x="598" 
d="M331 699h96l-84 -177h-87zM78 -162v81.002c18.667 -6.66699 39 -10 61 -10c20 0 36.333 3.16699 49 9.5s23.667 16.166 33 29.499s20.333 32.666 33 57.999l-211 468h113l152 -352l154 352h112l-193 -447c-28.667 -68 -58.5 -118.833 -89.5 -152.5
s-71.5 -50.5 -121.5 -50.5c-36 0 -66.667 4.66699 -92 14z" />
    <glyph glyph-name="thorn" unicode="&#xfe;" horiz-adv-x="582" 
d="M63 700h109v-257c40 27.333 90 41 150 41c69.333 0 122.833 -20.333 160.5 -61s56.5 -102.667 56.5 -186s-19.167 -145.333 -57.5 -186s-92.5 -61 -162.5 -61c-57.333 0 -106.333 13.333 -147 40v-246h-109v916zM395.5 111.5c22.333 26.333 33.502 68.5 33.502 126.5
c0 56.667 -10.5 98 -31.5 124s-55.5 39 -103.5 39c-48.667 0 -89.334 -16.667 -122.001 -50v-237c32 -28 71.667 -42 119 -42s82.166 13.167 104.499 39.5z" />
    <glyph glyph-name="ydieresis" unicode="&#xff;" horiz-adv-x="598" 
d="M172 642h92v-86h-92v86zM358 642h92v-86h-92v86zM78 -162v81.002c18.667 -6.66699 39 -10 61 -10c20 0 36.333 3.16699 49 9.5s23.667 16.166 33 29.499s20.333 32.666 33 57.999l-211 468h113l152 -352l154 352h112l-193 -447c-28.667 -68 -58.5 -118.833 -89.5 -152.5
s-71.5 -50.5 -121.5 -50.5c-36 0 -66.667 4.66699 -92 14z" />
    <glyph glyph-name="Amacron" unicode="&#x100;" horiz-adv-x="700" 
d="M200 780h298v-71h-298v71zM290 644h122l244 -644h-112l-64 166h-259l-64 -166h-113zM462 250l-112 295l-112 -295h224z" />
    <glyph glyph-name="amacron" unicode="&#x101;" horiz-adv-x="547" 
d="M138 614h298v-71h-298v71zM91 27.5c-32 25 -48.001 60.833 -48.001 107.5s15.833 83.5 47.5 110.5s79.167 40.5 142.5 40.5h152v21c0 23.333 -3.5 41.5 -10.5 54.5s-19.833 22.5 -38.5 28.5s-45.334 9 -80.001 9c-56 0 -108.333 -8.33301 -157 -25v81
c22.667 8.66699 49.334 15.667 80.001 21s63 8 97 8c70.667 0 123.834 -14.333 159.501 -43s53.5 -74 53.5 -136v-305h-93l-7 48c-20 -19.333 -44.333 -33.833 -73 -43.5s-63.667 -14.5 -105 -14.5c-48 0 -88 12.5 -120 37.5zM323.999 84c24.667 10.667 45 25.667 61 45v83
h-150c-32 0 -55.167 -6 -69.5 -18s-21.5 -31 -21.5 -57c0 -24 8 -41.5 24 -52.5s40 -16.5 72 -16.5c31.333 0 59.333 5.33301 84 16z" />
    <glyph glyph-name="Abreve" unicode="&#x102;" horiz-adv-x="700" 
d="M245.5 726c-25 25.333 -37.499 59.666 -37.499 102.999h74c0 -23.333 5.83301 -41.833 17.5 -55.5s28.167 -20.5 49.5 -20.5c22 0 39.167 6.83301 51.5 20.5s18.5 32.167 18.5 55.5h74c0 -43.333 -12.833 -77.666 -38.5 -102.999s-60.834 -38 -105.501 -38
c-44 0 -78.5 12.667 -103.5 38zM290.001 644h122l244 -644h-112l-64 166h-259l-64 -166h-113zM462.001 250l-112 295l-112 -295h224z" />
    <glyph glyph-name="abreve" unicode="&#x103;" horiz-adv-x="547" 
d="M187.5 560c-25 25.333 -37.499 59.666 -37.499 102.999h74c0 -23.333 5.83301 -41.833 17.5 -55.5s28.167 -20.5 49.5 -20.5c22 0 39.167 6.83301 51.5 20.5s18.5 32.167 18.5 55.5h74c0 -43.333 -12.833 -77.666 -38.5 -102.999s-60.834 -38 -105.501 -38
c-44 0 -78.5 12.667 -103.5 38zM91.001 27.5c-32 25 -48.001 60.833 -48.001 107.5s15.833 83.5 47.5 110.5s79.167 40.5 142.5 40.5h152v21c0 23.333 -3.5 41.5 -10.5 54.5s-19.833 22.5 -38.5 28.5s-45.334 9 -80.001 9c-56 0 -108.333 -8.33301 -157 -25v81
c22.667 8.66699 49.334 15.667 80.001 21s63 8 97 8c70.667 0 123.834 -14.333 159.501 -43s53.5 -74 53.5 -136v-305h-93l-7 48c-20 -19.333 -44.333 -33.833 -73 -43.5s-63.667 -14.5 -105 -14.5c-48 0 -88 12.5 -120 37.5zM324 84c24.667 10.667 45 25.667 61 45v83h-150
c-32 0 -55.167 -6 -69.5 -18s-21.5 -31 -21.5 -57c0 -24 8 -41.5 24 -52.5s40 -16.5 72 -16.5c31.333 0 59.333 5.33301 84 16z" />
    <glyph glyph-name="Aogonek" unicode="&#x104;" horiz-adv-x="700" 
d="M642 -149c9.33301 2 17 4.66602 23 7.99902v-66c-8.66699 -4 -20 -7.16699 -34 -9.5s-28.333 -3.5 -43 -3.5c-30.667 0 -56.167 7.5 -76.5 22.5s-30.5 37.167 -30.5 66.5c0 25.333 6.66699 49.5 20 72.5s31.333 42.5 54 58.5h-11l-64 166h-259l-64 -166h-113l246 644h122
l244 -644h-19c-22 -16.667 -39 -34.667 -51 -54s-18 -38.666 -18 -57.999c0 -14.667 3.83301 -25 11.5 -31s19.5 -9 35.5 -9c8.66699 0 17.667 1 27 3zM462 249.999l-112 295l-112 -295h224z" />
    <glyph glyph-name="aogonek" unicode="&#x105;" horiz-adv-x="556" 
d="M483 -149c9.33301 2 16.999 4.66602 22.999 7.99902v-66c-8.66699 -4 -20 -7.16699 -34 -9.5s-28.333 -3.5 -43 -3.5c-30.667 0 -56.167 7.5 -76.5 22.5s-30.5 37.167 -30.5 66.5c0 25.333 6.66699 49.5 20 72.5s31.333 42.5 54 58.5l-7 48
c-20 -19.333 -44.333 -33.833 -73 -43.5s-63.667 -14.5 -105 -14.5c-48 0 -88 12.5 -120 37.5s-48 60.833 -48 107.5s15.833 83.5 47.5 110.5s79.167 40.5 142.5 40.5h152v21c0 23.333 -3.5 41.5 -10.5 54.5s-19.833 22.5 -38.5 28.5s-45.334 9 -80.001 9
c-56 0 -108.333 -8.33301 -157 -25v81c22.667 8.66699 49.334 15.667 80.001 21s63 8 97 8c70.667 0 123.834 -14.333 159.501 -43s53.5 -74 53.5 -136v-305h-11c-22 -16.667 -39 -34.667 -51 -54s-18 -38.666 -18 -57.999c0 -14.667 3.83301 -25 11.5 -31s19.5 -9 35.5 -9
c8.66699 0 17.667 1 27 3zM384.999 211.999h-150c-32 0 -55.167 -6 -69.5 -18s-21.5 -31 -21.5 -57c0 -24 8 -41.5 24 -52.5s40 -16.5 72 -16.5c31.333 0 59.333 5.33301 84 16s45 25.667 61 45v83z" />
    <glyph glyph-name="Cacute" unicode="&#x106;" horiz-adv-x="597" 
d="M377 865h96l-84 -177h-87zM126 75.5c-55.333 57 -82.999 135.831 -82.999 236.498c0 108.667 26.667 192.834 80 252.501s133.666 89.5 240.999 89.5c67.333 0 130.333 -10.333 189 -31v-95c-56.667 22 -117 33 -181 33c-78 0 -134 -20.667 -168 -62
s-51 -103.666 -51 -186.999c0 -76 18.167 -133.333 54.5 -172s91.833 -58 166.5 -58c66 0 126 10.333 180 31v-96c-57.333 -18 -120.333 -27 -189 -27c-104 0 -183.667 28.5 -239 85.5z" />
    <glyph glyph-name="cacute" unicode="&#x107;" horiz-adv-x="493" 
d="M302 699h96l-84 -177h-87zM107 53c-42.667 42 -63.998 103.333 -63.998 184c0 81.333 23 142.833 69 184.5s109.333 62.5 190 62.5c32 0 59.167 -2.33301 81.5 -7s44.166 -12 65.499 -22v-81c-34.667 17.333 -76.667 26 -126 26c-56.667 0 -99.167 -12.667 -127.5 -38
s-42.5 -67 -42.5 -125c0 -57.333 13.167 -99 39.5 -125s69.166 -39 128.499 -39c47.333 0 90.333 9 129 27v-83c-44 -18 -95.333 -27 -154 -27c-83.333 0 -146.333 21 -189 63z" />
    <glyph glyph-name="Ccircumflex" unicode="&#x108;" horiz-adv-x="597" 
d="M298 848h76l125 -161h-87l-76 101l-74 -101h-89zM126 75.5c-55.333 57 -82.999 135.831 -82.999 236.498c0 108.667 26.667 192.834 80 252.501s133.666 89.5 240.999 89.5c67.333 0 130.333 -10.333 189 -31v-95c-56.667 22 -117 33 -181 33
c-78 0 -134 -20.667 -168 -62s-51 -103.666 -51 -186.999c0 -76 18.167 -133.333 54.5 -172s91.833 -58 166.5 -58c66 0 126 10.333 180 31v-96c-57.333 -18 -120.333 -27 -189 -27c-104 0 -183.667 28.5 -239 85.5z" />
    <glyph glyph-name="ccircumflex" unicode="&#x109;" horiz-adv-x="493" 
d="M236 682h76l125 -161h-87l-76 101l-74 -101h-89zM107 53c-42.667 42 -63.998 103.333 -63.998 184c0 81.333 23 142.833 69 184.5s109.333 62.5 190 62.5c32 0 59.167 -2.33301 81.5 -7s44.166 -12 65.499 -22v-81c-34.667 17.333 -76.667 26 -126 26
c-56.667 0 -99.167 -12.667 -127.5 -38s-42.5 -67 -42.5 -125c0 -57.333 13.167 -99 39.5 -125s69.166 -39 128.499 -39c47.333 0 90.333 9 129 27v-83c-44 -18 -95.333 -27 -154 -27c-83.333 0 -146.333 21 -189 63z" />
    <glyph glyph-name="Cdotaccent" unicode="&#x10a;" horiz-adv-x="597" 
d="M308 799h92v-88h-92v88zM126 75.5c-55.333 57 -82.999 135.831 -82.999 236.498c0 108.667 26.667 192.834 80 252.501s133.666 89.5 240.999 89.5c67.333 0 130.333 -10.333 189 -31v-95c-56.667 22 -117 33 -181 33c-78 0 -134 -20.667 -168 -62
s-51 -103.666 -51 -186.999c0 -76 18.167 -133.333 54.5 -172s91.833 -58 166.5 -58c66 0 126 10.333 180 31v-96c-57.333 -18 -120.333 -27 -189 -27c-104 0 -183.667 28.5 -239 85.5z" />
    <glyph glyph-name="cdotaccent" unicode="&#x10b;" horiz-adv-x="493" 
d="M235 633h92v-88h-92v88zM107 53c-42.667 42 -63.998 103.333 -63.998 184c0 81.333 23 142.833 69 184.5s109.333 62.5 190 62.5c32 0 59.167 -2.33301 81.5 -7s44.166 -12 65.499 -22v-81c-34.667 17.333 -76.667 26 -126 26c-56.667 0 -99.167 -12.667 -127.5 -38
s-42.5 -67 -42.5 -125c0 -57.333 13.167 -99 39.5 -125s69.166 -39 128.499 -39c47.333 0 90.333 9 129 27v-83c-44 -18 -95.333 -27 -154 -27c-83.333 0 -146.333 21 -189 63z" />
    <glyph glyph-name="Ccaron" unicode="&#x10c;" horiz-adv-x="597" 
d="M201 848h89l74 -101l76 101h87l-125 -161h-76zM126 75.5c-55.333 57 -82.999 135.831 -82.999 236.498c0 108.667 26.667 192.834 80 252.501s133.666 89.5 240.999 89.5c67.333 0 130.333 -10.333 189 -31v-95c-56.667 22 -117 33 -181 33c-78 0 -134 -20.667 -168 -62
s-51 -103.666 -51 -186.999c0 -76 18.167 -133.333 54.5 -172s91.833 -58 166.5 -58c66 0 126 10.333 180 31v-96c-57.333 -18 -120.333 -27 -189 -27c-104 0 -183.667 28.5 -239 85.5z" />
    <glyph glyph-name="ccaron" unicode="&#x10d;" horiz-adv-x="494" 
d="M113 682h89l74 -101l76 101h87l-125 -161h-76zM107 53c-42.667 42 -63.998 103.333 -63.998 184c0 81.333 23 142.833 69 184.5s109.333 62.5 190 62.5c32 0 59.167 -2.33301 81.5 -7s44.166 -12 65.499 -22v-81c-34.667 17.333 -76.667 26 -126 26
c-56.667 0 -99.167 -12.667 -127.5 -38s-42.5 -67 -42.5 -125c0 -57.333 13.167 -99 39.5 -125s69.166 -39 128.499 -39c47.333 0 90.333 9 129 27v-83c-44 -18 -95.333 -27 -154 -27c-83.333 0 -146.333 21 -189 63z" />
    <glyph glyph-name="Dcaron" unicode="&#x10e;" horiz-adv-x="649" 
d="M139 859h89l74 -101l76 101h87l-125 -161h-76zM63 644h261c96.667 0 167.667 -25.667 213 -77s68 -134.333 68 -249c0 -110 -22.667 -190.5 -68 -241.5s-116.333 -76.5 -213 -76.5h-261v644zM307 84c44.667 0 80.5 6.49902 107.5 19.499s47.333 36.5 61 70.5
s20.5 82 20.5 144c0 62.667 -6.33301 111.334 -19 146.001s-32.5 59.167 -59.5 73.5s-63.833 21.5 -110.5 21.5h-135v-475h135z" />
    <glyph glyph-name="dcaron" unicode="&#x10f;" horiz-adv-x="645" 
d="M625 696h93l-87 -185h-85zM100.5 50.5c-38.333 40.333 -57.501 101.832 -57.501 184.499s19.833 144.834 59.5 186.501s93.5 62.5 161.5 62.5c57.333 0 106 -13.667 146 -41v231h109v-674h-93l-7 47c-22 -20 -45.667 -34.5 -71 -43.5s-55 -13.5 -89 -13.5
c-67.333 0 -120.166 20.167 -158.499 60.5zM409.999 121.999l-0.00292969 237c-31.333 28 -70.666 42 -117.999 42c-46.667 0 -81.5 -13.333 -104.5 -40s-34.5 -69 -34.5 -127c0 -56 10.833 -97 32.5 -123s55.834 -39 102.501 -39c48.667 0 89.334 16.667 122.001 50z" />
    <glyph glyph-name="Dcroat" unicode="&#x110;" horiz-adv-x="679" 
d="M93 274h-70v84h70v286h261c96.667 0 167.667 -25.667 213 -77s68 -134.333 68 -249c0 -110 -22.667 -190.5 -68 -241.5s-116.333 -76.5 -213 -76.5h-261v274zM337 84c44.667 0 80.5 6.49902 107.5 19.499s47.333 36.5 61 70.5s20.5 82 20.5 144
c0 62.667 -6.33301 111.334 -19 146.001s-32.5 59.167 -59.5 73.5s-63.833 21.5 -110.5 21.5h-135v-201h165v-84h-165v-190h135z" />
    <glyph glyph-name="dcroat" unicode="&#x111;" horiz-adv-x="582" 
d="M100.5 50.5c-38.333 40.333 -57.501 101.832 -57.501 184.499s19.833 144.834 59.5 186.501s93.5 62.5 161.5 62.5c57.333 0 106 -13.667 146 -41v92h-162v78h162v61h109v-61h49v-78h-49v-535h-93l-7 47c-22 -20 -45.667 -34.5 -71 -43.5s-55 -13.5 -89 -13.5
c-67.333 0 -120.166 20.167 -158.499 60.5zM409.999 121.999l-0.00292969 237c-31.333 28 -70.666 42 -117.999 42c-46.667 0 -81.5 -13.333 -104.5 -40s-34.5 -69 -34.5 -127c0 -56 10.833 -97 32.5 -123s55.834 -39 102.501 -39c48.667 0 89.334 16.667 122.001 50z" />
    <glyph glyph-name="Emacron" unicode="&#x112;" horiz-adv-x="550" 
d="M128 792h298v-71h-298v71zM63 644h449v-85h-340v-195h303v-84h-303v-196h340v-84h-449v644z" />
    <glyph glyph-name="emacron" unicode="&#x113;" horiz-adv-x="537" 
d="M134 626h298v-71h-298v71zM110 52c-44.667 41.333 -66.998 103.333 -66.998 186c0 78 19.667 138.5 59 181.5s97.666 64.5 174.999 64.5c70 0 123.667 -18.333 161 -55s56 -85.667 56 -147v-88h-347c5.33301 -45.333 21.666 -76.833 48.999 -94.5s70.333 -26.5 129 -26.5
c24 0 48.5 2.33301 73.5 7s47.167 10.667 66.5 18v-80c-42 -18.667 -96 -28 -162 -28c-84 0 -148.333 20.667 -193 62zM398.002 265v33c0 34 -9.33301 59.833 -28 77.5s-48.667 26.5 -90 26.5c-49.333 0 -83.833 -10.667 -103.5 -32s-29.5 -56.333 -29.5 -105h251z" />
    <glyph glyph-name="Ebreve" unicode="&#x114;" horiz-adv-x="550" 
d="M185.5 726c-25 25.333 -37.499 59.666 -37.499 102.999h74c0 -23.333 5.83301 -41.833 17.5 -55.5s28.167 -20.5 49.5 -20.5c22 0 39.167 6.83301 51.5 20.5s18.5 32.167 18.5 55.5h74c0 -43.333 -12.833 -77.666 -38.5 -102.999s-60.834 -38 -105.501 -38
c-44 0 -78.5 12.667 -103.5 38zM63.001 644h449v-85h-340v-195h303v-84h-303v-196h340v-84h-449v644z" />
    <glyph glyph-name="ebreve" unicode="&#x115;" horiz-adv-x="537" 
d="M171.5 560c-25 25.333 -37.499 59.666 -37.499 102.999h74c0 -23.333 5.83301 -41.833 17.5 -55.5s28.167 -20.5 49.5 -20.5c22 0 39.167 6.83301 51.5 20.5s18.5 32.167 18.5 55.5h74c0 -43.333 -12.833 -77.666 -38.5 -102.999s-60.834 -38 -105.501 -38
c-44 0 -78.5 12.667 -103.5 38zM110.001 52c-44.667 41.333 -66.998 103.333 -66.998 186c0 78 19.667 138.5 59 181.5s97.666 64.5 174.999 64.5c70 0 123.667 -18.333 161 -55s56 -85.667 56 -147v-88h-347c5.33301 -45.333 21.666 -76.833 48.999 -94.5
s70.333 -26.5 129 -26.5c24 0 48.5 2.33301 73.5 7s47.167 10.667 66.5 18v-80c-42 -18.667 -96 -28 -162 -28c-84 0 -148.333 20.667 -193 62zM398.003 265v33c0 34 -9.33301 59.833 -28 77.5s-48.667 26.5 -90 26.5c-49.333 0 -83.833 -10.667 -103.5 -32
s-29.5 -56.333 -29.5 -105h251z" />
    <glyph glyph-name="Edotaccent" unicode="&#x116;" horiz-adv-x="550" 
d="M237 799h92v-88h-92v88zM63 644h449v-85h-340v-195h303v-84h-303v-196h340v-84h-449v644z" />
    <glyph glyph-name="edotaccent" unicode="&#x117;" horiz-adv-x="537" 
d="M228 633h92v-88h-92v88zM110 52c-44.667 41.333 -66.998 103.333 -66.998 186c0 78 19.667 138.5 59 181.5s97.666 64.5 174.999 64.5c70 0 123.667 -18.333 161 -55s56 -85.667 56 -147v-88h-347c5.33301 -45.333 21.666 -76.833 48.999 -94.5s70.333 -26.5 129 -26.5
c24 0 48.5 2.33301 73.5 7s47.167 10.667 66.5 18v-80c-42 -18.667 -96 -28 -162 -28c-84 0 -148.333 20.667 -193 62zM398.002 265v33c0 34 -9.33301 59.833 -28 77.5s-48.667 26.5 -90 26.5c-49.333 0 -83.833 -10.667 -103.5 -32s-29.5 -56.333 -29.5 -105h251z" />
    <glyph glyph-name="Eogonek" unicode="&#x118;" horiz-adv-x="550" 
d="M172 559v-195.001h303v-84h-303v-196h340v-84h-41c-22 -16.667 -39 -34.667 -51 -54s-18 -38.666 -18 -57.999c0 -14.667 3.83301 -25 11.5 -31s19.5 -9 35.5 -9c8.66699 0 17.667 1 27 3s17 4.66699 23 8v-66c-8.66699 -4 -20 -7.16699 -34 -9.5s-28.333 -3.5 -43 -3.5
c-30.667 0 -56.167 7.5 -76.5 22.5s-30.5 37.167 -30.5 66.5c0 25.333 6.66699 49.5 20 72.5s31.333 42.5 54 58.5h-326v644h449v-85h-340z" />
    <glyph glyph-name="eogonek" unicode="&#x119;" horiz-adv-x="537" 
d="M494 194h-346.998c5.33301 -45.333 21.666 -76.833 48.999 -94.5s70.333 -26.5 129 -26.5c24 0 48.5 2.33301 73.5 7s47.167 10.667 66.5 18v-80c-22 -9.33301 -43.333 -15.666 -64 -18.999c-21.333 -16.667 -37.833 -34.5 -49.5 -53.5s-17.5 -38.167 -17.5 -57.5
c0 -14.667 3.83301 -25 11.5 -31s19.5 -9 35.5 -9c8.66699 0 17.667 1 27 3s17 4.66699 23 8v-66c-8.66699 -4 -20 -7.16699 -34 -9.5s-28.333 -3.5 -43 -3.5c-30.667 0 -56.167 7.5 -76.5 22.5s-30.5 37.167 -30.5 66.5c0 22.667 5.33301 44.667 16 66
s25.667 39.666 45 54.999h-5c-84 0 -148.333 20.667 -193 62s-67 103.333 -67 186c0 78 19.667 138.5 59 181.5s97.666 64.5 174.999 64.5c70 0 123.667 -18.333 161 -55s56 -85.667 56 -147v-88zM398.002 298c0 34 -9.33301 59.833 -28 77.5s-48.667 26.5 -90 26.5
c-49.333 0 -83.833 -10.667 -103.5 -32s-29.5 -56.333 -29.5 -105h251v33z" />
    <glyph glyph-name="Ecaron" unicode="&#x11a;" horiz-adv-x="550" 
d="M128 848h89l74 -101l76 101h87l-125 -161h-76zM63 644h449v-85h-340v-195h303v-84h-303v-196h340v-84h-449v644z" />
    <glyph glyph-name="ecaron" unicode="&#x11b;" horiz-adv-x="537" 
d="M118 682h89l74 -101l76 101h87l-125 -161h-76zM110 52c-44.667 41.333 -66.998 103.333 -66.998 186c0 78 19.667 138.5 59 181.5s97.666 64.5 174.999 64.5c70 0 123.667 -18.333 161 -55s56 -85.667 56 -147v-88h-347c5.33301 -45.333 21.666 -76.833 48.999 -94.5
s70.333 -26.5 129 -26.5c24 0 48.5 2.33301 73.5 7s47.167 10.667 66.5 18v-80c-42 -18.667 -96 -28 -162 -28c-84 0 -148.333 20.667 -193 62zM398.002 265v33c0 34 -9.33301 59.833 -28 77.5s-48.667 26.5 -90 26.5c-49.333 0 -83.833 -10.667 -103.5 -32
s-29.5 -56.333 -29.5 -105h251z" />
    <glyph glyph-name="Gcircumflex" unicode="&#x11c;" horiz-adv-x="641" 
d="M319 848h76l125 -161h-87l-76 101l-74 -101h-89zM125 74.5c-54.667 56.333 -82 134.5 -82 234.5c0 108.667 27 193.334 81 254.001s134.667 91 242 91c71.333 0 135 -9.66699 191 -29v-94c-55.333 20 -116 30 -182 30c-79.333 0 -136.166 -20.833 -170.499 -62.5
s-51.5 -104.834 -51.5 -189.501c0 -151.333 71 -227 213 -227c57.333 0 103.666 6.66699 138.999 20v180h-161v71h254v-310c-24 -15.333 -55.5 -28 -94.5 -38s-85.833 -15 -140.5 -15c-104 0 -183.333 28.167 -238 84.5z" />
    <glyph glyph-name="gcircumflex" unicode="&#x11d;" horiz-adv-x="554" 
d="M231 682h76l125 -161h-87l-76 101l-74 -101h-89zM147.5 -169c-35 4.66699 -64.5029 11.001 -88.5029 19.001v84c25.333 -8.66699 55.333 -15.334 90 -20.001s68.334 -7 101.001 -7c50.667 0 86.334 2.83301 107.001 8.5s31 17.5 31 35.5c0 14 -5.5 23.833 -16.5 29.5
s-31.167 8.5 -60.5 8.5h-128c-42 0 -74 7.83301 -96 23.5s-33 38.167 -33 67.5c0 20.667 6 39.167 18 55.5s29.667 28.5 53 36.5c-53.333 26 -80 72.333 -80 139c0 60 18 103.833 54 131.5s90.667 41.5 164 41.5c26.667 0 55.667 -3.33301 87 -10h174l-3 -71h-80
c24.667 -22 37 -52.667 37 -92c0 -52 -15.5 -92.167 -46.5 -120.5s-77.167 -42.5 -138.5 -42.5c-16 0 -35.667 1.66699 -59 5c-21.333 -2 -39.666 -7.5 -54.999 -16.5s-23 -20.5 -23 -34.5c0 -10 4 -17.167 12 -21.5s21.333 -6.5 40 -6.5h133
c47.333 0 83.833 -10.167 109.5 -30.5s38.5 -49.833 38.5 -88.5c0 -46 -19.5 -79.333 -58.5 -100s-97.5 -31 -175.5 -31c-36.667 0 -72.5 2.33301 -107.5 7zM353.497 238.501c17 14.333 25.498 39.5 25.498 75.5s-8.66699 61.833 -26 77.5s-47.333 23.5 -90 23.5
c-41.333 0 -71.166 -7.83301 -89.499 -23.5s-27.5 -41.5 -27.5 -77.5c0 -34.667 8.83301 -59.5 26.5 -74.5s47.834 -22.5 90.501 -22.5c43.333 0 73.5 7.16699 90.5 21.5z" />
    <glyph glyph-name="Gbreve" unicode="&#x11e;" horiz-adv-x="641" 
d="M254.5 726c-25 25.333 -37.499 59.666 -37.499 102.999h74c0 -23.333 5.83301 -41.833 17.5 -55.5s28.167 -20.5 49.5 -20.5c22 0 39.167 6.83301 51.5 20.5s18.5 32.167 18.5 55.5h74c0 -43.333 -12.833 -77.666 -38.5 -102.999s-60.834 -38 -105.501 -38
c-44 0 -78.5 12.667 -103.5 38zM125.001 74.5c-54.667 56.333 -82 134.5 -82 234.5c0 108.667 27 193.334 81 254.001s134.667 91 242 91c71.333 0 135 -9.66699 191 -29v-94c-55.333 20 -116 30 -182 30c-79.333 0 -136.166 -20.833 -170.499 -62.5
s-51.5 -104.834 -51.5 -189.501c0 -151.333 71 -227 213 -227c57.333 0 103.666 6.66699 138.999 20v180h-161v71h254v-310c-24 -15.333 -55.5 -28 -94.5 -38s-85.833 -15 -140.5 -15c-104 0 -183.333 28.167 -238 84.5z" />
    <glyph glyph-name="gbreve" unicode="&#x11f;" horiz-adv-x="554" 
d="M163.5 560c-25 25.333 -37.499 59.666 -37.499 102.999h74c0 -23.333 5.83301 -41.833 17.5 -55.5s28.167 -20.5 49.5 -20.5c22 0 39.167 6.83301 51.5 20.5s18.5 32.167 18.5 55.5h74c0 -43.333 -12.833 -77.666 -38.5 -102.999s-60.834 -38 -105.501 -38
c-44 0 -78.5 12.667 -103.5 38zM147.501 -169c-35 4.66699 -64.5029 11.001 -88.5029 19.001v84c25.333 -8.66699 55.333 -15.334 90 -20.001s68.334 -7 101.001 -7c50.667 0 86.334 2.83301 107.001 8.5s31 17.5 31 35.5c0 14 -5.5 23.833 -16.5 29.5
s-31.167 8.5 -60.5 8.5h-128c-42 0 -74 7.83301 -96 23.5s-33 38.167 -33 67.5c0 20.667 6 39.167 18 55.5s29.667 28.5 53 36.5c-53.333 26 -80 72.333 -80 139c0 60 18 103.833 54 131.5s90.667 41.5 164 41.5c26.667 0 55.667 -3.33301 87 -10h174l-3 -71h-80
c24.667 -22 37 -52.667 37 -92c0 -52 -15.5 -92.167 -46.5 -120.5s-77.167 -42.5 -138.5 -42.5c-16 0 -35.667 1.66699 -59 5c-21.333 -2 -39.666 -7.5 -54.999 -16.5s-23 -20.5 -23 -34.5c0 -10 4 -17.167 12 -21.5s21.333 -6.5 40 -6.5h133
c47.333 0 83.833 -10.167 109.5 -30.5s38.5 -49.833 38.5 -88.5c0 -46 -19.5 -79.333 -58.5 -100s-97.5 -31 -175.5 -31c-36.667 0 -72.5 2.33301 -107.5 7zM353.498 238.501c17 14.333 25.498 39.5 25.498 75.5s-8.66699 61.833 -26 77.5s-47.333 23.5 -90 23.5
c-41.333 0 -71.166 -7.83301 -89.499 -23.5s-27.5 -41.5 -27.5 -77.5c0 -34.667 8.83301 -59.5 26.5 -74.5s47.834 -22.5 90.501 -22.5c43.333 0 73.5 7.16699 90.5 21.5z" />
    <glyph glyph-name="Gdotaccent" unicode="&#x120;" horiz-adv-x="641" 
d="M317 799h92v-88h-92v88zM125 74.5c-54.667 56.333 -82 134.5 -82 234.5c0 108.667 27 193.334 81 254.001s134.667 91 242 91c71.333 0 135 -9.66699 191 -29v-94c-55.333 20 -116 30 -182 30c-79.333 0 -136.166 -20.833 -170.499 -62.5s-51.5 -104.834 -51.5 -189.501
c0 -151.333 71 -227 213 -227c57.333 0 103.666 6.66699 138.999 20v180h-161v71h254v-310c-24 -15.333 -55.5 -28 -94.5 -38s-85.833 -15 -140.5 -15c-104 0 -183.333 28.167 -238 84.5z" />
    <glyph glyph-name="gdotaccent" unicode="&#x121;" horiz-adv-x="554" 
d="M215 625h92v-88h-92v88zM147.5 -169c-35 4.66699 -64.5029 11.001 -88.5029 19.001v84c25.333 -8.66699 55.333 -15.334 90 -20.001s68.334 -7 101.001 -7c50.667 0 86.334 2.83301 107.001 8.5s31 17.5 31 35.5c0 14 -5.5 23.833 -16.5 29.5s-31.167 8.5 -60.5 8.5h-128
c-42 0 -74 7.83301 -96 23.5s-33 38.167 -33 67.5c0 20.667 6 39.167 18 55.5s29.667 28.5 53 36.5c-53.333 26 -80 72.333 -80 139c0 60 18 103.833 54 131.5s90.667 41.5 164 41.5c26.667 0 55.667 -3.33301 87 -10h174l-3 -71h-80c24.667 -22 37 -52.667 37 -92
c0 -52 -15.5 -92.167 -46.5 -120.5s-77.167 -42.5 -138.5 -42.5c-16 0 -35.667 1.66699 -59 5c-21.333 -2 -39.666 -7.5 -54.999 -16.5s-23 -20.5 -23 -34.5c0 -10 4 -17.167 12 -21.5s21.333 -6.5 40 -6.5h133c47.333 0 83.833 -10.167 109.5 -30.5
s38.5 -49.833 38.5 -88.5c0 -46 -19.5 -79.333 -58.5 -100s-97.5 -31 -175.5 -31c-36.667 0 -72.5 2.33301 -107.5 7zM353.497 238.501c17 14.333 25.498 39.5 25.498 75.5s-8.66699 61.833 -26 77.5s-47.333 23.5 -90 23.5c-41.333 0 -71.166 -7.83301 -89.499 -23.5
s-27.5 -41.5 -27.5 -77.5c0 -34.667 8.83301 -59.5 26.5 -74.5s47.834 -22.5 90.501 -22.5c43.333 0 73.5 7.16699 90.5 21.5z" />
    <glyph glyph-name="Gcommaaccent" unicode="&#x122;" horiz-adv-x="641" 
d="M125 74.5c-54.667 56.333 -82 134.5 -82 234.5c0 108.667 27 193.334 81 254.001s134.667 91 242 91c71.333 0 135 -9.66699 191 -29v-94c-55.333 20 -116 30 -182 30c-79.333 0 -136.166 -20.833 -170.499 -62.5s-51.5 -104.834 -51.5 -189.501
c0 -151.333 71 -227 213 -227c57.333 0 103.666 6.66699 138.999 20v180h-161v71h254v-310c-24 -15.333 -55.5 -28 -94.5 -38s-85.833 -15 -140.5 -15c-104 0 -183.333 28.167 -238 84.5zM330 -42h90l-46 -189h-73z" />
    <glyph glyph-name="gcommaaccent" unicode="&#x123;" horiz-adv-x="554" 
d="M261 711h73l-29 -189h-90zM147.5 -169c-35 4.66699 -64.5029 11.001 -88.5029 19.001v84c25.333 -8.66699 55.333 -15.334 90 -20.001s68.334 -7 101.001 -7c50.667 0 86.334 2.83301 107.001 8.5s31 17.5 31 35.5c0 14 -5.5 23.833 -16.5 29.5s-31.167 8.5 -60.5 8.5
h-128c-42 0 -74 7.83301 -96 23.5s-33 38.167 -33 67.5c0 20.667 6 39.167 18 55.5s29.667 28.5 53 36.5c-53.333 26 -80 72.333 -80 139c0 60 18 103.833 54 131.5s90.667 41.5 164 41.5c26.667 0 55.667 -3.33301 87 -10h174l-3 -71h-80c24.667 -22 37 -52.667 37 -92
c0 -52 -15.5 -92.167 -46.5 -120.5s-77.167 -42.5 -138.5 -42.5c-16 0 -35.667 1.66699 -59 5c-21.333 -2 -39.666 -7.5 -54.999 -16.5s-23 -20.5 -23 -34.5c0 -10 4 -17.167 12 -21.5s21.333 -6.5 40 -6.5h133c47.333 0 83.833 -10.167 109.5 -30.5
s38.5 -49.833 38.5 -88.5c0 -46 -19.5 -79.333 -58.5 -100s-97.5 -31 -175.5 -31c-36.667 0 -72.5 2.33301 -107.5 7zM353.497 238.501c17 14.333 25.498 39.5 25.498 75.5s-8.66699 61.833 -26 77.5s-47.333 23.5 -90 23.5c-41.333 0 -71.166 -7.83301 -89.499 -23.5
s-27.5 -41.5 -27.5 -77.5c0 -34.667 8.83301 -59.5 26.5 -74.5s47.834 -22.5 90.501 -22.5c43.333 0 73.5 7.16699 90.5 21.5z" />
    <glyph glyph-name="Hcircumflex" unicode="&#x124;" horiz-adv-x="654" 
d="M288 848h76l125 -161h-87l-76 101l-74 -101h-89zM63 644h109v-280h310v280h109v-644h-109v280h-310v-280h-109v644z" />
    <glyph glyph-name="hcircumflex" unicode="&#x125;" horiz-adv-x="578" 
d="M193 863h76l125 -161h-87l-76 101l-74 -101h-89zM63 674h109.001v-246c21.333 17.333 46.5 31 75.5 41s60.833 15 95.5 15c60 0 104.333 -14.333 133 -43s43 -73.334 43 -134.001v-307h-108v302c0 36.667 -7.83301 62.334 -23.5 77.001s-42.834 22 -81.501 22
c-24 0 -48.333 -5.16699 -73 -15.5s-45 -23.833 -61 -40.5v-345h-109v674z" />
    <glyph glyph-name="Hbar" unicode="&#x126;" horiz-adv-x="654" 
d="M63 457h-50v85h50v102h109v-102h310v102h109v-102h50v-85h-50v-457h-109v280h-310v-280h-109v457zM482 364v93h-310v-93h310z" />
    <glyph glyph-name="hbar" unicode="&#x127;" horiz-adv-x="587" 
d="M72 536h-53.998v79h54v59h108v-59h150v-79h-150v-108c47.333 37.333 104.666 56 171.999 56c60 0 104.333 -14.333 133 -43s43 -73.334 43 -134.001v-307h-109v302c0 36.667 -7.83301 62.334 -23.5 77.001s-42.834 22 -81.501 22c-24 0 -48.167 -5.16699 -72.5 -15.5
s-44.833 -23.833 -61.5 -40.5v-345h-108v536z" />
    <glyph glyph-name="Itilde" unicode="&#x128;" horiz-adv-x="235" 
d="M161 701c-11.333 3.33301 -27.0039 8.66602 -47.0039 15.999c-16.667 6 -29.834 10.5 -39.501 13.5s-19.5 4.5 -29.5 4.5c-36.667 0 -65.667 -12 -87 -36v80c8.66699 8.66699 20.834 15.834 36.501 21.501s31.834 8.5 48.501 8.5c13.333 0 25.833 -1.66699 37.5 -5
s25.834 -8.33301 42.501 -15c15.333 -6 28.333 -10.667 39 -14s22 -5 34 -5c34.667 0 61.334 12.333 80.001 37v-80c-6.66699 -9.33301 -17.167 -16.833 -31.5 -22.5s-30.166 -8.5 -47.499 -8.5c-12.667 0 -24.667 1.66699 -36 5zM62.9961 644h109v-644h-109v644z" />
    <glyph glyph-name="itilde" unicode="&#x129;" horiz-adv-x="308" 
d="M199 534c-11.333 3.33301 -27.0039 8.66602 -47.0039 15.999c-16.667 6 -29.834 10.5 -39.501 13.5s-19.5 4.5 -29.5 4.5c-36.667 0 -65.667 -12 -87 -36v80c8.66699 8.66699 20.834 15.834 36.501 21.501s31.834 8.5 48.501 8.5c13.333 0 25.833 -1.66699 37.5 -5
s25.834 -8.33301 42.501 -15c15.333 -6 28.333 -10.667 39 -14s22 -5 34 -5c34.667 0 61.334 12.333 80.001 37v-80c-6.66699 -9.33301 -17.167 -16.833 -31.5 -22.5s-30.166 -8.5 -47.499 -8.5c-12.667 0 -24.667 1.66699 -36 5zM134.996 391h-72l10 83h171v-474h-109v391z
" />
    <glyph glyph-name="Imacron" unicode="&#x12a;" horiz-adv-x="235" 
d="M-32 792h298v-71h-298v71zM63 644h109v-644h-109v644z" />
    <glyph glyph-name="imacron" unicode="&#x12b;" horiz-adv-x="308" 
d="M6 636h298v-71h-298v71zM135 391h-72l10 83h171v-474h-109v391z" />
    <glyph glyph-name="Ibreve" unicode="&#x12c;" horiz-adv-x="235" 
d="M12.5 736c-25 25.333 -37.499 59.666 -37.499 102.999h74c0 -23.333 5.83301 -41.833 17.5 -55.5s28.167 -20.5 49.5 -20.5c22 0 39.167 6.83301 51.5 20.5s18.5 32.167 18.5 55.5h74c0 -43.333 -12.833 -77.666 -38.5 -102.999s-60.834 -38 -105.501 -38
c-44 0 -78.5 12.667 -103.5 38zM63.001 644h109v-644h-109v644z" />
    <glyph glyph-name="ibreve" unicode="&#x12d;" horiz-adv-x="308" 
d="M58.5 559c-25 25.333 -37.499 60 -37.499 104h74c0 -24 5.83301 -42.833 17.5 -56.5s28.167 -20.5 49.5 -20.5c22 0 39.167 6.83301 51.5 20.5s18.5 32.5 18.5 56.5h74c0 -43.333 -12.833 -77.833 -38.5 -103.5s-60.834 -38.5 -105.501 -38.5
c-44 0 -78.5 12.667 -103.5 38zM135.001 391h-72l10 83h171v-474h-109v391z" />
    <glyph glyph-name="Iogonek" unicode="&#x12e;" horiz-adv-x="235" 
d="M167 -149c9.33301 2 17 4.66602 23 7.99902v-66c-8.66699 -4 -20 -7.16699 -34 -9.5s-28.333 -3.5 -43 -3.5c-30.667 0 -56.167 7.5 -76.5 22.5s-30.5 37.167 -30.5 66.5c0 25.333 6.66699 49.5 20 72.5s31.333 42.5 54 58.5h-17v644h109v-644h-10
c-22 -16.667 -39 -34.667 -51 -54s-18 -38.666 -18 -57.999c0 -14.667 3.83301 -25 11.5 -31s19.5 -9 35.5 -9c8.66699 0 17.667 1 27 3z" />
    <glyph glyph-name="iogonek" unicode="&#x12f;" horiz-adv-x="308" 
d="M245 573h-119v90h119v-90zM235 -149c9.33301 2 17 4.66602 23 7.99902v-66c-8.66699 -4 -20 -7.16699 -34 -9.5s-28.333 -3.5 -43 -3.5c-30.667 0 -56.167 7.5 -76.5 22.5s-30.5 37.167 -30.5 66.5c0 25.333 6.66699 49.5 20 72.5s31.333 42.5 54 58.5h-13v391h-72l10 83
h171v-474h-14c-22 -16.667 -39 -34.667 -51 -54s-18 -38.666 -18 -57.999c0 -14.667 3.83301 -25 11.5 -31s19.5 -9 35.5 -9c8.66699 0 17.667 1 27 3z" />
    <glyph glyph-name="Idotaccent" unicode="&#x130;" horiz-adv-x="235" 
d="M71 802h92v-88h-92v88zM63 644h109v-644h-109v644z" />
    <glyph glyph-name="dotlessi" unicode="&#x131;" horiz-adv-x="308" 
d="M135 391h-72l10 83h171v-474h-109v391z" />
    <glyph glyph-name="IJ" unicode="&#x132;" horiz-adv-x="651" 
d="M63 644h109v-644h-109v644zM242 13v92c16 -7.33301 34.833 -13 56.5 -17s43.167 -6 64.5 -6c44 0 75 9 93 27s27 47.667 27 89v446h109v-464c0 -62 -17.667 -109.167 -53 -141.5s-87.666 -48.5 -156.999 -48.5c-54.667 0 -101.334 7.66699 -140.001 23z" />
    <glyph glyph-name="ij" unicode="&#x133;" horiz-adv-x="544" 
d="M126 663h119v-90h-119v90zM361 663h119v-90h-119v90zM135 391h-72l10 83h171v-474h-109v391zM227 -218l0.000976562 79c20.667 -6.66699 41 -10 61 -10c31.333 0 53.166 5.5 65.499 16.5s18.5 29.833 18.5 56.5v467h-72l10 83h170v-560
c0 -46 -13.167 -82.167 -39.5 -108.5s-64.5 -39.5 -114.5 -39.5c-38.667 0 -71.667 5.33301 -99 16z" />
    <glyph glyph-name="Jcircumflex" unicode="&#x134;" horiz-adv-x="431" 
d="M280 848h76l125 -161h-87l-76 101l-74 -101h-89zM23 13v92c16 -7.33301 34.833 -13 56.5 -17s43.167 -6 64.5 -6c44 0 75 9 93 27s27 47.667 27 89v446h109v-464c0 -62 -17.667 -109.167 -53 -141.5s-87.666 -48.5 -156.999 -48.5
c-54.667 0 -101.334 7.66699 -140.001 23z" />
    <glyph glyph-name="jcircumflex" unicode="&#x135;" horiz-adv-x="306" 
d="M132 682h76l125 -161h-87l-76 101l-74 -101h-89zM-10 -218l0.000976562 79c20.667 -6.66699 41 -10 61 -10c31.333 0 53.166 5.5 65.499 16.5s18.5 29.833 18.5 56.5v467h-72l10 83h170v-560c0 -46 -13.167 -82.167 -39.5 -108.5s-64.5 -39.5 -114.5 -39.5
c-38.667 0 -71.667 5.33301 -99 16z" />
    <glyph glyph-name="Kcommaaccent" unicode="&#x136;" horiz-adv-x="625" 
d="M63 644h109v-296l274 296h126l-237 -260l247 -384h-116l-199 315l-95 -102v-213h-109v644zM273 -37h90l-46 -189h-73z" />
    <glyph glyph-name="kcommaaccent" unicode="&#x137;" horiz-adv-x="550" 
d="M63 674h109v-390l199 190h125l-193 -191l204 -283h-115l-157 225l-63 -60v-165h-109v674zM227 -37h90l-46 -189h-73z" />
    <glyph glyph-name="kgreenlandic" unicode="&#x138;" horiz-adv-x="550" 
d="M63 474h109v-208l199 208h125l-193 -204l204 -270h-115l-156 211l-64 -66v-145h-109v474z" />
    <glyph glyph-name="Lacute" unicode="&#x139;" horiz-adv-x="525" 
d="M146 865h96l-84 -177h-87zM63 644h109v-560h330v-84h-439v644z" />
    <glyph glyph-name="lacute" unicode="&#x13a;" horiz-adv-x="280" 
d="M146 909h96l-84 -177h-87zM92 19c-19.333 19.333 -29 50.667 -29 94v561h109v-551c0 -18 3.16699 -30.5 9.5 -37.5s16.5 -10.5 30.5 -10.5c16 0 31.333 2 46 6v-79c-22 -8 -47.667 -12 -77 -12c-40 0 -69.667 9.66699 -89 29z" />
    <glyph glyph-name="Lcommaaccent" unicode="&#x13b;" horiz-adv-x="525" 
d="M63 644h109v-560h330v-84h-439v644zM247 -37h90l-46 -189h-73z" />
    <glyph glyph-name="lcommaaccent" unicode="&#x13c;" horiz-adv-x="280" 
d="M92 19c-19.333 19.333 -29 50.667 -29 94v561h109v-551c0 -18 3.16699 -30.5 9.5 -37.5s16.5 -10.5 30.5 -10.5c16 0 31.333 2 46 6v-79c-22 -8 -47.667 -12 -77 -12c-40 0 -69.667 9.66699 -89 29zM133 -36.999h90l-46 -189h-73z" />
    <glyph glyph-name="Lcaron" unicode="&#x13d;" horiz-adv-x="525" 
d="M340 755h90l-46 -189h-73zM63 644h109v-560h330v-84h-439v644z" />
    <glyph glyph-name="lcaron" unicode="&#x13e;" horiz-adv-x="311" 
d="M258 838h90l-46 -189h-73zM92 19c-19.333 19.333 -29 50.667 -29 94v561h109v-551c0 -18 3.16699 -30.5 9.5 -37.5s16.5 -10.5 30.5 -10.5c16 0 31.333 2 46 6v-79c-22 -8 -47.667 -12 -77 -12c-40 0 -69.667 9.66699 -89 29z" />
    <glyph glyph-name="Ldot" unicode="&#x13f;" horiz-adv-x="525" 
d="M63 644h109v-560h330v-84h-439v644zM316 355h92v-88h-92v88z" />
    <glyph glyph-name="ldot" unicode="&#x140;" horiz-adv-x="305" 
d="M92 19c-19.333 19.333 -29 50.667 -29 94v561h109v-551c0 -18 3.16699 -30.5 9.5 -37.5s16.5 -10.5 30.5 -10.5c16 0 31.333 2 46 6v-79c-22 -8 -47.667 -12 -77 -12c-40 0 -69.667 9.66699 -89 29zM236 361.001h92v-88h-92v88z" />
    <glyph glyph-name="Lslash" unicode="&#x141;" horiz-adv-x="525" 
d="M63 267l-87 -38v84l87 38v293h109v-245l129 57v-84l-129 -57v-231h330v-84h-439v267z" />
    <glyph glyph-name="lslash" unicode="&#x142;" horiz-adv-x="280" 
d="M92 19c-19.333 19.333 -29 50.667 -29 94v161l-97 -42v84l97 42v316h109v-268l109 48v-84l-109 -48v-199c0 -18 3.16699 -30.5 9.5 -37.5s16.5 -10.5 30.5 -10.5c16 0 31.333 2 46 6v-79c-22 -8 -47.667 -12 -77 -12c-40 0 -69.667 9.66699 -89 29z" />
    <glyph glyph-name="Nacute" unicode="&#x143;" horiz-adv-x="667" 
d="M358 865h96l-84 -177h-87zM63 644h96l336 -474v474h108v-644h-96l-335 473v-473h-109v644z" />
    <glyph glyph-name="nacute" unicode="&#x144;" horiz-adv-x="578" 
d="M305 699h96l-84 -177h-87zM63 474h100.001l5 -50c22.667 18 49 32.5 79 43.5s62 16.5 96 16.5c61.333 0 106 -14.333 134 -43s42 -73.334 42 -134.001v-307h-108v302c0 36.667 -7.66699 62.334 -23 77.001s-43.333 22 -84 22c-24.667 0 -48.834 -5 -72.501 -15
s-43.5 -23 -59.5 -39v-347h-109v474z" />
    <glyph glyph-name="Ncommaaccent" unicode="&#x145;" horiz-adv-x="667" 
d="M63 644h96l336 -474v474h108v-644h-96l-335 473v-473h-109v644zM298 -37h90l-46 -189h-73z" />
    <glyph glyph-name="ncommaaccent" unicode="&#x146;" horiz-adv-x="578" 
d="M63 474h100.001l5 -50c22.667 18 49 32.5 79 43.5s62 16.5 96 16.5c61.333 0 106 -14.333 134 -43s42 -73.334 42 -134.001v-307h-108v302c0 36.667 -7.66699 62.334 -23 77.001s-43.333 22 -84 22c-24.667 0 -48.834 -5 -72.501 -15s-43.5 -23 -59.5 -39v-347h-109v474z
M257.001 -37h90l-46 -189h-73z" />
    <glyph glyph-name="Ncaron" unicode="&#x147;" horiz-adv-x="667" 
d="M178 848h89l74 -101l76 101h87l-125 -161h-76zM63 644h96l336 -474v474h108v-644h-96l-335 473v-473h-109v644z" />
    <glyph glyph-name="ncaron" unicode="&#x148;" horiz-adv-x="578" 
d="M116 682h89l74 -101l76 101h87l-125 -161h-76zM63 474h100.001l5 -50c22.667 18 49 32.5 79 43.5s62 16.5 96 16.5c61.333 0 106 -14.333 134 -43s42 -73.334 42 -134.001v-307h-108v302c0 36.667 -7.66699 62.334 -23 77.001s-43.333 22 -84 22
c-24.667 0 -48.834 -5 -72.501 -15s-43.5 -23 -59.5 -39v-347h-109v474z" />
    <glyph glyph-name="napostrophe" unicode="&#x149;" horiz-adv-x="634" 
d="M12 647h90l-46 -189h-73zM119 474h100.001l5 -50c22.667 18 49 32.5 79 43.5s62 16.5 96 16.5c61.333 0 106 -14.333 134 -43s42 -73.334 42 -134.001v-307h-108v302c0 36.667 -7.66699 62.334 -23 77.001s-43.333 22 -84 22c-24.667 0 -48.834 -5 -72.501 -15
s-43.5 -23 -59.5 -39v-347h-109v474z" />
    <glyph glyph-name="Eng" unicode="&#x14a;" horiz-adv-x="667" 
d="M350 -218l0.000976562 79c20.667 -6.66699 41 -10 61 -10c31.333 0 53.166 5.5 65.499 16.5s18.5 29.833 18.5 56.5v93l-323 456v-473h-109v644h96l336 -474v474h108v-730c0 -46 -13.167 -82.167 -39.5 -108.5s-64.5 -39.5 -114.5 -39.5
c-38.667 0 -71.667 5.33301 -99 16z" />
    <glyph glyph-name="eng" unicode="&#x14b;" horiz-adv-x="578" 
d="M266 -218l0.00195312 79c20.667 -6.66699 41 -10 61 -10c31.333 0 53.166 5.5 65.499 16.5s18.5 29.833 18.5 56.5v378c0 36.667 -7.66699 62.334 -23 77.001s-43.333 22 -84 22c-24.667 0 -48.834 -5 -72.501 -15s-43.5 -23 -59.5 -39v-347h-109v474h100l5 -50
c22.667 18 49 32.5 79 43.5s62 16.5 96 16.5c61.333 0 106 -14.333 134 -43s42 -73.334 42 -134.001v-393c0 -46 -13.167 -82.167 -39.5 -108.5s-64.5 -39.5 -114.5 -39.5c-38.667 0 -71.667 5.33301 -99 16z" />
    <glyph glyph-name="Omacron" unicode="&#x14c;" horiz-adv-x="697" 
d="M197 792h298v-71h-298v71zM118.5 70.5c-50.333 53.667 -75.5 136.834 -75.5 249.501c0 116 25 200.667 75 254s126.667 80 230 80s180 -26.667 230 -80s75 -138 75 -254c0 -112.667 -25.167 -195.834 -75.5 -249.501s-126.833 -80.5 -229.5 -80.5
s-179.167 26.833 -229.5 80.5zM497 138c31.333 37.333 47.001 98 47.001 182c0 87.333 -15.5 149.333 -46.5 186s-80.833 55 -149.5 55c-68 0 -117.5 -18.333 -148.5 -55s-46.5 -98.667 -46.5 -186c0 -83.333 15.667 -143.833 47 -181.5s80.666 -56.5 147.999 -56.5
c68 0 117.667 18.667 149 56z" />
    <glyph glyph-name="omacron" unicode="&#x14d;" horiz-adv-x="581" 
d="M138 626h298v-71h-298v71zM43 237c0 164.667 82.333 247 247 247c165.333 0 248 -82.333 248 -247s-82.667 -247 -248 -247c-164.667 0 -247 82.333 -247 247zM396.5 118c21 24 31.5 63.667 31.5 119c0 54.667 -10.5 94 -31.5 118s-56.5 36 -106.5 36
c-49.333 0 -84.5 -12 -105.5 -36s-31.5 -63.333 -31.5 -118c0 -55.333 10.5 -95 31.5 -119s56.167 -36 105.5 -36c50 0 85.5 12 106.5 36z" />
    <glyph glyph-name="Obreve" unicode="&#x14e;" horiz-adv-x="697" 
d="M243.5 726c-25 25.333 -37.499 59.666 -37.499 102.999h74c0 -23.333 5.83301 -41.833 17.5 -55.5s28.167 -20.5 49.5 -20.5c22 0 39.167 6.83301 51.5 20.5s18.5 32.167 18.5 55.5h74c0 -43.333 -12.833 -77.666 -38.5 -102.999s-60.834 -38 -105.501 -38
c-44 0 -78.5 12.667 -103.5 38zM118.501 70.5c-50.333 53.667 -75.5 136.834 -75.5 249.501c0 116 25 200.667 75 254s126.667 80 230 80s180 -26.667 230 -80s75 -138 75 -254c0 -112.667 -25.167 -195.834 -75.5 -249.501s-126.833 -80.5 -229.5 -80.5
s-179.167 26.833 -229.5 80.5zM497.001 138c31.333 37.333 47.001 98 47.001 182c0 87.333 -15.5 149.333 -46.5 186s-80.833 55 -149.5 55c-68 0 -117.5 -18.333 -148.5 -55s-46.5 -98.667 -46.5 -186c0 -83.333 15.667 -143.833 47 -181.5s80.666 -56.5 147.999 -56.5
c68 0 117.667 18.667 149 56z" />
    <glyph glyph-name="obreve" unicode="&#x14f;" horiz-adv-x="581" 
d="M185.5 560c-25 25.333 -37.499 59.666 -37.499 102.999h74c0 -23.333 5.83301 -41.833 17.5 -55.5s28.167 -20.5 49.5 -20.5c22 0 39.167 6.83301 51.5 20.5s18.5 32.167 18.5 55.5h74c0 -43.333 -12.833 -77.666 -38.5 -102.999s-60.834 -38 -105.501 -38
c-44 0 -78.5 12.667 -103.5 38zM43.001 237c0 164.667 82.333 247 247 247c165.333 0 248 -82.333 248 -247s-82.667 -247 -248 -247c-164.667 0 -247 82.333 -247 247zM396.501 118c21 24 31.5 63.667 31.5 119c0 54.667 -10.5 94 -31.5 118s-56.5 36 -106.5 36
c-49.333 0 -84.5 -12 -105.5 -36s-31.5 -63.333 -31.5 -118c0 -55.333 10.5 -95 31.5 -119s56.167 -36 105.5 -36c50 0 85.5 12 106.5 36z" />
    <glyph glyph-name="Ohungarumlaut" unicode="&#x150;" horiz-adv-x="697" 
d="M245 851h99l-86 -164h-88zM462 851h99l-86 -164h-88zM118.5 70.5c-50.333 53.667 -75.5 136.834 -75.5 249.501c0 116 25 200.667 75 254s126.667 80 230 80s180 -26.667 230 -80s75 -138 75 -254c0 -112.667 -25.167 -195.834 -75.5 -249.501
s-126.833 -80.5 -229.5 -80.5s-179.167 26.833 -229.5 80.5zM497 138c31.333 37.333 47.001 98 47.001 182c0 87.333 -15.5 149.333 -46.5 186s-80.833 55 -149.5 55c-68 0 -117.5 -18.333 -148.5 -55s-46.5 -98.667 -46.5 -186c0 -83.333 15.667 -143.833 47 -181.5
s80.666 -56.5 147.999 -56.5c68 0 117.667 18.667 149 56z" />
    <glyph glyph-name="ohungarumlaut" unicode="&#x151;" horiz-adv-x="581" 
d="M210 685h99l-86 -164h-88zM427 685h99l-86 -164h-88zM43 237c0 164.667 82.333 247 247 247c165.333 0 248 -82.333 248 -247s-82.667 -247 -248 -247c-164.667 0 -247 82.333 -247 247zM396.5 118c21 24 31.5 63.667 31.5 119c0 54.667 -10.5 94 -31.5 118
s-56.5 36 -106.5 36c-49.333 0 -84.5 -12 -105.5 -36s-31.5 -63.333 -31.5 -118c0 -55.333 10.5 -95 31.5 -119s56.167 -36 105.5 -36c50 0 85.5 12 106.5 36z" />
    <glyph glyph-name="OE" unicode="&#x152;" horiz-adv-x="1037" 
d="M653 559v-195.001h303v-84h-303v-196h340v-84h-449v41c-48.667 -34 -114 -51 -196 -51c-102.667 0 -179.167 26.833 -229.5 80.5s-75.5 136.834 -75.5 249.501c0 116 25 200.667 75 254s126.667 80 230 80c82.667 0 148 -16.667 196 -50v40h449v-85h-340zM497 137.999
c31.333 37.333 47.001 98 47.001 182c0 87.333 -15.5 149.333 -46.5 186s-80.833 55 -149.5 55c-68 0 -117.5 -18.333 -148.5 -55s-46.5 -98.667 -46.5 -186c0 -83.333 15.667 -143.833 47 -181.5s80.666 -56.5 147.999 -56.5c68 0 117.667 18.667 149 56z" />
    <glyph glyph-name="oe" unicode="&#x153;" horiz-adv-x="927" 
d="M884 194h-347.001c5.33301 -45.333 21.666 -76.833 48.999 -94.5s70.333 -26.5 129 -26.5c24 0 48.5 2.33301 73.5 7s47.167 10.667 66.5 18v-80c-42 -18.667 -96 -28 -162 -28c-93.333 0 -161.666 24.667 -204.999 74c-41.333 -49.333 -107.333 -74 -198 -74
c-164.667 0 -247 82.333 -247 247s82.333 247 247 247c89.333 0 154.333 -24 195 -72c40.667 48 101.334 72 182.001 72c70 0 123.667 -18.333 161 -55s56 -85.667 56 -147v-88zM787.999 298c0 34 -9.33301 59.832 -28 77.499s-48.667 26.5 -90 26.5
c-48.667 0 -83 -10.667 -103 -32s-30 -55.666 -30 -102.999v-2h251v33zM396.499 117.999c21 24 31.5 63.667 31.5 119c0 54.667 -10.5 94 -31.5 118s-56.5 36 -106.5 36c-49.333 0 -84.5 -12 -105.5 -36s-31.5 -63.333 -31.5 -118c0 -55.333 10.5 -95 31.5 -119
s56.167 -36 105.5 -36c50 0 85.5 12 106.5 36z" />
    <glyph glyph-name="Racute" unicode="&#x154;" horiz-adv-x="610" 
d="M314 865h96l-84 -177h-87zM63 644l296 0.000976562c70 0 122 -18 156 -54s51 -86.667 51 -152c0 -46 -11.5 -84.833 -34.5 -116.5s-55.5 -53.834 -97.5 -66.501c11.333 -8 20.333 -16.833 27 -26.5s13.667 -23.5 21 -41.5l81 -187h-112l-79 180
c-8 18 -17.333 30.5 -28 37.5s-27.667 10.5 -51 10.5h-121v-228h-109v644zM330 316.001c84.667 0 127 40.667 127 122c0 80.667 -39 121 -117 121h-168v-243h158z" />
    <glyph glyph-name="racute" unicode="&#x155;" horiz-adv-x="367" 
d="M144 699h96l-84 -177h-87zM63 474h100l6 -55c22.667 14.667 49.667 28 81 40s62.333 20.333 93 25v-83c-28.667 -5.33301 -59.667 -13.5 -93 -24.5s-59.333 -22.5 -78 -34.5v-342h-109v474z" />
    <glyph glyph-name="Rcommaaccent" unicode="&#x156;" horiz-adv-x="610" 
d="M63 644l296 0.000976562c70 0 122 -18 156 -54s51 -86.667 51 -152c0 -46 -11.5 -84.833 -34.5 -116.5s-55.5 -53.834 -97.5 -66.501c11.333 -8 20.333 -16.833 27 -26.5s13.667 -23.5 21 -41.5l81 -187h-112l-79 180c-8 18 -17.333 30.5 -28 37.5s-27.667 10.5 -51 10.5
h-121v-228h-109v644zM330 316.001c84.667 0 127 40.667 127 122c0 80.667 -39 121 -117 121h-168v-243h158zM247 -36.999h90l-46 -189h-73z" />
    <glyph glyph-name="rcommaaccent" unicode="&#x157;" horiz-adv-x="367" 
d="M63 474h100l6 -55c22.667 14.667 49.667 28 81 40s62.333 20.333 93 25v-83c-28.667 -5.33301 -59.667 -13.5 -93 -24.5s-59.333 -22.5 -78 -34.5v-342h-109v474zM70 -37h90l-46 -189h-73z" />
    <glyph glyph-name="Rcaron" unicode="&#x158;" horiz-adv-x="610" 
d="M131 848h89l74 -101l76 101h87l-125 -161h-76zM63 644l296 0.000976562c70 0 122 -18 156 -54s51 -86.667 51 -152c0 -46 -11.5 -84.833 -34.5 -116.5s-55.5 -53.834 -97.5 -66.501c11.333 -8 20.333 -16.833 27 -26.5s13.667 -23.5 21 -41.5l81 -187h-112l-79 180
c-8 18 -17.333 30.5 -28 37.5s-27.667 10.5 -51 10.5h-121v-228h-109v644zM330 316.001c84.667 0 127 40.667 127 122c0 80.667 -39 121 -117 121h-168v-243h158z" />
    <glyph glyph-name="rcaron" unicode="&#x159;" horiz-adv-x="367" 
d="M-27 682h89l74 -101l76 101h87l-125 -161h-76zM63 474h100l6 -55c22.667 14.667 49.667 28 81 40s62.333 20.333 93 25v-83c-28.667 -5.33301 -59.667 -13.5 -93 -24.5s-59.333 -22.5 -78 -34.5v-342h-109v474z" />
    <glyph glyph-name="Sacute" unicode="&#x15a;" horiz-adv-x="555" 
d="M292 868h96l-84 -177h-87zM57 22v95.999c62 -24 125.667 -36 191 -36c54 0 93.167 6.33301 117.5 19s36.5 36.334 36.5 71.001c0 22 -5.16699 39.5 -15.5 52.5s-27.166 24.167 -50.499 33.5s-58.333 20 -105 32c-69.333 18 -118 40.833 -146 68.5s-42 65.834 -42 114.501
c0 57.333 21 101.833 63 133.5s103.333 47.5 184 47.5c35.333 0 69.5 -2.5 102.5 -7.5s59.833 -11.167 80.5 -18.5v-96c-50.667 19.333 -106.667 29 -168 29c-50.667 0 -88.667 -6.66699 -114 -20s-38 -36 -38 -68c0 -19.333 4.66699 -34.833 14 -46.5s24.833 -22 46.5 -31
s54.167 -18.833 97.5 -29.5c75.333 -19.333 127.666 -44.333 156.999 -75s44 -70.334 44 -119.001c0 -57.333 -21.5 -102 -64.5 -134s-106.167 -48 -189.5 -48s-150.333 10.667 -201 32z" />
    <glyph glyph-name="sacute" unicode="&#x15b;" horiz-adv-x="464" 
d="M252 699h96l-84 -177h-87zM128 -3.5c-30 4.33301 -54.666 10.167 -73.999 17.5v92c22 -8.66699 46.5 -15.334 73.5 -20.001s53.5 -7 79.5 -7c38.667 0 65.667 3.33301 81 10s23 19.667 23 39c0 17.333 -7 30.166 -21 38.499s-40.333 18.5 -79 30.5l-30 10
c-48 16 -83 33.833 -105 53.5s-33 48.834 -33 87.501c0 44.667 16 78.5 48 101.5s82 34.5 150 34.5c26 0 51.5 -2 76.5 -6s46.5 -9 64.5 -15v-91c-18 7.33301 -38.167 13 -60.5 17s-43.5 6 -63.5 6c-36.667 0 -63.334 -3.16699 -80.001 -9.5s-25 -18.166 -25 -35.499
c0 -15.333 6.33301 -26.833 19 -34.5s37.667 -17.5 75 -29.5l22 -7c38.667 -12 68.667 -24.167 90 -36.5s36.833 -27.333 46.5 -45s14.5 -40.5 14.5 -68.5c0 -92.667 -66.333 -139 -199 -139c-32 0 -63 2.16699 -93 6.5z" />
    <glyph glyph-name="Scircumflex" unicode="&#x15c;" horiz-adv-x="555" 
d="M237 856h76l125 -161h-87l-76 101l-74 -101h-89zM57 22v95.999c62 -24 125.667 -36 191 -36c54 0 93.167 6.33301 117.5 19s36.5 36.334 36.5 71.001c0 22 -5.16699 39.5 -15.5 52.5s-27.166 24.167 -50.499 33.5s-58.333 20 -105 32c-69.333 18 -118 40.833 -146 68.5
s-42 65.834 -42 114.501c0 57.333 21 101.833 63 133.5s103.333 47.5 184 47.5c35.333 0 69.5 -2.5 102.5 -7.5s59.833 -11.167 80.5 -18.5v-96c-50.667 19.333 -106.667 29 -168 29c-50.667 0 -88.667 -6.66699 -114 -20s-38 -36 -38 -68
c0 -19.333 4.66699 -34.833 14 -46.5s24.833 -22 46.5 -31s54.167 -18.833 97.5 -29.5c75.333 -19.333 127.666 -44.333 156.999 -75s44 -70.334 44 -119.001c0 -57.333 -21.5 -102 -64.5 -134s-106.167 -48 -189.5 -48s-150.333 10.667 -201 32z" />
    <glyph glyph-name="scircumflex" unicode="&#x15d;" horiz-adv-x="464" 
d="M198 687h76l125 -161h-87l-76 101l-74 -101h-89zM128 -3.5c-30 4.33301 -54.666 10.167 -73.999 17.5v92c22 -8.66699 46.5 -15.334 73.5 -20.001s53.5 -7 79.5 -7c38.667 0 65.667 3.33301 81 10s23 19.667 23 39c0 17.333 -7 30.166 -21 38.499s-40.333 18.5 -79 30.5
l-30 10c-48 16 -83 33.833 -105 53.5s-33 48.834 -33 87.501c0 44.667 16 78.5 48 101.5s82 34.5 150 34.5c26 0 51.5 -2 76.5 -6s46.5 -9 64.5 -15v-91c-18 7.33301 -38.167 13 -60.5 17s-43.5 6 -63.5 6c-36.667 0 -63.334 -3.16699 -80.001 -9.5s-25 -18.166 -25 -35.499
c0 -15.333 6.33301 -26.833 19 -34.5s37.667 -17.5 75 -29.5l22 -7c38.667 -12 68.667 -24.167 90 -36.5s36.833 -27.333 46.5 -45s14.5 -40.5 14.5 -68.5c0 -92.667 -66.333 -139 -199 -139c-32 0 -63 2.16699 -93 6.5z" />
    <glyph glyph-name="Scedilla" unicode="&#x15e;" horiz-adv-x="555" 
d="M457.5 45.5c-36.333 -31.667 -90.1689 -49.832 -161.502 -54.499l-13 -38c35.333 0 62.333 -7.83301 81 -23.5s28 -37.834 28 -66.501c0 -68.667 -49.333 -103 -148 -103c-10.667 0 -23.667 0.833008 -39 2.5s-26.666 3.5 -33.999 5.5v59c19.333 -5.33301 40 -8 62 -8
c31.333 0 53.333 3 66 9s19 18 19 36c0 17.333 -6.16699 28.5 -18.5 33.5s-33.166 7.5 -62.499 7.5h-40l26 86c-66 2 -121.333 12.333 -166 31v96c62 -24 125.667 -36 191 -36c54 0 93.167 6.33301 117.5 19s36.5 36.334 36.5 71.001c0 22 -5.16699 39.5 -15.5 52.5
s-27.166 24.167 -50.499 33.5s-58.333 20 -105 32c-69.333 18 -118 40.833 -146 68.5s-42 65.834 -42 114.501c0 57.333 21 101.833 63 133.5s103.333 47.5 184 47.5c35.333 0 69.5 -2.5 102.5 -7.5s59.833 -11.167 80.5 -18.5v-96c-50.667 19.333 -106.667 29 -168 29
c-50.667 0 -88.667 -6.66699 -114 -20s-38 -36 -38 -68c0 -19.333 4.66699 -34.833 14 -46.5s24.833 -22 46.5 -31s54.167 -18.833 97.5 -29.5c75.333 -19.333 127.666 -44.333 156.999 -75s44 -70.334 44 -119.001c0 -52.667 -18.167 -94.834 -54.5 -126.501z" />
    <glyph glyph-name="scedilla" unicode="&#x15f;" horiz-adv-x="464" 
d="M379.5 32.5c-27 -23 -66.501 -36.499 -118.501 -40.499l-13 -39c35.333 0 62.333 -7.83301 81 -23.5s28 -37.834 28 -66.501c0 -68.667 -49.333 -103 -148 -103c-10.667 0 -23.667 0.833008 -39 2.5s-26.666 3.5 -33.999 5.5v59c19.333 -5.33301 40 -8 62 -8
c31.333 0 53.333 3 66 9s19 18 19 36c0 17.333 -6.16699 28.5 -18.5 33.5s-33.166 7.5 -62.499 7.5h-40l26 86c-54 2 -98.667 9.66699 -134 23v92c22 -8.66699 46.5 -15.334 73.5 -20.001s53.5 -7 79.5 -7c38.667 0 65.667 3.33301 81 10s23 19.667 23 39
c0 17.333 -7 30.166 -21 38.499s-40.333 18.5 -79 30.5l-30 10c-48 16 -83 33.833 -105 53.5s-33 48.834 -33 87.501c0 44.667 16 78.5 48 101.5s82 34.5 150 34.5c26 0 51.5 -2 76.5 -6s46.5 -9 64.5 -15v-91c-18 7.33301 -38.167 13 -60.5 17s-43.5 6 -63.5 6
c-36.667 0 -63.334 -3.16699 -80.001 -9.5s-25 -18.166 -25 -35.499c0 -15.333 6.33301 -26.833 19 -34.5s37.667 -17.5 75 -29.5l22 -7c38.667 -12 68.667 -24.167 90 -36.5s36.833 -27.333 46.5 -45s14.5 -40.5 14.5 -68.5c0 -41.333 -13.5 -73.5 -40.5 -96.5z" />
    <glyph glyph-name="Scaron" unicode="&#x160;" horiz-adv-x="555" 
d="M127 848h89l74 -101l76 101h87l-125 -161h-76zM57 22v95.999c62 -24 125.667 -36 191 -36c54 0 93.167 6.33301 117.5 19s36.5 36.334 36.5 71.001c0 22 -5.16699 39.5 -15.5 52.5s-27.166 24.167 -50.499 33.5s-58.333 20 -105 32c-69.333 18 -118 40.833 -146 68.5
s-42 65.834 -42 114.501c0 57.333 21 101.833 63 133.5s103.333 47.5 184 47.5c35.333 0 69.5 -2.5 102.5 -7.5s59.833 -11.167 80.5 -18.5v-96c-50.667 19.333 -106.667 29 -168 29c-50.667 0 -88.667 -6.66699 -114 -20s-38 -36 -38 -68
c0 -19.333 4.66699 -34.833 14 -46.5s24.833 -22 46.5 -31s54.167 -18.833 97.5 -29.5c75.333 -19.333 127.666 -44.333 156.999 -75s44 -70.334 44 -119.001c0 -57.333 -21.5 -102 -64.5 -134s-106.167 -48 -189.5 -48s-150.333 10.667 -201 32z" />
    <glyph glyph-name="scaron" unicode="&#x161;" horiz-adv-x="464" 
d="M71 682h89l74 -101l76 101h87l-125 -161h-76zM128 -3.5c-30 4.33301 -54.666 10.167 -73.999 17.5v92c22 -8.66699 46.5 -15.334 73.5 -20.001s53.5 -7 79.5 -7c38.667 0 65.667 3.33301 81 10s23 19.667 23 39c0 17.333 -7 30.166 -21 38.499s-40.333 18.5 -79 30.5
l-30 10c-48 16 -83 33.833 -105 53.5s-33 48.834 -33 87.501c0 44.667 16 78.5 48 101.5s82 34.5 150 34.5c26 0 51.5 -2 76.5 -6s46.5 -9 64.5 -15v-91c-18 7.33301 -38.167 13 -60.5 17s-43.5 6 -63.5 6c-36.667 0 -63.334 -3.16699 -80.001 -9.5s-25 -18.166 -25 -35.499
c0 -15.333 6.33301 -26.833 19 -34.5s37.667 -17.5 75 -29.5l22 -7c38.667 -12 68.667 -24.167 90 -36.5s36.833 -27.333 46.5 -45s14.5 -40.5 14.5 -68.5c0 -92.667 -66.333 -139 -199 -139c-32 0 -63 2.16699 -93 6.5z" />
    <glyph glyph-name="uni0162" unicode="&#x162;" horiz-adv-x="568" 
d="M319 0l-16.002 -46.999c35.333 0 62.333 -7.83301 81 -23.5s28 -37.834 28 -66.501c0 -68.667 -49.333 -103 -148 -103c-10.667 0 -23.667 0.833008 -39 2.5s-26.666 3.5 -33.999 5.5v59c19.333 -5.33301 40 -8 62 -8c31.333 0 53.333 3 66 9s19 18 19 36
c0 17.333 -6.16699 28.5 -18.5 33.5s-33.166 7.5 -62.499 7.5h-40l29 95h-16v559h-206v85h520v-85h-205v-559h-20z" />
    <glyph glyph-name="uni0163" unicode="&#x163;" horiz-adv-x="374" 
d="M332 -70.5c18.667 -15.667 27.999 -37.833 27.999 -66.5c0 -68.667 -49.333 -103 -148 -103c-10.667 0 -23.667 0.833008 -39 2.5s-26.666 3.5 -33.999 5.5v59c19.333 -5.33301 40 -8 62 -8c31.333 0 53.333 3 66 9s19 18 19 36c0 17.333 -6.16699 28.5 -18.5 33.5
s-33.166 7.5 -62.499 7.5h-40l28 91c-33.333 8 -58.333 24.333 -75 49s-25 56.667 -25 96v248h-70v85h70v109l108 33v-142h126l-7 -85h-119v-242c0 -27.333 6.16699 -46.5 18.5 -57.5s33.166 -16.5 62.499 -16.5c18 0 37 3.33301 57 10v-77
c-21.333 -8.66699 -46.333 -14 -75 -16l-13 -37c35.333 0 62.333 -7.83301 81 -23.5z" />
    <glyph glyph-name="Tcaron" unicode="&#x164;" horiz-adv-x="568" 
d="M121 856h89l74 -101l76 101h87l-125 -161h-76zM230 559h-206v85h520v-85h-205v-559h-109v559z" />
    <glyph glyph-name="tcaron" unicode="&#x165;" horiz-adv-x="422" 
d="M338 748h90l-46 -189h-73zM131 29.5c-25.333 26.333 -37.999 63.5 -37.999 111.5v248h-70v85h70v109l108 33v-142h126l-7 -85h-119v-242c0 -27.333 6.16699 -46.5 18.5 -57.5s33.166 -16.5 62.499 -16.5c18 0 37 3.33301 57 10v-77c-26 -10.667 -57.667 -16 -95 -16
c-50 0 -87.667 13.167 -113 39.5z" />
    <glyph glyph-name="Tbar" unicode="&#x166;" horiz-adv-x="568" 
d="M230 306h-138v81h138v172h-206v85h520v-85h-205v-172h119v-81h-119v-306h-109v306z" />
    <glyph glyph-name="tbar" unicode="&#x167;" horiz-adv-x="369" 
d="M137 29.5c-25.333 26.333 -37.999 63.5 -37.999 111.5v66h-76v75h76v107h-70v85h70v109l108 33v-142h126l-7 -85h-119v-107h120v-75h-120v-60c0 -27.333 6.16699 -46.5 18.5 -57.5s33.166 -16.5 62.499 -16.5c18 0 37 3.33301 57 10v-77c-26 -10.667 -57.667 -16 -95 -16
c-50 0 -87.667 13.167 -113 39.5z" />
    <glyph glyph-name="Utilde" unicode="&#x168;" horiz-adv-x="674" 
d="M375 708c-11.333 3.33301 -27.0039 8.66602 -47.0039 15.999c-16.667 6 -29.834 10.5 -39.501 13.5s-19.5 4.5 -29.5 4.5c-36.667 0 -65.667 -12 -87 -36v80c8.66699 8.66699 20.834 15.834 36.501 21.501s31.834 8.5 48.501 8.5c13.333 0 25.833 -1.66699 37.5 -5
s25.834 -8.33301 42.501 -15c15.333 -6 28.333 -10.667 39 -14s22 -5 34 -5c34.667 0 61.334 12.333 80.001 37v-80c-6.66699 -9.33301 -17.167 -16.833 -31.5 -22.5s-30.166 -8.5 -47.499 -8.5c-12.667 0 -24.667 1.66699 -36 5zM130.996 54
c-48.667 42.667 -72.999 104.334 -72.999 185.001v405h109v-401c0 -53.333 14.667 -93.5 44 -120.5s71.666 -40.5 126.999 -40.5c54.667 0 96.667 13.5 126 40.5s44 67.167 44 120.5v401h108v-405c0 -80.667 -24.167 -142.334 -72.5 -185.001s-116.833 -64 -205.5 -64
c-89.333 0 -158.333 21.333 -207 64z" />
    <glyph glyph-name="utilde" unicode="&#x169;" horiz-adv-x="578" 
d="M330 542c-11.333 3.33301 -27.0039 8.66602 -47.0039 15.999c-16.667 6 -29.834 10.5 -39.501 13.5s-19.5 4.5 -29.5 4.5c-36.667 0 -65.667 -12 -87 -36v80c8.66699 8.66699 20.834 15.834 36.501 21.501s31.834 8.5 48.501 8.5c13.333 0 25.833 -1.66699 37.5 -5
s25.834 -8.33301 42.501 -15c15.333 -6 28.333 -10.667 39 -14s22 -5 34 -5c34.667 0 61.334 12.333 80.001 37v-80c-6.66699 -9.33301 -17.167 -16.833 -31.5 -22.5s-30.166 -8.5 -47.499 -8.5c-12.667 0 -24.667 1.66699 -36 5zM103.496 37.5
c-30.333 31.667 -45.5 77.5 -45.5 137.5v299h109v-299c0 -35.333 8.66699 -61.333 26 -78s44 -25 80 -25c26 0 50.333 4.83301 73 14.5s42.667 23.167 60 40.5v347h108v-474h-99l-5 49c-50 -39.333 -108.667 -59 -176 -59c-56.667 0 -100.167 15.833 -130.5 47.5z" />
    <glyph glyph-name="Umacron" unicode="&#x16a;" horiz-adv-x="674" 
d="M182 792h298v-71h-298v71zM131 54c-48.667 42.667 -72.999 104.334 -72.999 185.001v405h109v-401c0 -53.333 14.667 -93.5 44 -120.5s71.666 -40.5 126.999 -40.5c54.667 0 96.667 13.5 126 40.5s44 67.167 44 120.5v401h108v-405
c0 -80.667 -24.167 -142.334 -72.5 -185.001s-116.833 -64 -205.5 -64c-89.333 0 -158.333 21.333 -207 64z" />
    <glyph glyph-name="umacron" unicode="&#x16b;" horiz-adv-x="578" 
d="M137 626h298v-71h-298v71zM103.5 37.5c-30.333 31.667 -45.5 77.5 -45.5 137.5v299h109v-299c0 -35.333 8.66699 -61.333 26 -78s44 -25 80 -25c26 0 50.333 4.83301 73 14.5s42.667 23.167 60 40.5v347h108v-474h-99l-5 49c-50 -39.333 -108.667 -59 -176 -59
c-56.667 0 -100.167 15.833 -130.5 47.5z" />
    <glyph glyph-name="Ubreve" unicode="&#x16c;" horiz-adv-x="674" 
d="M220.5 726c-25 25.333 -37.499 59.666 -37.499 102.999h74c0 -23.333 5.83301 -41.833 17.5 -55.5s28.167 -20.5 49.5 -20.5c22 0 39.167 6.83301 51.5 20.5s18.5 32.167 18.5 55.5h74c0 -43.333 -12.833 -77.666 -38.5 -102.999s-60.834 -38 -105.501 -38
c-44 0 -78.5 12.667 -103.5 38zM131.001 54c-48.667 42.667 -72.999 104.334 -72.999 185.001v405h109v-401c0 -53.333 14.667 -93.5 44 -120.5s71.666 -40.5 126.999 -40.5c54.667 0 96.667 13.5 126 40.5s44 67.167 44 120.5v401h108v-405
c0 -80.667 -24.167 -142.334 -72.5 -185.001s-116.833 -64 -205.5 -64c-89.333 0 -158.333 21.333 -207 64z" />
    <glyph glyph-name="ubreve" unicode="&#x16d;" horiz-adv-x="578" 
d="M184.5 560c-25 25.333 -37.499 59.666 -37.499 102.999h74c0 -23.333 5.83301 -41.833 17.5 -55.5s28.167 -20.5 49.5 -20.5c22 0 39.167 6.83301 51.5 20.5s18.5 32.167 18.5 55.5h74c0 -43.333 -12.833 -77.666 -38.5 -102.999s-60.834 -38 -105.501 -38
c-44 0 -78.5 12.667 -103.5 38zM103.501 37.5c-30.333 31.667 -45.5 77.5 -45.5 137.5v299h109v-299c0 -35.333 8.66699 -61.333 26 -78s44 -25 80 -25c26 0 50.333 4.83301 73 14.5s42.667 23.167 60 40.5v347h108v-474h-99l-5 49c-50 -39.333 -108.667 -59 -176 -59
c-56.667 0 -100.167 15.833 -130.5 47.5z" />
    <glyph glyph-name="Uring" unicode="&#x16e;" horiz-adv-x="674" 
d="M246 719.5c-21.333 21.667 -32 48.5 -32 80.5c0 32.667 10.667 59.834 32 81.501s49.333 32.5 84 32.5c35.333 0 63.833 -10.833 85.5 -32.5s32.5 -48.834 32.5 -81.501c0 -32 -10.833 -58.833 -32.5 -80.5s-50.167 -32.5 -85.5 -32.5c-34.667 0 -62.667 10.833 -84 32.5
zM374 758c11.333 11.333 17 25.333 17 42s-5.66699 30.667 -17 42s-26 17 -44 17c-17.333 0 -31.5 -5.66699 -42.5 -17s-16.5 -25.333 -16.5 -42s5.5 -30.667 16.5 -42s25.167 -17 42.5 -17c18 0 32.667 5.66699 44 17zM131 54
c-48.667 42.667 -72.999 104.334 -72.999 185.001v405h109v-401c0 -53.333 14.667 -93.5 44 -120.5s71.666 -40.5 126.999 -40.5c54.667 0 96.667 13.5 126 40.5s44 67.167 44 120.5v401h108v-405c0 -80.667 -24.167 -142.334 -72.5 -185.001s-116.833 -64 -205.5 -64
c-89.333 0 -158.333 21.333 -207 64z" />
    <glyph glyph-name="uring" unicode="&#x16f;" horiz-adv-x="578" 
d="M197 553.5c-21.333 21.667 -32 48.5 -32 80.5c0 32.667 10.667 59.834 32 81.501s49.333 32.5 84 32.5c35.333 0 63.833 -10.833 85.5 -32.5s32.5 -48.834 32.5 -81.501c0 -32 -10.833 -58.833 -32.5 -80.5s-50.167 -32.5 -85.5 -32.5c-34.667 0 -62.667 10.833 -84 32.5
zM325 592c11.333 11.333 17 25.333 17 42s-5.66699 30.667 -17 42s-26 17 -44 17c-17.333 0 -31.5 -5.66699 -42.5 -17s-16.5 -25.333 -16.5 -42s5.5 -30.667 16.5 -42s25.167 -17 42.5 -17c18 0 32.667 5.66699 44 17zM103.5 37.5c-30.333 31.667 -45.5 77.5 -45.5 137.5
v299h109v-299c0 -35.333 8.66699 -61.333 26 -78s44 -25 80 -25c26 0 50.333 4.83301 73 14.5s42.667 23.167 60 40.5v347h108v-474h-99l-5 49c-50 -39.333 -108.667 -59 -176 -59c-56.667 0 -100.167 15.833 -130.5 47.5z" />
    <glyph glyph-name="Uhungarumlaut" unicode="&#x170;" horiz-adv-x="674" 
d="M229 851h99l-86 -164h-88zM446 851h99l-86 -164h-88zM131 54c-48.667 42.667 -72.999 104.334 -72.999 185.001v405h109v-401c0 -53.333 14.667 -93.5 44 -120.5s71.666 -40.5 126.999 -40.5c54.667 0 96.667 13.5 126 40.5s44 67.167 44 120.5v401h108v-405
c0 -80.667 -24.167 -142.334 -72.5 -185.001s-116.833 -64 -205.5 -64c-89.333 0 -158.333 21.333 -207 64z" />
    <glyph glyph-name="uhungarumlaut" unicode="&#x171;" horiz-adv-x="578" 
d="M180 685h99l-86 -164h-88zM397 685h99l-86 -164h-88zM103.5 37.5c-30.333 31.667 -45.5 77.5 -45.5 137.5v299h109v-299c0 -35.333 8.66699 -61.333 26 -78s44 -25 80 -25c26 0 50.333 4.83301 73 14.5s42.667 23.167 60 40.5v347h108v-474h-99l-5 49
c-50 -39.333 -108.667 -59 -176 -59c-56.667 0 -100.167 15.833 -130.5 47.5z" />
    <glyph glyph-name="Uogonek" unicode="&#x172;" horiz-adv-x="674" 
d="M616 644v-404.999c0 -70.667 -18.833 -126.834 -56.5 -168.501s-91.167 -67.167 -160.5 -76.5c-40.667 -34 -61 -69.333 -61 -106c0 -14.667 3.83301 -25 11.5 -31s19.5 -9 35.5 -9c8.66699 0 17.667 1 27 3s17 4.66699 23 8v-66c-8.66699 -4 -20 -7.16699 -34 -9.5
s-28.333 -3.5 -43 -3.5c-30.667 0 -56.167 7.5 -76.5 22.5s-30.5 37.167 -30.5 66.5c0 22.667 5.5 44.667 16.5 66s26.167 40 45.5 56c-81.333 4 -144.166 27.167 -188.499 69.5s-66.5 101.833 -66.5 178.5v405h109v-401c0 -53.333 14.667 -93.5 44 -120.5
s71.666 -40.5 126.999 -40.5c54.667 0 96.667 13.5 126 40.5s44 67.167 44 120.5v401h108z" />
    <glyph glyph-name="uogonek" unicode="&#x173;" horiz-adv-x="579" 
d="M502 -149c9.33301 2 17 4.66602 23 7.99902v-66c-8.66699 -4 -20 -7.16699 -34 -9.5s-28.333 -3.5 -43 -3.5c-30.667 0 -56.167 7.5 -76.5 22.5s-30.5 37.167 -30.5 66.5c0 25.333 6.66699 49.5 20 72.5s31.333 42.5 54 58.5l-5 49c-50 -39.333 -108.667 -59 -176 -59
c-56.667 0 -100.167 15.833 -130.5 47.5s-45.5 77.5 -45.5 137.5v299h109v-299c0 -35.333 8.66699 -61.333 26 -78s44 -25 80 -25c26 0 50.333 4.83301 73 14.5s42.667 23.167 60 40.5v347h108v-474h-17c-22 -16.667 -39 -34.667 -51 -54s-18 -38.666 -18 -57.999
c0 -14.667 3.83301 -25 11.5 -31s19.5 -9 35.5 -9c8.66699 0 17.667 1 27 3z" />
    <glyph glyph-name="Wcircumflex" unicode="&#x174;" horiz-adv-x="869" 
d="M401 848h76l125 -161h-87l-76 101l-74 -101h-89zM44 644h107l109 -483l122 405v78h89l137 -483l111 483h106l-149 -644h-107l-129 451l-137 -451h-109z" />
    <glyph glyph-name="wcircumflex" unicode="&#x175;" horiz-adv-x="746" 
d="M336 682h76l125 -161h-87l-76 101l-74 -101h-89zM43 474h109l82 -345l93 287v58h83l103 -345l82 345h108l-124 -474h-103l-101 310l-103 -310h-104z" />
    <glyph glyph-name="Ycircumflex" unicode="&#x176;" horiz-adv-x="656" 
d="M290 848h76l125 -161h-87l-76 101l-74 -101h-89zM274 239l-231 405h113l172 -313l172 313h113l-231 -405v-239h-108v239z" />
    <glyph glyph-name="ycircumflex" unicode="&#x177;" horiz-adv-x="598" 
d="M271 682h76l125 -161h-87l-76 101l-74 -101h-89zM78 -162v81.002c18.667 -6.66699 39 -10 61 -10c20 0 36.333 3.16699 49 9.5s23.667 16.166 33 29.499s20.333 32.666 33 57.999l-211 468h113l152 -352l154 352h112l-193 -447c-28.667 -68 -58.5 -118.833 -89.5 -152.5
s-71.5 -50.5 -121.5 -50.5c-36 0 -66.667 4.66699 -92 14z" />
    <glyph glyph-name="Ydieresis" unicode="&#x178;" horiz-adv-x="656" 
d="M189 798h92v-86h-92v86zM375 798h92v-86h-92v86zM274 239l-231 405h113l172 -313l172 313h113l-231 -405v-239h-108v239z" />
    <glyph glyph-name="Zacute" unicode="&#x179;" horiz-adv-x="575" 
d="M325 865h96l-84 -177h-87zM43 58l346 497h-329v89h469v-67l-343 -493h348v-84h-491v58z" />
    <glyph glyph-name="zacute" unicode="&#x17a;" horiz-adv-x="487" 
d="M274 699h96l-84 -177h-87zM43 57l259 328h-247v89h381v-67l-254 -323h261v-84h-400v57z" />
    <glyph glyph-name="Zdotaccent" unicode="&#x17b;" horiz-adv-x="575" 
d="M253 799h92v-88h-92v88zM43 58l346 497h-329v89h469v-67l-343 -493h348v-84h-491v58z" />
    <glyph glyph-name="zdotaccent" unicode="&#x17c;" horiz-adv-x="487" 
d="M200 633h92v-88h-92v88zM43 57l259 328h-247v89h381v-67l-254 -323h261v-84h-400v57z" />
    <glyph glyph-name="Zcaron" unicode="&#x17d;" horiz-adv-x="575" 
d="M144 848h89l74 -101l76 101h87l-125 -161h-76zM43 58l346 497h-329v89h469v-67l-343 -493h348v-84h-491v58z" />
    <glyph glyph-name="zcaron" unicode="&#x17e;" horiz-adv-x="487" 
d="M75 682h89l74 -101l76 101h87l-125 -161h-76zM43 57l259 328h-247v89h381v-67l-254 -323h261v-84h-400v57z" />
    <glyph glyph-name="uni018F" unicode="&#x18f;" horiz-adv-x="674" 
d="M114.5 62.5c-47.667 48.333 -71.4971 113.834 -71.4971 196.501v111h488c-2.66699 48.667 -12.834 87.5 -30.501 116.5s-44.834 50.167 -81.501 63.5s-85.667 20 -147 20c-30.667 0 -63.5 -3.5 -98.5 -10.5s-65.5 -16.167 -91.5 -27.5v83
c30 11.333 63.833 20.666 101.5 27.999s74.834 11 111.501 11c224 0 336 -113.333 336 -340c0 -104 -24.833 -184 -74.5 -240s-126.834 -84 -231.501 -84c-92.667 0 -162.834 24.167 -210.501 72.5zM480.003 126.001c34 36.667 50.999 92 50.999 166h-392v-54
c0 -53.333 16.333 -94.5 49 -123.5s78.334 -43.5 137.001 -43.5c69.333 0 121 18.333 155 55z" />
    <glyph glyph-name="florin" unicode="&#x192;" horiz-adv-x="517" 
d="M-65 -106l-0.00292969 76.999c18.667 -7.33301 38.667 -11 60 -11c30.667 0 53.334 5.66699 68.001 17s25.334 32 32.001 62l73 350h-68l18 85h68l13 58c12 52 33.5 91.333 64.5 118s72.833 40 125.5 40c18.667 0 34.167 -1.33301 46.5 -4s25.833 -7 40.5 -13v-78
c-8.66699 3.33301 -19.667 6 -33 8s-25.666 3 -36.999 3c-30 0 -52.5 -5.66699 -67.5 -17s-25.5 -30.666 -31.5 -57.999l-12 -57h124l-23 -85h-119l-75 -355c-10.667 -52 -31.167 -91.167 -61.5 -117.5s-71.833 -39.5 -124.5 -39.5c-34 0 -61 5.66699 -81 17z" />
    <glyph glyph-name="Ohorn" unicode="&#x1a0;" horiz-adv-x="770" 
d="M118.5 70.5c-50.333 53.667 -75.501 136.833 -75.501 249.5c0 116 25 200.667 75 254s126.667 80 230 80c100.667 0 175.667 -25.667 225 -77c36.667 0.666992 61.834 8.83398 75.501 24.501s20.5 44.5 20.5 86.5h84c0 -60 -10.667 -104.167 -32 -132.5
s-54.333 -45.833 -99 -52.5c20.667 -47.333 31 -108.333 31 -183c0 -112.667 -25.167 -195.834 -75.5 -249.501s-126.833 -80.5 -229.5 -80.5s-179.167 26.833 -229.5 80.5zM496.999 137.999c31.333 37.333 47.001 98 47.001 182c0 87.333 -15.5 149.333 -46.5 186
s-80.833 55 -149.5 55c-68 0 -117.5 -18.333 -148.5 -55s-46.5 -98.667 -46.5 -186c0 -83.333 15.667 -143.833 47 -181.5s80.666 -56.5 147.999 -56.5c68 0 117.667 18.667 149 56z" />
    <glyph glyph-name="ohorn" unicode="&#x1a1;" horiz-adv-x="676" 
d="M43 237c0 164.667 82.332 246.999 246.999 246.999c83.333 0 146 -21.667 188 -65c37.333 0.666992 62.833 9.5 76.5 26.5s20.5 47.167 20.5 90.5h84c0 -61.333 -11.167 -106.666 -33.5 -135.999s-57.166 -47.333 -104.499 -54c11.333 -32 17 -68.333 17 -109
c0 -164.667 -82.667 -247 -248 -247c-164.667 0 -247 82.333 -247 247zM396.499 117.999c21 24 31.5 63.667 31.5 119c0 54.667 -10.5 94 -31.5 118s-56.5 36 -106.5 36c-49.333 0 -84.5 -12 -105.5 -36s-31.5 -63.333 -31.5 -118c0 -55.333 10.5 -95 31.5 -119
s56.167 -36 105.5 -36c50 0 85.5 12 106.5 36z" />
    <glyph glyph-name="Uhorn" unicode="&#x1af;" horiz-adv-x="821" 
d="M131 54c-48.667 42.667 -72.999 104.334 -72.999 185.001v405h109v-401c0 -53.333 14.667 -93.5 44 -120.5s71.666 -40.5 126.999 -40.5c54.667 0 96.667 13.5 126 40.5s44 67.167 44 120.5v401h108v-70c36.667 1.33301 62 10 76 26s21 45.333 21 88h84
c0 -47.333 -6.33301 -84.833 -19 -112.5s-32.167 -47.5 -58.5 -59.5s-60.833 -18.333 -103.5 -19v-258c0 -80.667 -24.167 -142.334 -72.5 -185.001s-116.833 -64 -205.5 -64c-89.333 0 -158.333 21.333 -207 64z" />
    <glyph glyph-name="uhorn" unicode="&#x1b0;" horiz-adv-x="702" 
d="M103.5 37.5c-30.333 31.667 -45.5 77.499 -45.5 137.499v299h109v-299c0 -35.333 8.66699 -61.333 26 -78s44 -25 80 -25c26 0 50.333 4.83301 73 14.5s42.667 23.167 60 40.5v347h108v-55c31.333 2.66699 52.833 12.667 64.5 30s17.5 46.333 17.5 87h84
c0 -65.333 -13.5 -113.166 -40.5 -143.499s-68.833 -46.5 -125.5 -48.5v-344h-99l-5 49c-50 -39.333 -108.667 -59 -176 -59c-56.667 0 -100.167 15.833 -130.5 47.5z" />
    <glyph glyph-name="uni01CD" unicode="&#x1cd;" horiz-adv-x="700" 
d="M186 848h89l74 -101l76 101h87l-125 -161h-76zM290 644h122l244 -644h-112l-64 166h-259l-64 -166h-113zM462 250l-112 295l-112 -295h224z" />
    <glyph glyph-name="uni01CE" unicode="&#x1ce;" horiz-adv-x="547" 
d="M120 682h89l74 -101l76 101h87l-125 -161h-76zM91 27.5c-32 25 -48.001 60.833 -48.001 107.5s15.833 83.5 47.5 110.5s79.167 40.5 142.5 40.5h152v21c0 23.333 -3.5 41.5 -10.5 54.5s-19.833 22.5 -38.5 28.5s-45.334 9 -80.001 9c-56 0 -108.333 -8.33301 -157 -25v81
c22.667 8.66699 49.334 15.667 80.001 21s63 8 97 8c70.667 0 123.834 -14.333 159.501 -43s53.5 -74 53.5 -136v-305h-93l-7 48c-20 -19.333 -44.333 -33.833 -73 -43.5s-63.667 -14.5 -105 -14.5c-48 0 -88 12.5 -120 37.5zM323.999 84c24.667 10.667 45 25.667 61 45v83
h-150c-32 0 -55.167 -6 -69.5 -18s-21.5 -31 -21.5 -57c0 -24 8 -41.5 24 -52.5s40 -16.5 72 -16.5c31.333 0 59.333 5.33301 84 16z" />
    <glyph glyph-name="uni01CF" unicode="&#x1cf;" horiz-adv-x="235" 
d="M-45 848h89l74 -101l76 101h87l-125 -161h-76zM63 644h109v-644h-109v644z" />
    <glyph glyph-name="uni01D0" unicode="&#x1d0;" horiz-adv-x="308" 
d="M2 682h89l74 -101l76 101h87l-125 -161h-76zM135 391h-72l10 83h171v-474h-109v391z" />
    <glyph glyph-name="uni01D1" unicode="&#x1d1;" horiz-adv-x="697" 
d="M185 848h89l74 -101l76 101h87l-125 -161h-76zM118.5 70.5c-50.333 53.667 -75.5 136.834 -75.5 249.501c0 116 25 200.667 75 254s126.667 80 230 80s180 -26.667 230 -80s75 -138 75 -254c0 -112.667 -25.167 -195.834 -75.5 -249.501s-126.833 -80.5 -229.5 -80.5
s-179.167 26.833 -229.5 80.5zM497 138c31.333 37.333 47.001 98 47.001 182c0 87.333 -15.5 149.333 -46.5 186s-80.833 55 -149.5 55c-68 0 -117.5 -18.333 -148.5 -55s-46.5 -98.667 -46.5 -186c0 -83.333 15.667 -143.833 47 -181.5s80.666 -56.5 147.999 -56.5
c68 0 117.667 18.667 149 56z" />
    <glyph glyph-name="uni01D2" unicode="&#x1d2;" horiz-adv-x="581" 
d="M127 682h89l74 -101l76 101h87l-125 -161h-76zM43 237c0 164.667 82.333 247 247 247c165.333 0 248 -82.333 248 -247s-82.667 -247 -248 -247c-164.667 0 -247 82.333 -247 247zM396.5 118c21 24 31.5 63.667 31.5 119c0 54.667 -10.5 94 -31.5 118s-56.5 36 -106.5 36
c-49.333 0 -84.5 -12 -105.5 -36s-31.5 -63.333 -31.5 -118c0 -55.333 10.5 -95 31.5 -119s56.167 -36 105.5 -36c50 0 85.5 12 106.5 36z" />
    <glyph glyph-name="uni01D3" unicode="&#x1d3;" horiz-adv-x="674" 
d="M174 848h89l74 -101l76 101h87l-125 -161h-76zM131 54c-48.667 42.667 -72.999 104.334 -72.999 185.001v405h109v-401c0 -53.333 14.667 -93.5 44 -120.5s71.666 -40.5 126.999 -40.5c54.667 0 96.667 13.5 126 40.5s44 67.167 44 120.5v401h108v-405
c0 -80.667 -24.167 -142.334 -72.5 -185.001s-116.833 -64 -205.5 -64c-89.333 0 -158.333 21.333 -207 64z" />
    <glyph glyph-name="uni01D4" unicode="&#x1d4;" horiz-adv-x="578" 
d="M123 682h89l74 -101l76 101h87l-125 -161h-76zM103.5 37.5c-30.333 31.667 -45.5 77.5 -45.5 137.5v299h109v-299c0 -35.333 8.66699 -61.333 26 -78s44 -25 80 -25c26 0 50.333 4.83301 73 14.5s42.667 23.167 60 40.5v347h108v-474h-99l-5 49
c-50 -39.333 -108.667 -59 -176 -59c-56.667 0 -100.167 15.833 -130.5 47.5z" />
    <glyph glyph-name="uni01D5" unicode="&#x1d5;" horiz-adv-x="674" 
d="M188 924h298v-71h-298v71zM198 789h92v-86h-92v86zM384 789h92v-86h-92v86zM131 54c-48.667 42.667 -72.999 104.334 -72.999 185.001v405h109v-401c0 -53.333 14.667 -93.5 44 -120.5s71.666 -40.5 126.999 -40.5c54.667 0 96.667 13.5 126 40.5s44 67.167 44 120.5v401
h108v-405c0 -80.667 -24.167 -142.334 -72.5 -185.001s-116.833 -64 -205.5 -64c-89.333 0 -158.333 21.333 -207 64z" />
    <glyph glyph-name="uni01D6" unicode="&#x1d6;" horiz-adv-x="578" 
d="M142 743h298v-71h-298v71zM151 624h92v-86h-92v86zM337 624h92v-86h-92v86zM103.5 37.5c-30.333 31.667 -45.5 77.5 -45.5 137.5v299h109v-299c0 -35.333 8.66699 -61.333 26 -78s44 -25 80 -25c26 0 50.333 4.83301 73 14.5s42.667 23.167 60 40.5v347h108v-474h-99
l-5 49c-50 -39.333 -108.667 -59 -176 -59c-56.667 0 -100.167 15.833 -130.5 47.5z" />
    <glyph glyph-name="uni01D7" unicode="&#x1d7;" horiz-adv-x="674" 
d="M357 913h83l-67 -127h-77zM193 772h90v-84h-90v84zM392 772h89v-84h-89v84zM131 54c-48.667 42.667 -72.999 104.334 -72.999 185.001v405h109v-401c0 -53.333 14.667 -93.5 44 -120.5s71.666 -40.5 126.999 -40.5c54.667 0 96.667 13.5 126 40.5s44 67.167 44 120.5v401
h108v-405c0 -80.667 -24.167 -142.334 -72.5 -185.001s-116.833 -64 -205.5 -64c-89.333 0 -158.333 21.333 -207 64z" />
    <glyph glyph-name="uni01D8" unicode="&#x1d8;" horiz-adv-x="578" 
d="M302 747h83l-67 -127h-77zM138 606h90v-84h-90v84zM337 606h89v-84h-89v84zM103.5 37.5c-30.333 31.667 -45.5 77.5 -45.5 137.5v299h109v-299c0 -35.333 8.66699 -61.333 26 -78s44 -25 80 -25c26 0 50.333 4.83301 73 14.5s42.667 23.167 60 40.5v347h108v-474h-99
l-5 49c-50 -39.333 -108.667 -59 -176 -59c-56.667 0 -100.167 15.833 -130.5 47.5z" />
    <glyph glyph-name="uni01D9" unicode="&#x1d9;" horiz-adv-x="674" 
d="M186 904h85l67 -78l68 78h83l-112 -120h-79zM191 772h90v-84h-90v84zM390 772h89v-84h-89v84zM131 54c-48.667 42.667 -72.999 104.334 -72.999 185.001v405h109v-401c0 -53.333 14.667 -93.5 44 -120.5s71.666 -40.5 126.999 -40.5c54.667 0 96.667 13.5 126 40.5
s44 67.167 44 120.5v401h108v-405c0 -80.667 -24.167 -142.334 -72.5 -185.001s-116.833 -64 -205.5 -64c-89.333 0 -158.333 21.333 -207 64z" />
    <glyph glyph-name="uni01DA" unicode="&#x1da;" horiz-adv-x="578" 
d="M137 737h85l67 -78l68 78h83l-112 -120h-79zM142 605h90v-84h-90v84zM341 605h89v-84h-89v84zM103.5 37.5c-30.333 31.667 -45.5 77.5 -45.5 137.5v299h109v-299c0 -35.333 8.66699 -61.333 26 -78s44 -25 80 -25c26 0 50.333 4.83301 73 14.5s42.667 23.167 60 40.5v347
h108v-474h-99l-5 49c-50 -39.333 -108.667 -59 -176 -59c-56.667 0 -100.167 15.833 -130.5 47.5z" />
    <glyph glyph-name="uni01DB" unicode="&#x1db;" horiz-adv-x="674" 
d="M232 913h84l60 -127h-77zM191 772h90v-84h-90v84zM390 772h89v-84h-89v84zM131 54c-48.667 42.667 -72.999 104.334 -72.999 185.001v405h109v-401c0 -53.333 14.667 -93.5 44 -120.5s71.666 -40.5 126.999 -40.5c54.667 0 96.667 13.5 126 40.5s44 67.167 44 120.5v401
h108v-405c0 -80.667 -24.167 -142.334 -72.5 -185.001s-116.833 -64 -205.5 -64c-89.333 0 -158.333 21.333 -207 64z" />
    <glyph glyph-name="uni01DC" unicode="&#x1dc;" horiz-adv-x="578" 
d="M186 747h84l60 -127h-77zM145 606h90v-84h-90v84zM344 606h89v-84h-89v84zM103.5 37.5c-30.333 31.667 -45.5 77.5 -45.5 137.5v299h109v-299c0 -35.333 8.66699 -61.333 26 -78s44 -25 80 -25c26 0 50.333 4.83301 73 14.5s42.667 23.167 60 40.5v347h108v-474h-99
l-5 49c-50 -39.333 -108.667 -59 -176 -59c-56.667 0 -100.167 15.833 -130.5 47.5z" />
    <glyph glyph-name="Gcaron" unicode="&#x1e6;" horiz-adv-x="641" 
d="M195 847h89l74 -101l76 101h87l-125 -161h-76zM125 74.5c-54.667 56.333 -82 134.5 -82 234.5c0 108.667 27 193.334 81 254.001s134.667 91 242 91c71.333 0 135 -9.66699 191 -29v-94c-55.333 20 -116 30 -182 30c-79.333 0 -136.166 -20.833 -170.499 -62.5
s-51.5 -104.834 -51.5 -189.501c0 -151.333 71 -227 213 -227c57.333 0 103.666 6.66699 138.999 20v180h-161v71h254v-310c-24 -15.333 -55.5 -28 -94.5 -38s-85.833 -15 -140.5 -15c-104 0 -183.333 28.167 -238 84.5z" />
    <glyph glyph-name="gcaron" unicode="&#x1e7;" horiz-adv-x="554" 
d="M123 682h89l74 -101l76 101h87l-125 -161h-76zM147.5 -169c-35 4.66699 -64.5029 11.001 -88.5029 19.001v84c25.333 -8.66699 55.333 -15.334 90 -20.001s68.334 -7 101.001 -7c50.667 0 86.334 2.83301 107.001 8.5s31 17.5 31 35.5c0 14 -5.5 23.833 -16.5 29.5
s-31.167 8.5 -60.5 8.5h-128c-42 0 -74 7.83301 -96 23.5s-33 38.167 -33 67.5c0 20.667 6 39.167 18 55.5s29.667 28.5 53 36.5c-53.333 26 -80 72.333 -80 139c0 60 18 103.833 54 131.5s90.667 41.5 164 41.5c26.667 0 55.667 -3.33301 87 -10h174l-3 -71h-80
c24.667 -22 37 -52.667 37 -92c0 -52 -15.5 -92.167 -46.5 -120.5s-77.167 -42.5 -138.5 -42.5c-16 0 -35.667 1.66699 -59 5c-21.333 -2 -39.666 -7.5 -54.999 -16.5s-23 -20.5 -23 -34.5c0 -10 4 -17.167 12 -21.5s21.333 -6.5 40 -6.5h133
c47.333 0 83.833 -10.167 109.5 -30.5s38.5 -49.833 38.5 -88.5c0 -46 -19.5 -79.333 -58.5 -100s-97.5 -31 -175.5 -31c-36.667 0 -72.5 2.33301 -107.5 7zM353.497 238.501c17 14.333 25.498 39.5 25.498 75.5s-8.66699 61.833 -26 77.5s-47.333 23.5 -90 23.5
c-41.333 0 -71.166 -7.83301 -89.499 -23.5s-27.5 -41.5 -27.5 -77.5c0 -34.667 8.83301 -59.5 26.5 -74.5s47.834 -22.5 90.501 -22.5c43.333 0 73.5 7.16699 90.5 21.5z" />
    <glyph glyph-name="Aringacute" unicode="&#x1fa;" horiz-adv-x="700" 
d="M380 853h-87l75 177h96zM656 0l-112.001 0.000976562l-64 166h-259l-64 -166h-113l237 620c-15.333 10.667 -27.166 24.167 -35.499 40.5s-12.5 34.166 -12.5 53.499c0 32.667 10.667 59.834 32 81.501s49.333 32.5 84 32.5c35.333 0 63.833 -10.833 85.5 -32.5
s32.5 -48.834 32.5 -81.501c0 -19.333 -4.16699 -37 -12.5 -53s-19.833 -29 -34.5 -39zM306.499 756.001c-11 -11.333 -16.5 -25.333 -16.5 -42s5.5 -30.667 16.5 -42s25.167 -17 42.5 -17c18 0 32.667 5.66699 44 17s17 25.333 17 42s-5.66699 30.667 -17 42s-26 17 -44 17
c-17.333 0 -31.5 -5.66699 -42.5 -17zM461.999 250.001l-112 295l-112 -295h224z" />
    <glyph glyph-name="aringacute" unicode="&#x1fb;" horiz-adv-x="547" 
d="M310 925h96l-84 -141h-87zM198 549.5c-21.333 21.667 -32 48.5 -32 80.5c0 32.667 10.667 59.834 32 81.501s49.333 32.5 84 32.5c35.333 0 63.833 -10.833 85.5 -32.5s32.5 -48.834 32.5 -81.501c0 -32 -10.833 -58.833 -32.5 -80.5s-50.167 -32.5 -85.5 -32.5
c-34.667 0 -62.667 10.833 -84 32.5zM326 588c11.333 11.333 17 25.333 17 42s-5.66699 30.667 -17 42s-26 17 -44 17c-17.333 0 -31.5 -5.66699 -42.5 -17s-16.5 -25.333 -16.5 -42s5.5 -30.667 16.5 -42s25.167 -17 42.5 -17c18 0 32.667 5.66699 44 17zM91 27.5
c-32 25 -48.001 60.833 -48.001 107.5s15.833 83.5 47.5 110.5s79.167 40.5 142.5 40.5h152v21c0 23.333 -3.5 41.5 -10.5 54.5s-19.833 22.5 -38.5 28.5s-45.334 9 -80.001 9c-56 0 -108.333 -8.33301 -157 -25v81c22.667 8.66699 49.334 15.667 80.001 21s63 8 97 8
c70.667 0 123.834 -14.333 159.501 -43s53.5 -74 53.5 -136v-305h-93l-7 48c-20 -19.333 -44.333 -33.833 -73 -43.5s-63.667 -14.5 -105 -14.5c-48 0 -88 12.5 -120 37.5zM323.999 84c24.667 10.667 45 25.667 61 45v83h-150c-32 0 -55.167 -6 -69.5 -18
s-21.5 -31 -21.5 -57c0 -24 8 -41.5 24 -52.5s40 -16.5 72 -16.5c31.333 0 59.333 5.33301 84 16z" />
    <glyph glyph-name="AEacute" unicode="&#x1fc;" horiz-adv-x="845" 
d="M502 865h96l-84 -177h-87zM290 644h512v-85h-287v-195h250v-84h-250v-196h287v-84h-395v167h-182l-64 -167h-117zM407 251v310h-39l-115 -310h154z" />
    <glyph glyph-name="aeacute" unicode="&#x1fd;" horiz-adv-x="881" 
d="M467 699h96l-84 -177h-87zM92.5 27.5c-33 25 -49.4971 60.833 -49.4971 107.5s15.833 83.5 47.5 110.5s79.167 40.5 142.5 40.5h152v21c0 23.333 -3.5 41.5 -10.5 54.5s-19.833 22.5 -38.5 28.5s-45.334 9 -80.001 9c-56 0 -108.333 -8.33301 -157 -25v81
c22.667 8.66699 49.334 15.667 80.001 21s63 8 97 8c81.333 0 139 -21 173 -63c19.333 20 43.666 35.5 72.999 46.5s62.333 16.5 99 16.5c70 0 123.667 -18.333 161 -55s56 -85.667 56 -147v-88h-347c5.33301 -45.333 21.666 -77 48.999 -95s70.333 -27 129 -27
c24.667 0 49.5 2.16699 74.5 6.5s46.833 10.5 65.5 18.5v-79c-42 -18.667 -96 -28 -162 -28c-44.667 0 -84.334 7 -119.001 21s-62 34.667 -82 62c-27.333 -26.667 -58.333 -47.167 -93 -61.5s-80 -21.5 -136 -21.5c-50 0 -91.5 12.5 -124.5 37.5zM742.003 265v33
c0 34 -9.33301 59.833 -28 77.5s-48.667 26.5 -90 26.5c-49.333 0 -83.833 -10.667 -103.5 -32s-29.5 -56.333 -29.5 -105h251zM324.503 83c23 10 43.167 24.667 60.5 44v85h-150c-32 0 -55.167 -6 -69.5 -18s-21.5 -31 -21.5 -57c0 -24 8 -41.5 24 -52.5s40 -16.5 72 -16.5
c33.333 0 61.5 5 84.5 15z" />
    <glyph glyph-name="Oslashacute" unicode="&#x1fe;" horiz-adv-x="697" 
d="M360 865h96l-84 -177h-87zM192 18c-50 22.667 -87.333 59.001 -112 109.001s-37 114.333 -37 193c0 116 25 200.667 75 254s126.667 80 230 80c28 0 54.333 -2 79 -6l17 45h74l-24 -63c54 -21.333 94 -57.333 120 -108s39 -118 39 -202
c0 -112.667 -25.167 -195.834 -75.5 -249.501s-126.833 -80.5 -229.5 -80.5c-31.333 0 -61.333 2.66699 -90 8l-19 -51h-74zM393 558.001c-14 2 -29 3 -45 3c-68 0 -117.5 -18.333 -148.5 -55s-46.5 -98.667 -46.5 -186c0 -52.667 6 -96 18 -130s30.667 -59.667 56 -77z
M497 138.001c31.333 37.333 47 98 47 182c0 58 -7 104.667 -21 140s-35.333 61 -64 77l-168 -450c18.667 -3.33301 37.667 -5 57 -5c68 0 117.667 18.667 149 56z" />
    <glyph glyph-name="oslashacute" unicode="&#x1ff;" horiz-adv-x="581" 
d="M302 699h96l-84 -177h-87zM168 10c-83.333 34 -125 109.666 -125 226.999c0 164.667 82.333 247 247 247c19.333 0 37 -1 53 -3l18 47h74l-24 -65c84.667 -33.333 127 -108.666 127 -225.999c0 -164.667 -82.667 -247 -248 -247c-14 0 -32.333 1.33301 -55 4l-17 -48h-74
zM309 389.999l-19 1c-49.333 0 -84.5 -12 -105.5 -36s-31.5 -63.333 -31.5 -118c0 -35.333 3.83301 -63.833 11.5 -85.5s20.167 -38.167 37.5 -49.5zM396.5 117.999c21 24 31.5 63.667 31.5 119c0 68 -17.333 112.667 -52 134l-107 -288c4 -0.666992 11 -1 21 -1
c50 0 85.5 12 106.5 36z" />
    <glyph glyph-name="Scommaaccent" unicode="&#x218;" horiz-adv-x="555" 
d="M57 22v95.999c62 -24 125.667 -36 191 -36c54 0 93.167 6.33301 117.5 19s36.5 36.334 36.5 71.001c0 22 -5.16699 39.5 -15.5 52.5s-27.166 24.167 -50.499 33.5s-58.333 20 -105 32c-69.333 18 -118 40.833 -146 68.5s-42 65.834 -42 114.501
c0 57.333 21 101.833 63 133.5s103.333 47.5 184 47.5c35.333 0 69.5 -2.5 102.5 -7.5s59.833 -11.167 80.5 -18.5v-96c-50.667 19.333 -106.667 29 -168 29c-50.667 0 -88.667 -6.66699 -114 -20s-38 -36 -38 -68c0 -19.333 4.66699 -34.833 14 -46.5s24.833 -22 46.5 -31
s54.167 -18.833 97.5 -29.5c75.333 -19.333 127.666 -44.333 156.999 -75s44 -70.334 44 -119.001c0 -57.333 -21.5 -102 -64.5 -134s-106.167 -48 -189.5 -48s-150.333 10.667 -201 32zM228 -50.001h96l-41 -173h-83z" />
    <glyph glyph-name="scommaaccent" unicode="&#x219;" horiz-adv-x="464" 
d="M128 -3.5c-30 4.33301 -54.666 10.167 -73.999 17.5v92c22 -8.66699 46.5 -15.334 73.5 -20.001s53.5 -7 79.5 -7c38.667 0 65.667 3.33301 81 10s23 19.667 23 39c0 17.333 -7 30.166 -21 38.499s-40.333 18.5 -79 30.5l-30 10c-48 16 -83 33.833 -105 53.5
s-33 48.834 -33 87.501c0 44.667 16 78.5 48 101.5s82 34.5 150 34.5c26 0 51.5 -2 76.5 -6s46.5 -9 64.5 -15v-91c-18 7.33301 -38.167 13 -60.5 17s-43.5 6 -63.5 6c-36.667 0 -63.334 -3.16699 -80.001 -9.5s-25 -18.166 -25 -35.499c0 -15.333 6.33301 -26.833 19 -34.5
s37.667 -17.5 75 -29.5l22 -7c38.667 -12 68.667 -24.167 90 -36.5s36.833 -27.333 46.5 -45s14.5 -40.5 14.5 -68.5c0 -92.667 -66.333 -139 -199 -139c-32 0 -63 2.16699 -93 6.5zM186.001 -49.999h96l-41 -173h-83z" />
    <glyph glyph-name="uni021A" unicode="&#x21a;" horiz-adv-x="568" 
d="M230 559h-206v85h520v-85h-205v-559h-109v559zM242 -45h90l-46 -189h-73z" />
    <glyph glyph-name="uni021B" unicode="&#x21b;" horiz-adv-x="363" 
d="M131 29.5c-25.333 26.333 -37.999 63.5 -37.999 111.5v248h-70v85h70v109l108 33v-142h126l-7 -85h-119v-242c0 -27.333 6.16699 -46.5 18.5 -57.5s33.166 -16.5 62.499 -16.5c18 0 37 3.33301 57 10v-77c-26 -10.667 -57.667 -16 -95 -16
c-50 0 -87.667 13.167 -113 39.5zM187.001 -45h90l-46 -189h-73z" />
    <glyph glyph-name="uni0237" unicode="&#x237;" horiz-adv-x="306" 
d="M-10 -218l0.000976562 79c20.667 -6.66699 41 -10 61 -10c31.333 0 53.166 5.5 65.499 16.5s18.5 29.833 18.5 56.5v467h-72l10 83h170v-560c0 -46 -13.167 -82.167 -39.5 -108.5s-64.5 -39.5 -114.5 -39.5c-38.667 0 -71.667 5.33301 -99 16z" />
    <glyph glyph-name="uni0251" unicode="&#x251;" horiz-adv-x="583" 
d="M99.5 43c-37.667 35.333 -56.499 93.668 -56.499 175.001c0 54 10 101.167 30 141.5s47.5 71.166 82.5 92.499s73.833 32 116.5 32c28.667 0 53.667 -3.33301 75 -10s42.333 -17.667 63 -33v33h109v-474h-93l-7 47c-22 -20 -45.667 -34.5 -71 -43.5s-55 -13.5 -89 -13.5
c-68.667 0 -121.834 17.667 -159.501 53zM410.001 122.002l-0.000976562 235c-16 14.667 -32.5 25.667 -49.5 33s-36.833 11 -59.5 11c-48.667 0 -85.5 -15.833 -110.5 -47.5s-37.5 -77.167 -37.5 -136.5c0 -54.667 10.5 -92.5 31.5 -113.5s55.5 -31.5 103.5 -31.5
c48.667 0 89.334 16.667 122.001 50z" />
    <glyph glyph-name="uni0259" unicode="&#x259;" horiz-adv-x="537" 
d="M99 45c-37.333 36.667 -56.002 85.666 -56.002 146.999v87h347c-5.33301 45.333 -21.666 76.833 -48.999 94.5s-70.333 26.5 -129 26.5c-24.667 0 -49.5 -2.16699 -74.5 -6.5s-46.833 -10.5 -65.5 -18.5v80c44 19.333 98 29 162 29c84 0 148.333 -20.667 193 -62
s67 -103.666 67 -186.999c0 -77.333 -19.667 -137.5 -59 -180.5s-97.666 -64.5 -174.999 -64.5c-70 0 -123.667 18.333 -161 55zM360.498 103.499c19.667 21.667 29.5 56.5 29.5 104.5h-251v-32c0 -34 9.33301 -60 28 -78s48.667 -27 90 -27
c49.333 0 83.833 10.833 103.5 32.5z" />
    <glyph glyph-name="uni02BB" unicode="&#x2bb;" horiz-adv-x="235" 
d="M109 654h82l-52 -195h-96z" />
    <glyph glyph-name="uni02BC" unicode="&#x2bc;" horiz-adv-x="235" 
d="M96 654h95l-66 -195h-82z" />
    <glyph glyph-name="uni02BE" unicode="&#x2be;" 
d="M-380 532c25.333 0 45 7.16797 59 21.501s21 33.833 21 58.5s-6.83301 44 -20.5 58s-33.5 21 -59.5 21v68c47.333 0 84 -13.333 110 -40s39 -62.334 39 -107.001s-13 -80.5 -39 -107.5s-62.667 -40.5 -110 -40.5v68z" />
    <glyph glyph-name="uni02BF" unicode="&#x2bf;" 
d="M-340.5 504.5c-26.333 27 -39.5 62.833 -39.5 107.5c0 44 13.167 79.5 39.5 106.5s62.833 40.5 109.5 40.5v-68c-25.333 0 -44.833 -7 -58.5 -21s-20.5 -33.333 -20.5 -58s6.83301 -44.167 20.5 -58.5s33.167 -21.5 58.5 -21.5v-68c-46.667 0 -83.167 13.5 -109.5 40.5z
" />
    <glyph glyph-name="circumflex" unicode="&#x2c6;" horiz-adv-x="345" 
d="M134 695h76l125 -161h-87l-76 101l-74 -101h-89z" />
    <glyph glyph-name="caron" unicode="&#x2c7;" horiz-adv-x="345" 
d="M9 695h89l74 -101l76 101h87l-125 -161h-76z" />
    <glyph glyph-name="uni02C8" unicode="&#x2c8;" 
d="M-54 660h73v-178h-73v178z" />
    <glyph glyph-name="uni02C9" unicode="&#x2c9;" 
d="M99 634h298v-71h-298v71z" />
    <glyph glyph-name="uni02CA" unicode="&#x2ca;" 
d="M-26 699h95l-83 -177h-88z" />
    <glyph glyph-name="uni02CB" unicode="&#x2cb;" 
d="M-106 699h95l76 -177h-88z" />
    <glyph glyph-name="uni02CC" unicode="&#x2cc;" 
d="M-54 -41h73v-178h-73v178z" />
    <glyph glyph-name="breve" unicode="&#x2d8;" horiz-adv-x="310" 
d="M49.5 575c-25 25.333 -37.499 60 -37.499 104h74c0 -24 5.83301 -42.833 17.5 -56.5s28.167 -20.5 49.5 -20.5c22 0 39.167 6.83301 51.5 20.5s18.5 32.5 18.5 56.5h74c0 -43.333 -12.833 -77.833 -38.5 -103.5s-60.834 -38.5 -105.501 -38.5
c-44 0 -78.5 12.667 -103.5 38z" />
    <glyph glyph-name="dotaccent" unicode="&#x2d9;" horiz-adv-x="145" 
d="M26 646h92v-88h-92v88z" />
    <glyph glyph-name="ring" unicode="&#x2da;" horiz-adv-x="293" 
d="M65.5 557.5c-21.667 21 -32.5 47.5 -32.5 79.5c0 31.333 11 57.833 33 79.5s49.333 32.5 82 32.5s60 -10.833 82 -32.5s33 -48.167 33 -79.5c0 -32 -10.833 -58.5 -32.5 -79.5s-49.167 -31.5 -82.5 -31.5s-60.833 10.5 -82.5 31.5zM186.5 598.5
c10.333 10.333 15.5 23.166 15.5 38.499s-5.16699 28.166 -15.5 38.499s-23.166 15.5 -38.499 15.5s-28.333 -5.16699 -39 -15.5s-16 -23.166 -16 -38.499s5.33301 -28.166 16 -38.499s23.667 -15.5 39 -15.5s28.166 5.16699 38.499 15.5z" />
    <glyph glyph-name="ogonek" unicode="&#x2db;" horiz-adv-x="237" 
d="M59 -197.5c-20 15 -30 37.1689 -30 66.502c0 25.333 6.5 49.666 19.5 72.999s31.167 42.666 54.5 57.999h82c-22.667 -16.667 -40 -34.5 -52 -53.5s-18 -38.5 -18 -58.5c0 -14.667 4 -25 12 -31s20 -9 36 -9c20 0 36.333 3.66699 49 11v-66
c-8.66699 -4 -20 -7.16699 -34 -9.5s-28 -3.5 -42 -3.5c-31.333 0 -57 7.5 -77 22.5z" />
    <glyph glyph-name="tilde" unicode="&#x2dc;" horiz-adv-x="370" 
d="M228 569c-11.333 3.33301 -27.0039 8.66602 -47.0039 15.999c-16.667 6 -29.834 10.5 -39.501 13.5s-19.5 4.5 -29.5 4.5c-36.667 0 -65.667 -12 -87 -36v80c8.66699 8.66699 20.834 15.834 36.501 21.501s31.834 8.5 48.501 8.5c13.333 0 25.833 -1.66699 37.5 -5
s25.834 -8.33301 42.501 -15c15.333 -6 28.333 -10.667 39 -14s22 -5 34 -5c34.667 0 61.334 12.333 80.001 37v-80c-6.66699 -9.33301 -17.167 -16.833 -31.5 -22.5s-30.166 -8.5 -47.499 -8.5c-12.667 0 -24.667 1.66699 -36 5z" />
    <glyph glyph-name="hungarumlaut" unicode="&#x2dd;" horiz-adv-x="407" 
d="M84 697h99l-87 -164h-87zM301 697h99l-87 -164h-87z" />
    <glyph glyph-name="gravecomb" unicode="&#x300;" 
d="M-458 699h95l76 -177h-88z" />
    <glyph glyph-name="acutecomb" unicode="&#x301;" 
d="M-327 699h96l-84 -177h-87z" />
    <glyph glyph-name="uni0302" unicode="&#x302;" 
d="M-67 695h76l125 -161h-87l-76 101l-74 -101h-89z" />
    <glyph glyph-name="tildecomb" unicode="&#x303;" 
d="M-284 569c-11.333 3.33301 -27.0039 8.66602 -47.0039 15.999c-16.667 6 -29.834 10.5 -39.501 13.5s-19.5 4.5 -29.5 4.5c-36.667 0 -65.667 -12 -87 -36v80c8.66699 8.66699 20.834 15.834 36.501 21.501s31.834 8.5 48.501 8.5c13.333 0 25.833 -1.66699 37.5 -5
s25.834 -8.33301 42.501 -15c15.333 -6 28.333 -10.667 39 -14s22 -5 34 -5c34.667 0 61.334 12.333 80.001 37v-80c-6.66699 -9.33301 -17.167 -16.833 -31.5 -22.5s-30.166 -8.5 -47.499 -8.5c-12.667 0 -24.667 1.66699 -36 5z" />
    <glyph glyph-name="uni0304" unicode="&#x304;" 
d="M-175 634h298v-71h-298v71z" />
    <glyph glyph-name="uni0306" unicode="&#x306;" 
d="M-121.5 576c-25 25.333 -37.499 59.666 -37.499 102.999h74c0 -23.333 5.83301 -41.833 17.5 -55.5s28.167 -20.5 49.5 -20.5c22 0 39.167 6.83301 51.5 20.5s18.5 32.167 18.5 55.5h74c0 -43.333 -12.833 -77.666 -38.5 -102.999s-60.834 -38 -105.501 -38
c-44 0 -78.5 12.667 -103.5 38z" />
    <glyph glyph-name="uni0307" unicode="&#x307;" 
d="M-63 646h92v-88h-92v88z" />
    <glyph glyph-name="uni0308" unicode="&#x308;" 
d="M-147 645h92v-86h-92v86zM39 645h92v-86h-92v86z" />
    <glyph glyph-name="hookabovecomb" unicode="&#x309;" 
d="M-365 590c36.667 2 61.166 6.49902 73.499 13.499s18.5 19.167 18.5 36.5c0 14.667 -6.16699 25.334 -18.5 32.001s-30.833 10 -55.5 10c-10 0 -21 -1.16699 -33 -3.5s-22.333 -5.16602 -31 -8.49902v59c10.667 4 24.5 7.16699 41.5 9.5s34.167 3.5 51.5 3.5
c40.667 0 71.834 -8.33301 93.501 -25s32.5 -39.334 32.5 -68.001c0 -28 -6.66699 -49.5 -20 -64.5s-36 -24.833 -68 -29.5v-47h-85v82z" />
    <glyph glyph-name="uni030A" unicode="&#x30a;" 
d="M-102 553.5c-21.333 21.667 -32 48.5 -32 80.5c0 32.667 10.667 59.834 32 81.501s49.333 32.5 84 32.5c35.333 0 63.833 -10.833 85.5 -32.5s32.5 -48.834 32.5 -81.501c0 -32 -10.833 -58.833 -32.5 -80.5s-50.167 -32.5 -85.5 -32.5
c-34.667 0 -62.667 10.833 -84 32.5zM26 592c11.333 11.333 17 25.333 17 42s-5.66699 30.667 -17 42s-26 17 -44 17c-17.333 0 -31.5 -5.66699 -42.5 -17s-16.5 -25.333 -16.5 -42s5.5 -30.667 16.5 -42s25.167 -17 42.5 -17c18 0 32.667 5.66699 44 17z" />
    <glyph glyph-name="uni030B" unicode="&#x30b;" 
d="M-151 697h99l-86 -164h-88zM66 697h99l-86 -164h-88z" />
    <glyph glyph-name="uni030C" unicode="&#x30c;" 
d="M-192 695h89l74 -101l76 101h87l-125 -161h-76z" />
    <glyph glyph-name="uni031B" unicode="&#x31b;" 
d="M-118 600c28.667 0 50.332 3 64.999 9s24.834 16.667 30.501 32s8.5 38 8.5 68h84c0 -48 -6.5 -85.333 -19.5 -112s-33 -45.5 -60 -56.5s-63.167 -16.833 -108.5 -17.5v77z" />
    <glyph glyph-name="dotbelowcomb" unicode="&#x323;" 
d="M-364 -85h94v-88h-94v88z" />
    <glyph glyph-name="uni0324" unicode="&#x324;" 
d="M-155 -85h93v-87h-93v87zM38 -85h92v-87h-92v87z" />
    <glyph glyph-name="uni0326" unicode="&#x326;" 
d="M-136 -37h90l-46 -189h-73z" />
    <glyph glyph-name="uni0327" unicode="&#x327;" 
d="M-71 -237.5c-15.333 1.66699 -26.668 3.50098 -34.001 5.50098v59c19.333 -5.33301 40 -8 62 -8c31.333 0 53.333 3 66 9s19 18 19 36c0 17.333 -6.16699 28.5 -18.5 33.5s-33.166 7.5 -62.499 7.5h-40l29 95h73l-16 -47c35.333 0 62.333 -7.83301 81 -23.5
s28 -37.834 28 -66.501c0 -68.667 -49.333 -103 -148 -103c-10.667 0 -23.667 0.833008 -39 2.5z" />
    <glyph glyph-name="uni0328" unicode="&#x328;" 
d="M-78.5 -197.5c-20.333 15 -30.5 37.166 -30.5 66.499c0 25.333 6.66699 49.5 20 72.5s31.333 42.5 54 58.5h82c-22 -16.667 -39 -34.667 -51 -54s-18 -38.666 -18 -57.999c0 -14.667 3.83301 -25 11.5 -31s19.5 -9 35.5 -9c8.66699 0 17.667 1 27 3s17 4.66699 23 8v-66
c-8.66699 -4 -20 -7.16699 -34 -9.5s-28.333 -3.5 -43 -3.5c-30.667 0 -56.167 7.5 -76.5 22.5z" />
    <glyph glyph-name="uni032E" unicode="&#x32e;" 
d="M-121.5 -169c-25 25.333 -37.499 60 -37.499 104h74c0 -24 5.83301 -42.833 17.5 -56.5s28.167 -20.5 49.5 -20.5c22 0 39.167 6.83301 51.5 20.5s18.5 32.5 18.5 56.5h74c0 -43.333 -12.833 -77.833 -38.5 -103.5s-60.834 -38.5 -105.501 -38.5
c-44 0 -78.5 12.667 -103.5 38z" />
    <glyph glyph-name="uni0331" unicode="&#x331;" 
d="M-175 -72h298v-71h-298v71z" />
    <glyph glyph-name="uni0394" unicode="&#x394;" horiz-adv-x="649" 
d="M43 60l230 584h100l232 -585v-59h-562v60zM498 84l-175 444l-175 -444h350z" />
    <glyph glyph-name="uni03A9" unicode="&#x3a9;" horiz-adv-x="764" 
d="M50 82h143.999c-47.333 30 -84.333 68.833 -111 116.5s-40 102.834 -40 165.501c0 64.667 13.5 122 40.5 172s66 89 117 117s111.5 42 181.5 42c69.333 0 129.5 -14 180.5 -42s90 -67 117 -117s40.5 -107.333 40.5 -172c0 -63.333 -13.167 -118.833 -39.5 -166.5
s-63.166 -86.167 -110.499 -115.5h143v-82h-275v84c114.667 62 172 154 172 276c0 48 -9.33301 90.167 -28 126.5s-45.167 64.666 -79.5 84.999s-74.5 30.5 -120.5 30.5s-86.167 -10.167 -120.5 -30.5s-61 -48.833 -80 -85.5s-28.5 -78.667 -28.5 -126
c0 -121.333 57.333 -213.333 172 -276v-84h-275v82z" />
    <glyph glyph-name="uni03BC" unicode="&#x3bc;" horiz-adv-x="583" 
d="M63 474h109v-299c0 -35.333 8.66699 -61.333 26 -78s44 -25 80 -25c26 0 50.333 4.83301 73 14.5s42.667 23.167 60 40.5v347h108v-474h-99l-5 49c-50 -39.333 -108.667 -59 -176 -59c-26.667 0 -49 5 -67 15v-148h-109v617z" />
    <glyph glyph-name="pi" unicode="&#x3c0;" horiz-adv-x="672" 
d="M434 30.5c-25.333 27 -38.001 64.499 -38.001 112.499v247h-188v-390h-108v390h-67v84h538v-84h-66v-243c0 -27.333 5.83301 -46.166 17.5 -56.499s31.834 -15.5 60.501 -15.5c18 0 37.333 3.33301 58 10v-79c-27.333 -10.667 -59.333 -16 -96 -16
c-48.667 0 -85.667 13.5 -111 40.5z" />
    <glyph glyph-name="uni0E01" unicode="&#xe01;" horiz-adv-x="613" 
d="M72 195c0 66.667 26.333 108 79 124l-108 27v112c30 26.667 67.167 48.667 111.5 66s93.5 26 147.5 26c82 0 143.667 -17 185 -51s62 -88.667 62 -164v-335h-109v338c0 46 -10.667 78.167 -32 96.5s-58 27.5 -110 27.5c-32.667 0 -63.5 -4.66699 -92.5 -14
s-51.833 -21.666 -68.5 -36.999v-18l114 -29v-72c-26 -6.66699 -44.333 -17.334 -55 -32.001s-16 -36.667 -16 -66v-194h-108v195z" />
    <glyph glyph-name="uni0E02" unicode="&#xe02;" horiz-adv-x="581" 
d="M112.5 42.5c-39.667 35 -59.499 84.834 -59.499 149.501v53c0 21.333 4.66699 41.166 14 59.499s23 39.5 41 63.5c12 16 20.667 28.5 26 37.5s8 17.833 8 26.5c0 10 -2.33301 16.833 -7 20.5s-13 5.5 -25 5.5h-69l9 82h126c50.667 0 76 -24.333 76 -73
c0 -20.667 -3.83301 -39 -11.5 -55s-19.167 -36 -34.5 -60c-14.667 -21.333 -25.834 -40 -33.501 -56s-11.5 -33.333 -11.5 -52v-61c0 -36 10.667 -62.667 32 -80s52 -26 92 -26c82 0 123 36.333 123 109v354h109v-347c0 -64 -20.5 -113.833 -61.5 -149.5
s-97.833 -53.5 -170.5 -53.5c-75.333 0 -132.833 17.5 -172.5 52.5z" />
    <glyph glyph-name="uni0E03" unicode="&#xe03;" horiz-adv-x="577" 
d="M111.5 40c-39 33.333 -58.502 82 -58.502 146v36c0 22 6.33301 44 19 66s30 46.667 52 74c15.333 20 26.5 35.5 33.5 46.5s10.5 20.833 10.5 29.5c0 14.667 -6.66699 22 -20 22c-12 0 -23 -5 -33 -15v-40h-74v135h76v-28c10.667 8.66699 21.834 15.5 33.501 20.5
s25.834 7.5 42.501 7.5c24.667 0 43.5 -6.5 56.5 -19.5s19.5 -32.167 19.5 -57.5c0 -20.667 -4.66699 -39.834 -14 -57.501s-23 -39.5 -41 -65.5c-17.333 -25.333 -30.333 -46.166 -39 -62.499s-13 -33.833 -13 -52.5v-42c0 -70.667 40.333 -106 121 -106
c40 0 70.167 8.83301 90.5 26.5s30.5 45.167 30.5 82.5v354h109v-347c0 -64 -20.167 -113.833 -60.5 -149.5s-96.833 -53.5 -169.5 -53.5c-75.333 0 -132.5 16.667 -171.5 50z" />
    <glyph glyph-name="uni0E04" unicode="&#xe04;" horiz-adv-x="615" 
d="M63 342c0 66.667 20.166 118 60.499 154s101.833 54 184.5 54s143.834 -18 183.501 -54s59.5 -87.333 59.5 -154v-342h-109v352c0 73.333 -44.667 110 -134 110c-45.333 0 -79.333 -9 -102 -27s-34 -45.667 -34 -83v-111c29.333 24 64.333 36 105 36h65l4 -87h-72
c-40.667 0 -74.667 -11.333 -102 -34v-156h-109v342z" />
    <glyph glyph-name="uni0E05" unicode="&#xe05;" horiz-adv-x="615" 
d="M63 395c0 50 11.1689 88.333 33.502 115s55.166 40 98.499 40c48.667 0 86 -17.333 112 -52c13.333 17.333 30.666 30.333 51.999 39s43.333 13 66 13c46 0 78.5 -12.5 97.5 -37.5s28.5 -64.5 28.5 -118.5v-394h-108v396c0 20 -3.33301 35.167 -10 45.5
s-18.667 15.5 -36 15.5c-14 0 -26 -3.5 -36 -10.5s-19.333 -17.167 -28 -30.5h-52c-6.66699 13.333 -14 23.5 -22 30.5s-18 10.5 -30 10.5c-19.333 0 -33.833 -5.33301 -43.5 -16s-14.5 -25.667 -14.5 -45v-155c29.333 24 64.333 36 105 36h66l4 -87h-72
c-40 0 -74.333 -11.333 -103 -34v-156h-108v395z" />
    <glyph glyph-name="uni0E06" unicode="&#xe06;" horiz-adv-x="601" 
d="M248.5 7.5c-30.333 11.667 -58.5029 28.832 -84.5029 51.499l-6 -59h-99v209c0 22 6.16699 44.5 18.5 67.5s29.833 49.833 52.5 80.5c16 22.667 27.333 39.667 34 51s10 21.333 10 30c0 14.667 -6.66699 22 -20 22c-12 0 -23 -5 -33 -15v-40h-74v135h76v-28
c10.667 8.66699 21.834 15.5 33.501 20.5s25.834 7.5 42.501 7.5c24.667 0 43.5 -6.5 56.5 -19.5s19.5 -32.167 19.5 -57.5c0 -20 -4.5 -39.333 -13.5 -58s-22.833 -42.667 -41.5 -72c-17.333 -27.333 -30.333 -49.666 -39 -66.999s-13 -35.333 -13 -54v-70
c18.667 -19.333 41 -35 67 -47s53.333 -18 82 -18c38 0 66.167 9 84.5 27s27.5 47 27.5 87v349h108v-354c0 -62 -16.167 -110.167 -48.5 -144.5s-77.5 -51.5 -135.5 -51.5c-39.333 0 -74.166 5.83301 -104.499 17.5z" />
    <glyph glyph-name="uni0E07" unicode="&#xe07;" horiz-adv-x="564" 
d="M175 3l-152.002 370.001h106l123 -300c56.667 -2.66699 98.167 13.666 124.5 48.999s39.5 90.333 39.5 165c0 44 -4 78.333 -12 103s-21.333 42.167 -40 52.5s-45 15.5 -79 15.5h-38v82h52c76.667 0 132.834 -20.5 168.501 -61.5s53.5 -104.5 53.5 -190.5
c0 -101.333 -22.167 -176.333 -66.5 -225s-104.166 -73 -179.499 -73c-42.667 0 -76 4.33301 -100 13z" />
    <glyph glyph-name="uni0E08" unicode="&#xe08;" horiz-adv-x="569" 
d="M232 -6.5c-16.667 2.33301 -30.001 5.5 -40.001 9.5l-80 213h-69l5 82h133l83 -222c47.333 -2 85.333 13 114 45s43 83.333 43 154c0 47.333 -6.16699 84.5 -18.5 111.5s-32.5 46.333 -60.5 58s-66.667 17.5 -116 17.5c-61.333 0 -118.333 -8.66699 -171 -26v84
c62.667 20 129.334 30 200.001 30c93.333 0 161.833 -23.167 205.5 -69.5s65.5 -114.833 65.5 -205.5c0 -60 -11.167 -111.5 -33.5 -154.5s-52.333 -75.5 -90 -97.5s-79.167 -33 -124.5 -33c-14 0 -29.333 1.16699 -46 3.5z" />
    <glyph glyph-name="uni0E09" unicode="&#xe09;" horiz-adv-x="583" 
d="M94 37.5c-29.333 31.667 -43.999 78.168 -43.999 139.501v123h108v-113c0 -39.333 7.83301 -67.5 23.5 -84.5s43.5 -25.5 83.5 -25.5c57.333 0 105.666 22 144.999 66v187c0 34 -5.5 60.5 -16.5 79.5s-28.833 32.5 -53.5 40.5s-58.667 12 -102 12
c-28 0 -60.667 -2.83301 -98 -8.5s-69.666 -12.834 -96.999 -21.501v84c30 10 65 18.167 105 24.5s79.333 9.5 118 9.5c87.333 0 151.333 -18 192 -54s61 -91.667 61 -167v-329h-99l-6 59c-25.333 -22 -53.333 -39 -84 -51s-66.334 -18 -107.001 -18
c-56.667 0 -99.667 15.833 -129 47.5z" />
    <glyph glyph-name="uni0E0A" unicode="&#xe0a;" horiz-adv-x="582" 
d="M113 42.5c-39.333 35 -59.002 84.835 -59.002 149.502v53c0 21.333 4.66699 41.166 14 59.499s23 39.5 41 63.5c12 16 20.667 28.5 26 37.5s8 17.833 8 26.5c0 10 -2.33301 16.833 -7 20.5s-13 5.5 -25 5.5h-69l9 82h126c50.667 0 76 -24.333 76 -73
c0 -20.667 -3.83301 -39 -11.5 -55s-19.167 -36 -34.5 -60c-14.667 -21.333 -25.834 -40 -33.501 -56s-11.5 -33.333 -11.5 -52v-61c0 -70.667 41 -106 123 -106c82.667 0 124 36.333 124 109v66c0 31.333 -5.16699 53.166 -15.5 65.499s-28.833 18.5 -55.5 18.5h-28l5 79
h20c27.333 0 46.5 6.5 57.5 19.5s16.5 34.5 16.5 64.5v51h109v-49c0 -34 -5.16699 -60.667 -15.5 -80s-29.166 -34.333 -56.499 -45c28.667 -12 47.834 -27.833 57.501 -47.5s14.5 -46.167 14.5 -79.5v-56c0 -64 -20.667 -113.833 -62 -149.5s-98.333 -53.5 -171 -53.5
c-75.333 0 -132.666 17.5 -171.999 52.5z" />
    <glyph glyph-name="uni0E0B" unicode="&#xe0b;" horiz-adv-x="582" 
d="M113.5 40.5c-39.667 33.667 -59.499 81.835 -59.499 144.502v40c0 22 6.33301 43.833 19 65.5s30 45.834 52 72.501c16 20.667 27.333 36.167 34 46.5s10 19.833 10 28.5c0 14.667 -6.66699 22 -20 22c-12 0 -23 -5 -33 -15v-40h-74v135h76v-28
c10.667 8.66699 21.834 15.5 33.501 20.5s25.834 7.5 42.501 7.5c24.667 0 43.5 -6.5 56.5 -19.5s19.5 -32.167 19.5 -57.5c0 -20.667 -4.66699 -39.834 -14 -57.501s-23 -39.5 -41 -65.5c-17.333 -25.333 -30.333 -46.166 -39 -62.499s-13 -33.833 -13 -52.5v-42
c0 -36 10.5 -62.667 31.5 -80s51.167 -26 90.5 -26c83.333 0 125 36.333 125 109v66c0 31.333 -5.33301 53.166 -16 65.499s-29.334 18.5 -56.001 18.5h-28l5 79h20c27.333 0 46.666 6.66699 57.999 20s17 34.666 17 63.999v51h108v-49c0 -33.333 -5 -59.833 -15 -79.5
s-28.667 -34.834 -56 -45.501c28 -12 46.833 -27.833 56.5 -47.5s14.5 -46.167 14.5 -79.5v-56c0 -64 -20.5 -113.833 -61.5 -149.5s-98.167 -53.5 -171.5 -53.5c-74.667 0 -131.834 16.833 -171.501 50.5z" />
    <glyph glyph-name="uni0E0C" unicode="&#xe0c;" horiz-adv-x="957" 
d="M614 7.5c-28.667 11.667 -56.335 28.832 -83.002 51.499l-6 -59h-96v338c0 46 -10.167 78.167 -30.5 96.5s-54.833 27.5 -103.5 27.5c-32 0 -62.167 -4.66699 -90.5 -14s-50.833 -21.666 -67.5 -36.999v-18l114 -29v-72c-26 -6.66699 -44.333 -17.334 -55 -32.001
s-16 -36.667 -16 -66v-65c0 -15.333 3.33301 -26.333 10 -33s17.334 -10 32.001 -10h55v-86h-108c-30 0 -53.667 9.33301 -71 28s-26 43 -26 73v94c0 66.667 26.333 108 79 124l-108 27v112c30 26.667 66.833 48.667 110.5 66s92.167 26 145.5 26
c78.667 0 137.667 -17 177 -51s59 -88.667 59 -164v-193c18.667 -20 40.334 -35.833 65.001 -47.5s50.667 -17.5 78 -17.5c37.333 0 64.5 8.83301 81.5 26.5s25.5 46.834 25.5 87.501v349h108v-354c0 -62.667 -15.5 -111 -46.5 -145s-75.167 -51 -132.5 -51
c-38 0 -71.333 5.83301 -100 17.5z" />
    <glyph glyph-name="uni0E0D" unicode="&#xe0d;" horiz-adv-x="970" 
d="M562.5 -50.5c-35.667 7 -66.833 17.833 -93.5 32.5v87c26.667 -14 58.667 -24.667 96 -32s71.666 -11 102.999 -11c46 0 81.5 5.16699 106.5 15.5s37.5 24.5 37.5 42.5c0 12.667 -4.66699 23.667 -14 33c-36 -21.333 -80 -32 -132 -32c-78 0 -137 18.333 -177 55
s-60 91.667 -60 165v33c0 46 -10.167 78.167 -30.5 96.5s-54.833 27.5 -103.5 27.5c-32 0 -62.167 -4.66699 -90.5 -14s-50.833 -21.666 -67.5 -36.999v-18l114 -29v-72c-26 -6.66699 -44.333 -17.334 -55 -32.001s-16 -36.667 -16 -66v-65
c0 -15.333 3.33301 -26.333 10 -33s17.334 -10 32.001 -10h55v-86h-108c-30 -0 -53.667 9.33301 -71 28s-26 43 -26 73v94c0 66.667 26.333 108 79 124l-108 27v112c30 26.667 66.833 48.667 110.5 66s92.167 26 145.5 26c78.667 0 137.667 -17 177 -51s59 -88.667 59 -164
v-34c0 -44.667 10.5 -77.334 31.5 -98.001s54.167 -31 99.5 -31s78.5 10.333 99.5 31s31.5 53.334 31.5 98.001v239h108v-235c0 -56 -12.333 -100.667 -37 -134c25.333 -24 38 -55 38 -93c0 -44.667 -20.333 -79 -61 -103s-99 -36 -175 -36c-36 0 -71.833 3.5 -107.5 10.5z
" />
    <glyph glyph-name="uni0E0E" unicode="&#xe0e;" horiz-adv-x="647" 
d="M168 -110c51.333 24 108.001 36 170.001 36c27.333 0 53 -2.5 77 -7.5s44 -12.167 60 -21.5v441c0 45.333 -10.333 77.333 -31 96s-55.667 28 -105 28c-33.333 0 -64.5 -4.66699 -93.5 -14s-51.5 -21.666 -67.5 -36.999v-18l117 -29v-72
c-24.667 -7.33301 -41.167 -17.833 -49.5 -31.5s-12.5 -35.834 -12.5 -66.501v-72c0 -81.333 -39.333 -122 -118 -122h-67v86h37c14 0 23.833 3.16699 29.5 9.5s8.5 17.166 8.5 32.499v67c0 32 5 58.167 15 78.5s28.667 35.5 56 45.5l-110 27v112
c29.333 26 66.166 47.833 110.499 65.5s93.5 26.5 147.5 26.5c79.333 0 139.333 -17.333 180 -52s61 -89 61 -163v-529h-108c-40.667 22 -90 33 -148 33c-27.333 0 -55 -3.16699 -83 -9.5s-53.333 -15.166 -76 -26.499v87z" />
    <glyph glyph-name="uni0E0F" unicode="&#xe0f;" horiz-adv-x="647" 
d="M370.5 -182.5c-20.333 8.33301 -35.834 19.501 -46.501 33.501c-16.667 -30 -47 -45 -91 -45h-97l6 87h71c19.333 0 34.5 3.16699 45.5 9.5s20.167 17.5 27.5 33.5h71c6 -15.333 13.833 -27 23.5 -35s22.834 -12 39.501 -12c19.333 0 33.333 5 42 15s13 25.333 13 46v388
c0 45.333 -10.333 77.333 -31 96s-55.667 28 -105 28c-33.333 0 -64.5 -4.66699 -93.5 -14s-51.5 -21.666 -67.5 -36.999v-18l117 -29v-72c-24.667 -7.33301 -41.167 -17.833 -49.5 -31.5s-12.5 -35.834 -12.5 -66.501v-72c0 -81.333 -39.333 -122 -118 -122h-67v86h37
c14 0 23.833 3.16699 29.5 9.5s8.5 17.166 8.5 32.499v67c0 32 5 58.167 15 78.5s28.667 35.5 56 45.5l-110 27v112c29.333 26 66.166 47.833 110.499 65.5s93.5 26.5 147.5 26.5c79.333 0 139.333 -17.333 180 -52s61 -89 61 -163v-391c0 -44 -13 -78.167 -39 -102.5
s-62 -36.5 -108 -36.5c-23.333 0 -45.166 4.16699 -65.499 12.5z" />
    <glyph glyph-name="uni0E10" unicode="&#xe10;" horiz-adv-x="604" 
d="M227 -6.5c-16.667 2.33301 -30.001 5.5 -40.001 9.5l-80 213h-69l5 82h133l83 -222c47.333 -2 85.333 13 114 45s43 83.333 43 154c0 47.333 -6.16699 84.5 -18.5 111.5s-32.5 46.333 -60.5 58s-66.667 17.5 -116 17.5c-61.333 0 -118.333 -8.66699 -171 -26v84
c62.667 20 129.334 30 200.001 30c32 0 64 -3.33301 96 -10h223l-5 -85h-93c33.333 -42 50 -102 50 -180c0 -60 -11.167 -111.5 -33.5 -154.5s-52.333 -75.5 -90 -97.5s-79.167 -33 -124.5 -33c-14 0 -29.333 1.16699 -46 3.5zM290.499 -182.5
c-20.333 8.33301 -35.835 19.5 -46.502 33.5c-16.667 -30 -47 -45 -91 -45h-97l6 87h71c19.333 0 34.5 3.16699 45.5 9.5s20.167 17.5 27.5 33.5h71c6 -15.333 13.833 -27 23.5 -35s22.834 -12 39.501 -12c19.333 0 33.333 5 42 15s13 25.333 13 46v9h108v-15
c0 -44 -13 -78.167 -39 -102.5s-62 -36.5 -108 -36.5c-23.333 0 -45.166 4.16699 -65.499 12.5z" />
    <glyph glyph-name="uni0E11" unicode="&#xe11;" horiz-adv-x="601" 
d="M81 213c0 20.667 4.49805 41.501 13.498 62.501s21.5 45.833 37.5 74.5c12.667 21.333 22 38.666 28 51.999s9 25.333 9 36c0 14.667 -6.66699 22 -20 22c-12 0 -23 -5 -33 -15v-40h-74v135h76v-28c10.667 8.66699 21.5 15.5 32.5 20.5s24.833 7.5 41.5 7.5
c26.667 0 46.334 -10 59.001 -30c16 12 34.833 21.667 56.5 29s44.167 11 67.5 11c56.667 0 97.834 -15.167 123.501 -45.5s38.5 -77.166 38.5 -140.499v-364h-108v363c0 36 -5.83301 61.5 -17.5 76.5s-33.5 22.5 -65.5 22.5c-13.333 0 -27.833 -2.83301 -43.5 -8.5
s-28.167 -12.834 -37.5 -21.501c0 -15.333 -2.66699 -29.833 -8 -43.5s-14 -32.167 -26 -55.5c-14 -25.333 -24.333 -46.833 -31 -64.5s-10 -37.5 -10 -59.5v-209h-109v213z" />
    <glyph glyph-name="uni0E12" unicode="&#xe12;" horiz-adv-x="989" 
d="M103 57.5c-40 45 -60 113.165 -60 204.498c0 92 15 163 45 213s72 75 126 75c26 0 47 -4.33301 63 -13s30.667 -21.667 44 -39c14 16 31.833 28.667 53.5 38s44.167 14 67.5 14c42 0 73.167 -12.5 93.5 -37.5s30.5 -60.833 30.5 -107.5v-263
c18.667 -19.333 40.334 -35 65.001 -47s51 -18 79 -18c36.667 0 63.5 8.83301 80.5 26.5s25.5 46.834 25.5 87.501v349h109v-354c0 -62.667 -15.5 -111 -46.5 -145s-75.167 -51 -132.5 -51c-38 0 -71.667 5.83301 -101 17.5s-57 28.834 -83 51.501l-5 -59h-96v389
c0 26.667 -3.33301 45.5 -10 56.5s-20 16.5 -40 16.5c-14 0 -26.333 -3.83301 -37 -11.5s-18.667 -19.167 -24 -34.5h-60c-8.66699 16.667 -17.167 28.5 -25.5 35.5s-20.166 10.5 -35.499 10.5c-30.667 0 -51.834 -17 -63.501 -51s-17.5 -83.667 -17.5 -149
c0 -66 11.167 -113.333 33.5 -142s56.166 -43 101.499 -43c30.667 0 53.667 2.66699 69 8v-83c-22.667 -8 -52 -12 -88 -12c-67.333 0 -121 22.5 -161 67.5z" />
    <glyph glyph-name="uni0E13" unicode="&#xe13;" horiz-adv-x="960" 
d="M475.5 41c-31 34 -46.502 82.335 -46.502 145.002v152c0 46 -10.167 78.167 -30.5 96.5s-54.833 27.5 -103.5 27.5c-32 0 -62.167 -4.66699 -90.5 -14s-50.833 -21.666 -67.5 -36.999v-18l114 -29v-72c-26 -6.66699 -44.333 -17.334 -55 -32.001s-16 -36.667 -16 -66v-65
c0 -15.333 3.33301 -26.333 10 -33s17.334 -10 32.001 -10h55v-86h-108c-30 0 -53.667 9.33301 -71 28s-26 43 -26 73v94c0 66.667 26.333 108 79 124l-108 27v112c30 26.667 66.833 48.667 110.5 66s92.167 26 145.5 26c78.667 0 137.667 -17 177 -51s59 -88.667 59 -164
v-144c0 -40.667 8.83301 -69.834 26.5 -87.501s45.167 -26.5 82.5 -26.5c27.333 0 53.333 5.83301 78 17.5s46.334 27.5 65.001 47.5v398h109v-540h-99l-6 59c-25.333 -22.667 -52.5 -39.834 -81.5 -51.501s-62.833 -17.5 -101.5 -17.5c-57.333 0 -101.5 17 -132.5 51z" />
    <glyph glyph-name="uni0E14" unicode="&#xe14;" horiz-adv-x="643" 
d="M103 57.5c-40 45 -59.999 113.168 -59.999 204.501s23.333 162.166 70 212.499s115.334 75.5 206.001 75.5c58.667 0 107.5 -10.167 146.5 -30.5s67.667 -47 86 -80s27.5 -69.5 27.5 -109.5v-330h-109v325c0 43.333 -11.833 77 -35.5 101s-62.834 36 -117.501 36
c-58 0 -100.667 -16.667 -128 -50s-41 -83.333 -41 -150c0 -66 11.167 -113.333 33.5 -142s56.166 -43 101.499 -43c30.667 0 53.667 2.66699 69 8v-83c-22.667 -8 -52 -12 -88 -12c-67.333 0 -121 22.5 -161 67.5z" />
    <glyph glyph-name="uni0E15" unicode="&#xe15;" horiz-adv-x="646" 
d="M103 57.5c-40 45 -59.9971 113.166 -59.9971 204.499c0 92.667 15.5 163.834 46.5 213.501s74.833 74.5 131.5 74.5c26 0 47.167 -4.33301 63.5 -13s31.166 -21.667 44.499 -39c14 15.333 32.333 27.833 55 37.5s45.667 14.5 69 14.5c42 0 74 -12.667 96 -38
s33 -61 33 -107v-405h-109v389c0 26.667 -3.66699 45.5 -11 56.5s-21.333 16.5 -42 16.5c-14 0 -26.5 -3.83301 -37.5 -11.5s-19.167 -19.167 -24.5 -34.5h-60c-8.66699 16.667 -17.334 28.5 -26.001 35.5s-20.667 10.5 -36 10.5c-32.667 0 -55.5 -17 -68.5 -51
s-19.5 -83.667 -19.5 -149c0 -66 11.167 -113.333 33.5 -142s56.166 -43 101.499 -43c30.667 0 53.667 2.66699 69 8v-83c-22.667 -8 -52 -12 -88 -12c-67.333 0 -121 22.5 -161 67.5z" />
    <glyph glyph-name="uni0E16" unicode="&#xe16;" horiz-adv-x="613" 
d="M98 28c-17.333 18.667 -26.001 43 -26.001 73v94c0 66.667 26.333 108 79 124l-108 27v112c30 26.667 67.167 48.667 111.5 66s93.5 26 147.5 26c82 0 143.667 -17 185 -51s62 -88.667 62 -164v-335h-109v338c0 46 -10.667 78.167 -32 96.5s-58 27.5 -110 27.5
c-32.667 0 -63.5 -4.66699 -92.5 -14s-51.833 -21.666 -68.5 -36.999v-18l114 -29v-72c-26 -6.66699 -44.333 -17.334 -55 -32.001s-16 -36.667 -16 -66v-65c0 -15.333 3.33301 -26.333 10 -33s17.334 -10 32.001 -10h55v-86h-108c-30 -0 -53.667 9.33301 -71 28z" />
    <glyph glyph-name="uni0E17" unicode="&#xe17;" horiz-adv-x="605" 
d="M63 540l99 -0.000976562l6 -59c54 46 118 69 192 69c56.667 0 101 -17 133 -51s48 -81.667 48 -143v-356h-108v351c0 38.667 -9.16699 66.834 -27.5 84.501s-46.5 26.5 -84.5 26.5c-28.667 0 -56 -6 -82 -18s-48.333 -27.667 -67 -47v-397h-109v540z" />
    <glyph glyph-name="uni0E18" unicode="&#xe18;" horiz-adv-x="526" 
d="M151.5 1c-38.333 7.33301 -71.166 17 -98.499 29v203h100v-138c32.667 -12 69.667 -18 111 -18c42 0 73 6.16699 93 18.5s30 34.166 30 65.499c0 23.333 -6 41.166 -18 53.499s-27.5 21.5 -46.5 27.5s-52.833 14.667 -101.5 26c-38.667 8.66699 -70.167 17.667 -94.5 27
s-44.333 23 -60 41s-23.5 42 -23.5 72c0 46.667 20 82 60 106s97.333 36 172 36c35.333 0 70.666 -2.5 105.999 -7.5s63 -11.167 83 -18.5v-90c-22 8.66699 -49 15.5 -81 20.5s-63 7.5 -93 7.5c-44.667 0 -79.834 -3.33301 -105.501 -10s-38.5 -20.334 -38.5 -41.001
c0 -18 8.5 -31.167 25.5 -39.5s45.167 -16.833 84.5 -25.5l28 -6.5c10 -2.33301 20.667 -5.16602 32 -8.49902c40.667 -11.333 73 -22.666 97 -33.999s43 -27.666 57 -48.999s21 -50.333 21 -87c0 -56 -19.5 -98.5 -58.5 -127.5s-92.833 -43.5 -161.5 -43.5
c-41.333 0 -81.166 3.66699 -119.499 11z" />
    <glyph glyph-name="uni0E19" unicode="&#xe19;" horiz-adv-x="605" 
d="M111.5 41.5c-32.333 34.333 -48.5029 82.5 -48.5029 144.5v354h109v-349c0 -40 8.83301 -69 26.5 -87s45.834 -27 84.501 -27c28.667 0 56.334 6 83.001 18s49 27.667 67 47v398h108v-540h-99l-5 59c-53.333 -46 -116.666 -69 -189.999 -69
c-58 0 -103.167 17.167 -135.5 51.5z" />
    <glyph glyph-name="uni0E1A" unicode="&#xe1a;" horiz-adv-x="621" 
d="M127.5 45.5c-43 37 -64.5 91.833 -64.5 164.5v330h109v-334c0 -44 11.5 -76.5 34.5 -97.5s57.5 -31.5 103.5 -31.5s80.667 10.5 104 31.5s35 53.5 35 97.5v334h108v-330c0 -72.667 -21.333 -127.5 -64 -164.5s-103.667 -55.5 -183 -55.5
c-78.667 0 -139.5 18.5 -182.5 55.5z" />
    <glyph glyph-name="uni0E1B" unicode="&#xe1b;" horiz-adv-x="621" 
d="M127.5 45.5c-43 37 -64.5 91.833 -64.5 164.5v330h109v-334c0 -44 11.5 -76.5 34.5 -97.5s57.5 -31.5 103.5 -31.5s80.667 10.5 104 31.5s35 53.5 35 97.5v494h108v-490c0 -72.667 -21.333 -127.5 -64 -164.5s-103.667 -55.5 -183 -55.5
c-78.667 0 -139.5 18.5 -182.5 55.5z" />
    <glyph glyph-name="uni0E1C" unicode="&#xe1c;" horiz-adv-x="644" 
d="M63 439c0 30 8.33301 54.333 25 73s40 28 70 28h103l5 -84h-52c-16.667 0 -28.5 -3.83301 -35.5 -11.5s-10.5 -20.167 -10.5 -37.5v-261l132 229h44l132 -229v394h104v-540h-107l-151 267l-152 -267h-107v439z" />
    <glyph glyph-name="uni0E1D" unicode="&#xe1d;" horiz-adv-x="644" 
d="M63 439c0 30 8.33301 54.333 25 73s40 28 70 28h103l5 -84h-52c-16.667 0 -28.5 -3.83301 -35.5 -11.5s-10.5 -20.167 -10.5 -37.5v-261l132 229h44l132 -229v554h104v-700h-107l-151 267l-152 -267h-107v439z" />
    <glyph glyph-name="uni0E1E" unicode="&#xe1e;" horiz-adv-x="726" 
d="M35 540h107l80 -386l98 309v77h78l109 -386l78 386h106l-124 -540h-100l-100 344l-108 -344h-99z" />
    <glyph glyph-name="uni0E1F" unicode="&#xe1f;" horiz-adv-x="726" 
d="M35 540h107l80 -386l98 309v77h78l109 -386l109 546h106l-155 -700h-100l-100 344l-108 -344h-99z" />
    <glyph glyph-name="uni0E20" unicode="&#xe20;" horiz-adv-x="647" 
d="M48 86l37.001 0.000976562c14 0 23.833 3.16699 29.5 9.5s8.5 17.166 8.5 32.499v67c0 32 5 58.167 15 78.5s28.667 35.5 56 45.5l-110 27v112c29.333 26 66.166 47.833 110.499 65.5s93.5 26.5 147.5 26.5c79.333 0 139.333 -17.333 180 -52s61 -89 61 -163v-335h-108
v338c0 45.333 -10.333 77.333 -31 96s-55.667 28 -105 28c-33.333 0 -64.5 -4.66699 -93.5 -14s-51.5 -21.666 -67.5 -36.999v-18l117 -29v-72c-24.667 -7.33301 -41.167 -17.833 -49.5 -31.5s-12.5 -35.834 -12.5 -66.501v-72c0 -81.333 -39.333 -122 -118 -122h-67v86z
" />
    <glyph glyph-name="uni0E21" unicode="&#xe21;" horiz-adv-x="605" 
d="M252.5 7.5c-30.333 11.667 -58.501 28.833 -84.501 51.5l-6 -59h-99v540h109v-398c18.667 -19.333 41 -35 67 -47s53.333 -18 82 -18c38 0 66.167 9 84.5 27s27.5 47 27.5 87v349h108v-354c0 -62 -16.167 -110.167 -48.5 -144.5s-77.5 -51.5 -135.5 -51.5
c-39.333 0 -74.166 5.83301 -104.499 17.5z" />
    <glyph glyph-name="uni0E22" unicode="&#xe22;" horiz-adv-x="597" 
d="M107 31c-44.667 27.333 -66.998 70 -66.998 128c0 27.333 6.5 51.5 19.5 72.5s31.5 37.5 55.5 49.5c-22 8 -39.5 21.833 -52.5 41.5s-19.5 43.5 -19.5 71.5c0 50 15.333 88.5 46 115.5s71.667 40.5 123 40.5c34 0 63.333 -4.33301 88 -13v-83
c-19.333 5.33301 -42 8 -68 8c-56 0 -84 -22.667 -84 -68c0 -47.333 31.333 -71 94 -71h57l5 -81h-64c-63.333 0 -95 -27.667 -95 -83c0 -27.333 11.333 -47.833 34 -61.5s57.667 -20.5 105 -20.5s82.666 9.5 105.999 28.5s35 47.833 35 86.5v348h108v-335
c0 -72.667 -20.333 -126.667 -61 -162s-101.667 -53 -183 -53c-76.667 0 -137.334 13.667 -182.001 41z" />
    <glyph glyph-name="uni0E23" unicode="&#xe23;" horiz-adv-x="504" 
d="M136.5 -3c-33 4.66699 -59.833 11.333 -80.5 20v91c24.667 -10 51.667 -17.667 81 -23s57 -8 83 -8c48.667 0 83.334 4.33301 104.001 13s31 26 31 52c0 16 -4 28.833 -12 38.5s-19 17.5 -33 23.5s-35.667 13.667 -65 23l-39 13c-54.667 18.667 -95.5 39.167 -122.5 61.5
s-40.5 53.833 -40.5 94.5c0 48.667 18.333 86.5 55 113.5s90.667 40.5 162 40.5c29.333 0 59 -2.33301 89 -7s55.333 -10.334 76 -17.001v-90c-21.333 8 -45.5 14.333 -72.5 19s-52.5 7 -76.5 7c-42 0 -73.833 -4.5 -95.5 -13.5s-32.5 -25.5 -32.5 -49.5
c0 -14 4.5 -25.667 13.5 -35s21.167 -17.166 36.5 -23.499s39 -14.833 71 -25.5l29 -9c57.333 -19.333 98.666 -40.5 123.999 -63.5s38 -56.5 38 -100.5c0 -51.333 -19.333 -89.5 -58 -114.5s-92.667 -37.5 -162 -37.5c-36 0 -70.5 2.33301 -103.5 7z" />
    <glyph glyph-name="uni0E24" unicode="&#xe24;" horiz-adv-x="613" 
d="M440 338c0 46 -10.668 78.167 -32.001 96.5s-58 27.5 -110 27.5c-32.667 0 -63.5 -4.66699 -92.5 -14s-51.833 -21.666 -68.5 -36.999v-18l114 -29v-72c-26 -6.66699 -44.333 -17.334 -55 -32.001s-16 -36.667 -16 -66v-65c0 -15.333 3.33301 -26.333 10 -33
s17.334 -10 32.001 -10h55v-86h-108c-30 -0 -53.667 9.33301 -71 28s-26 43 -26 73v94c0 66.667 26.333 108 79 124l-108 27v112c30 26.667 67.167 48.667 111.5 66s93.5 26 147.5 26c82 0 143.667 -17 185 -51s62 -88.667 62 -164v-495h-109v498z" />
    <glyph glyph-name="uni0E25" unicode="&#xe25;" horiz-adv-x="594" 
d="M96.5 30.5c-33.667 27 -50.4971 68.5 -50.4971 124.5c0 53.333 18 94.5 54 123.5s88 43.5 156 43.5h165v34c0 26.667 -4.33301 47.667 -13 63s-23 26.333 -43 33s-47.667 10 -83 10c-63.333 0 -122 -8.66699 -176 -26v84c27.333 8.66699 58.166 15.834 92.499 21.501
s68.166 8.5 101.499 8.5c78.667 0 136.667 -16.5 174 -49.5s56 -84.5 56 -154.5v-346h-109v238h-158c-38.667 0 -67.167 -6.33301 -85.5 -19s-27.5 -34 -27.5 -64c0 -28.667 8.33301 -48.834 25 -60.501s44.667 -17.5 84 -17.5c26.667 0 49.667 2.66699 69 8v-83
c-28.667 -8 -61.334 -12 -98.001 -12c-55.333 0 -99.833 13.5 -133.5 40.5z" />
    <glyph glyph-name="uni0E26" unicode="&#xe26;" horiz-adv-x="647" 
d="M475 338c0 45.333 -10.332 77.334 -30.999 96.001s-55.667 28 -105 28c-33.333 0 -64.5 -4.66699 -93.5 -14s-51.5 -21.666 -67.5 -36.999v-18l117 -29v-72c-24.667 -7.33301 -41.167 -17.833 -49.5 -31.5s-12.5 -35.834 -12.5 -66.501v-72
c0 -81.333 -39.333 -122 -118 -122h-67v86h37c14 0 23.833 3.16699 29.5 9.5s8.5 17.166 8.5 32.499v67c0 32 5 58.167 15 78.5s28.667 35.5 56 45.5l-110 27v112c29.333 26 66.166 47.833 110.499 65.5s93.5 26.5 147.5 26.5c79.333 0 139.333 -17.333 180 -52
s61 -89 61 -163v-495h-108v498z" />
    <glyph glyph-name="uni0E27" unicode="&#xe27;" horiz-adv-x="497" 
d="M35 20l0.000976562 86.001c45.333 -19.333 90.666 -29 135.999 -29c46 0 82.167 6.33301 108.5 19s45.333 33 57 61s17.5 65.667 17.5 113c0 69.333 -14.167 118.666 -42.5 147.999s-75.5 44 -141.5 44c-46 0 -91 -9.66699 -135 -29v87c47.333 20 100.333 30 159 30
c88.667 0 155 -23.667 199 -71s66 -117 66 -209s-21.333 -161.667 -64 -209s-108.667 -71 -198 -71c-62 0 -116 10 -162 30z" />
    <glyph glyph-name="uni0E28" unicode="&#xe28;" horiz-adv-x="636" 
d="M63 342c0 66.667 20.168 118 60.501 154s101.833 54 184.5 54c32.667 0 64 -3.33301 94 -10h199l-5 -85h-75c11.333 -15.333 19.166 -32 23.499 -50s6.5 -39 6.5 -63v-342h-109v352c0 73.333 -44.667 110 -134 110c-45.333 0 -79.333 -9 -102 -27s-34 -45.667 -34 -83
v-111c29.333 24 64.333 36 105 36h65l4 -87h-72c-40.667 0 -74.667 -11.333 -102 -34v-156h-109v342z" />
    <glyph glyph-name="uni0E29" unicode="&#xe29;" horiz-adv-x="635" 
d="M127 45.5c-42.667 37 -64 91.833 -64 164.5v330h108v-334c0 -44 11.667 -76.5 35 -97.5s58 -31.5 104 -31.5s80.5 10.5 103.5 31.5s34.5 53.5 34.5 97.5v71h-129v83h129v180h109v-180h59l-8 -83h-51v-67c0 -72.667 -21.5 -127.5 -64.5 -164.5
s-103.833 -55.5 -182.5 -55.5c-79.333 0 -140.333 18.5 -183 55.5z" />
    <glyph glyph-name="uni0E2A" unicode="&#xe2a;" horiz-adv-x="609" 
d="M96.5 30c-33.667 26.667 -50.5029 68.333 -50.5029 125c0 53.333 17.833 94.5 53.5 123.5s87.834 43.5 156.501 43.5h165v34c0 39.333 -10.167 66.833 -30.5 82.5s-56.833 23.5 -109.5 23.5c-63.333 0 -122 -8.66699 -176 -26v84c27.333 8.66699 58.333 15.834 93 21.501
s68.667 8.5 102 8.5c32 0 63 -3.33301 93 -10h181l-6 -85h-63c8.66699 -14 14.834 -29.833 18.501 -47.5s5.5 -38.167 5.5 -61.5v-346h-108v238h-159c-38 0 -66.167 -6.33301 -84.5 -19s-27.5 -34 -27.5 -64c0 -28.667 8.33301 -48.834 25 -60.501s44.667 -17.5 84 -17.5
c27.333 0 50 2.66699 68 8v-83c-27.333 -8 -59.666 -12 -96.999 -12c-55.333 0 -99.833 13.333 -133.5 40z" />
    <glyph glyph-name="uni0E2B" unicode="&#xe2b;" horiz-adv-x="604" 
d="M63 540h109v-170h156c38 0 64.833 8 80.5 24s23.5 41.333 23.5 76v70h108v-67c0 -76 -27 -123.667 -81 -143c28.667 -10 48.5 -26 59.5 -48s16.5 -49.667 16.5 -83v-199h-108v186c0 38.667 -7.33301 65.167 -22 79.5s-41.667 21.5 -81 21.5h-152v-287h-109v540z" />
    <glyph glyph-name="uni0E2C" unicode="&#xe2c;" horiz-adv-x="726" 
d="M35 540l107.002 -0.000976562l81 -386l97 269v77h77l108 -346l62 282c2.66699 12.667 4 25 4 37c0 18 -4.33301 30.667 -13 38s-22.334 11 -41.001 11h-40l13 81h44c25.333 0 44.166 4.5 56.499 13.5s20.833 24.833 25.5 47.5l8 36h97l-10 -49
c-5.33301 -27.333 -14.333 -48.166 -27 -62.499s-29.667 -23.833 -51 -28.5c24.667 -14 37 -38.333 37 -73c0 -16 -1.66699 -30.667 -5 -44l-99 -443h-99l-100 312l-108 -312h-99z" />
    <glyph glyph-name="uni0E2D" unicode="&#xe2d;" horiz-adv-x="575" 
d="M147.5 1c-37.667 7.33301 -70.167 17.001 -97.5 29.001v278h214l5 -83h-114v-131c30.667 -11.333 67.334 -17 110.001 -17c40 0 71.667 6.16699 95 18.5s40.333 32.333 51 60s16 65.167 16 112.5c0 50 -6 88.833 -18 116.5s-31.5 47.5 -58.5 59.5s-64.833 18 -113.5 18
c-65.333 0 -125 -8.66699 -179 -26v84c28 9.33301 60.167 16.666 96.5 21.999s72.833 8 109.5 8c92.667 0 160.5 -23.5 203.5 -70.5s64.5 -117.5 64.5 -211.5c0 -92.667 -21.5 -162.167 -64.5 -208.5s-110.5 -69.5 -202.5 -69.5c-40.667 0 -79.834 3.66699 -117.501 11z" />
    <glyph glyph-name="uni0E2E" unicode="&#xe2e;" horiz-adv-x="603" 
d="M147.5 1c-37.667 7.33301 -70.166 17.001 -97.499 29.001v278h214l5 -83h-114v-131c30.667 -11.333 67.334 -17 110.001 -17c40 0 71.667 6.16699 95 18.5s40.333 32.333 51 60s16 65.167 16 112.5c0 50 -6 88.833 -18 116.5s-31.5 47.5 -58.5 59.5s-64.833 18 -113.5 18
c-65.333 0 -125 -8.66699 -179 -26v84c28 9.33301 60.167 16.666 96.5 21.999s72.833 8 109.5 8c31.333 0 62.666 -3.33301 93.999 -10h210l-5 -85h-80c32.667 -42.667 49 -105 49 -187c0 -92.667 -21.5 -162.167 -64.5 -208.5s-110.5 -69.5 -202.5 -69.5
c-40.667 0 -79.834 3.66699 -117.501 11z" />
    <glyph glyph-name="uni0E2F" unicode="&#xe2f;" horiz-adv-x="556" 
d="M383 278c-18 -11.333 -39.001 -20.332 -63.001 -26.999s-49 -10 -75 -10c-59.333 0 -106.666 15.167 -141.999 45.5s-53 72.5 -53 126.5c0 43.333 9.33301 85.666 28 126.999h107c-20 -40 -30 -80.667 -30 -122c0 -61.333 34.333 -92 103 -92c51.333 0 93 12 125 36v178
h109v-540h-109v278z" />
    <glyph glyph-name="uni0E30" unicode="&#xe30;" horiz-adv-x="324" 
d="M43 461h93v-49h147l-4 -81h-236v130zM43 189h93v-50h147l-4 -80h-236v130z" />
    <glyph glyph-name="uni0E31" unicode="&#xe31;" 
d="M-301 768h90v-70h259l-5 -76h-344v146z" />
    <glyph glyph-name="uni0E32" unicode="&#xe32;" horiz-adv-x="440" 
d="M267 340c0 29.333 -3.00098 52.499 -9.00098 69.499s-17.5 30 -34.5 39s-41.5 13.5 -73.5 13.5c-21.333 0 -44.5 -2.33301 -69.5 -7s-47.5 -11 -67.5 -19v84c20.667 8.66699 45.334 15.834 74.001 21.501s56.667 8.5 84 8.5c72 0 124.167 -15.667 156.5 -47
s48.5 -81 48.5 -149v-354h-109v340z" />
    <glyph glyph-name="uni0E33" unicode="&#xe33;" horiz-adv-x="440" 
d="M-199.5 629c-21.667 20.667 -32.5 46.334 -32.5 77.001c0 31.333 10.833 57.333 32.5 78s48.5 31 80.5 31c31.333 0 57.833 -10.333 79.5 -31s32.5 -46.667 32.5 -78c0 -30.667 -10.833 -56.334 -32.5 -77.001s-48.167 -31 -79.5 -31c-32 0 -58.833 10.333 -80.5 31z
M-86.5 674c9 9.33301 13.498 20 13.498 32c0 13.333 -4.5 24.666 -13.5 33.999s-19.833 14 -32.5 14c-13.333 0 -24.666 -4.66699 -33.999 -14s-14 -20.666 -14 -33.999c0 -12 4.83301 -22.667 14.5 -32s20.834 -14 33.501 -14s23.5 4.66699 32.5 14zM266.998 340
c0 29.333 -3.00098 52.499 -9.00098 69.499s-17.5 30 -34.5 39s-41.5 13.5 -73.5 13.5c-21.333 0 -44.5 -2.33301 -69.5 -7s-47.5 -11 -67.5 -19v84c20.667 8.66699 45.334 15.834 74.001 21.501s56.667 8.5 84 8.5c72 0 124.167 -15.667 156.5 -47s48.5 -81 48.5 -149v-354
h-109v340z" />
    <glyph glyph-name="uni0E34" unicode="&#xe34;" 
d="M-476 698h412v-76h-417z" />
    <glyph glyph-name="uni0E35" unicode="&#xe35;" 
d="M-476 698h322v83h90v-159h-417z" />
    <glyph glyph-name="uni0E36" unicode="&#xe36;" 
d="M-476 698h248c-1.33301 6.66699 -2 14 -2 22c0 20.667 8 38.667 24 54s37.667 23 65 23c30 0 52.667 -8.33301 68 -25s23 -36.667 23 -60c0 -26 -8.33301 -47.5 -25 -64.5s-40 -25.5 -70 -25.5h-336zM-111.5 684c7 7.33301 10.501 16.333 10.501 27
c0 11.333 -3.66699 20.833 -11 28.5s-16.666 11.5 -27.999 11.5c-10.667 0 -19.834 -3.66699 -27.501 -11s-11.5 -17 -11.5 -29c0 -10.667 3.66699 -19.667 11 -27s16.666 -11 27.999 -11c12 0 21.5 3.66699 28.5 11z" />
    <glyph glyph-name="uni0E37" unicode="&#xe37;" 
d="M-476 698h194v83h79v-83h60v83h79v-159h-417z" />
    <glyph glyph-name="uni0E38" unicode="&#xe38;" 
d="M-157 -128h-63l5 71h151v-195h-93v124z" />
    <glyph glyph-name="uni0E39" unicode="&#xe39;" 
d="M-271 -237c-21.333 16 -32 36.332 -32 60.999v51h-54l4 68h128v-101c0 -10.667 3.5 -18.834 10.5 -24.501s16.833 -8.5 29.5 -8.5c13.333 0 23.5 2.83301 30.5 8.5s10.5 13.834 10.5 24.501v101h79v-108c0 -27.333 -10.5 -50.166 -31.5 -68.499s-50.5 -27.5 -88.5 -27.5
c-36 0 -64.667 8 -86 24z" />
    <glyph glyph-name="uni0E3A" unicode="&#xe3a;" 
d="M-158 -148.5c-11.333 11 -17 24.833 -17 41.5s5.66699 30.5 17 41.5s25.333 16.5 42 16.5s30.667 -5.5 42 -16.5s17 -24.833 17 -41.5s-5.66699 -30.5 -17 -41.5s-25.333 -16.5 -42 -16.5s-30.667 5.5 -42 16.5z" />
    <glyph glyph-name="uni0E3F" unicode="&#xe3f;" horiz-adv-x="631" 
d="M264 0l-201.001 0.000976562v644h201v86h81v-86h30c62.667 0 109.667 -14.833 141 -44.5s47 -72.167 47 -127.5c0 -34 -6.83301 -62.833 -20.5 -86.5s-32.5 -41.834 -56.5 -54.501c32.667 -9.33301 57.834 -25.5 75.501 -48.5s26.5 -55.167 26.5 -96.5
c0 -62 -16.833 -108.5 -50.5 -139.5s-83.167 -46.5 -148.5 -46.5h-44v-86h-81v86zM263.999 369.001v193h-92v-193h92zM359.999 369.001c68 0 102.001 31.332 102.001 93.999c0 34.667 -8.33301 59.834 -25 75.501s-46.334 23.5 -89.001 23.5h-3v-193h15zM264 80v209h-92
v-209h92zM366 80c39.333 0 67.832 8.33301 85.499 25s26.5 45 26.5 85c0 34 -9.16699 59 -27.5 75s-50.166 24 -95.499 24h-10v-209h21z" />
    <glyph glyph-name="uni0E40" unicode="&#xe40;" horiz-adv-x="307" 
d="M65 104v435.999h108v-409c0 -15.333 3.5 -26.666 10.5 -33.999s18.167 -11 33.5 -11h46v-86h-93c-70 0 -105 34.667 -105 104z" />
    <glyph glyph-name="uni0E41" unicode="&#xe41;" horiz-adv-x="542" 
d="M63 104v435.999h109v-409c0 -15.333 3.5 -26.666 10.5 -33.999s18.167 -11 33.5 -11h40v-86h-88c-70 0 -105 34.667 -105 104zM306 103.999v435.999h108v-409c0 -15.333 3.5 -26.666 10.5 -33.999s18.167 -11 33.5 -11h41v-86h-88c-70 0 -105 34.667 -105 104z" />
    <glyph glyph-name="uni0E42" unicode="&#xe42;" horiz-adv-x="315" 
d="M123.5 31.5c-15 21 -22.5 52.834 -22.5 95.501v335c0 41.333 -8 73.166 -24 95.499s-42.333 40.166 -79 53.499v83h297v-86h-160c26.667 -15.333 45.667 -34.666 57 -57.999s17 -56 17 -98v-321c0 -18 2.83301 -30 8.5 -36s17.5 -9 35.5 -9h46v-86h-93
c-40 0 -67.5 10.5 -82.5 31.5z" />
    <glyph glyph-name="uni0E43" unicode="&#xe43;" horiz-adv-x="294" 
d="M50 104v231.002c0 35.333 6.83301 64.666 20.5 87.999s32.5 47.333 56.5 72c14.667 15.333 25.167 27.5 31.5 36.5s9.5 18.833 9.5 29.5c0 18.667 -5.16699 31.5 -15.5 38.5s-27.166 10.5 -50.499 10.5c-36 0 -72.333 -10 -109 -30v80
c19.333 12 42.166 21.167 68.499 27.5s52.166 9.5 77.499 9.5c46.667 0 81.834 -10 105.501 -30s35.5 -48.333 35.5 -85c0 -22.667 -4.83301 -42.334 -14.5 -59.001s-24.167 -35.334 -43.5 -56.001c-21.333 -25.333 -37.333 -47.166 -48 -65.499s-16 -41.5 -16 -69.5v-201
c0 -18 2.83301 -30 8.5 -36s17.5 -9 35.5 -9h46v-86h-93c-70 0 -105 34.667 -105 104z" />
    <glyph glyph-name="uni0E44" unicode="&#xe44;" horiz-adv-x="301" 
d="M79 104v345c0 72 25.333 125 76 159h-157v86h289v-82c-36 -14 -61.667 -35.167 -77 -63.5s-23 -66.833 -23 -115.5v-302c0 -18 2.83301 -30 8.5 -36s17.5 -9 35.5 -9h46v-86h-93c-70 0 -105 34.667 -105 104z" />
    <glyph glyph-name="uni0E45" unicode="&#xe45;" horiz-adv-x="440" 
d="M267 340c0 29.333 -3.00098 52.499 -9.00098 69.499s-17.5 30 -34.5 39s-41.5 13.5 -73.5 13.5c-21.333 0 -44.5 -2.33301 -69.5 -7s-47.5 -11 -67.5 -19v84c20.667 8.66699 45.334 15.834 74.001 21.501s56.667 8.5 84 8.5c72 0 124.167 -15.667 156.5 -47
s48.5 -81 48.5 -149v-514h-109v500z" />
    <glyph glyph-name="uni0E46" unicode="&#xe46;" horiz-adv-x="595" 
d="M422 407c0 17.333 -2.8291 30.8359 -8.49609 40.5029s-16.5 14.5 -32.5 14.5c-25.333 0 -45 -16 -59 -48h-51c-6.66699 17.333 -13.334 29.666 -20.001 36.999s-16.667 11 -30 11c-38.667 0 -58 -32 -58 -96c0 -31.333 7.16699 -54 21.5 -68s36.166 -21 65.499 -21
c30 0 53 2.66699 69 8v-84c-24 -8 -53.667 -12 -89 -12c-56.667 0 -100.834 15.167 -132.501 45.5s-47.5 74.166 -47.5 131.499c0 51.333 13 94.833 39 130.5s62 53.5 108 53.5c23.333 0 42.666 -3.83301 57.999 -11.5s29.333 -20.5 42 -38.5c28 33.333 65.333 50 112 50
c42 0 72.833 -12.333 92.5 -37s29.5 -62.334 29.5 -113.001v-400h-109v407z" />
    <glyph glyph-name="uni0E47" unicode="&#xe47;" 
d="M-449.5 651c-22.333 20 -33.501 48.334 -33.501 85.001c0 37.333 11.667 66.833 35 88.5s56 32.5 98 32.5h246l-5 -64h-231c-22.667 0 -39.5 -4.5 -50.5 -13.5s-16.5 -23.5 -16.5 -43.5c0 -35.333 19 -53 57 -53c35.333 0 53 14 53 42v21h67v-21
c0 -14 3.66699 -24 11 -30s19 -9 35 -9h63v-63h-70c-17.333 0 -32.5 2.5 -45.5 7.5s-22.167 12.833 -27.5 23.5c-6.66699 -10.667 -19 -18.834 -37 -24.501s-36.667 -8.5 -56 -8.5c-39.333 0 -70.166 10 -92.499 30z" />
    <glyph glyph-name="uni0E48" unicode="&#xe48;" 
d="M-173 787h109v-164h-109v164z" />
    <glyph glyph-name="uni0E49" unicode="&#xe49;" 
d="M-293 714h-79v75h154v-91h216l-4 -76h-287v92z" />
    <glyph glyph-name="uni0E4A" unicode="&#xe4a;" 
d="M-430.5 639c-19.667 17.333 -29.501 43.667 -29.501 79c0 33.333 8.66699 59.333 26 78s40.333 28 69 28c34 0 56.333 -13 67 -39h1c4.66699 12 13.334 21.5 26.001 28.5s27 10.5 43 10.5c30 0 52.167 -7.16699 66.5 -21.5s21.5 -33.833 21.5 -58.5v-67h11
c8.66699 0 14.667 2.16699 18 6.5s5 11.833 5 22.5v113h63v-118c0 -24 -7.16699 -43.167 -21.5 -57.5s-34.166 -21.5 -59.499 -21.5h-80v103c0 14.667 -2.16699 25 -6.5 31s-12.833 9 -25.5 9c-14 0 -23.167 -3.5 -27.5 -10.5s-6.5 -17.833 -6.5 -32.5v-13h-53v13
c0 14 -2.33301 24.667 -7 32s-13.334 11 -26.001 11c-13.333 0 -22.833 -3.83301 -28.5 -11.5s-8.5 -20.167 -8.5 -37.5c0 -18.667 4.16699 -31.5 12.5 -38.5s22.5 -10.5 42.5 -10.5h28v-54h-37c-36 0 -63.833 8.66699 -83.5 26z" />
    <glyph glyph-name="uni0E4B" unicode="&#xe4b;" 
d="M-230 665h-65v80h65v49h100v-49h66v-80h-66v-43h-100v43z" />
    <glyph glyph-name="uni0E4C" unicode="&#xe4c;" 
d="M-301 768h294l-4 -76h-200v-70h-90v146z" />
    </font>
</defs>
</svg>
