<?xml version="1.0" standalone="no"?>
<!DOCTYPE svg PUBLIC "-//W3C//DTD SVG 1.1//EN" "http://www.w3.org/Graphics/SVG/1.1/DTD/svg11.dtd" >
<svg>
<metadata>
Created by FontForge 20090914 at Fri Oct 11 09:25:38 2019
 By www-data
Copyright (c) 2015, Cadson Demak (info@cadsondemak.com)
</metadata>
<defs>
<font id="Kanit-Light" horiz-adv-x="0" >
  <font-face 
    font-family="Kanit Light"
    font-weight="300"
    font-stretch="normal"
    units-per-em="1000"
    panose-1="0 0 4 0 0 0 0 0 0 0"
    ascent="750"
    descent="-250"
    x-height="474"
    cap-height="644"
    bbox="-574.002 -339 1152 1036"
    underline-thickness="50"
    underline-position="-50"
    unicode-range="U+000D-U+FB02"
  />
<missing-glyph horiz-adv-x="488" 
d="M449 714v-714h-411v714h411zM398 51v612h-309v-612h309z" />
    <glyph glyph-name="fi" unicode="fi" horiz-adv-x="514" 
d="M150.5 645c33 30 75.833 45 128.5 45c44.667 0 80.334 -5 107.001 -15v-62c-20.667 7.33301 -49.334 11 -86.001 11c-78 0 -117 -31.667 -117 -95v-55h261v-474h-82v409h-179v-409h-82v409h-71v65h71v55c0 47.333 16.5 86 49.5 116z" />
    <glyph glyph-name="fl" unicode="fl" horiz-adv-x="514" 
d="M150.5 645c33 30 75.832 45 128.499 45c44.667 0 80.334 -5 107.001 -15h58v-675h-82v409h-179v-409h-82v409h-71v65h71v55c0 47.333 16.5 86 49.5 116zM361.999 474v140c-22 6.66699 -42.667 10 -62 10c-78 0 -117 -31.667 -117 -95v-55h179z" />
    <glyph glyph-name="ru_lakkhangyaothai" unicode="&#xe24;&#xe45;" horiz-adv-x="875" 
d="M758.5 504.5c31 -30.333 46.4971 -79.168 46.4971 -146.501v-518h-82v509c0 32.667 -3.16699 58 -9.5 76s-18.666 31.667 -36.999 41s-45.833 14 -82.5 14c-25.333 0 -51.333 -3 -78 -9c22.667 -31.333 34 -73.666 34 -126.999v-504h-82v507
c0 49.333 -11.667 83.833 -35 103.5s-63.333 29.5 -120 29.5c-37.333 0 -72.166 -5.16699 -104.499 -15.5s-57.166 -24.166 -74.499 -41.499v-21l117 -28v-62c-26 -6.66699 -45 -17.334 -57 -32.001s-18 -35.667 -18 -63v-101c0 -16.667 3.83301 -29 11.5 -37
s19.5 -12 35.5 -12h57v-67h-94c-28.667 -0 -51.167 8.83301 -67.5 26.5s-24.5 40.834 -24.5 69.501v123c0 29.333 6.5 54.166 19.5 74.499s33.5 34.5 61.5 42.5l-113 26v96c28 26.667 63.5 48.667 106.5 66s91.167 26 144.5 26c59.333 0 107.333 -9.33301 144 -28
c20.667 8.66699 44.5 15.5 71.5 20.5s53.833 7.5 80.5 7.5c68.667 0 118.5 -15.167 149.5 -45.5z" />
    <glyph glyph-name="lu_lakkhangyaothai" unicode="&#xe26;&#xe45;" horiz-adv-x="910" 
d="M793.5 504.5c31 -30.333 46.498 -79.1719 46.498 -146.505v-518h-82v509c0 32.667 -3.16699 58 -9.5 76s-18.666 31.667 -36.999 41s-45.833 14 -82.5 14c-28.667 0 -56.334 -3.33301 -83.001 -10c22 -32 33 -74 33 -126v-504h-82v507c0 49.333 -11.667 83.833 -35 103.5
s-63.333 29.5 -120 29.5c-37.333 0 -72.166 -5.16699 -104.499 -15.5s-57.166 -24.166 -74.499 -41.499v-21l123 -28v-62c-24.667 -7.33301 -41.5 -17.666 -50.5 -30.999s-13.5 -34.666 -13.5 -63.999v-107c0 -73.333 -34.333 -110 -103 -110h-62v67h40
c15.333 0 26.333 3.83301 33 11.5s10 19.834 10 36.501v104c0 30 5.16699 54.833 15.5 74.5s28.5 33.834 54.5 42.501l-119 26v96c28 26.667 63.5 48.667 106.5 66s91.167 26 144.5 26c61.333 0 111 -10 149 -30v2c20.667 8 44.667 14.667 72 20s54.333 8 81 8
c68.667 0 118.5 -15.167 149.5 -45.5z" />
    <glyph glyph-name=".notdef" horiz-adv-x="488" 
d="M449 714v-714h-411v714h411zM398 51v612h-309v-612h309z" />
    <glyph glyph-name="nonmarkingreturn" unicode="&#xd;" horiz-adv-x="400" 
 />
    <glyph glyph-name="space" unicode=" " horiz-adv-x="380" 
 />
    <glyph glyph-name="exclam" unicode="!" horiz-adv-x="190" 
d="M136 487l-6 -333h-70l-6 333v157h82v-157zM50 65v-65h90v65h-90z" />
    <glyph glyph-name="quotedbl" unicode="&#x22;" horiz-adv-x="321" 
d="M50 644h74l-13 -177h-61v177zM197 644h74l-13 -177h-61v177z" />
    <glyph glyph-name="numbersign" unicode="#" horiz-adv-x="700" 
d="M286 644h72l-57 -180h188l57 180h73l-57 -180h88v-58h-106l-54 -169h113v-57h-131l-56 -180h-72l56 180h-189l-56 -180h-71l56 180h-90v57h108l53 169h-114v58h132zM418 237l53 169h-188l-54 -169h189z" />
    <glyph glyph-name="dollar" unicode="$" horiz-adv-x="556" 
d="M247 -10c-75.333 1.33301 -135.999 11.3369 -181.999 30.0039v73c56.667 -22 117.334 -33 182.001 -33v237c-2.66699 0 -4.33398 0.333008 -5.00098 1c-70.667 17.333 -120.334 39.666 -149.001 66.999s-43 64.666 -43 111.999c0 50.667 16.5 91.167 49.5 121.5
s82.167 48.166 147.5 53.499v78h64v-77c30.667 -0.666992 60 -3.33398 88 -8.00098s50.667 -10 68 -16v-72c-48.667 17.333 -100.667 26.333 -156 27v-228c72 -18 122.5 -42 151.5 -72s43.5 -68.667 43.5 -116c0 -50.667 -16.5 -91 -49.5 -121s-81.5 -48 -145.5 -54v-79h-64
v76zM156.501 413.004c16.333 -14.667 46.5 -28.333 90.5 -41v209c-38 -4.66699 -66.667 -15.5 -86 -32.5s-29 -40.833 -29 -71.5c0 -28 8.16699 -49.333 24.5 -64zM399.001 236.505c-16.667 16.333 -46 30.834 -88 43.501v-217c38.667 4.66699 67.167 15.167 85.5 31.5
s27.5 40.833 27.5 73.5c0 29.333 -8.33301 52.166 -25 68.499z" />
    <glyph glyph-name="percent" unicode="%" horiz-adv-x="713" 
d="M290.5 614c23 -26.667 34.5 -63.667 34.5 -111c0 -42 -11.667 -75.5 -35 -100.5s-57.333 -37.5 -102 -37.5c-45.333 0 -79.666 12.5 -102.999 37.5s-35 58.5 -35 100.5c0 47.333 11.667 84.333 35 111s57.666 40 102.999 40s79.5 -13.333 102.5 -40zM488 644h77
l-342 -644h-77zM249 441.5c12.667 14.333 19 35.166 19 62.499c0 32.667 -6.33301 56.5 -19 71.5s-33 22.5 -61 22.5s-48.333 -7.5 -61 -22.5s-19 -38.833 -19 -71.5c0 -27.333 6.33301 -48.166 19 -62.499s33 -21.5 61 -21.5s48.333 7.16699 61 21.5zM628.5 239
c23 -26.667 34.5 -63.667 34.5 -111c0 -42 -11.667 -75.5 -35 -100.5s-57.333 -37.5 -102 -37.5c-45.333 0 -79.666 12.5 -102.999 37.5s-35 58.5 -35 100.5c0 47.333 11.667 84.333 35 111s57.666 40 102.999 40s79.5 -13.333 102.5 -40zM587 66.5
c12.667 14.333 19 35.166 19 62.499c0 32.667 -6.33301 56.5 -19 71.5s-33 22.5 -61 22.5s-48.333 -7.5 -61 -22.5s-19 -38.833 -19 -71.5c0 -27.333 6.33301 -48.166 19 -62.499s33 -21.5 61 -21.5s48.333 7.16699 61 21.5z" />
    <glyph glyph-name="ampersand" unicode="&#x26;" horiz-adv-x="660" 
d="M556 194c-6 -24.667 -14.666 -45.998 -25.999 -63.998l90 -91l-50 -45l-80 79c-44.667 -55.333 -118 -83 -220 -83c-66.667 0 -120 14.667 -160 44s-60 68.666 -60 117.999c0 43.333 13.333 81.5 40 114.5s65.667 62.833 117 89.5
c-23.333 23.333 -40.833 41.666 -52.5 54.999s-21.334 28.333 -29.001 45s-11.5 35 -11.5 55c0 41.333 14.167 75.5 42.5 102.5s67.166 40.5 116.499 40.5c48.667 0 86.834 -13 114.501 -39s41.5 -60.667 41.5 -104c0 -34 -9 -63.5 -27 -88.5s-46.333 -50.833 -85 -77.5
l166 -169c11.333 24.667 17 56 17 94v14h65v-14c0 -26 -3 -51.333 -9 -76zM273.001 591.002c-30.667 0 -53.501 -7.66602 -68.501 -22.999s-22.5 -35.333 -22.5 -60c0 -19.333 6.33301 -37.333 19 -54s34.334 -39.667 65.001 -69c34 21.333 58.333 40.666 73 57.999
s22 39 22 65c0 55.333 -29.333 83 -88 83zM369 66.5029c28 11.667 51.667 29.166 71 52.499l-183 187c-44.667 -20.667 -77.167 -42.5 -97.5 -65.5s-30.5 -51.833 -30.5 -86.5c0 -33.333 13 -59.166 39 -77.499s60 -27.5 102 -27.5c38 0 71 5.83301 99 17.5z" />
    <glyph glyph-name="quotesingle" unicode="'" horiz-adv-x="174" 
d="M50 644h74l-13 -177h-61v177z" />
    <glyph glyph-name="parenleft" unicode="(" horiz-adv-x="310" 
d="M82.5 515.5c21.667 67.667 56.5 121.833 104.5 162.5h93c-98.667 -84 -148 -209 -148 -375s49.333 -291 148 -375h-93c-48 40.667 -82.833 94.667 -104.5 162s-32.5 138.333 -32.5 213c0 74 10.833 144.833 32.5 212.5z" />
    <glyph glyph-name="parenright" unicode=")" horiz-adv-x="310" 
d="M227.5 90c-21.667 -67.333 -56.167 -121.332 -103.5 -161.999h-94c98.667 84 148 209 148 375s-49.333 291 -148 375h94c47.333 -40.667 81.833 -94.834 103.5 -162.501s32.5 -138.5 32.5 -212.5c0 -74.667 -10.833 -145.667 -32.5 -213z" />
    <glyph glyph-name="asterisk" unicode="*" horiz-adv-x="428" 
d="M182 644h65l-4 -119l109 53l26 -54l-121 -49l93 -103l-50 -37l-86 112l-86 -112l-50 37l92 103l-120 49l26 54l110 -53z" />
    <glyph glyph-name="plus" unicode="+" horiz-adv-x="477" 
d="M272 88h-67v148h-155v65h155v154h67v-154h155v-65h-155v-148z" />
    <glyph glyph-name="comma" unicode="," horiz-adv-x="202" 
d="M78 57h74l-42 -177h-60z" />
    <glyph glyph-name="hyphen" unicode="-" horiz-adv-x="477" 
d="M427 236h-377v65h377v-65z" />
    <glyph glyph-name="period" unicode="." horiz-adv-x="174" 
d="M50 69h74v-69h-74v69z" />
    <glyph glyph-name="slash" unicode="/" horiz-adv-x="417" 
d="M284 662h83l-234 -662h-83z" />
    <glyph glyph-name="zero" unicode="0" horiz-adv-x="647" 
d="M50 314c0 112.667 21.168 197.5 63.501 254.5s112.5 85.5 210.5 85.5c97.333 0 167.166 -28.5 209.499 -85.5s63.5 -141.833 63.5 -254.5c0 -216 -91 -324 -273 -324c-182.667 0 -274 108 -274 324zM470.001 126c30 44 45.001 106.665 45.001 187.998
c0 90.667 -14.5 158.334 -43.5 203.001s-78.167 67 -147.5 67c-70 0 -119.5 -22.167 -148.5 -66.5s-43.5 -112.166 -43.5 -203.499c0 -80.667 15.167 -143.167 45.5 -187.5s79.166 -66.5 146.499 -66.5s116 22 146 66z" />
    <glyph glyph-name="one" unicode="1" horiz-adv-x="304" 
d="M152 574l-102 -18v69l184 29v-654h-82v574z" />
    <glyph glyph-name="two" unicode="2" horiz-adv-x="506" 
d="M50 44c15.333 38.667 37.9971 74.832 67.9971 108.499s66.333 68.5 109 104.5c39.333 32.667 68.5 59.167 87.5 79.5s32.5 40.166 40.5 59.499s12 42.333 12 69c0 40.667 -10.5 70.667 -31.5 90s-57.833 29 -110.5 29c-49.333 0 -99.333 -9.66699 -150 -29v73
c22 7.33301 47.833 13.5 77.5 18.5s58.167 7.5 85.5 7.5c68 0 120.167 -16.667 156.5 -50s54.5 -79.666 54.5 -138.999c0 -30.667 -5.33301 -58.167 -16 -82.5s-25.167 -46.666 -43.5 -66.999s-43.166 -44.5 -74.499 -72.5l-21 -18
c-39.333 -34.667 -69.666 -63.167 -90.999 -85.5s-38.666 -47.5 -51.999 -75.5h305v-64h-406v44z" />
    <glyph glyph-name="three" unicode="3" horiz-adv-x="514" 
d="M400.5 37.5c-42.333 -31.667 -101.5 -47.499 -177.5 -47.499c-29.333 0 -60.666 2.66699 -93.999 8s-59.666 11.666 -78.999 18.999v72c49.333 -19.333 103.666 -29 162.999 -29c58.667 0 101.5 8.83301 128.5 26.5s40.5 47.834 40.5 90.501
c0 78.667 -49.333 118 -148 118h-93l8 62h77c47.333 0 82.833 10.333 106.5 31s35.5 50.334 35.5 89.001c0 36.667 -12.333 63.667 -37 81s-63.334 26 -116.001 26c-26 0 -52.333 -2.66699 -79 -8s-51.334 -12.333 -74.001 -21v71c19.333 8 44.333 14.667 75 20
s60.334 8 89.001 8c74 0 129.833 -16 167.5 -48s56.5 -74.667 56.5 -128c0 -34.667 -9 -65.834 -27 -93.501s-44.667 -46.834 -80 -57.501c40.667 -9.33301 71 -27.333 91 -54s30 -58.667 30 -96c0 -61.333 -21.167 -107.833 -63.5 -139.5z" />
    <glyph glyph-name="four" unicode="4" horiz-adv-x="541" 
d="M443 0h-82v148h-331v62l340 434h73v-429h68v-67h-68v-148zM112 213h260v333z" />
    <glyph glyph-name="five" unicode="5" horiz-adv-x="512" 
d="M401 43c-40.667 -35.333 -99.666 -53 -176.999 -53c-31.333 0 -62.833 2.33301 -94.5 7s-57.167 11.334 -76.5 20.001v73c49.333 -20 103.333 -30 162 -30c57.333 0 99.166 10.667 125.499 32s39.5 54.666 39.5 99.999c0 44.667 -10.5 77.167 -31.5 97.5
s-58.5 30.5 -112.5 30.5h-186v57l17 267h349l-8 -64h-272l-13 -195h121c74.667 0 129.667 -16 165 -48s53 -80.333 53 -145c0 -64 -20.333 -113.667 -61 -149z" />
    <glyph glyph-name="six" unicode="6" horiz-adv-x="569" 
d="M459.5 46.5c-39.667 -37.667 -97.832 -56.5 -174.499 -56.5c-78 0 -136.667 19.833 -176 59.5s-59 101.5 -59 185.5v152c0 53.333 10.5 100 31.5 140s51.167 71.167 90.5 93.5s85.333 33.5 138 33.5c56.667 0 106 -7 148 -21v-71c-40.667 14.667 -88.667 22 -144 22
c-62.667 0 -109.334 -16 -140.001 -48s-46 -76.667 -46 -134v-49c24.667 18 52.667 31.833 84 41.5s61 14.5 89 14.5c72.667 0 127.167 -17.667 163.5 -53s54.5 -87 54.5 -155c0 -65.333 -19.833 -116.833 -59.5 -154.5zM411.502 308.5
c-22.333 24.333 -61.5 36.501 -117.5 36.501c-60 0 -115.333 -18.333 -166 -55v-78c0 -52.667 13 -92 39 -118s65.333 -39 118 -39s92.5 12.667 119.5 38s40.5 60.666 40.5 105.999c0 48.667 -11.167 85.167 -33.5 109.5z" />
    <glyph glyph-name="seven" unicode="7" horiz-adv-x="498" 
d="M127 0l245 580h-332v64h418v-57l-248 -587h-83z" />
    <glyph glyph-name="eight" unicode="8" horiz-adv-x="584" 
d="M460 606.5c37.333 -31.667 56 -75.834 56 -132.501c0 -34.667 -8.83301 -65.167 -26.5 -91.5s-45.834 -46.166 -84.501 -59.499c44.667 -11.333 77.334 -29.5 98.001 -54.5s31 -57.833 31 -98.5c0 -59.333 -20.5 -104.166 -61.5 -134.499s-101.167 -45.5 -180.5 -45.5
c-78.667 0 -138.667 15.167 -180 45.5s-62 75.166 -62 134.499c0 39.333 10.667 73.5 32 102.5s52 49.167 92 60.5c-36 11.333 -62.667 29.5 -80 54.5s-26 53.833 -26 86.5c0 56 19 100 57 132s93.667 48 167 48c74.667 0 130.667 -15.833 168 -47.5zM413 392
c19.333 18.667 29.002 45.667 29.002 81c0 38 -12.833 66.833 -38.5 86.5s-62.834 29.5 -111.501 29.5s-85.834 -9.66699 -111.501 -29s-38.5 -48 -38.5 -86c0 -28.667 9 -52.5 27 -71.5s43 -31.833 75 -38.5l76 -15c42.667 10 73.667 24.333 93 43zM460.002 171
c0 34 -9.83301 59.332 -29.5 75.999s-50.5 29.334 -92.5 38.001l-87 18c-41.333 -8.66699 -72.833 -23.167 -94.5 -43.5s-32.5 -49.5 -32.5 -87.5c0 -78 56 -117 168 -117s168 38.667 168 116z" />
    <glyph glyph-name="nine" unicode="9" horiz-adv-x="569" 
d="M109.5 597.5c39.667 37.667 97.832 56.5 174.499 56.5c78 0 136.667 -19.833 176 -59.5s59 -101.5 59 -185.5v-152c0 -53.333 -10.5 -100 -31.5 -140s-51.167 -71.167 -90.5 -93.5s-85.333 -33.5 -138 -33.5c-56.667 0 -106 7 -148 21v71
c40.667 -14.667 88.667 -22 144 -22c62.667 0 109.334 16 140.001 48s46 76.667 46 134v49c-24.667 -18 -52.667 -31.833 -84 -41.5s-61 -14.5 -89 -14.5c-72.667 0 -127.167 17.667 -163.5 53s-54.5 87 -54.5 155c0 65.333 19.833 116.833 59.5 154.5zM157.498 335.5
c22.333 -24.333 61.5 -36.501 117.5 -36.501c60 0 115.333 18.333 166 55v78c0 52.667 -13 92 -39 118s-65.333 39 -118 39s-92.5 -12.667 -119.5 -38s-40.5 -60.666 -40.5 -105.999c0 -48.667 11.167 -85.167 33.5 -109.5z" />
    <glyph glyph-name="colon" unicode=":" horiz-adv-x="173" 
d="M50 398h73v-69h-73v69zM50 97h73v-69h-73v69z" />
    <glyph glyph-name="semicolon" unicode=";" horiz-adv-x="202" 
d="M80 398h72v-69h-72v69zM78 74h74l-42 -177h-60z" />
    <glyph glyph-name="less" unicode="&#x3c;" horiz-adv-x="547" 
d="M497 458l-361 -162l361 -163v-77l-447 206v67l447 206v-77z" />
    <glyph glyph-name="equal" unicode="=" horiz-adv-x="482" 
d="M50 370h382v-59h-382v59zM50 228h382v-60h-382v60z" />
    <glyph glyph-name="greater" unicode="&#x3e;" horiz-adv-x="547" 
d="M497 262l-447 -206v77l362 163l-362 162v77l447 -206v-67z" />
    <glyph glyph-name="question" unicode="?" horiz-adv-x="493" 
d="M419.5 391c-15.667 -22.667 -41.1621 -48.665 -76.4951 -77.998l-19 -16c-19.333 -16 -34 -29 -44 -39s-17.833 -21.667 -23.5 -35s-8.5 -29.666 -8.5 -48.999v-19h-82v23c0 24 4.83301 45.5 14.5 64.5s21.167 35.333 34.5 49s31.666 30.167 54.999 49.5l23 19
c22 19.333 38.833 37.666 50.5 54.999s17.5 37 17.5 59c0 39.333 -11.167 67.5 -33.5 84.5s-61.5 25.5 -117.5 25.5c-28.667 0 -56.834 -3.33301 -84.501 -10s-52.834 -15.334 -75.501 -26.001v70c21.333 11.333 47.666 20.166 78.999 26.499s64.666 9.5 99.999 9.5
c70 0 123.167 -15.667 159.5 -47s54.5 -75.333 54.5 -132c0 -33.333 -7.83301 -61.333 -23.5 -84zM162.005 65.002v-65h90v65h-90z" />
    <glyph glyph-name="at" unicode="@" horiz-adv-x="768" 
d="M627 134.5c14.667 25 22.001 64.168 22.001 117.501c0 71.333 -19.667 123.666 -59 156.999s-101.666 50 -186.999 50c-98 0 -169.833 -21 -215.5 -63s-68.5 -111.667 -68.5 -209c0 -94 23.667 -159.667 71 -197s113.666 -56 198.999 -56c73.333 0 131 6.33301 173 19
v-67c-50.667 -12 -107.667 -18 -171 -18c-104.667 0 -187.667 25.167 -249 75.5s-92 131.833 -92 244.5c0 114 30.167 198.667 90.5 254s147.833 83 262.5 83c103.333 0 181.666 -23.333 234.999 -70s80 -114.334 80 -203.001c0 -66.667 -14.667 -119 -44 -157
s-73.666 -57 -132.999 -57h-17c-38.667 -38.667 -92.334 -58 -161.001 -58c-45.333 0 -81.5 11.333 -108.5 34s-40.5 53.334 -40.5 92.001c0 39.333 12.333 71.833 37 97.5s62.667 38.5 114 38.5h127v20c0 24 -3 42.167 -9 54.5s-16.5 21 -31.5 26s-37.167 7.5 -66.5 7.5
c-43.333 0 -84.333 -6.66699 -123 -20v54c34 14.667 80 22 138 22c52.667 0 91.5 -11.5 116.5 -34.5s37.5 -59.167 37.5 -108.5v-166c34 0 58.333 12.5 73 37.5zM375.001 187.001c-36.667 0 -62 -6.83301 -76 -20.5s-21 -34.167 -21 -61.5c0 -25.333 7.33301 -43.5 22 -54.5
s38 -16.5 70 -16.5c55.333 0 96 17 122 51v102h-117z" />
    <glyph glyph-name="A" unicode="A" horiz-adv-x="685" 
d="M135 0h-85l245 644h96l244 -644h-84l-68 177h-280zM217 242h251l-126 331z" />
    <glyph glyph-name="B" unicode="B" horiz-adv-x="627" 
d="M384 0l-314 0.000976562v644h298c122.667 0 184 -56.667 184 -170c0 -34.667 -7 -63.834 -21 -87.501s-34 -41.834 -60 -54.501c70.667 -17.333 106 -66.666 106 -147.999c0 -122.667 -64.333 -184 -193 -184zM447.5 554.001c-18.333 18 -51.5 27 -99.5 27h-196v-219h211
c74.667 0 112 35.333 112 106c0 39.333 -9.16699 68 -27.5 86zM465 91.001c20 19.333 30.001 51.333 30.001 96c0 38.667 -10.333 67.167 -31 85.5s-56.334 27.5 -107.001 27.5h-205v-238h218c43.333 0 75 9.66699 95 29z" />
    <glyph glyph-name="C" unicode="C" horiz-adv-x="595" 
d="M545 89v-73c-56 -17.333 -118 -26 -186 -26c-101.333 0 -178.166 28.333 -230.499 85s-78.5 134.334 -78.5 233.001c0 109.333 25.167 194.333 75.5 255s127.833 91 232.5 91c68.667 0 131 -10 187 -30v-72c-56.667 21.333 -116.667 32 -180 32
c-83.333 0 -143 -23.333 -179 -70s-54 -115.334 -54 -206.001c0 -165.333 78.333 -248 235 -248c67.333 0 126.666 9.66699 177.999 29z" />
    <glyph glyph-name="D" unicode="D" horiz-adv-x="642" 
d="M528 76c-42.667 -50.667 -111.333 -75.999 -206 -75.999h-252v644h252c94 0 162.5 -25.5 205.5 -76.5s64.5 -134.167 64.5 -249.5c0 -110.667 -21.333 -191.334 -64 -242.001zM490.001 476.501c-13.333 37.667 -34.5 64.167 -63.5 79.5s-68.833 23 -119.5 23h-155v-515
h155c48 0 86.5 7 115.5 21s50.833 39.333 65.5 76s22 89 22 157s-6.66699 120.833 -20 158.5z" />
    <glyph glyph-name="E" unicode="E" horiz-adv-x="555" 
d="M70 644h435v-65h-353v-225h317v-64h-317v-226h353v-64h-435v644z" />
    <glyph glyph-name="F" unicode="F" horiz-adv-x="522" 
d="M70 644h422v-65h-340v-225h303v-64h-303v-290h-82v644z" />
    <glyph glyph-name="G" unicode="G" horiz-adv-x="639" 
d="M518 86l-0.000976562 205h-172v56h243v-306c-53.333 -34 -130 -51 -230 -51c-101.333 0 -178.166 28.333 -230.499 85s-78.5 134.334 -78.5 233.001c0 109.333 25.167 194.333 75.5 255s127.833 91 232.5 91c68.667 0 131 -10 187 -30v-72
c-56.667 21.333 -116.667 32 -180 32c-83.333 0 -143 -23.333 -179 -70s-54 -115.334 -54 -206.001c0 -81.333 18.667 -143 56 -185s96 -63 176 -63c58 0 109.333 8.66699 154 26z" />
    <glyph glyph-name="H" unicode="H" horiz-adv-x="644" 
d="M492 290h-340v-290h-82v644h82v-290h340v290h82v-644h-82v290z" />
    <glyph glyph-name="I" unicode="I" horiz-adv-x="222" 
d="M70 644h82v-644h-82v644z" />
    <glyph glyph-name="J" unicode="J" horiz-adv-x="427" 
d="M312.5 38.5c-33 -32.333 -82.167 -48.501 -147.5 -48.501c-51.333 0 -96.333 7.66699 -135 23v70c16 -7.33301 35.5 -13.166 58.5 -17.499s45.167 -6.5 66.5 -6.5c46 0 78.333 9.66699 97 29s28 51 28 95v461h82v-467c0 -60 -16.5 -106.167 -49.5 -138.5z" />
    <glyph glyph-name="K" unicode="K" horiz-adv-x="607" 
d="M557 0h-88l-212 333l-105 -111v-222h-82v644h82v-319l301 319h96l-240 -258z" />
    <glyph glyph-name="L" unicode="L" horiz-adv-x="525" 
d="M495 64v-64h-425v644h82v-580h343z" />
    <glyph glyph-name="M" unicode="M" horiz-adv-x="752" 
d="M151 516v-516h-81v644h88l218 -447l218 447h88v-644h-81v516l-197 -404h-55z" />
    <glyph glyph-name="N" unicode="N" horiz-adv-x="663" 
d="M152 0h-82v644h74l367 -518v518h82v-644h-75l-366 517v-517z" />
    <glyph glyph-name="O" unicode="O" horiz-adv-x="694" 
d="M571.5 70c-48.333 -53.333 -123.166 -80 -224.499 -80s-176.166 26.667 -224.499 80s-72.5 137.333 -72.5 252s24.167 198.667 72.5 252s123.166 80 224.499 80s176.166 -26.667 224.499 -80s72.5 -137.333 72.5 -252s-24.167 -198.667 -72.5 -252zM539 475.5
c-15.333 38.333 -38.666 66 -69.999 83s-72 25.5 -122 25.5s-90.667 -8.5 -122 -25.5s-54.666 -44.667 -69.999 -83s-23 -89.5 -23 -153.5s7.66699 -115.167 23 -153.5s38.666 -66 69.999 -83s72 -25.5 122 -25.5s90.667 8.5 122 25.5s54.666 44.667 69.999 83
s23 89.5 23 153.5s-7.66699 115.167 -23 153.5z" />
    <glyph glyph-name="P" unicode="P" horiz-adv-x="582" 
d="M494.5 287.5c-38.333 -36.333 -90.499 -54.5 -156.499 -54.5h-186v-233h-82v644h272c69.333 0 121.666 -18.833 156.999 -56.5s53 -88.167 53 -151.5c0 -62.667 -19.167 -112.167 -57.5 -148.5zM433.001 334c24.667 24.667 37 58.667 37 102c0 46 -11.667 81.333 -35 106
s-58.333 37 -105 37h-178v-282h173c47.333 0 83.333 12.333 108 37z" />
    <glyph glyph-name="Q" unicode="Q" horiz-adv-x="694" 
d="M580 80c-42.667 -53.333 -108.331 -83.001 -196.998 -89.001c0.666992 -35.333 6.16699 -59.666 16.5 -72.999s29.5 -20 57.5 -20c24 0 47.667 3.33301 71 10v-69c-26.667 -7.33301 -55.667 -11 -87 -11c-90 0 -136 54.667 -138 164c-86 7.33301 -149.667 37.5 -191 90.5
s-62 132.833 -62 239.5c0 114.667 24.167 198.667 72.5 252s123.166 80 224.499 80s176.166 -26.667 224.499 -80s72.5 -137.333 72.5 -252c0 -108 -21.333 -188.667 -64 -242zM539.003 475.499c-15.333 38.333 -38.666 66 -69.999 83s-72 25.5 -122 25.5
s-90.667 -8.5 -122 -25.5s-54.666 -44.667 -69.999 -83s-23 -89.5 -23 -153.5s7.66699 -115.167 23 -153.5s38.666 -66 69.999 -83s72 -25.5 122 -25.5s90.667 8.5 122 25.5s54.666 44.667 69.999 83s23 89.5 23 153.5s-7.66699 115.167 -23 153.5z" />
    <glyph glyph-name="R" unicode="R" horiz-adv-x="602" 
d="M517 325.5c-23.333 -31 -57.335 -51.833 -102.002 -62.5c12.667 -7.33301 22.334 -15.833 29.001 -25.5s14.334 -24.167 23.001 -43.5l84 -194h-84l-82 187c-9.33301 21.333 -20.5 36 -33.5 44s-34.167 12 -63.5 12h-136v-243h-82v644h283
c67.333 0 117.333 -17.5 150 -52.5s49 -84.167 49 -147.5c0 -48 -11.667 -87.5 -35 -118.5zM469.998 444c0 90 -43 135 -129 135h-189v-272h178c93.333 0 140 45.667 140 137z" />
    <glyph glyph-name="S" unicode="S" horiz-adv-x="556" 
d="M443.5 36c-41.667 -30.667 -103.166 -45.9971 -184.499 -45.9971c-80 0 -144.667 10 -194 30v73c58.667 -22 121 -33 187 -33c59.333 0 102.833 8 130.5 24s41.5 44 41.5 84c0 24.667 -5.83301 44.5 -17.5 59.5s-30 27.667 -55 38s-61.5 21.166 -109.5 32.499
c-70.667 17.333 -120.334 39.666 -149.001 66.999s-43 64.666 -43 111.999c0 56 20.167 99.5 60.5 130.5s99.833 46.5 178.5 46.5c34.667 0 68.167 -2.5 100.5 -7.5s58.166 -10.833 77.499 -17.5v-72c-50.667 18 -105.667 27 -165 27c-56.667 0 -99.167 -8.33301 -127.5 -25
s-42.5 -44 -42.5 -82c0 -22 5 -39.667 15 -53s26.833 -24.833 50.5 -34.5s58.834 -20.167 105.501 -31.5c75.333 -18 128 -42.167 158 -72.5s45 -69.5 45 -117.5c0 -57.333 -20.833 -101.333 -62.5 -132z" />
    <glyph glyph-name="T" unicode="T" horiz-adv-x="570" 
d="M326 0h-82v579h-214v65h510v-65h-214v-579z" />
    <glyph glyph-name="U" unicode="U" horiz-adv-x="671" 
d="M475.5 104c32.333 29.333 48.498 73 48.498 131v409h82v-408c0 -80 -23.167 -141 -69.5 -183s-113.166 -63 -200.499 -63c-88 0 -155.167 21 -201.5 63s-69.5 103 -69.5 183v408h82v-409c0 -58 16.333 -101.667 49 -131s79.334 -44 140.001 -44s107.167 14.667 139.5 44z
" />
    <glyph glyph-name="V" unicode="V" horiz-adv-x="685" 
d="M635 644l-244 -644h-96l-245 644h85l207 -561l208 561h85z" />
    <glyph glyph-name="W" unicode="W" horiz-adv-x="861" 
d="M288 0h-88l-150 644h81l121 -530l139 459v71h67l150 -530l123 530h80l-149 -644h-87l-140 490z" />
    <glyph glyph-name="X" unicode="X" horiz-adv-x="652" 
d="M326 257l-181 -257h-95l227 320l-224 324h94l179 -263l179 263h94l-224 -324l227 -320h-95z" />
    <glyph glyph-name="Y" unicode="Y" horiz-adv-x="642" 
d="M280 240l-230 404h85l186 -334l186 334h85l-230 -404v-240h-82v240z" />
    <glyph glyph-name="Z" unicode="Z" horiz-adv-x="572" 
d="M50 46l368 533h-351v65h455v-51l-365 -529h370v-64h-477v46z" />
    <glyph glyph-name="bracketleft" unicode="[" horiz-adv-x="344" 
d="M50 706h251l3 -65h-172v-676h172l-3 -64h-251v805z" />
    <glyph glyph-name="backslash" unicode="\" horiz-adv-x="436" 
d="M50 662h84l252 -716h-83z" />
    <glyph glyph-name="bracketright" unicode="]" horiz-adv-x="344" 
d="M40 -35h172v676h-172l3 65h251v-805h-251z" />
    <glyph glyph-name="asciicircum" unicode="^" horiz-adv-x="459" 
d="M332 392l-102 172l-102 -172h-78l147 232h63l149 -232h-77z" />
    <glyph glyph-name="underscore" unicode="_" horiz-adv-x="549" 
d="M499 -64h-449v64h449v-64z" />
    <glyph glyph-name="grave" unicode="`" horiz-adv-x="245" 
d="M50 690h74l71 -168h-66z" />
    <glyph glyph-name="a" unicode="a" horiz-adv-x="541" 
d="M401 54c-20.667 -22 -45.832 -38.166 -75.499 -48.499s-65.834 -15.5 -108.501 -15.5c-48 0 -87.833 12.333 -119.5 37s-47.5 60 -47.5 106s15 82.167 45 108.5s76 39.5 138 39.5h165v29c0 26.667 -3.66699 47.5 -11 62.5s-20.666 25.833 -39.999 32.5s-47.333 10 -84 10
c-55.333 0 -108 -8.66699 -158 -26v68c47.333 18 103.666 27 168.999 27c68 0 118.667 -13.833 152 -41.5s50 -71.834 50 -132.501v-310h-69zM235.002 218.001c-36.667 0 -63.166 -6.83301 -79.499 -20.5s-24.5 -35.167 -24.5 -64.5c0 -27.333 9 -46.833 27 -58.5
s44.667 -17.5 80 -17.5c67.333 0 120.666 23 159.999 69v92h-163z" />
    <glyph glyph-name="b" unicode="b" horiz-adv-x="575" 
d="M469 52.5c-37.333 -41.667 -90.001 -62.501 -158.001 -62.501c-35.333 0 -66.166 4.83301 -92.499 14.5s-50.5 24.834 -72.5 45.501l-6 -50h-70v674h82v-235c43.333 30 96 45 158 45c143.333 0 215 -81 215 -243c0 -84 -18.667 -146.833 -56 -188.5zM151.999 370.999
l-0.00195312 -257.999c35.333 -38 81.333 -57 138 -57c54.667 0 93.834 15 117.501 45s35.5 76.667 35.5 140s-12.333 108.666 -37 135.999s-64 41 -118 41c-55.333 0 -100.666 -15.667 -135.999 -47z" />
    <glyph glyph-name="c" unicode="c" horiz-adv-x="490" 
d="M294 -10c-81.333 0 -142.334 21.166 -183.001 63.499s-61 103.5 -61 183.5c0 81.333 22.167 142.833 66.5 184.5s105.833 62.5 184.5 62.5c30 0 55.333 -2.16699 76 -6.5s41.334 -11.166 62.001 -20.499v-65c-36 17.333 -77 26 -123 26
c-60.667 0 -106.5 -14.333 -137.5 -43s-46.5 -74.667 -46.5 -138s14 -109.333 42 -138s74.333 -43 139 -43c46 0 88.333 8.66699 127 26v-66c-42 -17.333 -90.667 -26 -146 -26z" />
    <glyph glyph-name="d" unicode="d" horiz-adv-x="575" 
d="M108 419.5c38.667 43 92.3301 64.501 160.997 64.501c30.667 0 58.334 -3.66699 83.001 -11s48.334 -18.666 71.001 -33.999v235h82v-674h-70l-6 50c-22 -20.667 -46.167 -35.834 -72.5 -45.501s-57.166 -14.5 -92.499 -14.5c-69.333 0 -122.333 19.167 -159 57.5
s-55 99.166 -55 182.499s19.333 146.5 58 189.5zM169.496 372.501c-25 -30.333 -37.5 -77.833 -37.5 -142.5c0 -62 11.667 -106.5 35 -133.5s62.666 -40.5 117.999 -40.5c56.667 0 102.667 19 138 57v258c-35.333 31.333 -80.666 47 -135.999 47
c-53.333 0 -92.5 -15.167 -117.5 -45.5z" />
    <glyph glyph-name="e" unicode="e" horiz-adv-x="533" 
d="M155.5 113.5c13 -20.333 32.499 -35.001 58.499 -44.001s61 -13.5 105 -13.5c48.667 0 93.334 8.33301 134.001 25v-64c-40.667 -18 -90.667 -27 -150 -27c-84.667 0 -148 20.333 -190 61s-63 103.334 -63 188.001c0 78 18.667 138.333 56 181s94.333 64 171 64
c67.333 0 118.5 -18 153.5 -54s52.5 -83.333 52.5 -142v-89h-351c2.66699 -36.667 10.5 -65.167 23.5 -85.5zM164.499 379.499c-21.667 -25.667 -32.499 -66.167 -32.499 -121.5h278v39c0 39.333 -10.5 69.333 -31.5 90s-54.167 31 -99.5 31
c-54.667 0 -92.834 -12.833 -114.501 -38.5z" />
    <glyph glyph-name="f" unicode="f" horiz-adv-x="346" 
d="M336 675l-0.000976562 -62c-20.667 7.33301 -42.667 11 -66 11c-33.333 0 -56.166 -6 -68.499 -18s-18.5 -33 -18.5 -63v-69h128l-4 -65h-124v-409h-82v409h-71v65h71v69c0 46 12.667 82 38 108s62 39 110 39c31.333 0 60.333 -5 87 -15z" />
    <glyph glyph-name="g" unicode="g" horiz-adv-x="547" 
d="M376.5 -18c-12.333 7.33301 -34.166 11.002 -65.499 11.002h-126c-43.333 0 -76 7.5 -98 22.5s-33 36.833 -33 65.5c0 20.667 6.33301 39.5 19 56.5s31 29.167 55 36.5c-52 25.333 -78 72 -78 140c0 58.667 17 101.667 51 129s86.667 41 158 41
c24.667 0 52 -3.33301 82 -10h171l-3 -56h-86c28.667 -24.667 43 -59.334 43 -104.001c0 -53.333 -15.5 -94.333 -46.5 -123s-77.833 -43 -140.5 -43c-14 0 -33.333 1.66699 -58 5c-22 -1.33301 -41.667 -7.5 -59 -18.5s-26 -24.833 -26 -41.5c0 -12 4.66699 -20.5 14 -25.5
s25.666 -7.5 48.999 -7.5h131c47.333 0 83.666 -9.66699 108.999 -29s38 -47 38 -83c0 -44.667 -18.5 -76.5 -55.5 -95.5s-92.833 -28.5 -167.5 -28.5c-79.333 0 -142.666 8.33301 -189.999 25v68c26 -8.66699 55.5 -15.334 88.5 -20.001s65.5 -7 97.5 -7
c36.667 0 65 1.33301 85 4s35 7.83398 45 15.501s15 19.5 15 35.5c0 17.333 -6.16699 29.666 -18.5 36.999zM356.5 233.002c18.333 15.333 27.5 42.333 27.5 81s-9.5 66.667 -28.5 84s-51.167 26 -96.5 26c-44.667 0 -77 -8.5 -97 -25.5s-30 -45.167 -30 -84.5
c0 -37.333 9.66699 -64 29 -80s52 -24 98 -24c46.667 0 79.167 7.66699 97.5 23z" />
    <glyph glyph-name="h" unicode="h" horiz-adv-x="570" 
d="M423 0v306.999c0 40.667 -9 69.334 -27 86.001s-48.333 25 -91 25c-26.667 0 -54.167 -5.83301 -82.5 -17.5s-51.833 -26.834 -70.5 -45.501v-355h-82v674h82v-251c50 40.667 110.333 61 181 61c58 0 101.167 -14.167 129.5 -42.5s42.5 -72.166 42.5 -131.499v-310h-82z
" />
    <glyph glyph-name="i" unicode="i" horiz-adv-x="296" 
d="M135 585v75h91v-75h-91zM225 0h-82v409h-73l8 65h147v-474z" />
    <glyph glyph-name="j" unicode="j" horiz-adv-x="294" 
d="M133 585v75h91v-75h-91zM186.5 -196.5c-25 -25 -60.833 -37.501 -107.5 -37.501c-33.333 0 -63 4.66699 -89 14v65c20.667 -6.66699 41 -10 61 -10c35.333 0 59.333 5.83301 72 17.5s19 31.834 19 60.501v496h-73l8 65h147v-568c0 -43.333 -12.5 -77.5 -37.5 -102.5z" />
    <glyph glyph-name="k" unicode="k" horiz-adv-x="530" 
d="M480 0h-86l-171 242l-71 -67v-175h-82v674h82v-409l222 209h95l-194 -188z" />
    <glyph glyph-name="l" unicode="l" horiz-adv-x="263" 
d="M152 674v-563c0 -19.333 3.16699 -32.833 9.5 -40.5s16.833 -11.5 31.5 -11.5c15.333 0 30.333 2 45 6v-65c-17.333 -6.66699 -39 -10 -65 -10c-33.333 0 -58.833 8.83301 -76.5 26.5s-26.5 46.167 -26.5 85.5v572h82z" />
    <glyph glyph-name="m" unicode="m" horiz-adv-x="855" 
d="M709 0l0.00195312 307.001c0 41.333 -8.66699 70.166 -26 86.499s-46 24.5 -86 24.5c-26.667 0 -51.834 -4.5 -75.501 -13.5s-43.5 -22.167 -59.5 -39.5c4 -16.667 6 -36 6 -58v-307h-77v305c0 41.333 -7 70.5 -21 87.5s-40 25.5 -78 25.5
c-25.333 0 -50.333 -5.5 -75 -16.5s-46.667 -25.833 -66 -44.5v-357h-81v474h74l5 -54c53.333 42.667 110.666 64 171.999 64c34 0 61 -5.5 81 -16.5s35 -27.167 45 -48.5c24.667 20.667 51.667 36.667 81 48s63.333 17 102 17c54 0 94.167 -13.833 120.5 -41.5
s39.5 -70.167 39.5 -127.5v-315h-81z" />
    <glyph glyph-name="n" unicode="n" horiz-adv-x="570" 
d="M423 0v307c0 28.667 -3.66699 50.834 -11 66.501s-19.5 27 -36.5 34s-41.5 10.5 -73.5 10.5c-29.333 0 -57 -5.33301 -83 -16s-48.333 -25.334 -67 -44.001v-358h-82v474h74l5 -54c52 42.667 113.333 64 184 64c60 0 103.667 -14 131 -42s41 -72 41 -132v-310h-82z" />
    <glyph glyph-name="o" unicode="o" horiz-adv-x="574" 
d="M524 237c0 -82 -19.1689 -143.667 -57.502 -185s-98.166 -62 -179.499 -62s-141.166 20.667 -179.499 62s-57.5 103 -57.5 185c0 164.667 79 247 237 247s237 -82.333 237 -247zM406.498 102c23.667 28 35.5 73 35.5 135s-12 107 -36 135s-63.667 42 -119 42
s-95 -14 -119 -42s-36 -73 -36 -135s11.833 -107 35.5 -135s63.5 -42 119.5 -42s95.833 14 119.5 42z" />
    <glyph glyph-name="p" unicode="p" horiz-adv-x="575" 
d="M469 54c-37.333 -42.667 -90.332 -64.002 -158.999 -64.002c-62 0 -114.667 15 -158 45v-251h-82v690h70l6 -50c22 20.667 46.167 35.834 72.5 45.501s57.166 14.5 92.499 14.5c69.333 0 122.333 -19.167 159 -57.5s55 -99.166 55 -182.499
c0 -84 -18.667 -147.333 -56 -190zM405.501 101.498c25 30.333 37.5 77.833 37.5 142.5c0 62 -11.667 106.5 -35 133.5s-62.666 40.5 -117.999 40.5c-56.667 0 -102.667 -19 -138 -57v-258c35.333 -31.333 80.666 -47 135.999 -47c53.333 0 92.5 15.167 117.5 45.5z" />
    <glyph glyph-name="q" unicode="q" horiz-adv-x="611" 
d="M106.5 417.5c37.667 44.333 90.168 66.5 157.501 66.5c35.333 0 66.166 -4.83301 92.499 -14.5s50.5 -24.834 72.5 -45.501l6 50h70v-588c0 -22.667 3.66699 -38.167 11 -46.5s21.333 -12.5 42 -12.5c14 0 28.333 2 43 6v-65c-18 -6.66699 -39 -10 -63 -10
c-76.667 0 -115 41.333 -115 124v153c-43.333 -30 -96 -45 -158 -45c-70 0 -123.333 18.333 -160 55s-55 96.334 -55 179.001c0 84.667 18.833 149.167 56.5 193.5zM168.501 93c24.333 -24.667 63.834 -36.999 118.501 -36.999c55.333 0 100.666 15.667 135.999 47v258
c-35.333 38 -81.333 57 -138 57c-54 0 -93 -16.333 -117 -49s-36 -81 -36 -145c0 -62.667 12.167 -106.334 36.5 -131.001z" />
    <glyph glyph-name="r" unicode="r" horiz-adv-x="356" 
d="M150 414c23.333 15.333 50.832 29.333 82.499 42s62.834 22 93.501 28v-64c-29.333 -6 -60.833 -15.333 -94.5 -28s-60.167 -25.667 -79.5 -39v-353h-82v474h74z" />
    <glyph glyph-name="s" unicode="s" horiz-adv-x="457" 
d="M314 160.5c-7.33301 9 -17.8311 16.668 -31.498 23.001s-35.167 14.166 -64.5 23.499l-27 9c-33.333 11.333 -59.5 21.833 -78.5 31.5s-34.167 23 -45.5 40s-17 39.167 -17 66.5c0 42.667 15 75 45 97s77 33 141 33c49.333 0 94 -6.33301 134 -19v-72
c-42 14 -82.333 21 -121 21c-42.667 0 -72.834 -4.33301 -90.501 -13s-26.5 -24 -26.5 -46c0 -15.333 3.83301 -27.333 11.5 -36s18.667 -15.834 33 -21.501s39.5 -14.167 75.5 -25.5c39.333 -12 69.833 -24 91.5 -36s37.667 -26.667 48 -44s15.5 -39.666 15.5 -66.999
c0 -90 -62.667 -135 -188 -135c-30 0 -59 2 -87 6s-51.333 9.33301 -70 16v72c45.333 -16 94 -24 146 -24c43.333 0 73.666 4.5 90.999 13.5s26 25.833 26 50.5c0 15.333 -3.66699 27.5 -11 36.5z" />
    <glyph glyph-name="t" unicode="t" horiz-adv-x="358" 
d="M102 474v117l82 25v-142h131l-5 -65h-126v-273c0 -29.333 6.5 -50 19.5 -62s35.5 -18 67.5 -18c17.333 0 36.333 3.33301 57 10v-62c-24.667 -9.33301 -53 -14 -85 -14c-46 0 -81 12.333 -105 37s-36 59.667 -36 105v277h-72v65h72z" />
    <glyph glyph-name="u" unicode="u" horiz-adv-x="570" 
d="M147 474v-303.001c0 -39.333 9.83301 -68.333 29.5 -87s50.167 -28 91.5 -28c29.333 0 57 5.33301 83 16s48.333 25.334 67 44.001v358h82v-474h-74l-5 54c-24 -19.333 -51.833 -34.833 -83.5 -46.5s-65.167 -17.5 -100.5 -17.5c-56.667 0 -99.5 15.667 -128.5 47
s-43.5 77 -43.5 137v300h82z" />
    <glyph glyph-name="v" unicode="v" horiz-adv-x="564" 
d="M50 474h85l147 -398l147 398h85l-186 -474h-92z" />
    <glyph glyph-name="w" unicode="w" horiz-adv-x="736" 
d="M369 344l-113 -344h-82l-124 474h82l93 -381l106 326v55h63l117 -381l93 381h82l-124 -474h-82z" />
    <glyph glyph-name="x" unicode="x" horiz-adv-x="549" 
d="M274 185l-135 -185h-89l180 241l-174 233h89l129 -177l130 177h88l-172 -233l179 -241h-89z" />
    <glyph glyph-name="y" unicode="y" horiz-adv-x="584" 
d="M135 474l164.999 -382l170 382h84l-199 -453c-19.333 -44.667 -37.333 -80.667 -54 -108s-36.5 -49 -59.5 -65s-50.5 -24 -82.5 -24c-31.333 0 -58.666 4.33301 -81.999 13v66c18.667 -6.66699 39 -10 61 -10s39.5 3.83301 52.5 11.5s24.167 18.667 33.5 33
s21 36.833 35 67.5l-209 469h85z" />
    <glyph glyph-name="z" unicode="z" horiz-adv-x="485" 
d="M50 45l279 364h-266v65h365v-51l-275 -359h282v-64h-385v45z" />
    <glyph glyph-name="braceleft" unicode="{" horiz-adv-x="296" 
d="M83.5 243c-9 15.333 -26.833 24.668 -53.5 28.001v54c26.667 3.33301 44.5 12.666 53.5 27.999s13.5 39.333 13.5 72v171c0 38 8.33301 64.833 25 80.5s45 23.5 85 23.5h49v-65h-34c-16.667 0 -28 -3.16699 -34 -9.5s-9 -18.833 -9 -37.5v-197
c0 -20.667 -4.66699 -39.667 -14 -57s-24 -29.333 -44 -36c20 -6.66699 34.667 -18.5 44 -35.5s14 -35.833 14 -56.5v-198c0 -18.667 3 -31.167 9 -37.5s17.333 -9.5 34 -9.5h34v-65h-49c-40 0 -68.333 7.83301 -85 23.5s-25 42.5 -25 80.5v171
c0 32.667 -4.5 56.667 -13.5 72z" />
    <glyph glyph-name="bar" unicode="|" horiz-adv-x="182" 
d="M50 735h82v-855h-82v855z" />
    <glyph glyph-name="braceright" unicode="}" horiz-adv-x="296" 
d="M174 -80.5c-16.667 -15.667 -45 -23.502 -85 -23.502h-49v65h34c16.667 0 28 3.16699 34 9.5s9 18.833 9 37.5v198c0 20.667 4.66699 39.5 14 56.5s24 28.833 44 35.5c-20 6.66699 -34.667 18.667 -44 36s-14 36.333 -14 57v197c0 18.667 -3 31.167 -9 37.5
s-17.333 9.5 -34 9.5h-34v65h49c40 0 68.333 -7.83301 85 -23.5s25 -42.5 25 -80.5v-171c0 -32.667 4.5 -56.667 13.5 -72s26.833 -24.666 53.5 -27.999v-54c-26.667 -3.33301 -44.5 -12.666 -53.5 -27.999s-13.5 -39.333 -13.5 -72v-171c0 -38 -8.33301 -64.833 -25 -80.5z
" />
    <glyph glyph-name="asciitilde" unicode="~" horiz-adv-x="572" 
d="M470.5 318.5c17.667 9.66699 34.833 24.834 51.5 45.501v-83c-11.333 -16 -27.333 -28.667 -48 -38s-43.334 -14 -68.001 -14c-18 0 -35.667 3 -53 9s-39.666 15 -66.999 27c-28 12 -50.333 20.833 -67 26.5s-33.667 8.5 -51 8.5c-25.333 0 -47.333 -4.83301 -66 -14.5
s-36 -24.834 -52 -45.501v83c11.333 16 27.666 28.667 48.999 38s44.333 14 69 14c21.333 0 41.333 -3 60 -9s41.334 -15.333 68.001 -28c22 -11.333 41.5 -19.833 58.5 -25.5s34.167 -8.5 51.5 -8.5c25.333 0 46.833 4.83301 64.5 14.5z" />
    <glyph glyph-name="uni00A0" unicode="&#xa0;" horiz-adv-x="380" 
 />
    <glyph glyph-name="exclamdown" unicode="&#xa1;" horiz-adv-x="190" 
d="M50 555v65h90v-65h-90zM136 133l-6 333h-70l-6 -333v-157h82v157z" />
    <glyph glyph-name="cent" unicode="&#xa2;" horiz-adv-x="490" 
d="M264 -9c-71.333 4.66699 -124.833 27.998 -160.5 69.998s-53.5 100.667 -53.5 176c0 74 18.667 131.667 56 173s90 65.333 158 72v78h62v-77c22.667 -0.666992 42.667 -3.16699 60 -7.5s35 -10.5 53 -18.5v-65c-34 16.667 -71.667 25.334 -113 26.001v-362
c40 1.33301 78 10 114 26v-66c-32 -13.333 -70 -21.666 -114 -24.999v-77h-62v77zM163 111.498c20.667 -28.333 54.332 -45.834 100.999 -52.501v355c-43.333 -7.33301 -76.166 -25.333 -98.499 -54s-33.5 -69.667 -33.5 -123c0 -55.333 10.333 -97.166 31 -125.499z" />
    <glyph glyph-name="sterling" unicode="&#xa3;" horiz-adv-x="503" 
d="M453 0l-403 -0.000976562v65h26c39.333 0 59 23.667 59 71v173h-70v65h70v123c0 48.667 15.833 87 47.5 115s72.5 42 122.5 42c46.667 0 83.667 -6.33301 111 -19v-63c-9.33301 4.66699 -22.333 8.5 -39 11.5s-32.667 4.5 -48 4.5c-38 0 -66.167 -7.33301 -84.5 -22
s-27.5 -39 -27.5 -73v-119h198l-3 -65h-195v-169c0 -18 -2 -33.167 -6 -45.5s-11 -22.166 -21 -29.499h263v-65z" />
    <glyph glyph-name="currency" unicode="&#xa4;" horiz-adv-x="573" 
d="M287 84c-42.667 0 -80.999 13.667 -114.999 41l-84 -65l-38 47l83 62c-21.333 28.667 -32 62 -32 100c0 38.667 10.667 71.667 32 99l-82 63l37 46l84 -66c32 28 70 42 114 42c43.333 0 81.666 -14 114.999 -42l85 66l37 -46l-83 -63c22 -30 33 -63 33 -99
c0 -35.333 -11 -69 -33 -101l83 -62l-37 -46l-85 65c-32.667 -27.333 -70.667 -41 -114 -41zM199.501 357.5c-23.667 -24.333 -35.5 -53.833 -35.5 -88.5s11.833 -64.167 35.5 -88.5s52.5 -36.5 86.5 -36.5c34.667 0 64 12.167 88 36.5s36 53.833 36 88.5
c0 22.667 -5.66699 43.5 -17 62.5s-26.5 34.167 -45.5 45.5s-39.5 17 -61.5 17c-34 0 -62.833 -12.167 -86.5 -36.5z" />
    <glyph glyph-name="yen" unicode="&#xa5;" horiz-adv-x="642" 
d="M280 205h-157v57h144l-217 382h85l186 -334l186 334h85l-218 -382h145v-57h-157v-52h157v-57h-157v-96h-82v96h-157v57h157v52z" />
    <glyph glyph-name="brokenbar" unicode="&#xa6;" horiz-adv-x="182" 
d="M50 735h82v-311h-82v311zM50 190h82v-310h-82v310z" />
    <glyph glyph-name="section" unicode="&#xa7;" horiz-adv-x="556" 
d="M110 719.5c40 30.333 99.668 45.502 179.001 45.502c34.667 0 68.167 -2.5 100.5 -7.5s58.166 -10.833 77.499 -17.5v-72c-50.667 18 -105.667 27 -165 27c-56.667 0 -99.167 -8.33301 -127.5 -25s-42.5 -44 -42.5 -82c0 -22 5.16699 -40 15.5 -54s27.5 -26 51.5 -36
s58.667 -20.333 104 -31c54 -13.333 95.5 -27 124.5 -41s49.333 -30 61 -48s17.5 -40.667 17.5 -68c0 -10.667 -1.66699 -23 -5 -37s-7.33301 -26 -12 -36c11.333 -20.667 17 -44.334 17 -71.001c0 -56.667 -21.333 -100.167 -64 -130.5s-103.667 -45.5 -183 -45.5
c-80 0 -144.667 10 -194 30v73c58.667 -22 121 -33 187 -33c58 0 101.167 8.16699 129.5 24.5s42.5 44.166 42.5 83.499c0 24 -6.33301 43.5 -19 58.5s-31.5 27.167 -56.5 36.5s-61.167 20 -108.5 32c-48 12.667 -85.5 26 -112.5 40s-46.667 30.5 -59 49.5
s-18.5 42.833 -18.5 71.5c0 24.667 6 46.334 18 65.001c-12 20.667 -18 44 -18 70c0 55.333 20 98.166 60 128.499zM140.501 406.502c9 -9.66699 23.668 -18.1641 44.001 -25.4971s51.833 -16.333 94.5 -27c76 -18.667 126.333 -42 151 -70c3.33301 10 5 19 5 27
c0 17.333 -4.83301 31.166 -14.5 41.499s-25.667 19.666 -48 27.999s-56.833 18.5 -103.5 30.5c-38.667 10 -68.334 19.167 -89.001 27.5s-36.667 18.5 -48 30.5c-3.33301 -8 -5 -15.667 -5 -23c0 -16.667 4.5 -29.834 13.5 -39.501z" />
    <glyph glyph-name="dieresis" unicode="&#xa8;" horiz-adv-x="354" 
d="M50 636h78v-75h-78v75zM226 636h78v-75h-78v75z" />
    <glyph glyph-name="copyright" unicode="&#xa9;" horiz-adv-x="764" 
d="M94.5 488.5c29.667 51 70 91.333 121 121s106.5 44.5 166.5 44.5s115.5 -14.833 166.5 -44.5s91.333 -70 121 -121s44.5 -106.5 44.5 -166.5s-14.833 -115.5 -44.5 -166.5s-70 -91.333 -121 -121s-106.5 -44.5 -166.5 -44.5s-115.5 14.833 -166.5 44.5
s-91.333 70 -121 121s-44.5 106.5 -44.5 166.5s14.833 115.5 44.5 166.5zM148 182c23.333 -41.333 55.333 -73.666 96 -96.999s86.667 -35 138 -35s97.5 11.667 138.5 35s73.167 55.666 96.5 96.999s35 88 35 140c0 51.333 -11.667 97.666 -35 138.999
s-55.5 73.666 -96.5 96.999s-87.167 35 -138.5 35s-97.333 -11.667 -138 -35s-72.667 -55.666 -96 -96.999s-35 -87.666 -35 -138.999c0 -52 11.667 -98.667 35 -140zM455 99c-24 -5.33301 -48.667 -8.00098 -74 -8.00098c-70 0 -124.833 20.5 -164.5 61.5
s-59.5 97.167 -59.5 168.5c0 49.333 10.167 91.333 30.5 126s48 60.667 83 78s74.167 26 117.5 26c51.333 0 94.333 -10.333 129 -31v-54c-34 18 -72.667 27 -116 27c-118.667 0 -178 -57.333 -178 -172c0 -61.333 13.833 -105.5 41.5 -132.5s71.5 -40.5 131.5 -40.5
c20 0 41.167 2.66699 63.5 8s41.5 12.333 57.5 21v-56c-17.333 -9.33301 -38 -16.666 -62 -21.999z" />
    <glyph glyph-name="ordfeminine" unicode="&#xaa;" horiz-adv-x="347" 
d="M244 415c-12.667 -12 -26.833 -20.833 -42.5 -26.5s-34.5 -8.5 -56.5 -8.5c-28 0 -50.833 6.5 -68.5 19.5s-26.5 32.5 -26.5 58.5c0 57.333 35 86 105 86h87v12c0 20 -5 33.833 -15 41.5s-30 11.5 -60 11.5c-28.667 0 -56.334 -4.66699 -83.001 -14v44
c26.667 10 58.334 15 95.001 15c78.667 0 118 -32.333 118 -97v-171h-49zM163.001 504c-22 0 -37.501 -3.16699 -46.501 -9.5s-13.5 -17.833 -13.5 -34.5c0 -14 4.83301 -24 14.5 -30s23.834 -9 42.501 -9c18 0 33.5 3 46.5 9s24.833 15.667 35.5 29v45h-79z" />
    <glyph glyph-name="guillemotleft" unicode="&#xab;" horiz-adv-x="602" 
d="M304 80l-254 187v39l254 187l33 -48l-213 -159l213 -158zM519 80l-254 187v39l254 187l33 -48l-213 -159l213 -158z" />
    <glyph glyph-name="logicalnot" unicode="&#xac;" horiz-adv-x="531" 
d="M481 147h-67v156h-364v65h431v-221z" />
    <glyph glyph-name="uni00AD" unicode="&#xad;" horiz-adv-x="477" 
d="M427 236h-377v65h377v-65z" />
    <glyph glyph-name="registered" unicode="&#xae;" horiz-adv-x="764" 
d="M94.5 488.5c29.667 51 70 91.333 121 121s106.5 44.5 166.5 44.5s115.5 -14.833 166.5 -44.5s91.333 -70 121 -121s44.5 -106.5 44.5 -166.5s-14.833 -115.5 -44.5 -166.5s-70 -91.333 -121 -121s-106.5 -44.5 -166.5 -44.5s-115.5 14.833 -166.5 44.5
s-91.333 70 -121 121s-44.5 106.5 -44.5 166.5s14.833 115.5 44.5 166.5zM148 182c23.333 -41.333 55.333 -73.666 96 -96.999s86.667 -35 138 -35s97.5 11.667 138.5 35s73.167 55.666 96.5 96.999s35 88 35 140c0 51.333 -11.667 97.666 -35 138.999
s-55.5 73.666 -96.5 96.999s-87.167 35 -138.5 35s-97.333 -11.667 -138 -35s-72.667 -55.666 -96 -96.999s-35 -87.666 -35 -138.999c0 -52 11.667 -98.667 35 -140zM529.5 329.5c-17.667 -21.667 -42.167 -35.832 -73.5 -42.499c8.66699 -5.33301 15.5 -11.333 20.5 -18
s10.167 -16.334 15.5 -29.001l54 -128h-61l-55 129c-6 14 -13 22.833 -21 26.5s-24.333 5.5 -49 5.5h-70v-161h-62v426h188c44.667 0 79.167 -11.5 103.5 -34.5s36.5 -54.5 36.5 -94.5c0 -31.333 -8.83301 -57.833 -26.5 -79.5zM469.5 341.502c17 11 25.5 33.5 25.5 67.5
c0 30.667 -6.5 51.167 -19.5 61.5s-35.5 15.5 -67.5 15.5h-118v-161h98c37.333 0 64.5 5.5 81.5 16.5z" />
    <glyph glyph-name="macron" unicode="&#xaf;" horiz-adv-x="388" 
d="M338 565h-288v59h288v-59z" />
    <glyph glyph-name="degree" unicode="&#xb0;" horiz-adv-x="319" 
d="M82 689c21.333 20.667 47 30.9961 77 30.9961c30.667 0 56.667 -10.167 78 -30.5s32 -46.166 32 -77.499s-10.667 -57.166 -32 -77.499s-47.333 -30.5 -78 -30.5c-30 0 -55.667 10.333 -77 31s-32 46.334 -32 77.001s10.667 56.334 32 77.001zM120.5 572.496
c10.333 -10.333 23.166 -15.5 38.499 -15.5c16 0 29.333 5.16699 40 15.5s16 23.5 16 39.5c0 15.333 -5.33301 28.333 -16 39s-24 16 -40 16c-15.333 0 -28.166 -5.33301 -38.499 -16s-15.5 -23.667 -15.5 -39c0 -16 5.16699 -29.167 15.5 -39.5z" />
    <glyph glyph-name="plusminus" unicode="&#xb1;" horiz-adv-x="477" 
d="M272 108h-67v148h-155v65h155v154h67v-154h155v-65h-155v-148zM50 65h377v-65h-377v65z" />
    <glyph glyph-name="uni00B2" unicode="&#xb2;" horiz-adv-x="300" 
d="M50 402c8.66699 14.667 19.1699 28.167 31.5029 40.5s28.166 26.5 47.499 42.5c23.333 19.333 39.166 34.833 47.499 46.5s12.5 24.167 12.5 37.5c0 14 -4.33301 23.833 -13 29.5s-23.667 8.5 -45 8.5c-22 0 -46 -4.66699 -72 -14v47c29.333 9.33301 58.666 14 87.999 14
c31.333 0 56 -8 74 -24s27 -36.333 27 -61c0 -18.667 -4 -34 -12 -46s-23 -28.333 -45 -49c-8.66699 -8.66699 -17 -16 -25 -22c-16.667 -14 -28.667 -25.667 -36 -35h120v-47h-200v32z" />
    <glyph glyph-name="uni00B3" unicode="&#xb3;" horiz-adv-x="303" 
d="M133 362c-14.667 0 -30.001 1.1709 -46.001 3.50391s-28.333 5.16602 -37 8.49902v45c22 -8.66699 45.667 -13 71 -13c26 0 44.333 3.16699 55 9.5s16 17.166 16 32.499c0 14.667 -5.33301 25.167 -16 31.5s-27 9.5 -49 9.5h-37l3 41h31c22 0 37.833 3.33301 47.5 10
s14.5 17.667 14.5 33c0 13.333 -5 22.666 -15 27.999s-26.333 8 -49 8c-22 0 -44.333 -4 -67 -12v45c9.33301 3.33301 21.5 6.16602 36.5 8.49902s29.5 3.5 43.5 3.5c74.667 0 112 -26 112 -78c0 -15.333 -3.66699 -29 -11 -41s-18.666 -20.667 -33.999 -26
c34 -7.33301 51 -28.333 51 -63c0 -56 -40 -84 -120 -84z" />
    <glyph glyph-name="acute" unicode="&#xb4;" horiz-adv-x="245" 
d="M121 690h74l-79 -168h-66z" />
    <glyph glyph-name="paragraph" unicode="&#xb6;" horiz-adv-x="628" 
d="M578 -77h-82v723h-100v-723h-82v330c-82 0 -146.5 17 -193.5 51s-70.5 91.667 -70.5 173c0 80.667 23.333 139.667 70 177s111 56 193 56h265v-787z" />
    <glyph glyph-name="periodcentered" unicode="&#xb7;" horiz-adv-x="174" 
d="M50 319h74v-69h-74v69z" />
    <glyph glyph-name="cedilla" unicode="&#xb8;" horiz-adv-x="313" 
d="M120 -240c-10.667 0 -23 0.833984 -37 2.50098s-25 3.5 -33 5.5v50c19.333 -5.33301 40.333 -8 63 -8c32 0 55 3.83301 69 11.5s21 21.5 21 41.5c0 18.667 -6.5 31 -19.5 37s-34.833 9 -65.5 9h-37l29 91h58l-16 -48c36 0 63.5 -7.83301 82.5 -23.5
s28.5 -37.834 28.5 -66.501c0 -68 -47.667 -102 -143 -102z" />
    <glyph glyph-name="uni00B9" unicode="&#xb9;" horiz-adv-x="212" 
d="M124 598l-74 -16v46l132 26v-284h-58v228z" />
    <glyph glyph-name="ordmasculine" unicode="&#xba;" horiz-adv-x="365" 
d="M281.5 619c22.333 -23.333 33.5 -57.333 33.5 -102c0 -91.333 -44.333 -137 -133 -137c-88 0 -132 45.667 -132 137c0 44.667 11 78.667 33 102s55 35 99 35s77.167 -11.667 99.5 -35zM241.5 447c11.667 15.333 17.5 38.666 17.5 69.999s-6 54.5 -18 69.5
s-31.667 22.5 -59 22.5s-47 -7.66699 -59 -23s-18 -38.333 -18 -69c0 -31.333 5.83301 -54.666 17.5 -69.999s31.5 -23 59.5 -23s47.833 7.66699 59.5 23z" />
    <glyph glyph-name="guillemotright" unicode="&#xbb;" horiz-adv-x="602" 
d="M50 445l33 48l254 -187v-39l-254 -187l-33 48l213 158zM265 445l33 48l254 -187v-39l-254 -187l-33 48l213 158z" />
    <glyph glyph-name="onequarter" unicode="&#xbc;" horiz-adv-x="632" 
d="M124 598l-74 -16v46l132 26v-284h-58v228zM442 644h77l-342 -644h-77zM551 0h-57v58h-150v43l143 183h64v-183h31v-43h-31v-58zM400 102h105v136z" />
    <glyph glyph-name="onehalf" unicode="&#xbd;" horiz-adv-x="630" 
d="M124 598l-74 -16v46l132 26v-284h-58v228zM442 644h77l-342 -644h-77zM380 32c8.66699 14.667 19.1699 28.167 31.5029 40.5s28.166 26.5 47.499 42.5c23.333 19.333 39.166 34.833 47.499 46.5s12.5 24.167 12.5 37.5c0 14 -4.33301 23.833 -13 29.5
s-23.667 8.5 -45 8.5c-22 0 -46 -4.66699 -72 -14v47c29.333 9.33301 58.666 14 87.999 14c31.333 0 56 -8 74 -24s27 -36.333 27 -61c0 -18.667 -4 -34 -12 -46s-23 -28.333 -45 -49c-8.66699 -8.66699 -17 -16 -25 -22c-16.667 -14 -28.667 -25.667 -36 -35h120v-47h-200
v32z" />
    <glyph glyph-name="threequarters" unicode="&#xbe;" horiz-adv-x="641" 
d="M133 362c-14.667 0 -30.001 1.16797 -46.001 3.50098s-28.333 5.16602 -37 8.49902v43c22 -8.66699 45.667 -13 71 -13c26 0 44.333 3.5 55 10.5s16 18.167 16 33.5c0 14.667 -5.33301 25.334 -16 32.001s-27 10 -49 10h-37l3 39h31c21.333 0 37 3.5 47 10.5
s15 18.167 15 33.5c0 13.333 -5.16699 23 -15.5 29s-26.5 9 -48.5 9s-44.333 -4 -67 -12v43c9.33301 3.33301 21.5 6.16602 36.5 8.49902s29.5 3.5 43.5 3.5c74.667 0 112 -26 112 -78c0 -15.333 -3.66699 -29 -11 -41s-18.666 -20.667 -33.999 -26
c34 -7.33301 51 -28.333 51 -63c0 -56 -40 -84 -120 -84zM450.999 644.001h77l-342 -644h-77zM559.999 0.000976562h-57v58h-150v43l143 183h64v-183h31v-43h-31v-58zM408.999 102.001h105v136z" />
    <glyph glyph-name="questiondown" unicode="&#xbf;" horiz-adv-x="493" 
d="M351 620v-65h-90v65h90zM93.5 229c15.667 22.667 41.1621 48.665 76.4951 77.998l19 16c19.333 16 34 29 44 39s17.833 21.667 23.5 35s8.5 29.666 8.5 48.999v19h82v-23c0 -24 -4.83301 -45.5 -14.5 -64.5s-21.167 -35.333 -34.5 -49s-31.666 -30.167 -54.999 -49.5
l-23 -19c-22 -19.333 -38.833 -37.666 -50.5 -54.999s-17.5 -37 -17.5 -59c0 -39.333 11.167 -67.5 33.5 -84.5s61.5 -25.5 117.5 -25.5c28.667 0 56.834 3.33301 84.501 10s52.834 15.334 75.501 26.001v-70c-21.333 -11.333 -47.666 -20.166 -78.999 -26.499
s-64.666 -9.5 -99.999 -9.5c-70 0 -123.167 15.667 -159.5 47s-54.5 75.333 -54.5 132c0 33.333 7.83301 61.333 23.5 84z" />
    <glyph glyph-name="Agrave" unicode="&#xc0;" horiz-adv-x="685" 
d="M217 856h74l71 -168h-66zM135 0h-85l245 644h96l244 -644h-84l-68 177h-280zM217 242h251l-126 331z" />
    <glyph glyph-name="Aacute" unicode="&#xc1;" horiz-adv-x="685" 
d="M363 856h74l-79 -168h-66zM135 0h-85l245 644h96l244 -644h-84l-68 177h-280zM217 242h251l-126 331z" />
    <glyph glyph-name="Acircumflex" unicode="&#xc2;" horiz-adv-x="685" 
d="M419 688l-77 102l-77 -102h-71l115 148h66l115 -148h-71zM135 0h-85l245 644h96l244 -644h-84l-68 177h-280zM217 242h251l-126 331z" />
    <glyph glyph-name="Atilde" unicode="&#xc3;" horiz-adv-x="685" 
d="M338 723c-11.333 4.66699 -22.835 8.83203 -34.502 12.499s-21.834 5.5 -30.501 5.5c-35.333 0 -63 -11.667 -83 -35v63c8 8.66699 19.833 15.834 35.5 21.501s31.5 8.5 47.5 8.5c12.667 0 24.834 -1.66699 36.501 -5s24.834 -8.33301 39.501 -15
c16.667 -6.66699 29.5 -11.334 38.5 -14.001s18.833 -4 29.5 -4c34 0 59.667 12 77 36v-64c-6.66699 -9.33301 -17 -16.666 -31 -21.999s-29.333 -8 -46 -8c-19.333 0 -45.666 6.66699 -78.999 20zM134.998 -0.00195312h-85l245 644h96l244 -644h-84l-68 177h-280z
M216.998 241.998h251l-126 331z" />
    <glyph glyph-name="Adieresis" unicode="&#xc4;" horiz-adv-x="685" 
d="M215 785h78v-75h-78v75zM391 785h78v-75h-78v75zM135 0h-85l245 644h96l244 -644h-84l-68 177h-280zM217 242h251l-126 331z" />
    <glyph glyph-name="Aring" unicode="&#xc5;" horiz-adv-x="685" 
d="M635 0h-84.001l-68 177h-280l-68 -177h-85l237 622c-17.333 9.33301 -30.833 22.166 -40.5 38.499s-14.5 34.833 -14.5 55.5c0 30.667 10.333 56.334 31 77.001s46.667 31 78 31c32.667 0 59.334 -10.333 80.001 -31s31 -46.334 31 -77.001
c0 -20 -4.66699 -38.167 -14 -54.5s-22.333 -29.166 -39 -38.499zM297.499 759.5c-11.667 -11.667 -17.5 -26.167 -17.5 -43.5s5.83301 -31.833 17.5 -43.5s26.167 -17.5 43.5 -17.5c18 0 32.833 5.83301 44.5 17.5s17.5 26.167 17.5 43.5s-5.83301 31.833 -17.5 43.5
s-26.5 17.5 -44.5 17.5c-17.333 0 -31.833 -5.83301 -43.5 -17.5zM467.999 242l-126 331l-125 -331h251z" />
    <glyph glyph-name="AE" unicode="&#xc6;" horiz-adv-x="840" 
d="M409 178h-203l-68 -178h-88l245 644h495v-65h-299v-225h263v-64h-263v-226h299v-64h-381v178zM409 579h-51l-127 -337h178v337z" />
    <glyph glyph-name="Ccedilla" unicode="&#xc7;" horiz-adv-x="595" 
d="M186 514c-36 -46.667 -53.999 -115.333 -53.999 -206c0 -165.333 78.333 -248 235 -248c67.333 0 126.666 9.66699 177.999 29v-73c-53.333 -16.667 -111.333 -25.334 -174 -26.001l-13 -38c36 0 63.5 -7.83301 82.5 -23.5s28.5 -37.834 28.5 -66.501
c0 -68 -47.667 -102 -143 -102c-10.667 0 -23 0.833008 -37 2.5s-25 3.5 -33 5.5v50c19.333 -5.33301 40.333 -8 63 -8c32 0 55 3.83301 69 11.5s21 21.5 21 41.5c0 18.667 -6.5 31 -19.5 37s-34.833 9 -65.5 9h-37l26 83c-86.667 8.66699 -152.167 40.834 -196.5 96.501
s-66.5 128.834 -66.5 219.501c0 109.333 25.167 194.333 75.5 255s127.833 91 232.5 91c68.667 0 131 -10 187 -30v-72c-56.667 21.333 -116.667 32 -180 32c-83.333 0 -143 -23.333 -179 -70z" />
    <glyph glyph-name="Egrave" unicode="&#xc8;" horiz-adv-x="555" 
d="M178 856h74l71 -168h-66zM70 644h435v-65h-353v-225h317v-64h-317v-226h353v-64h-435v644z" />
    <glyph glyph-name="Eacute" unicode="&#xc9;" horiz-adv-x="555" 
d="M310 856h74l-79 -168h-66zM70 644h435v-65h-353v-225h317v-64h-317v-226h353v-64h-435v644z" />
    <glyph glyph-name="Ecircumflex" unicode="&#xca;" horiz-adv-x="555" 
d="M351 688l-77 102l-77 -102h-71l115 148h66l115 -148h-71zM70 644h435v-65h-353v-225h317v-64h-317v-226h353v-64h-435v644z" />
    <glyph glyph-name="Edieresis" unicode="&#xcb;" horiz-adv-x="555" 
d="M153 786h78v-75h-78v75zM329 786h78v-75h-78v75zM70 644h435v-65h-353v-225h317v-64h-317v-226h353v-64h-435v644z" />
    <glyph glyph-name="Igrave" unicode="&#xcc;" horiz-adv-x="222" 
d="M1 856h74l71 -168h-66zM70 644h82v-644h-82v644z" />
    <glyph glyph-name="Iacute" unicode="&#xcd;" horiz-adv-x="222" 
d="M141 856h74l-79 -168h-66zM70 644h82v-644h-82v644z" />
    <glyph glyph-name="Icircumflex" unicode="&#xce;" horiz-adv-x="222" 
d="M188 688l-77 102l-77 -102h-71l115 148h66l115 -148h-71zM70 644h82v-644h-82v644z" />
    <glyph glyph-name="Idieresis" unicode="&#xcf;" horiz-adv-x="222" 
d="M-16 788h78v-75h-78v75zM160 788h78v-75h-78v75zM70 644h82v-644h-82v644z" />
    <glyph glyph-name="Eth" unicode="&#xd0;" horiz-adv-x="664" 
d="M549.5 567.5c43 -51 64.501 -134.166 64.501 -249.499c0 -110.667 -21.333 -191.334 -64 -242.001s-111.334 -76 -206.001 -76h-252v284h-72v65h72v295h252c94 0 162.5 -25.5 205.5 -76.5zM444.501 85.001c29 14 50.833 39.333 65.5 76s22 89 22 157
s-6.66699 120.833 -20 158.5s-34.5 64.167 -63.5 79.5s-68.833 23 -119.5 23h-155v-230h181v-65h-181v-220h155c48 0 86.5 7 115.5 21z" />
    <glyph glyph-name="Ntilde" unicode="&#xd1;" horiz-adv-x="663" 
d="M325 728c-11.333 4.66699 -22.835 8.83203 -34.502 12.499s-21.834 5.5 -30.501 5.5c-35.333 0 -63 -11.667 -83 -35v63c8 8.66699 19.833 15.834 35.5 21.501s31.5 8.5 47.5 8.5c12.667 0 24.834 -1.66699 36.501 -5s24.834 -8.33301 39.501 -15
c16.667 -6.66699 29.5 -11.334 38.5 -14.001s18.833 -4 29.5 -4c34 0 59.667 12 77 36v-64c-6.66699 -9.33301 -17 -16.666 -31 -21.999s-29.333 -8 -46 -8c-19.333 0 -45.666 6.66699 -78.999 20zM151.998 -0.00195312h-82v644h74l367 -518v518h82v-644h-75l-366 517v-517z
" />
    <glyph glyph-name="Ograve" unicode="&#xd2;" horiz-adv-x="694" 
d="M241 856h74l71 -168h-66zM571.5 70c-48.333 -53.333 -123.166 -80 -224.499 -80s-176.166 26.667 -224.499 80s-72.5 137.333 -72.5 252s24.167 198.667 72.5 252s123.166 80 224.499 80s176.166 -26.667 224.499 -80s72.5 -137.333 72.5 -252
s-24.167 -198.667 -72.5 -252zM539 475.5c-15.333 38.333 -38.666 66 -69.999 83s-72 25.5 -122 25.5s-90.667 -8.5 -122 -25.5s-54.666 -44.667 -69.999 -83s-23 -89.5 -23 -153.5s7.66699 -115.167 23 -153.5s38.666 -66 69.999 -83s72 -25.5 122 -25.5
s90.667 8.5 122 25.5s54.666 44.667 69.999 83s23 89.5 23 153.5s-7.66699 115.167 -23 153.5z" />
    <glyph glyph-name="Oacute" unicode="&#xd3;" horiz-adv-x="694" 
d="M383 856h74l-79 -168h-66zM571.5 70c-48.333 -53.333 -123.166 -80 -224.499 -80s-176.166 26.667 -224.499 80s-72.5 137.333 -72.5 252s24.167 198.667 72.5 252s123.166 80 224.499 80s176.166 -26.667 224.499 -80s72.5 -137.333 72.5 -252
s-24.167 -198.667 -72.5 -252zM539 475.5c-15.333 38.333 -38.666 66 -69.999 83s-72 25.5 -122 25.5s-90.667 -8.5 -122 -25.5s-54.666 -44.667 -69.999 -83s-23 -89.5 -23 -153.5s7.66699 -115.167 23 -153.5s38.666 -66 69.999 -83s72 -25.5 122 -25.5
s90.667 8.5 122 25.5s54.666 44.667 69.999 83s23 89.5 23 153.5s-7.66699 115.167 -23 153.5z" />
    <glyph glyph-name="Ocircumflex" unicode="&#xd4;" horiz-adv-x="694" 
d="M424 688l-77 102l-77 -102h-71l115 148h66l115 -148h-71zM571.5 70c-48.333 -53.333 -123.166 -80 -224.499 -80s-176.166 26.667 -224.499 80s-72.5 137.333 -72.5 252s24.167 198.667 72.5 252s123.166 80 224.499 80s176.166 -26.667 224.499 -80
s72.5 -137.333 72.5 -252s-24.167 -198.667 -72.5 -252zM539 475.5c-15.333 38.333 -38.666 66 -69.999 83s-72 25.5 -122 25.5s-90.667 -8.5 -122 -25.5s-54.666 -44.667 -69.999 -83s-23 -89.5 -23 -153.5s7.66699 -115.167 23 -153.5s38.666 -66 69.999 -83
s72 -25.5 122 -25.5s90.667 8.5 122 25.5s54.666 44.667 69.999 83s23 89.5 23 153.5s-7.66699 115.167 -23 153.5z" />
    <glyph glyph-name="Otilde" unicode="&#xd5;" horiz-adv-x="694" 
d="M343 733c-11.333 4.66699 -22.835 8.83203 -34.502 12.499s-21.834 5.5 -30.501 5.5c-35.333 0 -63 -11.667 -83 -35v63c8 8.66699 19.833 15.834 35.5 21.501s31.5 8.5 47.5 8.5c12.667 0 24.834 -1.66699 36.501 -5s24.834 -8.33301 39.501 -15
c16.667 -6.66699 29.5 -11.334 38.5 -14.001s18.833 -4 29.5 -4c34 0 59.667 12 77 36v-64c-6.66699 -9.33301 -17 -16.666 -31 -21.999s-29.333 -8 -46 -8c-19.333 0 -45.666 6.66699 -78.999 20zM571.498 69.998c-48.333 -53.333 -123.166 -80 -224.499 -80
s-176.166 26.667 -224.499 80s-72.5 137.333 -72.5 252s24.167 198.667 72.5 252s123.166 80 224.499 80s176.166 -26.667 224.499 -80s72.5 -137.333 72.5 -252s-24.167 -198.667 -72.5 -252zM538.998 475.498c-15.333 38.333 -38.666 66 -69.999 83s-72 25.5 -122 25.5
s-90.667 -8.5 -122 -25.5s-54.666 -44.667 -69.999 -83s-23 -89.5 -23 -153.5s7.66699 -115.167 23 -153.5s38.666 -66 69.999 -83s72 -25.5 122 -25.5s90.667 8.5 122 25.5s54.666 44.667 69.999 83s23 89.5 23 153.5s-7.66699 115.167 -23 153.5z" />
    <glyph glyph-name="Odieresis" unicode="&#xd6;" horiz-adv-x="694" 
d="M220 786h78v-75h-78v75zM396 786h78v-75h-78v75zM571.5 70c-48.333 -53.333 -123.166 -80 -224.499 -80s-176.166 26.667 -224.499 80s-72.5 137.333 -72.5 252s24.167 198.667 72.5 252s123.166 80 224.499 80s176.166 -26.667 224.499 -80s72.5 -137.333 72.5 -252
s-24.167 -198.667 -72.5 -252zM539 475.5c-15.333 38.333 -38.666 66 -69.999 83s-72 25.5 -122 25.5s-90.667 -8.5 -122 -25.5s-54.666 -44.667 -69.999 -83s-23 -89.5 -23 -153.5s7.66699 -115.167 23 -153.5s38.666 -66 69.999 -83s72 -25.5 122 -25.5
s90.667 8.5 122 25.5s54.666 44.667 69.999 83s23 89.5 23 153.5s-7.66699 115.167 -23 153.5z" />
    <glyph glyph-name="multiply" unicode="&#xd7;" horiz-adv-x="410" 
d="M98 108l-43 43l108 109l-113 111l43 43l111 -113l113 112l43 -43l-112 -113l112 -112l-41 -42l-112 113z" />
    <glyph glyph-name="Oslash" unicode="&#xd8;" horiz-adv-x="694" 
d="M195 17c-48.667 22 -84.999 57.999 -108.999 107.999s-36 115.667 -36 197c0 114.667 24.167 198.667 72.5 252s123.166 80 224.499 80c24.667 0 51 -2.33301 79 -7l17 46h72l-24 -64c51.333 -21.333 89.666 -57.166 114.999 -107.499s38 -116.833 38 -199.5
c0 -114.667 -24.167 -198.667 -72.5 -252s-123.166 -80 -224.499 -80c-30 0 -59.333 2.66699 -88 8l-18 -51h-72zM154.001 170.999c14.667 -38 36.999 -65.667 66.999 -83l180 492c-22.667 2.66699 -40.667 4 -54 4c-50 0 -90.667 -8.5 -122 -25.5
s-54.666 -44.667 -69.999 -83s-23 -89.5 -23 -153.5c0 -62.667 7.33301 -113 22 -151zM538.5 476.499c-15.667 38.333 -39.832 66.167 -72.499 83.5l-182 -495c21.333 -3.33301 42.333 -5 63 -5c50 0 90.667 8.5 122 25.5s54.666 44.667 69.999 83s23 89.5 23 153.5
c0 64.667 -7.83301 116.167 -23.5 154.5z" />
    <glyph glyph-name="Ugrave" unicode="&#xd9;" horiz-adv-x="671" 
d="M240 856h74l71 -168h-66zM475.5 104c32.333 29.333 48.498 73 48.498 131v409h82v-408c0 -80 -23.167 -141 -69.5 -183s-113.166 -63 -200.499 -63c-88 0 -155.167 21 -201.5 63s-69.5 103 -69.5 183v408h82v-409c0 -58 16.333 -101.667 49 -131s79.334 -44 140.001 -44
s107.167 14.667 139.5 44z" />
    <glyph glyph-name="Uacute" unicode="&#xda;" horiz-adv-x="671" 
d="M366 856h74l-79 -168h-66zM475.5 104c32.333 29.333 48.498 73 48.498 131v409h82v-408c0 -80 -23.167 -141 -69.5 -183s-113.166 -63 -200.499 -63c-88 0 -155.167 21 -201.5 63s-69.5 103 -69.5 183v408h82v-409c0 -58 16.333 -101.667 49 -131s79.334 -44 140.001 -44
s107.167 14.667 139.5 44z" />
    <glyph glyph-name="Ucircumflex" unicode="&#xdb;" horiz-adv-x="671" 
d="M412 688l-77 102l-77 -102h-71l115 148h66l115 -148h-71zM475.5 104c32.333 29.333 48.498 73 48.498 131v409h82v-408c0 -80 -23.167 -141 -69.5 -183s-113.166 -63 -200.499 -63c-88 0 -155.167 21 -201.5 63s-69.5 103 -69.5 183v408h82v-409
c0 -58 16.333 -101.667 49 -131s79.334 -44 140.001 -44s107.167 14.667 139.5 44z" />
    <glyph glyph-name="Udieresis" unicode="&#xdc;" horiz-adv-x="671" 
d="M196 786h78v-75h-78v75zM372 786h78v-75h-78v75zM475.5 104c32.333 29.333 48.498 73 48.498 131v409h82v-408c0 -80 -23.167 -141 -69.5 -183s-113.166 -63 -200.499 -63c-88 0 -155.167 21 -201.5 63s-69.5 103 -69.5 183v408h82v-409c0 -58 16.333 -101.667 49 -131
s79.334 -44 140.001 -44s107.167 14.667 139.5 44z" />
    <glyph glyph-name="Yacute" unicode="&#xdd;" horiz-adv-x="642" 
d="M347 856h74l-79 -168h-66zM280 240l-230 404h85l186 -334l186 334h85l-230 -404v-240h-82v240z" />
    <glyph glyph-name="Thorn" unicode="&#xde;" horiz-adv-x="582" 
d="M494.5 170.5c-38.333 -37 -90.5 -55.5 -156.5 -55.5h-186v-115h-82v644h82v-118h190c70 0 122.5 -18.5 157.5 -55.5s52.5 -87.167 52.5 -150.5c0 -62.667 -19.167 -112.5 -57.5 -149.5zM432.5 217c25 25.333 37.5 59.667 37.5 103c0 46 -11.667 81 -35 105
s-58.333 36 -105 36h-178v-282h173c46.667 0 82.5 12.667 107.5 38z" />
    <glyph glyph-name="germandbls" unicode="&#xdf;" horiz-adv-x="627" 
d="M460.5 94.5c23 23 34.5 55.501 34.5 97.501s-10.833 74 -32.5 96s-57.167 33 -106.5 33h-82v62h84c40 0 69.333 11 88 33s28 51.667 28 89c0 40.667 -12.333 71.667 -37 93s-67 32 -127 32c-108.667 0 -163 -55 -163 -165v-465h-82v468c0 46 10 86.5 30 121.5
s48.333 62.167 85 81.5s80 29 130 29c52.667 0 97.167 -8.66699 133.5 -26s63.333 -40.666 81 -69.999s26.5 -62.333 26.5 -99c0 -36 -7.66699 -67.333 -23 -94s-35.666 -46 -60.999 -58c34 -10 60.833 -29.333 80.5 -58s29.5 -64.334 29.5 -107.001
c0 -62.667 -17.333 -111.334 -52 -146.001s-84.334 -52 -149.001 -52c-56.667 0 -104.667 7.33301 -144 22v70c34 -14.667 77.667 -22 131 -22c42 0 74.5 11.5 97.5 34.5z" />
    <glyph glyph-name="agrave" unicode="&#xe0;" horiz-adv-x="541" 
d="M182 690h74l71 -168h-66zM401 54c-20.667 -22 -45.832 -38.166 -75.499 -48.499s-65.834 -15.5 -108.501 -15.5c-48 0 -87.833 12.333 -119.5 37s-47.5 60 -47.5 106s15 82.167 45 108.5s76 39.5 138 39.5h165v29c0 26.667 -3.66699 47.5 -11 62.5
s-20.666 25.833 -39.999 32.5s-47.333 10 -84 10c-55.333 0 -108 -8.66699 -158 -26v68c47.333 18 103.666 27 168.999 27c68 0 118.667 -13.833 152 -41.5s50 -71.834 50 -132.501v-310h-69zM235.002 218.001c-36.667 0 -63.166 -6.83301 -79.499 -20.5
s-24.5 -35.167 -24.5 -64.5c0 -27.333 9 -46.833 27 -58.5s44.667 -17.5 80 -17.5c67.333 0 120.666 23 159.999 69v92h-163z" />
    <glyph glyph-name="aacute" unicode="&#xe1;" horiz-adv-x="541" 
d="M315 690h74l-79 -168h-66zM401 54c-20.667 -22 -45.832 -38.166 -75.499 -48.499s-65.834 -15.5 -108.501 -15.5c-48 0 -87.833 12.333 -119.5 37s-47.5 60 -47.5 106s15 82.167 45 108.5s76 39.5 138 39.5h165v29c0 26.667 -3.66699 47.5 -11 62.5
s-20.666 25.833 -39.999 32.5s-47.333 10 -84 10c-55.333 0 -108 -8.66699 -158 -26v68c47.333 18 103.666 27 168.999 27c68 0 118.667 -13.833 152 -41.5s50 -71.834 50 -132.501v-310h-69zM235.002 218.001c-36.667 0 -63.166 -6.83301 -79.499 -20.5
s-24.5 -35.167 -24.5 -64.5c0 -27.333 9 -46.833 27 -58.5s44.667 -17.5 80 -17.5c67.333 0 120.666 23 159.999 69v92h-163z" />
    <glyph glyph-name="acircumflex" unicode="&#xe2;" horiz-adv-x="541" 
d="M359 522l-77 102l-77 -102h-71l115 148h66l115 -148h-71zM401 54c-20.667 -22 -45.832 -38.166 -75.499 -48.499s-65.834 -15.5 -108.501 -15.5c-48 0 -87.833 12.333 -119.5 37s-47.5 60 -47.5 106s15 82.167 45 108.5s76 39.5 138 39.5h165v29
c0 26.667 -3.66699 47.5 -11 62.5s-20.666 25.833 -39.999 32.5s-47.333 10 -84 10c-55.333 0 -108 -8.66699 -158 -26v68c47.333 18 103.666 27 168.999 27c68 0 118.667 -13.833 152 -41.5s50 -71.834 50 -132.501v-310h-69zM235.002 218.001
c-36.667 0 -63.166 -6.83301 -79.499 -20.5s-24.5 -35.167 -24.5 -64.5c0 -27.333 9 -46.833 27 -58.5s44.667 -17.5 80 -17.5c67.333 0 120.666 23 159.999 69v92h-163z" />
    <glyph glyph-name="atilde" unicode="&#xe3;" horiz-adv-x="541" 
d="M276 562c-11.333 4.66699 -22.835 8.83203 -34.502 12.499s-21.834 5.5 -30.501 5.5c-35.333 0 -63 -11.667 -83 -35v63c8 8.66699 19.833 15.834 35.5 21.501s31.5 8.5 47.5 8.5c12.667 0 24.834 -1.66699 36.501 -5s24.834 -8.33301 39.501 -15
c16.667 -6.66699 29.5 -11.334 38.5 -14.001s18.833 -4 29.5 -4c34 0 59.667 12 77 36v-64c-6.66699 -9.33301 -17 -16.666 -31 -21.999s-29.333 -8 -46 -8c-19.333 0 -45.666 6.66699 -78.999 20zM400.998 53.998c-20.667 -22 -45.832 -38.166 -75.499 -48.499
s-65.834 -15.5 -108.501 -15.5c-48 0 -87.833 12.333 -119.5 37s-47.5 60 -47.5 106s15 82.167 45 108.5s76 39.5 138 39.5h165v29c0 26.667 -3.66699 47.5 -11 62.5s-20.666 25.833 -39.999 32.5s-47.333 10 -84 10c-55.333 0 -108 -8.66699 -158 -26v68
c47.333 18 103.666 27 168.999 27c68 0 118.667 -13.833 152 -41.5s50 -71.834 50 -132.501v-310h-69zM235 217.999c-36.667 0 -63.166 -6.83301 -79.499 -20.5s-24.5 -35.167 -24.5 -64.5c0 -27.333 9 -46.833 27 -58.5s44.667 -17.5 80 -17.5
c67.333 0 120.666 23 159.999 69v92h-163z" />
    <glyph glyph-name="adieresis" unicode="&#xe4;" horiz-adv-x="541" 
d="M160 620h78v-75h-78v75zM336 620h78v-75h-78v75zM401 54c-20.667 -22 -45.832 -38.166 -75.499 -48.499s-65.834 -15.5 -108.501 -15.5c-48 0 -87.833 12.333 -119.5 37s-47.5 60 -47.5 106s15 82.167 45 108.5s76 39.5 138 39.5h165v29c0 26.667 -3.66699 47.5 -11 62.5
s-20.666 25.833 -39.999 32.5s-47.333 10 -84 10c-55.333 0 -108 -8.66699 -158 -26v68c47.333 18 103.666 27 168.999 27c68 0 118.667 -13.833 152 -41.5s50 -71.834 50 -132.501v-310h-69zM235.002 218.001c-36.667 0 -63.166 -6.83301 -79.499 -20.5
s-24.5 -35.167 -24.5 -64.5c0 -27.333 9 -46.833 27 -58.5s44.667 -17.5 80 -17.5c67.333 0 120.666 23 159.999 69v92h-163z" />
    <glyph glyph-name="aring" unicode="&#xe5;" horiz-adv-x="541" 
d="M205 706c20.667 20.667 46.667 31 78 31c32.667 0 59.334 -10.333 80.001 -31s31 -46.334 31 -77.001s-10.333 -56.167 -31 -76.5s-47.334 -30.5 -80.001 -30.5c-31.333 0 -57.333 10.333 -78 31s-31 46 -31 76c0 30.667 10.333 56.334 31 77.001zM239.5 585.5
c11.667 -11.667 26.167 -17.5 43.5 -17.5c18 0 32.833 5.83301 44.5 17.5s17.5 26.167 17.5 43.5s-5.83301 31.833 -17.5 43.5s-26.5 17.5 -44.5 17.5c-17.333 0 -31.833 -5.83301 -43.5 -17.5s-17.5 -26.167 -17.5 -43.5s5.83301 -31.833 17.5 -43.5zM401 54
c-20.667 -22 -45.832 -38.166 -75.499 -48.499s-65.834 -15.5 -108.501 -15.5c-48 0 -87.833 12.333 -119.5 37s-47.5 60 -47.5 106s15 82.167 45 108.5s76 39.5 138 39.5h165v29c0 26.667 -3.66699 47.5 -11 62.5s-20.666 25.833 -39.999 32.5s-47.333 10 -84 10
c-55.333 0 -108 -8.66699 -158 -26v68c47.333 18 103.666 27 168.999 27c68 0 118.667 -13.833 152 -41.5s50 -71.834 50 -132.501v-310h-69zM235.002 218.001c-36.667 0 -63.166 -6.83301 -79.499 -20.5s-24.5 -35.167 -24.5 -64.5c0 -27.333 9 -46.833 27 -58.5
s44.667 -17.5 80 -17.5c67.333 0 120.666 23 159.999 69v92h-163z" />
    <glyph glyph-name="ae" unicode="&#xe6;" horiz-adv-x="881" 
d="M356 15c-34.667 -16.667 -81.002 -25 -139.002 -25c-48 0 -87.833 12.333 -119.5 37s-47.5 60 -47.5 106s15 82.167 45 108.5s76 39.5 138 39.5h165v29c0 26.667 -3.66699 47.5 -11 62.5s-20.666 25.833 -39.999 32.5s-47.333 10 -84 10
c-55.333 0 -108 -8.66699 -158 -26v68c47.333 18 103.666 27 168.999 27c85.333 0 143.666 -24.333 174.999 -73c40.667 48.667 99.334 73 176.001 73c67.333 0 118.5 -18 153.5 -54s52.5 -83.333 52.5 -142v-89h-351c2.66699 -36.667 10.5 -65.167 23.5 -85.5
s32.5 -35 58.5 -44s61 -13.5 105 -13.5c48.667 0 93.334 8.33301 134.001 25v-64c-40.667 -18 -90.667 -27 -150 -27c-51.333 0 -93.666 7.33301 -126.999 22s-60.333 37.334 -81 68.001c-23.333 -26.667 -52.333 -48.334 -87 -65.001zM512.498 379.5
c-21.667 -25.667 -32.499 -66.167 -32.499 -121.5h278v39c0 39.333 -10.5 69.333 -31.5 90s-54.167 31 -99.5 31c-54.667 0 -92.834 -12.833 -114.501 -38.5zM234.999 218c-36.667 0 -63.166 -6.83398 -79.499 -20.501s-24.5 -35.167 -24.5 -64.5
c0 -27.333 9 -46.833 27 -58.5s44.667 -17.5 80 -17.5c36.667 0 67.667 5.83301 93 17.5s47.666 28.834 66.999 51.501v92h-163z" />
    <glyph glyph-name="ccedilla" unicode="&#xe7;" horiz-adv-x="490" 
d="M312 -10l-13.001 -38.001c36 0 63.5 -7.83301 82.5 -23.5s28.5 -37.834 28.5 -66.501c0 -68 -47.667 -102 -143 -102c-10.667 0 -23 0.833008 -37 2.5s-25 3.5 -33 5.5v50c19.333 -5.33301 40.333 -8 63 -8c32 0 55 3.83301 69 11.5s21 21.5 21 41.5
c0 18.667 -6.5 31 -19.5 37s-34.833 9 -65.5 9h-37l26 83c-68 6.66699 -119 30.834 -153 72.501s-51 99.167 -51 172.5c0 81.333 22.167 142.833 66.5 184.5s105.833 62.5 184.5 62.5c30 0 55.333 -2.16699 76 -6.5s41.334 -11.166 62.001 -20.499v-65
c-36 17.333 -77 26 -123 26c-60.667 0 -106.5 -14.333 -137.5 -43s-46.5 -74.667 -46.5 -138s14 -109.333 42 -138s74.333 -43 139 -43c46 0 88.333 8.66699 127 26v-66c-38 -15.333 -80.667 -24 -128 -26z" />
    <glyph glyph-name="egrave" unicode="&#xe8;" horiz-adv-x="533" 
d="M155 690h74l71 -168h-66zM155.5 113.5c13 -20.333 32.499 -35.001 58.499 -44.001s61 -13.5 105 -13.5c48.667 0 93.334 8.33301 134.001 25v-64c-40.667 -18 -90.667 -27 -150 -27c-84.667 0 -148 20.333 -190 61s-63 103.334 -63 188.001c0 78 18.667 138.333 56 181
s94.333 64 171 64c67.333 0 118.5 -18 153.5 -54s52.5 -83.333 52.5 -142v-89h-351c2.66699 -36.667 10.5 -65.167 23.5 -85.5zM164.499 379.499c-21.667 -25.667 -32.499 -66.167 -32.499 -121.5h278v39c0 39.333 -10.5 69.333 -31.5 90s-54.167 31 -99.5 31
c-54.667 0 -92.834 -12.833 -114.501 -38.5z" />
    <glyph glyph-name="eacute" unicode="&#xe9;" horiz-adv-x="533" 
d="M298 690h74l-79 -168h-66zM155.5 113.5c13 -20.333 32.499 -35.001 58.499 -44.001s61 -13.5 105 -13.5c48.667 0 93.334 8.33301 134.001 25v-64c-40.667 -18 -90.667 -27 -150 -27c-84.667 0 -148 20.333 -190 61s-63 103.334 -63 188.001c0 78 18.667 138.333 56 181
s94.333 64 171 64c67.333 0 118.5 -18 153.5 -54s52.5 -83.333 52.5 -142v-89h-351c2.66699 -36.667 10.5 -65.167 23.5 -85.5zM164.499 379.499c-21.667 -25.667 -32.499 -66.167 -32.499 -121.5h278v39c0 39.333 -10.5 69.333 -31.5 90s-54.167 31 -99.5 31
c-54.667 0 -92.834 -12.833 -114.501 -38.5z" />
    <glyph glyph-name="ecircumflex" unicode="&#xea;" horiz-adv-x="533" 
d="M343 522l-77 102l-77 -102h-71l115 148h66l115 -148h-71zM155.5 113.5c13 -20.333 32.499 -35.001 58.499 -44.001s61 -13.5 105 -13.5c48.667 0 93.334 8.33301 134.001 25v-64c-40.667 -18 -90.667 -27 -150 -27c-84.667 0 -148 20.333 -190 61
s-63 103.334 -63 188.001c0 78 18.667 138.333 56 181s94.333 64 171 64c67.333 0 118.5 -18 153.5 -54s52.5 -83.333 52.5 -142v-89h-351c2.66699 -36.667 10.5 -65.167 23.5 -85.5zM164.499 379.499c-21.667 -25.667 -32.499 -66.167 -32.499 -121.5h278v39
c0 39.333 -10.5 69.333 -31.5 90s-54.167 31 -99.5 31c-54.667 0 -92.834 -12.833 -114.501 -38.5z" />
    <glyph glyph-name="edieresis" unicode="&#xeb;" horiz-adv-x="533" 
d="M137 620h78v-75h-78v75zM313 620h78v-75h-78v75zM155.5 113.5c13 -20.333 32.499 -35.001 58.499 -44.001s61 -13.5 105 -13.5c48.667 0 93.334 8.33301 134.001 25v-64c-40.667 -18 -90.667 -27 -150 -27c-84.667 0 -148 20.333 -190 61s-63 103.334 -63 188.001
c0 78 18.667 138.333 56 181s94.333 64 171 64c67.333 0 118.5 -18 153.5 -54s52.5 -83.333 52.5 -142v-89h-351c2.66699 -36.667 10.5 -65.167 23.5 -85.5zM164.499 379.499c-21.667 -25.667 -32.499 -66.167 -32.499 -121.5h278v39c0 39.333 -10.5 69.333 -31.5 90
s-54.167 31 -99.5 31c-54.667 0 -92.834 -12.833 -114.501 -38.5z" />
    <glyph glyph-name="igrave" unicode="&#xec;" horiz-adv-x="295" 
d="M76 690h74l71 -168h-66zM225 0h-82v409h-73l8 65h147v-474z" />
    <glyph glyph-name="iacute" unicode="&#xed;" horiz-adv-x="295" 
d="M211 690h74l-79 -168h-66zM225 0h-82v409h-73l8 65h147v-474z" />
    <glyph glyph-name="icircumflex" unicode="&#xee;" horiz-adv-x="295" 
d="M243 522l-77 102l-77 -102h-71l115 148h66l115 -148h-71zM225 0h-82v409h-73l8 65h147v-474z" />
    <glyph glyph-name="idieresis" unicode="&#xef;" horiz-adv-x="295" 
d="M27 620h78v-75h-78v75zM203 620h78v-75h-78v75zM225 0h-82v409h-73l8 65h147v-474z" />
    <glyph glyph-name="eth" unicode="&#xf0;" horiz-adv-x="573" 
d="M107 350c38 36 92.6641 54.001 163.997 54.001c27.333 0 56.333 -4.83301 87 -14.5s58.334 -23.5 83.001 -41.5v46c0 56 -8 99.667 -24 131l-134 -58v52l103 45c-25.333 19.333 -60.666 29 -105.999 29c-52 0 -99.333 -7.66699 -142 -23v62c45.333 14.667 96 22 152 22
c72 0 127 -20 165 -60l93 41v-53l-64 -28c23.333 -40.667 35 -95.334 35 -164.001v-155c0 -84 -19.667 -145.833 -59 -185.5s-98 -59.5 -176 -59.5c-77.333 0 -135.666 18.167 -174.999 54.5s-59 86.833 -59 151.5c0 66.667 19 118 57 154zM164.497 89.501
c27 -25 66.833 -37.5 119.5 -37.5s92 12.833 118 38.5s39 65.167 39 118.5v80c-22.667 16.667 -47.667 30 -75 40s-54.333 15 -81 15c-56.667 0 -97.667 -12.667 -123 -38s-38 -62 -38 -110c0 -46 13.5 -81.5 40.5 -106.5z" />
    <glyph glyph-name="ntilde" unicode="&#xf1;" horiz-adv-x="570" 
d="M281 562c-11.333 4.66699 -22.835 8.83203 -34.502 12.499s-21.834 5.5 -30.501 5.5c-35.333 0 -63 -11.667 -83 -35v63c8 8.66699 19.833 15.834 35.5 21.501s31.5 8.5 47.5 8.5c12.667 0 24.834 -1.66699 36.501 -5s24.834 -8.33301 39.501 -15
c16.667 -6.66699 29.5 -11.334 38.5 -14.001s18.833 -4 29.5 -4c34 0 59.667 12 77 36v-64c-6.66699 -9.33301 -17 -16.666 -31 -21.999s-29.333 -8 -46 -8c-19.333 0 -45.666 6.66699 -78.999 20zM422.998 -0.00195312v307c0 28.667 -3.66699 50.834 -11 66.501
s-19.5 27 -36.5 34s-41.5 10.5 -73.5 10.5c-29.333 0 -57 -5.33301 -83 -16s-48.333 -25.334 -67 -44.001v-358h-82v474h74l5 -54c52 42.667 113.333 64 184 64c60 0 103.667 -14 131 -42s41 -72 41 -132v-310h-82z" />
    <glyph glyph-name="ograve" unicode="&#xf2;" horiz-adv-x="574" 
d="M181 690h74l71 -168h-66zM524 237c0 -82 -19.1689 -143.667 -57.502 -185s-98.166 -62 -179.499 -62s-141.166 20.667 -179.499 62s-57.5 103 -57.5 185c0 164.667 79 247 237 247s237 -82.333 237 -247zM406.498 102c23.667 28 35.5 73 35.5 135s-12 107 -36 135
s-63.667 42 -119 42s-95 -14 -119 -42s-36 -73 -36 -135s11.833 -107 35.5 -135s63.5 -42 119.5 -42s95.833 14 119.5 42z" />
    <glyph glyph-name="oacute" unicode="&#xf3;" horiz-adv-x="574" 
d="M324 690h74l-79 -168h-66zM524 237c0 -82 -19.1689 -143.667 -57.502 -185s-98.166 -62 -179.499 -62s-141.166 20.667 -179.499 62s-57.5 103 -57.5 185c0 164.667 79 247 237 247s237 -82.333 237 -247zM406.498 102c23.667 28 35.5 73 35.5 135s-12 107 -36 135
s-63.667 42 -119 42s-95 -14 -119 -42s-36 -73 -36 -135s11.833 -107 35.5 -135s63.5 -42 119.5 -42s95.833 14 119.5 42z" />
    <glyph glyph-name="ocircumflex" unicode="&#xf4;" horiz-adv-x="574" 
d="M364 522l-77 102l-77 -102h-71l115 148h66l115 -148h-71zM524 237c0 -82 -19.1689 -143.667 -57.502 -185s-98.166 -62 -179.499 -62s-141.166 20.667 -179.499 62s-57.5 103 -57.5 185c0 164.667 79 247 237 247s237 -82.333 237 -247zM406.498 102
c23.667 28 35.5 73 35.5 135s-12 107 -36 135s-63.667 42 -119 42s-95 -14 -119 -42s-36 -73 -36 -135s11.833 -107 35.5 -135s63.5 -42 119.5 -42s95.833 14 119.5 42z" />
    <glyph glyph-name="otilde" unicode="&#xf5;" horiz-adv-x="574" 
d="M283 567c-11.333 4.66699 -22.835 8.83203 -34.502 12.499s-21.834 5.5 -30.501 5.5c-35.333 0 -63 -11.667 -83 -35v63c8 8.66699 19.833 15.834 35.5 21.501s31.5 8.5 47.5 8.5c12.667 0 24.834 -1.66699 36.501 -5s24.834 -8.33301 39.501 -15
c16.667 -6.66699 29.5 -11.334 38.5 -14.001s18.833 -4 29.5 -4c34 0 59.667 12 77 36v-64c-6.66699 -9.33301 -17 -16.666 -31 -21.999s-29.333 -8 -46 -8c-19.333 0 -45.666 6.66699 -78.999 20zM523.998 236.998c0 -82 -19.1689 -143.667 -57.502 -185
s-98.166 -62 -179.499 -62s-141.166 20.667 -179.499 62s-57.5 103 -57.5 185c0 164.667 79 247 237 247s237 -82.333 237 -247zM406.496 101.998c23.667 28 35.5 73 35.5 135s-12 107 -36 135s-63.667 42 -119 42s-95 -14 -119 -42s-36 -73 -36 -135s11.833 -107 35.5 -135
s63.5 -42 119.5 -42s95.833 14 119.5 42z" />
    <glyph glyph-name="odieresis" unicode="&#xf6;" horiz-adv-x="574" 
d="M160 620h78v-75h-78v75zM336 620h78v-75h-78v75zM524 237c0 -82 -19.1689 -143.667 -57.502 -185s-98.166 -62 -179.499 -62s-141.166 20.667 -179.499 62s-57.5 103 -57.5 185c0 164.667 79 247 237 247s237 -82.333 237 -247zM406.498 102c23.667 28 35.5 73 35.5 135
s-12 107 -36 135s-63.667 42 -119 42s-95 -14 -119 -42s-36 -73 -36 -135s11.833 -107 35.5 -135s63.5 -42 119.5 -42s95.833 14 119.5 42z" />
    <glyph glyph-name="divide" unicode="&#xf7;" horiz-adv-x="476" 
d="M273 465v-67h-71v67h71zM50 301h376v-65h-376v65zM273 145v-67h-71v67h71z" />
    <glyph glyph-name="oslash" unicode="&#xf8;" horiz-adv-x="574" 
d="M341 480l17.999 47.999h72l-24 -66c78 -34 117 -109 117 -225c0 -82 -19.167 -143.667 -57.5 -185s-98.166 -62 -179.499 -62c-18.667 0 -36 1 -52 3l-17 -47h-72l23 64c-79.333 32.667 -119 108.334 -119 227.001c0 164.667 79 247 237 247
c20.667 0 38.667 -1.33301 54 -4zM146.999 136.499c10 -25.667 26 -44.833 48 -57.5l122 333c-13.333 1.33301 -23.333 2 -30 2c-55.333 0 -95 -14 -119 -42s-36 -73 -36 -135c0 -41.333 5 -74.833 15 -100.5zM406.499 102c23.667 28 35.5 73 35.5 135
c0 40 -4.83301 72.667 -14.5 98s-25.167 44.333 -46.5 57l-121 -331c6 -0.666992 15 -1 27 -1c56 0 95.833 14 119.5 42z" />
    <glyph glyph-name="ugrave" unicode="&#xf9;" horiz-adv-x="570" 
d="M179 690h74l71 -168h-66zM147 474v-303.001c0 -39.333 9.83301 -68.333 29.5 -87s50.167 -28 91.5 -28c29.333 0 57 5.33301 83 16s48.333 25.334 67 44.001v358h82v-474h-74l-5 54c-24 -19.333 -51.833 -34.833 -83.5 -46.5s-65.167 -17.5 -100.5 -17.5
c-56.667 0 -99.5 15.667 -128.5 47s-43.5 77 -43.5 137v300h82z" />
    <glyph glyph-name="uacute" unicode="&#xfa;" horiz-adv-x="570" 
d="M306 690h74l-79 -168h-66zM147 474v-303.001c0 -39.333 9.83301 -68.333 29.5 -87s50.167 -28 91.5 -28c29.333 0 57 5.33301 83 16s48.333 25.334 67 44.001v358h82v-474h-74l-5 54c-24 -19.333 -51.833 -34.833 -83.5 -46.5s-65.167 -17.5 -100.5 -17.5
c-56.667 0 -99.5 15.667 -128.5 47s-43.5 77 -43.5 137v300h82z" />
    <glyph glyph-name="ucircumflex" unicode="&#xfb;" horiz-adv-x="570" 
d="M358 522l-77 102l-77 -102h-71l115 148h66l115 -148h-71zM147 474v-303.001c0 -39.333 9.83301 -68.333 29.5 -87s50.167 -28 91.5 -28c29.333 0 57 5.33301 83 16s48.333 25.334 67 44.001v358h82v-474h-74l-5 54c-24 -19.333 -51.833 -34.833 -83.5 -46.5
s-65.167 -17.5 -100.5 -17.5c-56.667 0 -99.5 15.667 -128.5 47s-43.5 77 -43.5 137v300h82z" />
    <glyph glyph-name="udieresis" unicode="&#xfc;" horiz-adv-x="570" 
d="M152 617h78v-75h-78v75zM328 617h78v-75h-78v75zM147 474v-303.001c0 -39.333 9.83301 -68.333 29.5 -87s50.167 -28 91.5 -28c29.333 0 57 5.33301 83 16s48.333 25.334 67 44.001v358h82v-474h-74l-5 54c-24 -19.333 -51.833 -34.833 -83.5 -46.5
s-65.167 -17.5 -100.5 -17.5c-56.667 0 -99.5 15.667 -128.5 47s-43.5 77 -43.5 137v300h82z" />
    <glyph glyph-name="yacute" unicode="&#xfd;" horiz-adv-x="584" 
d="M329 690h74l-79 -168h-66zM135 474l164.999 -382l170 382h84l-199 -453c-19.333 -44.667 -37.333 -80.667 -54 -108s-36.5 -49 -59.5 -65s-50.5 -24 -82.5 -24c-31.333 0 -58.666 4.33301 -81.999 13v66c18.667 -6.66699 39 -10 61 -10s39.5 3.83301 52.5 11.5
s24.167 18.667 33.5 33s21 36.833 35 67.5l-209 469h85z" />
    <glyph glyph-name="thorn" unicode="&#xfe;" horiz-adv-x="575" 
d="M153 439c43.333 30 96 44.999 158 44.999c68.667 0 121.5 -20.333 158.5 -61s55.5 -103 55.5 -187c0 -83.333 -18.667 -145.166 -56 -185.499s-90.333 -60.5 -159 -60.5c-62 0 -114.667 15 -158 45v-251h-82v916h83v-261zM405.5 97.999c25 28 37.502 74 37.502 138
c0 63.333 -11.833 109.5 -35.5 138.5s-62.834 43.5 -117.501 43.5c-56.667 0 -102.667 -19 -138 -57v-258c35.333 -31.333 80.666 -47 135.999 -47c53.333 0 92.5 14 117.5 42z" />
    <glyph glyph-name="ydieresis" unicode="&#xff;" horiz-adv-x="584" 
d="M178 627h78v-75h-78v75zM354 627h78v-75h-78v75zM135 474l164.999 -382l170 382h84l-199 -453c-19.333 -44.667 -37.333 -80.667 -54 -108s-36.5 -49 -59.5 -65s-50.5 -24 -82.5 -24c-31.333 0 -58.666 4.33301 -81.999 13v66c18.667 -6.66699 39 -10 61 -10
s39.5 3.83301 52.5 11.5s24.167 18.667 33.5 33s21 36.833 35 67.5l-209 469h85z" />
    <glyph glyph-name="Amacron" unicode="&#x100;" horiz-adv-x="685" 
d="M486 712h-288v59h288v-59zM135 0h-85l245 644h96l244 -644h-84l-68 177h-280zM217 242h251l-126 331z" />
    <glyph glyph-name="amacron" unicode="&#x101;" horiz-adv-x="541" 
d="M421 546h-288v59h288v-59zM401 54c-20.667 -22 -45.832 -38.166 -75.499 -48.499s-65.834 -15.5 -108.501 -15.5c-48 0 -87.833 12.333 -119.5 37s-47.5 60 -47.5 106s15 82.167 45 108.5s76 39.5 138 39.5h165v29c0 26.667 -3.66699 47.5 -11 62.5
s-20.666 25.833 -39.999 32.5s-47.333 10 -84 10c-55.333 0 -108 -8.66699 -158 -26v68c47.333 18 103.666 27 168.999 27c68 0 118.667 -13.833 152 -41.5s50 -71.834 50 -132.501v-310h-69zM235.002 218.001c-36.667 0 -63.166 -6.83301 -79.499 -20.5
s-24.5 -35.167 -24.5 -64.5c0 -27.333 9 -46.833 27 -58.5s44.667 -17.5 80 -17.5c67.333 0 120.666 23 159.999 69v92h-163z" />
    <glyph glyph-name="Abreve" unicode="&#x102;" horiz-adv-x="685" 
d="M291 758.5c12 -12.333 28.668 -18.5 50.001 -18.5c46.667 0 70 24.667 70 74h58c0 -38.667 -11 -69.334 -33 -92.001s-53.667 -34 -95 -34c-40.667 0 -71.834 11.333 -93.501 34s-32.5 53.334 -32.5 92.001h58c0 -24.667 6 -43.167 18 -55.5zM135.001 0h-85l245 644h96
l244 -644h-84l-68 177h-280zM217.001 242h251l-126 331z" />
    <glyph glyph-name="abreve" unicode="&#x103;" horiz-adv-x="541" 
d="M233 592.5c12 -12.333 28.668 -18.5 50.001 -18.5c46.667 0 70 24.667 70 74h58c0 -38.667 -11 -69.334 -33 -92.001s-53.667 -34 -95 -34c-40.667 0 -71.834 11.333 -93.501 34s-32.5 53.334 -32.5 92.001h58c0 -24.667 6 -43.167 18 -55.5zM401.001 54
c-20.667 -22 -45.832 -38.166 -75.499 -48.499s-65.834 -15.5 -108.501 -15.5c-48 0 -87.833 12.333 -119.5 37s-47.5 60 -47.5 106s15 82.167 45 108.5s76 39.5 138 39.5h165v29c0 26.667 -3.66699 47.5 -11 62.5s-20.666 25.833 -39.999 32.5s-47.333 10 -84 10
c-55.333 0 -108 -8.66699 -158 -26v68c47.333 18 103.666 27 168.999 27c68 0 118.667 -13.833 152 -41.5s50 -71.834 50 -132.501v-310h-69zM235.003 218.001c-36.667 0 -63.166 -6.83301 -79.499 -20.5s-24.5 -35.167 -24.5 -64.5c0 -27.333 9 -46.833 27 -58.5
s44.667 -17.5 80 -17.5c67.333 0 120.666 23 159.999 69v92h-163z" />
    <glyph glyph-name="Aogonek" unicode="&#x104;" horiz-adv-x="685" 
d="M620 -160c9.33301 2 16.9971 4.66699 22.9971 8v-56c-16 -8 -38.667 -12 -68 -12s-53.166 7.16699 -71.499 21.5s-27.5 36.5 -27.5 66.5c0 25.333 6.83301 49.833 20.5 73.5s31.834 43.167 54.501 58.5l-68 177h-280l-68 -177h-85l245 644h96l244 -644h-20
c-23.333 -17.333 -41.166 -36.333 -53.499 -57s-18.5 -41.667 -18.5 -63c0 -16 4 -27.167 12 -33.5s20.667 -9.5 38 -9.5c8.66699 0 17.667 1 27 3zM467.997 242l-126 331l-125 -331h251z" />
    <glyph glyph-name="aogonek" unicode="&#x105;" horiz-adv-x="541" 
d="M412 -153.5c8 -6.33301 20.668 -9.49902 38.001 -9.49902c8.66699 0 17.667 1 27 3s17 4.66699 23 8v-56c-16 -8 -38.667 -12 -68 -12s-53.166 7.16699 -71.499 21.5s-27.5 36.5 -27.5 66.5c0 25.333 6.83301 49.833 20.5 73.5s31.5 43.167 53.5 58.5l-6 54
c-20.667 -22 -45.834 -38.167 -75.501 -48.5s-65.834 -15.5 -108.501 -15.5c-48 0 -87.833 12.333 -119.5 37s-47.5 60 -47.5 106s15 82.167 45 108.5s76 39.5 138 39.5h165v29c0 26.667 -3.66699 47.5 -11 62.5s-20.666 25.833 -39.999 32.5s-47.333 10 -84 10
c-55.333 0 -108 -8.66699 -158 -26v68c47.333 18 103.666 27 168.999 27c68 0 118.667 -13.833 152 -41.5s50 -71.834 50 -132.501v-310c-50.667 -32 -76 -72 -76 -120c0 -16 4 -27.167 12 -33.5zM235.001 218.001c-36.667 0 -63.166 -6.83301 -79.499 -20.5
s-24.5 -35.167 -24.5 -64.5c0 -27.333 9 -46.833 27 -58.5s44.667 -17.5 80 -17.5c67.333 0 120.666 23 159.999 69v92h-163z" />
    <glyph glyph-name="Cacute" unicode="&#x106;" horiz-adv-x="595" 
d="M374 856h74l-79 -168h-66zM545 89v-73c-56 -17.333 -118 -26 -186 -26c-101.333 0 -178.166 28.333 -230.499 85s-78.5 134.334 -78.5 233.001c0 109.333 25.167 194.333 75.5 255s127.833 91 232.5 91c68.667 0 131 -10 187 -30v-72c-56.667 21.333 -116.667 32 -180 32
c-83.333 0 -143 -23.333 -179 -70s-54 -115.334 -54 -206.001c0 -165.333 78.333 -248 235 -248c67.333 0 126.666 9.66699 177.999 29z" />
    <glyph glyph-name="cacute" unicode="&#x107;" horiz-adv-x="490" 
d="M301 690h74l-79 -168h-66zM294 -10c-81.333 0 -142.334 21.166 -183.001 63.499s-61 103.5 -61 183.5c0 81.333 22.167 142.833 66.5 184.5s105.833 62.5 184.5 62.5c30 0 55.333 -2.16699 76 -6.5s41.334 -11.166 62.001 -20.499v-65c-36 17.333 -77 26 -123 26
c-60.667 0 -106.5 -14.333 -137.5 -43s-46.5 -74.667 -46.5 -138s14 -109.333 42 -138s74.333 -43 139 -43c46 0 88.333 8.66699 127 26v-66c-42 -17.333 -90.667 -26 -146 -26z" />
    <glyph glyph-name="Ccircumflex" unicode="&#x108;" horiz-adv-x="595" 
d="M408 688l-77 102l-77 -102h-71l115 148h66l115 -148h-71zM545 89v-73c-56 -17.333 -118 -26 -186 -26c-101.333 0 -178.166 28.333 -230.499 85s-78.5 134.334 -78.5 233.001c0 109.333 25.167 194.333 75.5 255s127.833 91 232.5 91c68.667 0 131 -10 187 -30v-72
c-56.667 21.333 -116.667 32 -180 32c-83.333 0 -143 -23.333 -179 -70s-54 -115.334 -54 -206.001c0 -165.333 78.333 -248 235 -248c67.333 0 126.666 9.66699 177.999 29z" />
    <glyph glyph-name="ccircumflex" unicode="&#x109;" horiz-adv-x="490" 
d="M347 522l-77 102l-77 -102h-71l115 148h66l115 -148h-71zM294 -10c-81.333 0 -142.334 21.166 -183.001 63.499s-61 103.5 -61 183.5c0 81.333 22.167 142.833 66.5 184.5s105.833 62.5 184.5 62.5c30 0 55.333 -2.16699 76 -6.5s41.334 -11.166 62.001 -20.499v-65
c-36 17.333 -77 26 -123 26c-60.667 0 -106.5 -14.333 -137.5 -43s-46.5 -74.667 -46.5 -138s14 -109.333 42 -138s74.333 -43 139 -43c46 0 88.333 8.66699 127 26v-66c-42 -17.333 -90.667 -26 -146 -26z" />
    <glyph glyph-name="Cdotaccent" unicode="&#x10a;" horiz-adv-x="595" 
d="M312 787h80v-77h-80v77zM545 89v-73c-56 -17.333 -118 -26 -186 -26c-101.333 0 -178.166 28.333 -230.499 85s-78.5 134.334 -78.5 233.001c0 109.333 25.167 194.333 75.5 255s127.833 91 232.5 91c68.667 0 131 -10 187 -30v-72c-56.667 21.333 -116.667 32 -180 32
c-83.333 0 -143 -23.333 -179 -70s-54 -115.334 -54 -206.001c0 -165.333 78.333 -248 235 -248c67.333 0 126.666 9.66699 177.999 29z" />
    <glyph glyph-name="cdotaccent" unicode="&#x10b;" horiz-adv-x="490" 
d="M242 621h80v-77h-80v77zM294 -10c-81.333 0 -142.334 21.166 -183.001 63.499s-61 103.5 -61 183.5c0 81.333 22.167 142.833 66.5 184.5s105.833 62.5 184.5 62.5c30 0 55.333 -2.16699 76 -6.5s41.334 -11.166 62.001 -20.499v-65c-36 17.333 -77 26 -123 26
c-60.667 0 -106.5 -14.333 -137.5 -43s-46.5 -74.667 -46.5 -138s14 -109.333 42 -138s74.333 -43 139 -43c46 0 88.333 8.66699 127 26v-66c-42 -17.333 -90.667 -26 -146 -26z" />
    <glyph glyph-name="Ccaron" unicode="&#x10c;" horiz-adv-x="595" 
d="M324 688l-115 148h71l77 -102l77 102h71l-115 -148h-66zM545 89v-73c-56 -17.333 -118 -26 -186 -26c-101.333 0 -178.166 28.333 -230.499 85s-78.5 134.334 -78.5 233.001c0 109.333 25.167 194.333 75.5 255s127.833 91 232.5 91c68.667 0 131 -10 187 -30v-72
c-56.667 21.333 -116.667 32 -180 32c-83.333 0 -143 -23.333 -179 -70s-54 -115.334 -54 -206.001c0 -165.333 78.333 -248 235 -248c67.333 0 126.666 9.66699 177.999 29z" />
    <glyph glyph-name="ccaron" unicode="&#x10d;" horiz-adv-x="490" 
d="M237 522l-115 148h71l77 -102l77 102h71l-115 -148h-66zM294 -10c-81.333 0 -142.334 21.166 -183.001 63.499s-61 103.5 -61 183.5c0 81.333 22.167 142.833 66.5 184.5s105.833 62.5 184.5 62.5c30 0 55.333 -2.16699 76 -6.5s41.334 -11.166 62.001 -20.499v-65
c-36 17.333 -77 26 -123 26c-60.667 0 -106.5 -14.333 -137.5 -43s-46.5 -74.667 -46.5 -138s14 -109.333 42 -138s74.333 -43 139 -43c46 0 88.333 8.66699 127 26v-66c-42 -17.333 -90.667 -26 -146 -26z" />
    <glyph glyph-name="Dcaron" unicode="&#x10e;" horiz-adv-x="642" 
d="M265 688l-115 148h71l77 -102l77 102h71l-115 -148h-66zM528 76c-42.667 -50.667 -111.333 -75.999 -206 -75.999h-252v644h252c94 0 162.5 -25.5 205.5 -76.5s64.5 -134.167 64.5 -249.5c0 -110.667 -21.333 -191.334 -64 -242.001zM490.001 476.501
c-13.333 37.667 -34.5 64.167 -63.5 79.5s-68.833 23 -119.5 23h-155v-515h155c48 0 86.5 7 115.5 21s50.833 39.333 65.5 76s22 89 22 157s-6.66699 120.833 -20 158.5z" />
    <glyph glyph-name="dcaron" unicode="&#x10f;" horiz-adv-x="699" 
d="M607 702h72l-81 -173h-64zM108 419.5c38.667 43 92.3301 64.501 160.997 64.501c30.667 0 58.334 -3.66699 83.001 -11s48.334 -18.666 71.001 -33.999v235h82v-674h-70l-6 50c-22 -20.667 -46.167 -35.834 -72.5 -45.501s-57.166 -14.5 -92.499 -14.5
c-69.333 0 -122.333 19.167 -159 57.5s-55 99.166 -55 182.499s19.333 146.5 58 189.5zM169.496 372.501c-25 -30.333 -37.5 -77.833 -37.5 -142.5c0 -62 11.667 -106.5 35 -133.5s62.666 -40.5 117.999 -40.5c56.667 0 102.667 19 138 57v258
c-35.333 31.333 -80.666 47 -135.999 47c-53.333 0 -92.5 -15.167 -117.5 -45.5z" />
    <glyph glyph-name="Dcroat" unicode="&#x110;" horiz-adv-x="664" 
d="M549.5 567.5c43 -51 64.501 -134.166 64.501 -249.499c0 -110.667 -21.333 -191.334 -64 -242.001s-111.334 -76 -206.001 -76h-252v284h-72v65h72v295h252c94 0 162.5 -25.5 205.5 -76.5zM444.501 85.001c29 14 50.833 39.333 65.5 76s22 89 22 157
s-6.66699 120.833 -20 158.5s-34.5 64.167 -63.5 79.5s-68.833 23 -119.5 23h-155v-230h181v-65h-181v-220h155c48 0 86.5 7 115.5 21z" />
    <glyph glyph-name="dcroat" unicode="&#x111;" horiz-adv-x="573" 
d="M553 544l-48.0039 0.000976562v-544h-70l-6 50c-22 -20.667 -46.167 -35.834 -72.5 -45.501s-57.166 -14.5 -92.499 -14.5c-69.333 0 -122.333 19.167 -159 57.5s-55 99.166 -55 182.499s19.333 146.5 58 189.5s92.334 64.5 161.001 64.5
c30.667 0 58.334 -3.66699 83.001 -11s48.334 -18.666 71.001 -33.999v105h-185v65h185v65h82v-65h48v-65zM422.996 371.001c-35.333 31.333 -80.666 47 -135.999 47c-53.333 0 -92.5 -15.167 -117.5 -45.5s-37.5 -77.833 -37.5 -142.5c0 -62 11.667 -106.5 35 -133.5
s62.666 -40.5 117.999 -40.5c56.667 0 102.667 19 138 57v258z" />
    <glyph glyph-name="Emacron" unicode="&#x112;" horiz-adv-x="555" 
d="M418 720h-288v59h288v-59zM70 644h435v-65h-353v-225h317v-64h-317v-226h353v-64h-435v644z" />
    <glyph glyph-name="emacron" unicode="&#x113;" horiz-adv-x="533" 
d="M424 554h-288v59h288v-59zM155.5 113.5c13 -20.333 32.499 -35.001 58.499 -44.001s61 -13.5 105 -13.5c48.667 0 93.334 8.33301 134.001 25v-64c-40.667 -18 -90.667 -27 -150 -27c-84.667 0 -148 20.333 -190 61s-63 103.334 -63 188.001c0 78 18.667 138.333 56 181
s94.333 64 171 64c67.333 0 118.5 -18 153.5 -54s52.5 -83.333 52.5 -142v-89h-351c2.66699 -36.667 10.5 -65.167 23.5 -85.5zM164.499 379.499c-21.667 -25.667 -32.499 -66.167 -32.499 -121.5h278v39c0 39.333 -10.5 69.333 -31.5 90s-54.167 31 -99.5 31
c-54.667 0 -92.834 -12.833 -114.501 -38.5z" />
    <glyph glyph-name="Ebreve" unicode="&#x114;" horiz-adv-x="555" 
d="M235 758.5c12 -12.333 28.668 -18.5 50.001 -18.5c46.667 0 70 24.667 70 74h58c0 -38.667 -11 -69.334 -33 -92.001s-53.667 -34 -95 -34c-40.667 0 -71.834 11.333 -93.501 34s-32.5 53.334 -32.5 92.001h58c0 -24.667 6 -43.167 18 -55.5zM70.001 644h435v-65h-353
v-225h317v-64h-317v-226h353v-64h-435v644z" />
    <glyph glyph-name="ebreve" unicode="&#x115;" horiz-adv-x="533" 
d="M219 592.5c12 -12.333 28.668 -18.5 50.001 -18.5c46.667 0 70 24.667 70 74h58c0 -38.667 -11 -69.334 -33 -92.001s-53.667 -34 -95 -34c-40.667 0 -71.834 11.333 -93.501 34s-32.5 53.334 -32.5 92.001h58c0 -24.667 6 -43.167 18 -55.5zM155.501 113.5
c13 -20.333 32.499 -35.001 58.499 -44.001s61 -13.5 105 -13.5c48.667 0 93.334 8.33301 134.001 25v-64c-40.667 -18 -90.667 -27 -150 -27c-84.667 0 -148 20.333 -190 61s-63 103.334 -63 188.001c0 78 18.667 138.333 56 181s94.333 64 171 64
c67.333 0 118.5 -18 153.5 -54s52.5 -83.333 52.5 -142v-89h-351c2.66699 -36.667 10.5 -65.167 23.5 -85.5zM164.5 379.499c-21.667 -25.667 -32.499 -66.167 -32.499 -121.5h278v39c0 39.333 -10.5 69.333 -31.5 90s-54.167 31 -99.5 31
c-54.667 0 -92.834 -12.833 -114.501 -38.5z" />
    <glyph glyph-name="Edotaccent" unicode="&#x116;" horiz-adv-x="555" 
d="M239 787h80v-77h-80v77zM70 644h435v-65h-353v-225h317v-64h-317v-226h353v-64h-435v644z" />
    <glyph glyph-name="edotaccent" unicode="&#x117;" horiz-adv-x="533" 
d="M228 621h80v-77h-80v77zM155.5 113.5c13 -20.333 32.499 -35.001 58.499 -44.001s61 -13.5 105 -13.5c48.667 0 93.334 8.33301 134.001 25v-64c-40.667 -18 -90.667 -27 -150 -27c-84.667 0 -148 20.333 -190 61s-63 103.334 -63 188.001c0 78 18.667 138.333 56 181
s94.333 64 171 64c67.333 0 118.5 -18 153.5 -54s52.5 -83.333 52.5 -142v-89h-351c2.66699 -36.667 10.5 -65.167 23.5 -85.5zM164.499 379.499c-21.667 -25.667 -32.499 -66.167 -32.499 -121.5h278v39c0 39.333 -10.5 69.333 -31.5 90s-54.167 31 -99.5 31
c-54.667 0 -92.834 -12.833 -114.501 -38.5z" />
    <glyph glyph-name="Eogonek" unicode="&#x118;" horiz-adv-x="555" 
d="M152 579l-0.00292969 -225h317v-64h-317v-226h353v-64h-37c-23.333 -17.333 -41.166 -36.333 -53.499 -57s-18.5 -41.667 -18.5 -63c0 -16 4 -27.167 12 -33.5s20.667 -9.5 38 -9.5c8.66699 0 17.667 1 27 3s17 4.66699 23 8v-56c-16 -8 -38.667 -12 -68 -12
s-53.166 7.16699 -71.499 21.5s-27.5 36.5 -27.5 66.5c0 25.333 6.83301 49.833 20.5 73.5s31.834 43.167 54.501 58.5h-334v644h435v-65h-353z" />
    <glyph glyph-name="eogonek" unicode="&#x119;" horiz-adv-x="533" 
d="M483 199l-351.002 0.000976562c2.66699 -36.667 10.5 -65.167 23.5 -85.5s32.5 -35 58.5 -44s61 -13.5 105 -13.5c48.667 0 93.334 8.33301 134.001 25v-64c-12.667 -6 -31.667 -12 -57 -18c-47.333 -36 -71 -75.667 -71 -119c0 -16 4 -27.167 12 -33.5
s20.667 -9.5 38 -9.5c8.66699 0 17.667 1 27 3s17 4.66699 23 8v-56c-16 -8 -38.667 -12 -68 -12s-53.166 7.16699 -71.499 21.5s-27.5 36.5 -27.5 66.5c0 23.333 5.66699 45.666 17 66.999s26.333 39.666 45 54.999h-17c-84.667 0 -148 20.333 -190 61
s-63 103.334 -63 188.001c0 78 18.667 138.333 56 181s94.333 64 171 64c67.333 0 118.5 -18 153.5 -54s52.5 -83.333 52.5 -142v-89zM409.998 297.001c0 39.333 -10.499 69.333 -31.499 90s-54.167 31 -99.5 31c-54.667 0 -92.834 -12.833 -114.501 -38.5
s-32.5 -66.167 -32.5 -121.5h278v39z" />
    <glyph glyph-name="Ecaron" unicode="&#x11a;" horiz-adv-x="555" 
d="M254 688l-115 148h71l77 -102l77 102h71l-115 -148h-66zM70 644h435v-65h-353v-225h317v-64h-317v-226h353v-64h-435v644z" />
    <glyph glyph-name="ecaron" unicode="&#x11b;" horiz-adv-x="533" 
d="M242 522l-115 148h71l77 -102l77 102h71l-115 -148h-66zM155.5 113.5c13 -20.333 32.499 -35.001 58.499 -44.001s61 -13.5 105 -13.5c48.667 0 93.334 8.33301 134.001 25v-64c-40.667 -18 -90.667 -27 -150 -27c-84.667 0 -148 20.333 -190 61s-63 103.334 -63 188.001
c0 78 18.667 138.333 56 181s94.333 64 171 64c67.333 0 118.5 -18 153.5 -54s52.5 -83.333 52.5 -142v-89h-351c2.66699 -36.667 10.5 -65.167 23.5 -85.5zM164.499 379.499c-21.667 -25.667 -32.499 -66.167 -32.499 -121.5h278v39c0 39.333 -10.5 69.333 -31.5 90
s-54.167 31 -99.5 31c-54.667 0 -92.834 -12.833 -114.501 -38.5z" />
    <glyph glyph-name="Gcircumflex" unicode="&#x11c;" horiz-adv-x="639" 
d="M433 688l-77 102l-77 -102h-71l115 148h66l115 -148h-71zM518 86l-0.000976562 205h-172v56h243v-306c-53.333 -34 -130 -51 -230 -51c-101.333 0 -178.166 28.333 -230.499 85s-78.5 134.334 -78.5 233.001c0 109.333 25.167 194.333 75.5 255s127.833 91 232.5 91
c68.667 0 131 -10 187 -30v-72c-56.667 21.333 -116.667 32 -180 32c-83.333 0 -143 -23.333 -179 -70s-54 -115.334 -54 -206.001c0 -81.333 18.667 -143 56 -185s96 -63 176 -63c58 0 109.333 8.66699 154 26z" />
    <glyph glyph-name="gcircumflex" unicode="&#x11d;" horiz-adv-x="547" 
d="M341 522l-77 102l-77 -102h-71l115 148h66l115 -148h-71zM376.5 -18c-12.333 7.33301 -34.166 11.002 -65.499 11.002h-126c-43.333 0 -76 7.5 -98 22.5s-33 36.833 -33 65.5c0 20.667 6.33301 39.5 19 56.5s31 29.167 55 36.5c-52 25.333 -78 72 -78 140
c0 58.667 17 101.667 51 129s86.667 41 158 41c24.667 0 52 -3.33301 82 -10h171l-3 -56h-86c28.667 -24.667 43 -59.334 43 -104.001c0 -53.333 -15.5 -94.333 -46.5 -123s-77.833 -43 -140.5 -43c-14 0 -33.333 1.66699 -58 5c-22 -1.33301 -41.667 -7.5 -59 -18.5
s-26 -24.833 -26 -41.5c0 -12 4.66699 -20.5 14 -25.5s25.666 -7.5 48.999 -7.5h131c47.333 0 83.666 -9.66699 108.999 -29s38 -47 38 -83c0 -44.667 -18.5 -76.5 -55.5 -95.5s-92.833 -28.5 -167.5 -28.5c-79.333 0 -142.666 8.33301 -189.999 25v68
c26 -8.66699 55.5 -15.334 88.5 -20.001s65.5 -7 97.5 -7c36.667 0 65 1.33301 85 4s35 7.83398 45 15.501s15 19.5 15 35.5c0 17.333 -6.16699 29.666 -18.5 36.999zM356.5 233.002c18.333 15.333 27.5 42.333 27.5 81s-9.5 66.667 -28.5 84s-51.167 26 -96.5 26
c-44.667 0 -77 -8.5 -97 -25.5s-30 -45.167 -30 -84.5c0 -37.333 9.66699 -64 29 -80s52 -24 98 -24c46.667 0 79.167 7.66699 97.5 23z" />
    <glyph glyph-name="Gbreve" unicode="&#x11e;" horiz-adv-x="639" 
d="M299 758.5c12 -12.333 28.668 -18.5 50.001 -18.5c46.667 0 70 24.667 70 74h58c0 -38.667 -11 -69.334 -33 -92.001s-53.667 -34 -95 -34c-40.667 0 -71.834 11.333 -93.501 34s-32.5 53.334 -32.5 92.001h58c0 -24.667 6 -43.167 18 -55.5zM518.001 86
l-0.000976562 205h-172v56h243v-306c-53.333 -34 -130 -51 -230 -51c-101.333 0 -178.166 28.333 -230.499 85s-78.5 134.334 -78.5 233.001c0 109.333 25.167 194.333 75.5 255s127.833 91 232.5 91c68.667 0 131 -10 187 -30v-72c-56.667 21.333 -116.667 32 -180 32
c-83.333 0 -143 -23.333 -179 -70s-54 -115.334 -54 -206.001c0 -81.333 18.667 -143 56 -185s96 -63 176 -63c58 0 109.333 8.66699 154 26z" />
    <glyph glyph-name="gbreve" unicode="&#x11f;" horiz-adv-x="547" 
d="M215 592.5c12 -12.333 28.668 -18.5 50.001 -18.5c46.667 0 70 24.667 70 74h58c0 -38.667 -11 -69.334 -33 -92.001s-53.667 -34 -95 -34c-40.667 0 -71.834 11.333 -93.501 34s-32.5 53.334 -32.5 92.001h58c0 -24.667 6 -43.167 18 -55.5zM376.501 -18
c-12.333 7.33301 -34.166 11.002 -65.499 11.002h-126c-43.333 0 -76 7.5 -98 22.5s-33 36.833 -33 65.5c0 20.667 6.33301 39.5 19 56.5s31 29.167 55 36.5c-52 25.333 -78 72 -78 140c0 58.667 17 101.667 51 129s86.667 41 158 41c24.667 0 52 -3.33301 82 -10h171
l-3 -56h-86c28.667 -24.667 43 -59.334 43 -104.001c0 -53.333 -15.5 -94.333 -46.5 -123s-77.833 -43 -140.5 -43c-14 0 -33.333 1.66699 -58 5c-22 -1.33301 -41.667 -7.5 -59 -18.5s-26 -24.833 -26 -41.5c0 -12 4.66699 -20.5 14 -25.5s25.666 -7.5 48.999 -7.5h131
c47.333 0 83.666 -9.66699 108.999 -29s38 -47 38 -83c0 -44.667 -18.5 -76.5 -55.5 -95.5s-92.833 -28.5 -167.5 -28.5c-79.333 0 -142.666 8.33301 -189.999 25v68c26 -8.66699 55.5 -15.334 88.5 -20.001s65.5 -7 97.5 -7c36.667 0 65 1.33301 85 4s35 7.83398 45 15.501
s15 19.5 15 35.5c0 17.333 -6.16699 29.666 -18.5 36.999zM356.501 233.002c18.333 15.333 27.5 42.333 27.5 81s-9.5 66.667 -28.5 84s-51.167 26 -96.5 26c-44.667 0 -77 -8.5 -97 -25.5s-30 -45.167 -30 -84.5c0 -37.333 9.66699 -64 29 -80s52 -24 98 -24
c46.667 0 79.167 7.66699 97.5 23z" />
    <glyph glyph-name="Gdotaccent" unicode="&#x120;" horiz-adv-x="639" 
d="M312 787h80v-77h-80v77zM518 86l-0.000976562 205h-172v56h243v-306c-53.333 -34 -130 -51 -230 -51c-101.333 0 -178.166 28.333 -230.499 85s-78.5 134.334 -78.5 233.001c0 109.333 25.167 194.333 75.5 255s127.833 91 232.5 91c68.667 0 131 -10 187 -30v-72
c-56.667 21.333 -116.667 32 -180 32c-83.333 0 -143 -23.333 -179 -70s-54 -115.334 -54 -206.001c0 -81.333 18.667 -143 56 -185s96 -63 176 -63c58 0 109.333 8.66699 154 26z" />
    <glyph glyph-name="gdotaccent" unicode="&#x121;" horiz-adv-x="547" 
d="M220 616h80v-77h-80v77zM376.5 -18c-12.333 7.33301 -34.166 11.002 -65.499 11.002h-126c-43.333 0 -76 7.5 -98 22.5s-33 36.833 -33 65.5c0 20.667 6.33301 39.5 19 56.5s31 29.167 55 36.5c-52 25.333 -78 72 -78 140c0 58.667 17 101.667 51 129s86.667 41 158 41
c24.667 0 52 -3.33301 82 -10h171l-3 -56h-86c28.667 -24.667 43 -59.334 43 -104.001c0 -53.333 -15.5 -94.333 -46.5 -123s-77.833 -43 -140.5 -43c-14 0 -33.333 1.66699 -58 5c-22 -1.33301 -41.667 -7.5 -59 -18.5s-26 -24.833 -26 -41.5c0 -12 4.66699 -20.5 14 -25.5
s25.666 -7.5 48.999 -7.5h131c47.333 0 83.666 -9.66699 108.999 -29s38 -47 38 -83c0 -44.667 -18.5 -76.5 -55.5 -95.5s-92.833 -28.5 -167.5 -28.5c-79.333 0 -142.666 8.33301 -189.999 25v68c26 -8.66699 55.5 -15.334 88.5 -20.001s65.5 -7 97.5 -7
c36.667 0 65 1.33301 85 4s35 7.83398 45 15.501s15 19.5 15 35.5c0 17.333 -6.16699 29.666 -18.5 36.999zM356.5 233.002c18.333 15.333 27.5 42.333 27.5 81s-9.5 66.667 -28.5 84s-51.167 26 -96.5 26c-44.667 0 -77 -8.5 -97 -25.5s-30 -45.167 -30 -84.5
c0 -37.333 9.66699 -64 29 -80s52 -24 98 -24c46.667 0 79.167 7.66699 97.5 23z" />
    <glyph glyph-name="Gcommaaccent" unicode="&#x122;" horiz-adv-x="639" 
d="M518 86l-0.000976562 205h-172v56h243v-306c-53.333 -34 -130 -51 -230 -51c-101.333 0 -178.166 28.333 -230.499 85s-78.5 134.334 -78.5 233.001c0 109.333 25.167 194.333 75.5 255s127.833 91 232.5 91c68.667 0 131 -10 187 -30v-72
c-56.667 21.333 -116.667 32 -180 32c-83.333 0 -143 -23.333 -179 -70s-54 -115.334 -54 -206.001c0 -81.333 18.667 -143 56 -185s96 -63 176 -63c58 0 109.333 8.66699 154 26zM333.999 -47h74l-42 -177h-60z" />
    <glyph glyph-name="gcommaaccent" unicode="&#x123;" horiz-adv-x="547" 
d="M291 522h-74l42 177h60zM376.5 -18c-12.333 7.33301 -34.166 11.002 -65.499 11.002h-126c-43.333 0 -76 7.5 -98 22.5s-33 36.833 -33 65.5c0 20.667 6.33301 39.5 19 56.5s31 29.167 55 36.5c-52 25.333 -78 72 -78 140c0 58.667 17 101.667 51 129s86.667 41 158 41
c24.667 0 52 -3.33301 82 -10h171l-3 -56h-86c28.667 -24.667 43 -59.334 43 -104.001c0 -53.333 -15.5 -94.333 -46.5 -123s-77.833 -43 -140.5 -43c-14 0 -33.333 1.66699 -58 5c-22 -1.33301 -41.667 -7.5 -59 -18.5s-26 -24.833 -26 -41.5c0 -12 4.66699 -20.5 14 -25.5
s25.666 -7.5 48.999 -7.5h131c47.333 0 83.666 -9.66699 108.999 -29s38 -47 38 -83c0 -44.667 -18.5 -76.5 -55.5 -95.5s-92.833 -28.5 -167.5 -28.5c-79.333 0 -142.666 8.33301 -189.999 25v68c26 -8.66699 55.5 -15.334 88.5 -20.001s65.5 -7 97.5 -7
c36.667 0 65 1.33301 85 4s35 7.83398 45 15.501s15 19.5 15 35.5c0 17.333 -6.16699 29.666 -18.5 36.999zM356.5 233.002c18.333 15.333 27.5 42.333 27.5 81s-9.5 66.667 -28.5 84s-51.167 26 -96.5 26c-44.667 0 -77 -8.5 -97 -25.5s-30 -45.167 -30 -84.5
c0 -37.333 9.66699 -64 29 -80s52 -24 98 -24c46.667 0 79.167 7.66699 97.5 23z" />
    <glyph glyph-name="Hcircumflex" unicode="&#x124;" horiz-adv-x="644" 
d="M399 688l-77 102l-77 -102h-71l115 148h66l115 -148h-71zM492 290h-340v-290h-82v644h82v-290h340v290h82v-644h-82v290z" />
    <glyph glyph-name="hcircumflex" unicode="&#x125;" horiz-adv-x="570" 
d="M301 701l-77 102l-77 -102h-71l115 148h66l115 -148h-71zM423 0v306.999c0 40.667 -9 69.334 -27 86.001s-48.333 25 -91 25c-26.667 0 -54.167 -5.83301 -82.5 -17.5s-51.833 -26.834 -70.5 -45.501v-355h-82v674h82v-251c50 40.667 110.333 61 181 61
c58 0 101.167 -14.167 129.5 -42.5s42.5 -72.166 42.5 -131.499v-310h-82z" />
    <glyph glyph-name="Hbar" unicode="&#x126;" horiz-adv-x="644" 
d="M634 464h-60v-464h-82v290h-340v-290h-82v464h-60v65h60v115h82v-115h340v115h82v-115h60v-65zM492 464h-340v-110h340v110z" />
    <glyph glyph-name="hbar" unicode="&#x127;" horiz-adv-x="587" 
d="M479.5 441.5c28.333 -28.333 42.5 -72.167 42.5 -131.5v-310h-82v307c0 40.667 -9 69.334 -27 86.001s-48.333 25 -91 25c-26.667 0 -54.167 -5.83301 -82.5 -17.5s-51.833 -26.834 -70.5 -45.501v-355h-82v544h-57v65h57v65h82v-65h166v-65h-166v-121
c50 40.667 110.333 61 181 61c58 0 101.167 -14.167 129.5 -42.5z" />
    <glyph glyph-name="Itilde" unicode="&#x128;" horiz-adv-x="222" 
d="M107 713c-11.333 4.66699 -22.835 8.83203 -34.502 12.499s-21.834 5.5 -30.501 5.5c-35.333 0 -63 -11.667 -83 -35v63c8 8.66699 19.833 15.834 35.5 21.501s31.5 8.5 47.5 8.5c12.667 0 24.834 -1.66699 36.501 -5s24.834 -8.33301 39.501 -15
c16.667 -6.66699 29.5 -11.334 38.5 -14.001s18.833 -4 29.5 -4c34 0 59.667 12 77 36v-64c-6.66699 -9.33301 -17 -16.666 -31 -21.999s-29.333 -8 -46 -8c-19.333 0 -45.666 6.66699 -78.999 20zM69.998 643.998h82v-644h-82v644z" />
    <glyph glyph-name="itilde" unicode="&#x129;" horiz-adv-x="295" 
d="M145 547c-11.333 4.66699 -22.835 8.83203 -34.502 12.499s-21.834 5.5 -30.501 5.5c-35.333 0 -63 -11.667 -83 -35v63c8 8.66699 19.833 15.834 35.5 21.501s31.5 8.5 47.5 8.5c12.667 0 24.834 -1.66699 36.501 -5s24.834 -8.33301 39.501 -15
c16.667 -6.66699 29.5 -11.334 38.5 -14.001s18.833 -4 29.5 -4c34 0 59.667 12 77 36v-64c-6.66699 -9.33301 -17 -16.666 -31 -21.999s-29.333 -8 -46 -8c-19.333 0 -45.666 6.66699 -78.999 20zM224.998 -0.00195312h-82v409h-73l8 65h147v-474z" />
    <glyph glyph-name="Imacron" unicode="&#x12a;" horiz-adv-x="222" 
d="M255 720h-288v59h288v-59zM70 644h82v-644h-82v644z" />
    <glyph glyph-name="imacron" unicode="&#x12b;" horiz-adv-x="295" 
d="M292 561h-288v59h288v-59zM225 0h-82v409h-73l8 65h147v-474z" />
    <glyph glyph-name="Ibreve" unicode="&#x12c;" horiz-adv-x="222" 
d="M60 765.5c12 -12.333 28.668 -18.5 50.001 -18.5c46.667 0 70 24.667 70 74h58c0 -38.667 -11 -69.334 -33 -92.001s-53.667 -34 -95 -34c-40.667 0 -71.834 11.333 -93.501 34s-32.5 53.334 -32.5 92.001h58c0 -24.667 6 -43.167 18 -55.5zM70.001 644h82v-644h-82v644z
" />
    <glyph glyph-name="ibreve" unicode="&#x12d;" horiz-adv-x="295" 
d="M108 591.5c12 -12.333 28.668 -18.5 50.001 -18.5c46.667 0 70 24.667 70 74h58c0 -38.667 -11 -69.334 -33 -92.001s-53.667 -34 -95 -34c-40.667 0 -71.834 11.333 -93.501 34s-32.5 53.334 -32.5 92.001h58c0 -24.667 6 -43.167 18 -55.5zM225.001 0h-82v409h-73l8 65
h147v-474z" />
    <glyph glyph-name="Iogonek" unicode="&#x12e;" horiz-adv-x="222" 
d="M151 -160c9.33301 2 16.9971 4.66699 22.9971 8v-56c-16 -8 -38.667 -12 -68 -12s-53.166 7.16699 -71.499 21.5s-27.5 36.5 -27.5 66.5c0 25.333 6.83301 49.833 20.5 73.5s31.834 43.167 54.501 58.5h-12v644h82v-644h-6c-23.333 -17.333 -41.166 -36.333 -53.499 -57
s-18.5 -41.667 -18.5 -63c0 -16 4 -27.167 12 -33.5s20.667 -9.5 38 -9.5c8.66699 0 17.667 1 27 3z" />
    <glyph glyph-name="iogonek" unicode="&#x12f;" horiz-adv-x="296" 
d="M226 585h-91v75h91v-75zM214 -160c9.33301 2 16.9971 4.66699 22.9971 8v-56c-16 -8 -38.667 -12 -68 -12s-53.166 7.16699 -71.499 21.5s-27.5 36.5 -27.5 66.5c0 25.333 6.83301 49.833 20.5 73.5s31.834 43.167 54.501 58.5h-2v409h-73l8 65h147v-474h-16
c-23.333 -17.333 -41.166 -36.333 -53.499 -57s-18.5 -41.667 -18.5 -63c0 -16 4 -27.167 12 -33.5s20.667 -9.5 38 -9.5c8.66699 0 17.667 1 27 3z" />
    <glyph glyph-name="Idotaccent" unicode="&#x130;" horiz-adv-x="222" 
d="M71 789h80v-77h-80v77zM70 644h82v-644h-82v644z" />
    <glyph glyph-name="dotlessi" unicode="&#x131;" horiz-adv-x="295" 
d="M225 0h-82v409h-73l8 65h147v-474z" />
    <glyph glyph-name="IJ" unicode="&#x132;" horiz-adv-x="628" 
d="M70 644h82v-644h-82v644zM513.5 38.5c-33 -32.333 -82.167 -48.501 -147.5 -48.501c-51.333 0 -96.333 7.66699 -135 23v70c16 -7.33301 35.5 -13.166 58.5 -17.499s45.167 -6.5 66.5 -6.5c46 0 78.333 9.66699 97 29s28 51 28 95v461h82v-467
c0 -60 -16.5 -106.167 -49.5 -138.5z" />
    <glyph glyph-name="ij" unicode="&#x133;" horiz-adv-x="506" 
d="M135 585v75h91v-75h-91zM345 585v75h91v-75h-91zM225 0h-82v409h-73l8 65h147v-474zM398.5 -196.5c-25 -25 -60.833 -37.501 -107.5 -37.501c-33.333 0 -63 4.66699 -89 14v65c20.667 -6.66699 41 -10 61 -10c35.333 0 59.333 5.83301 72 17.5s19 31.834 19 60.501v496
h-73l8 65h147v-568c0 -43.333 -12.5 -77.5 -37.5 -102.5z" />
    <glyph glyph-name="Jcircumflex" unicode="&#x134;" horiz-adv-x="427" 
d="M396 688l-77 102l-77 -102h-71l115 148h66l115 -148h-71zM312.5 38.5c-33 -32.333 -82.167 -48.501 -147.5 -48.501c-51.333 0 -96.333 7.66699 -135 23v70c16 -7.33301 35.5 -13.166 58.5 -17.499s45.167 -6.5 66.5 -6.5c46 0 78.333 9.66699 97 29s28 51 28 95v461h82
v-467c0 -60 -16.5 -106.167 -49.5 -138.5z" />
    <glyph glyph-name="jcircumflex" unicode="&#x135;" horiz-adv-x="294" 
d="M249 522l-77 102l-77 -102h-71l115 148h66l115 -148h-71zM186.5 -196.5c-25 -25 -60.833 -37.501 -107.5 -37.501c-33.333 0 -63 4.66699 -89 14v65c20.667 -6.66699 41 -10 61 -10c35.333 0 59.333 5.83301 72 17.5s19 31.834 19 60.501v496h-73l8 65h147v-568
c0 -43.333 -12.5 -77.5 -37.5 -102.5z" />
    <glyph glyph-name="Kcommaaccent" unicode="&#x136;" horiz-adv-x="607" 
d="M557 0h-88l-212 333l-105 -111v-222h-82v644h82v-319l301 319h96l-240 -258zM275 -37h74l-42 -177h-60z" />
    <glyph glyph-name="kcommaaccent" unicode="&#x137;" horiz-adv-x="530" 
d="M480 0h-86l-171 242l-71 -67v-175h-82v674h82v-409l222 209h95l-194 -188zM232 -37h74l-42 -177h-60z" />
    <glyph glyph-name="kgreenlandic" unicode="&#x138;" horiz-adv-x="530" 
d="M480 0h-86l-170 227l-72 -74v-153h-82v474h82v-228l222 228h95l-194 -202z" />
    <glyph glyph-name="Lacute" unicode="&#x139;" horiz-adv-x="525" 
d="M141 856h74l-79 -168h-66zM495 64v-64h-425v644h82v-580h343z" />
    <glyph glyph-name="lacute" unicode="&#x13a;" horiz-adv-x="263" 
d="M141 896h74l-79 -168h-66zM152 674v-563c0 -19.333 3.16699 -32.833 9.5 -40.5s16.833 -11.5 31.5 -11.5c15.333 0 30.333 2 45 6v-65c-17.333 -6.66699 -39 -10 -65 -10c-33.333 0 -58.833 8.83301 -76.5 26.5s-26.5 46.167 -26.5 85.5v572h82z" />
    <glyph glyph-name="Lcommaaccent" unicode="&#x13b;" horiz-adv-x="525" 
d="M495 64v-64h-425v644h82v-580h343zM249 -37h74l-42 -177h-60z" />
    <glyph glyph-name="lcommaaccent" unicode="&#x13c;" horiz-adv-x="263" 
d="M152 674v-563c0 -19.333 3.16699 -32.833 9.5 -40.5s16.833 -11.5 31.5 -11.5c15.333 0 30.333 2 45 6v-65c-17.333 -6.66699 -39 -10 -65 -10c-33.333 0 -58.833 8.83301 -76.5 26.5s-26.5 46.167 -26.5 85.5v572h82zM134 -37h74l-42 -177h-60z" />
    <glyph glyph-name="Lcaron" unicode="&#x13d;" horiz-adv-x="525" 
d="M329 745h74l-42 -177h-60zM495 64v-64h-425v644h82v-580h343z" />
    <glyph glyph-name="lcaron" unicode="&#x13e;" horiz-adv-x="325" 
d="M238 816h74l-42 -177h-60zM152 674v-563c0 -19.333 3.16699 -32.833 9.5 -40.5s16.833 -11.5 31.5 -11.5c15.333 0 30.333 2 45 6v-65c-17.333 -6.66699 -39 -10 -65 -10c-33.333 0 -58.833 8.83301 -76.5 26.5s-26.5 46.167 -26.5 85.5v572h82z" />
    <glyph glyph-name="Ldot" unicode="&#x13f;" horiz-adv-x="525" 
d="M495 64v-64h-425v644h82v-580h343zM324 336h80v-77h-80v77z" />
    <glyph glyph-name="ldot" unicode="&#x140;" horiz-adv-x="312" 
d="M152 674v-563c0 -19.333 3.16699 -32.833 9.5 -40.5s16.833 -11.5 31.5 -11.5c15.333 0 30.333 2 45 6v-65c-17.333 -6.66699 -39 -10 -65 -10c-33.333 0 -58.833 8.83301 -76.5 26.5s-26.5 46.167 -26.5 85.5v572h82zM229 343h80v-77h-80v77z" />
    <glyph glyph-name="Lslash" unicode="&#x141;" horiz-adv-x="525" 
d="M495 64v-64h-425v278l-100 -44v71l100 44v295h82v-259l134 59v-71l-134 -59v-250h343z" />
    <glyph glyph-name="lslash" unicode="&#x142;" horiz-adv-x="263" 
d="M152 318v-207c0 -19.333 3.16699 -32.833 9.5 -40.5s16.833 -11.5 31.5 -11.5c15.333 0 30.333 2 45 6v-65c-17.333 -6.66699 -39 -10 -65 -10c-33.333 0 -58.833 8.83301 -76.5 26.5s-26.5 46.167 -26.5 85.5v180l-108 -48v71l108 48v321h82v-285l126 55v-71z" />
    <glyph glyph-name="Nacute" unicode="&#x143;" horiz-adv-x="663" 
d="M367 856h74l-79 -168h-66zM152 0h-82v644h74l367 -518v518h82v-644h-75l-366 517v-517z" />
    <glyph glyph-name="nacute" unicode="&#x144;" horiz-adv-x="570" 
d="M308 690h74l-79 -168h-66zM423 0v307c0 28.667 -3.66699 50.834 -11 66.501s-19.5 27 -36.5 34s-41.5 10.5 -73.5 10.5c-29.333 0 -57 -5.33301 -83 -16s-48.333 -25.334 -67 -44.001v-358h-82v474h74l5 -54c52 42.667 113.333 64 184 64c60 0 103.667 -14 131 -42
s41 -72 41 -132v-310h-82z" />
    <glyph glyph-name="Ncommaaccent" unicode="&#x145;" horiz-adv-x="663" 
d="M152 0h-82v644h74l367 -518v518h82v-644h-75l-366 517v-517zM307 -37h74l-42 -177h-60z" />
    <glyph glyph-name="ncommaaccent" unicode="&#x146;" horiz-adv-x="570" 
d="M423 0v307c0 28.667 -3.66699 50.834 -11 66.501s-19.5 27 -36.5 34s-41.5 10.5 -73.5 10.5c-29.333 0 -57 -5.33301 -83 -16s-48.333 -25.334 -67 -44.001v-358h-82v474h74l5 -54c52 42.667 113.333 64 184 64c60 0 103.667 -14 131 -42s41 -72 41 -132v-310h-82z
M261 -37h74l-42 -177h-60z" />
    <glyph glyph-name="Ncaron" unicode="&#x147;" horiz-adv-x="663" 
d="M313 688l-115 148h71l77 -102l77 102h71l-115 -148h-66zM152 0h-82v644h74l367 -518v518h82v-644h-75l-366 517v-517z" />
    <glyph glyph-name="ncaron" unicode="&#x148;" horiz-adv-x="570" 
d="M241 522l-115 148h71l77 -102l77 102h71l-115 -148h-66zM423 0v307c0 28.667 -3.66699 50.834 -11 66.501s-19.5 27 -36.5 34s-41.5 10.5 -73.5 10.5c-29.333 0 -57 -5.33301 -83 -16s-48.333 -25.334 -67 -44.001v-358h-82v474h74l5 -54c52 42.667 113.333 64 184 64
c60 0 103.667 -14 131 -42s41 -72 41 -132v-310h-82z" />
    <glyph glyph-name="napostrophe" unicode="&#x149;" horiz-adv-x="657" 
d="M61 649h74l-42 -177h-60zM510 0v307c0 28.667 -3.66699 50.834 -11 66.501s-19.5 27 -36.5 34s-41.5 10.5 -73.5 10.5c-29.333 0 -57 -5.33301 -83 -16s-48.333 -25.334 -67 -44.001v-358h-82v474h74l5 -54c52 42.667 113.333 64 184 64c60 0 103.667 -14 131 -42
s41 -72 41 -132v-310h-82z" />
    <glyph glyph-name="Eng" unicode="&#x14a;" horiz-adv-x="663" 
d="M593 -94c0 -43.333 -12.5 -77.501 -37.5 -102.501s-60.833 -37.5 -107.5 -37.5c-33.333 0 -63 4.66699 -89 14v65c20.667 -6.66699 41 -10 61 -10c35.333 0 59.333 5.83301 72 17.5s19 31.834 19 60.501v97l-359 507v-517h-82v644h74l367 -518v518h82v-738z" />
    <glyph glyph-name="eng" unicode="&#x14b;" horiz-adv-x="570" 
d="M467.5 -196.5c-25 -25 -60.833 -37.501 -107.5 -37.501c-33.333 0 -63 4.66699 -89 14v65c20.667 -6.66699 41 -10 61 -10c35.333 0 59.333 5.83301 72 17.5s19 31.834 19 60.501v394c0 28.667 -3.66699 50.834 -11 66.501s-19.5 27 -36.5 34s-41.5 10.5 -73.5 10.5
c-29.333 0 -57 -5.33301 -83 -16s-48.333 -25.334 -67 -44.001v-358h-82v474h74l5 -54c52 42.667 113.333 64 184 64c60 0 103.667 -14 131 -42s41 -72 41 -132v-404c0 -43.333 -12.5 -77.5 -37.5 -102.5z" />
    <glyph glyph-name="Omacron" unicode="&#x14c;" horiz-adv-x="694" 
d="M491 720h-288v59h288v-59zM571.5 70c-48.333 -53.333 -123.166 -80 -224.499 -80s-176.166 26.667 -224.499 80s-72.5 137.333 -72.5 252s24.167 198.667 72.5 252s123.166 80 224.499 80s176.166 -26.667 224.499 -80s72.5 -137.333 72.5 -252
s-24.167 -198.667 -72.5 -252zM539 475.5c-15.333 38.333 -38.666 66 -69.999 83s-72 25.5 -122 25.5s-90.667 -8.5 -122 -25.5s-54.666 -44.667 -69.999 -83s-23 -89.5 -23 -153.5s7.66699 -115.167 23 -153.5s38.666 -66 69.999 -83s72 -25.5 122 -25.5
s90.667 8.5 122 25.5s54.666 44.667 69.999 83s23 89.5 23 153.5s-7.66699 115.167 -23 153.5z" />
    <glyph glyph-name="omacron" unicode="&#x14d;" horiz-adv-x="574" 
d="M431 554h-288v59h288v-59zM524 237c0 -82 -19.1689 -143.667 -57.502 -185s-98.166 -62 -179.499 -62s-141.166 20.667 -179.499 62s-57.5 103 -57.5 185c0 164.667 79 247 237 247s237 -82.333 237 -247zM406.498 102c23.667 28 35.5 73 35.5 135s-12 107 -36 135
s-63.667 42 -119 42s-95 -14 -119 -42s-36 -73 -36 -135s11.833 -107 35.5 -135s63.5 -42 119.5 -42s95.833 14 119.5 42z" />
    <glyph glyph-name="Obreve" unicode="&#x14e;" horiz-adv-x="694" 
d="M296 758.5c12 -12.333 28.668 -18.5 50.001 -18.5c46.667 0 70 24.667 70 74h58c0 -38.667 -11 -69.334 -33 -92.001s-53.667 -34 -95 -34c-40.667 0 -71.834 11.333 -93.501 34s-32.5 53.334 -32.5 92.001h58c0 -24.667 6 -43.167 18 -55.5zM571.501 70
c-48.333 -53.333 -123.166 -80 -224.499 -80s-176.166 26.667 -224.499 80s-72.5 137.333 -72.5 252s24.167 198.667 72.5 252s123.166 80 224.499 80s176.166 -26.667 224.499 -80s72.5 -137.333 72.5 -252s-24.167 -198.667 -72.5 -252zM539.001 475.5
c-15.333 38.333 -38.666 66 -69.999 83s-72 25.5 -122 25.5s-90.667 -8.5 -122 -25.5s-54.666 -44.667 -69.999 -83s-23 -89.5 -23 -153.5s7.66699 -115.167 23 -153.5s38.666 -66 69.999 -83s72 -25.5 122 -25.5s90.667 8.5 122 25.5s54.666 44.667 69.999 83
s23 89.5 23 153.5s-7.66699 115.167 -23 153.5z" />
    <glyph glyph-name="obreve" unicode="&#x14f;" horiz-adv-x="574" 
d="M236 592.5c12 -12.333 28.668 -18.5 50.001 -18.5c46.667 0 70 24.667 70 74h58c0 -38.667 -11 -69.334 -33 -92.001s-53.667 -34 -95 -34c-40.667 0 -71.834 11.333 -93.501 34s-32.5 53.334 -32.5 92.001h58c0 -24.667 6 -43.167 18 -55.5zM524.001 237
c0 -82 -19.1689 -143.667 -57.502 -185s-98.166 -62 -179.499 -62s-141.166 20.667 -179.499 62s-57.5 103 -57.5 185c0 164.667 79 247 237 247s237 -82.333 237 -247zM406.499 102c23.667 28 35.5 73 35.5 135s-12 107 -36 135s-63.667 42 -119 42s-95 -14 -119 -42
s-36 -73 -36 -135s11.833 -107 35.5 -135s63.5 -42 119.5 -42s95.833 14 119.5 42z" />
    <glyph glyph-name="Ohungarumlaut" unicode="&#x150;" horiz-adv-x="694" 
d="M259 840h78l-81 -152h-68zM465 840h78l-81 -152h-68zM571.5 70c-48.333 -53.333 -123.166 -80 -224.499 -80s-176.166 26.667 -224.499 80s-72.5 137.333 -72.5 252s24.167 198.667 72.5 252s123.166 80 224.499 80s176.166 -26.667 224.499 -80s72.5 -137.333 72.5 -252
s-24.167 -198.667 -72.5 -252zM539 475.5c-15.333 38.333 -38.666 66 -69.999 83s-72 25.5 -122 25.5s-90.667 -8.5 -122 -25.5s-54.666 -44.667 -69.999 -83s-23 -89.5 -23 -153.5s7.66699 -115.167 23 -153.5s38.666 -66 69.999 -83s72 -25.5 122 -25.5
s90.667 8.5 122 25.5s54.666 44.667 69.999 83s23 89.5 23 153.5s-7.66699 115.167 -23 153.5z" />
    <glyph glyph-name="ohungarumlaut" unicode="&#x151;" horiz-adv-x="574" 
d="M223 674h78l-81 -152h-68zM429 674h78l-81 -152h-68zM524 237c0 -82 -19.1689 -143.667 -57.502 -185s-98.166 -62 -179.499 -62s-141.166 20.667 -179.499 62s-57.5 103 -57.5 185c0 164.667 79 247 237 247s237 -82.333 237 -247zM406.498 102
c23.667 28 35.5 73 35.5 135s-12 107 -36 135s-63.667 42 -119 42s-95 -14 -119 -42s-36 -73 -36 -135s11.833 -107 35.5 -135s63.5 -42 119.5 -42s95.833 14 119.5 42z" />
    <glyph glyph-name="OE" unicode="&#x152;" horiz-adv-x="1047" 
d="M644 579v-225h317v-64h-317v-226h353v-64h-435v60c-47.333 -46.667 -119 -70 -215 -70c-101.333 0 -176.166 26.667 -224.499 80s-72.5 137.333 -72.5 252s24.167 198.667 72.5 252s123.166 80 224.499 80c96 0 167.667 -23.333 215 -70v60h435v-65h-353zM469 85.5
c31.333 17 54.666 44.667 69.999 83s23 89.5 23 153.5s-7.66699 115.167 -23 153.5s-38.666 66 -69.999 83s-72 25.5 -122 25.5s-90.667 -8.5 -122 -25.5s-54.666 -44.667 -69.999 -83s-23 -89.5 -23 -153.5s7.66699 -115.167 23 -153.5s38.666 -66 69.999 -83
s72 -25.5 122 -25.5s90.667 8.5 122 25.5z" />
    <glyph glyph-name="oe" unicode="&#x153;" horiz-adv-x="925" 
d="M875 199h-351.002c2.66699 -36.667 10.5 -65.167 23.5 -85.5s32.5 -35 58.5 -44s61 -13.5 105 -13.5c48.667 0 93.334 8.33301 134.001 25v-64c-40.667 -18 -90.667 -27 -150 -27c-100.667 0 -170.667 28.333 -210 85c-38.667 -56.667 -104.667 -85 -198 -85
c-81.333 0 -141.166 20.667 -179.499 62s-57.5 103 -57.5 185c0 164.667 79 247 237 247c92 0 157.333 -28 196 -84c37.333 56 99.333 84 186 84c67.333 0 118.5 -18 153.5 -54s52.5 -83.333 52.5 -142v-89zM801.998 297c0 39.333 -10.499 69.333 -31.499 90
s-54.167 31 -99.5 31c-54.667 0 -92.834 -12.833 -114.501 -38.5s-32.5 -66.167 -32.5 -121.5h278v39zM406.499 102c23.667 28 35.5 73 35.5 135s-12 107 -36 135s-63.667 42 -119 42s-95 -14 -119 -42s-36 -73 -36 -135s11.833 -107 35.5 -135s63.5 -42 119.5 -42
s95.833 14 119.5 42z" />
    <glyph glyph-name="Racute" unicode="&#x154;" horiz-adv-x="602" 
d="M316 856h74l-79 -168h-66zM517 325.5c-23.333 -31 -57.335 -51.833 -102.002 -62.5c12.667 -7.33301 22.334 -15.833 29.001 -25.5s14.334 -24.167 23.001 -43.5l84 -194h-84l-82 187c-9.33301 21.333 -20.5 36 -33.5 44s-34.167 12 -63.5 12h-136v-243h-82v644h283
c67.333 0 117.333 -17.5 150 -52.5s49 -84.167 49 -147.5c0 -48 -11.667 -87.5 -35 -118.5zM469.998 444c0 90 -43 135 -129 135h-189v-272h178c93.333 0 140 45.667 140 137z" />
    <glyph glyph-name="racute" unicode="&#x155;" horiz-adv-x="356" 
d="M149 690h74l-79 -168h-66zM150 414c23.333 15.333 50.832 29.333 82.499 42s62.834 22 93.501 28v-64c-29.333 -6 -60.833 -15.333 -94.5 -28s-60.167 -25.667 -79.5 -39v-353h-82v474h74z" />
    <glyph glyph-name="Rcommaaccent" unicode="&#x156;" horiz-adv-x="602" 
d="M517 325.5c-23.333 -31 -57.335 -51.833 -102.002 -62.5c12.667 -7.33301 22.334 -15.833 29.001 -25.5s14.334 -24.167 23.001 -43.5l84 -194h-84l-82 187c-9.33301 21.333 -20.5 36 -33.5 44s-34.167 12 -63.5 12h-136v-243h-82v644h283
c67.333 0 117.333 -17.5 150 -52.5s49 -84.167 49 -147.5c0 -48 -11.667 -87.5 -35 -118.5zM469.998 444c0 90 -43 135 -129 135h-189v-272h178c93.333 0 140 45.667 140 137zM248.998 -37h74l-42 -177h-60z" />
    <glyph glyph-name="rcommaaccent" unicode="&#x157;" horiz-adv-x="356" 
d="M150 414c23.333 15.333 50.832 29.333 82.499 42s62.834 22 93.501 28v-64c-29.333 -6 -60.833 -15.333 -94.5 -28s-60.167 -25.667 -79.5 -39v-353h-82v474h74zM70.999 -37h74l-42 -177h-60z" />
    <glyph glyph-name="Rcaron" unicode="&#x158;" horiz-adv-x="602" 
d="M256 688l-115 148h71l77 -102l77 102h71l-115 -148h-66zM517 325.5c-23.333 -31 -57.335 -51.833 -102.002 -62.5c12.667 -7.33301 22.334 -15.833 29.001 -25.5s14.334 -24.167 23.001 -43.5l84 -194h-84l-82 187c-9.33301 21.333 -20.5 36 -33.5 44
s-34.167 12 -63.5 12h-136v-243h-82v644h283c67.333 0 117.333 -17.5 150 -52.5s49 -84.167 49 -147.5c0 -48 -11.667 -87.5 -35 -118.5zM469.998 444c0 90 -43 135 -129 135h-189v-272h178c93.333 0 140 45.667 140 137z" />
    <glyph glyph-name="rcaron" unicode="&#x159;" horiz-adv-x="356" 
d="M83 522l-115 148h71l77 -102l77 102h71l-115 -148h-66zM150 414c23.333 15.333 50.832 29.333 82.499 42s62.834 22 93.501 28v-64c-29.333 -6 -60.833 -15.333 -94.5 -28s-60.167 -25.667 -79.5 -39v-353h-82v474h74z" />
    <glyph glyph-name="Sacute" unicode="&#x15a;" horiz-adv-x="556" 
d="M294 856h74l-79 -168h-66zM443.5 36c-41.667 -30.667 -103.166 -45.9971 -184.499 -45.9971c-80 0 -144.667 10 -194 30v73c58.667 -22 121 -33 187 -33c59.333 0 102.833 8 130.5 24s41.5 44 41.5 84c0 24.667 -5.83301 44.5 -17.5 59.5s-30 27.667 -55 38
s-61.5 21.166 -109.5 32.499c-70.667 17.333 -120.334 39.666 -149.001 66.999s-43 64.666 -43 111.999c0 56 20.167 99.5 60.5 130.5s99.833 46.5 178.5 46.5c34.667 0 68.167 -2.5 100.5 -7.5s58.166 -10.833 77.499 -17.5v-72c-50.667 18 -105.667 27 -165 27
c-56.667 0 -99.167 -8.33301 -127.5 -25s-42.5 -44 -42.5 -82c0 -22 5 -39.667 15 -53s26.833 -24.833 50.5 -34.5s58.834 -20.167 105.501 -31.5c75.333 -18 128 -42.167 158 -72.5s45 -69.5 45 -117.5c0 -57.333 -20.833 -101.333 -62.5 -132z" />
    <glyph glyph-name="sacute" unicode="&#x15b;" horiz-adv-x="457" 
d="M253 690h74l-79 -168h-66zM314 160.5c-7.33301 9 -17.8311 16.668 -31.498 23.001s-35.167 14.166 -64.5 23.499l-27 9c-33.333 11.333 -59.5 21.833 -78.5 31.5s-34.167 23 -45.5 40s-17 39.167 -17 66.5c0 42.667 15 75 45 97s77 33 141 33
c49.333 0 94 -6.33301 134 -19v-72c-42 14 -82.333 21 -121 21c-42.667 0 -72.834 -4.33301 -90.501 -13s-26.5 -24 -26.5 -46c0 -15.333 3.83301 -27.333 11.5 -36s18.667 -15.834 33 -21.501s39.5 -14.167 75.5 -25.5c39.333 -12 69.833 -24 91.5 -36
s37.667 -26.667 48 -44s15.5 -39.666 15.5 -66.999c0 -90 -62.667 -135 -188 -135c-30 0 -59 2 -87 6s-51.333 9.33301 -70 16v72c45.333 -16 94 -24 146 -24c43.333 0 73.666 4.5 90.999 13.5s26 25.833 26 50.5c0 15.333 -3.66699 27.5 -11 36.5z" />
    <glyph glyph-name="Scircumflex" unicode="&#x15c;" horiz-adv-x="556" 
d="M358 688l-77 102l-77 -102h-71l115 148h66l115 -148h-71zM443.5 36c-41.667 -30.667 -103.166 -45.9971 -184.499 -45.9971c-80 0 -144.667 10 -194 30v73c58.667 -22 121 -33 187 -33c59.333 0 102.833 8 130.5 24s41.5 44 41.5 84c0 24.667 -5.83301 44.5 -17.5 59.5
s-30 27.667 -55 38s-61.5 21.166 -109.5 32.499c-70.667 17.333 -120.334 39.666 -149.001 66.999s-43 64.666 -43 111.999c0 56 20.167 99.5 60.5 130.5s99.833 46.5 178.5 46.5c34.667 0 68.167 -2.5 100.5 -7.5s58.166 -10.833 77.499 -17.5v-72
c-50.667 18 -105.667 27 -165 27c-56.667 0 -99.167 -8.33301 -127.5 -25s-42.5 -44 -42.5 -82c0 -22 5 -39.667 15 -53s26.833 -24.833 50.5 -34.5s58.834 -20.167 105.501 -31.5c75.333 -18 128 -42.167 158 -72.5s45 -69.5 45 -117.5
c0 -57.333 -20.833 -101.333 -62.5 -132z" />
    <glyph glyph-name="scircumflex" unicode="&#x15d;" horiz-adv-x="457" 
d="M312 522l-77 102l-77 -102h-71l115 148h66l115 -148h-71zM314 160.5c-7.33301 9 -17.8311 16.668 -31.498 23.001s-35.167 14.166 -64.5 23.499l-27 9c-33.333 11.333 -59.5 21.833 -78.5 31.5s-34.167 23 -45.5 40s-17 39.167 -17 66.5c0 42.667 15 75 45 97
s77 33 141 33c49.333 0 94 -6.33301 134 -19v-72c-42 14 -82.333 21 -121 21c-42.667 0 -72.834 -4.33301 -90.501 -13s-26.5 -24 -26.5 -46c0 -15.333 3.83301 -27.333 11.5 -36s18.667 -15.834 33 -21.501s39.5 -14.167 75.5 -25.5c39.333 -12 69.833 -24 91.5 -36
s37.667 -26.667 48 -44s15.5 -39.666 15.5 -66.999c0 -90 -62.667 -135 -188 -135c-30 0 -59 2 -87 6s-51.333 9.33301 -70 16v72c45.333 -16 94 -24 146 -24c43.333 0 73.666 4.5 90.999 13.5s26 25.833 26 50.5c0 15.333 -3.66699 27.5 -11 36.5z" />
    <glyph glyph-name="Scedilla" unicode="&#x15e;" horiz-adv-x="556" 
d="M450.5 41.5c-37 -30.333 -91.498 -47.1631 -163.498 -50.4961l-13 -39c36 0 63.5 -7.83301 82.5 -23.5s28.5 -37.834 28.5 -66.501c0 -68 -47.667 -102 -143 -102c-10.667 0 -23 0.833008 -37 2.5s-25 3.5 -33 5.5v50c19.333 -5.33301 40.333 -8 63 -8
c32 0 55 3.83301 69 11.5s21 21.5 21 41.5c0 18.667 -6.5 31 -19.5 37s-34.833 9 -65.5 9h-37l26 81c-66.667 3.33301 -121.334 13.333 -164.001 30v73c58.667 -22 121 -33 187 -33c59.333 0 102.833 8 130.5 24s41.5 44 41.5 84c0 24.667 -5.83301 44.5 -17.5 59.5
s-30 27.667 -55 38s-61.5 21.166 -109.5 32.499c-70.667 17.333 -120.334 39.666 -149.001 66.999s-43 64.666 -43 111.999c0 56 20.167 99.5 60.5 130.5s99.833 46.5 178.5 46.5c34.667 0 68.167 -2.5 100.5 -7.5s58.166 -10.833 77.499 -17.5v-72
c-50.667 18 -105.667 27 -165 27c-56.667 0 -99.167 -8.33301 -127.5 -25s-42.5 -44 -42.5 -82c0 -22 5 -39.667 15 -53s26.833 -24.833 50.5 -34.5s58.834 -20.167 105.501 -31.5c75.333 -18 128 -42.167 158 -72.5s45 -69.5 45 -117.5c0 -54 -18.5 -96.167 -55.5 -126.5z
" />
    <glyph glyph-name="scedilla" unicode="&#x15f;" horiz-adv-x="457" 
d="M249 -9l-12.998 -38.998c36 0 63.5 -7.83301 82.5 -23.5s28.5 -37.834 28.5 -66.501c0 -68 -47.667 -102 -143 -102c-10.667 0 -23 0.833008 -37 2.5s-25 3.5 -33 5.5v50c19.333 -5.33301 40.333 -8 63 -8c32 0 55 3.83301 69 11.5s21 21.5 21 41.5
c0 18.667 -6.5 31 -19.5 37s-34.833 9 -65.5 9h-37l26 82c-52 2 -95 9 -129 21v72c45.333 -16 94 -24 146 -24c43.333 0 73.666 4.5 90.999 13.5s26 25.833 26 50.5c0 15.333 -3.66699 27.5 -11 36.5s-17.833 16.667 -31.5 23s-35.167 14.166 -64.5 23.499l-27 9
c-33.333 11.333 -59.5 21.833 -78.5 31.5s-34.167 23 -45.5 40s-17 39.167 -17 66.5c0 42.667 15 75 45 97s77 33 141 33c49.333 0 94 -6.33301 134 -19v-72c-42 14 -82.333 21 -121 21c-42.667 0 -72.834 -4.33301 -90.501 -13s-26.5 -24 -26.5 -46
c0 -15.333 3.83301 -27.333 11.5 -36s18.667 -15.834 33 -21.501s39.5 -14.167 75.5 -25.5c39.333 -12 69.833 -24 91.5 -36s37.667 -26.667 48 -44s15.5 -39.666 15.5 -66.999c0 -83.333 -52.667 -128 -158 -134z" />
    <glyph glyph-name="Scaron" unicode="&#x160;" horiz-adv-x="556" 
d="M263 688l-115 148h71l77 -102l77 102h71l-115 -148h-66zM443.5 36c-41.667 -30.667 -103.166 -45.9971 -184.499 -45.9971c-80 0 -144.667 10 -194 30v73c58.667 -22 121 -33 187 -33c59.333 0 102.833 8 130.5 24s41.5 44 41.5 84c0 24.667 -5.83301 44.5 -17.5 59.5
s-30 27.667 -55 38s-61.5 21.166 -109.5 32.499c-70.667 17.333 -120.334 39.666 -149.001 66.999s-43 64.666 -43 111.999c0 56 20.167 99.5 60.5 130.5s99.833 46.5 178.5 46.5c34.667 0 68.167 -2.5 100.5 -7.5s58.166 -10.833 77.499 -17.5v-72
c-50.667 18 -105.667 27 -165 27c-56.667 0 -99.167 -8.33301 -127.5 -25s-42.5 -44 -42.5 -82c0 -22 5 -39.667 15 -53s26.833 -24.833 50.5 -34.5s58.834 -20.167 105.501 -31.5c75.333 -18 128 -42.167 158 -72.5s45 -69.5 45 -117.5
c0 -57.333 -20.833 -101.333 -62.5 -132z" />
    <glyph glyph-name="scaron" unicode="&#x161;" horiz-adv-x="457" 
d="M204 522l-115 148h71l77 -102l77 102h71l-115 -148h-66zM314 160.5c-7.33301 9 -17.8311 16.668 -31.498 23.001s-35.167 14.166 -64.5 23.499l-27 9c-33.333 11.333 -59.5 21.833 -78.5 31.5s-34.167 23 -45.5 40s-17 39.167 -17 66.5c0 42.667 15 75 45 97
s77 33 141 33c49.333 0 94 -6.33301 134 -19v-72c-42 14 -82.333 21 -121 21c-42.667 0 -72.834 -4.33301 -90.501 -13s-26.5 -24 -26.5 -46c0 -15.333 3.83301 -27.333 11.5 -36s18.667 -15.834 33 -21.501s39.5 -14.167 75.5 -25.5c39.333 -12 69.833 -24 91.5 -36
s37.667 -26.667 48 -44s15.5 -39.666 15.5 -66.999c0 -90 -62.667 -135 -188 -135c-30 0 -59 2 -87 6s-51.333 9.33301 -70 16v72c45.333 -16 94 -24 146 -24c43.333 0 73.666 4.5 90.999 13.5s26 25.833 26 50.5c0 15.333 -3.66699 27.5 -11 36.5z" />
    <glyph glyph-name="uni0162" unicode="&#x162;" horiz-adv-x="570" 
d="M313 0l-16 -47.999c36 0 63.5 -7.83301 82.5 -23.5s28.5 -37.834 28.5 -66.501c0 -68 -47.667 -102 -143 -102c-10.667 0 -23 0.833008 -37 2.5s-25 3.5 -33 5.5v50c19.333 -5.33301 40.333 -8 63 -8c32 0 55 3.83301 69 11.5s21 21.5 21 41.5c0 18.667 -6.5 31 -19.5 37
s-34.833 9 -65.5 9h-37l29 91h-11v579h-214v65h510v-65h-214v-579h-13z" />
    <glyph glyph-name="uni0163" unicode="&#x163;" horiz-adv-x="358" 
d="M317.5 -71.5c19 -15.667 28.5 -37.833 28.5 -66.5c0 -68 -47.667 -102 -143 -102c-10.667 0 -23 0.833008 -37 2.5s-25 3.5 -33 5.5v50c19.333 -5.33301 40.333 -8 63 -8c32 0 55 3.83301 69 11.5s21 21.5 21 41.5c0 18.667 -6.5 31 -19.5 37s-34.833 9 -65.5 9h-37
l28 87c-30 8.66699 -52.5 24.5 -67.5 47.5s-22.5 52.5 -22.5 88.5v277h-72v65h72v117l82 25v-142h131l-5 -65h-126v-273c0 -29.333 6.5 -50 19.5 -62s35.5 -18 67.5 -18c17.333 0 36.333 3.33301 57 10v-62c-24 -9.33301 -50.667 -14 -80 -14l-13 -38
c36 0 63.5 -7.83301 82.5 -23.5z" />
    <glyph glyph-name="Tcaron" unicode="&#x164;" horiz-adv-x="570" 
d="M252 688l-115 148h71l77 -102l77 102h71l-115 -148h-66zM326 0h-82v579h-214v65h510v-65h-214v-579z" />
    <glyph glyph-name="tcaron" unicode="&#x165;" horiz-adv-x="358" 
d="M323 737h74l-42 -177h-60zM102 474v117l82 25v-142h131l-5 -65h-126v-273c0 -29.333 6.5 -50 19.5 -62s35.5 -18 67.5 -18c17.333 0 36.333 3.33301 57 10v-62c-24.667 -9.33301 -53 -14 -85 -14c-46 0 -81 12.333 -105 37s-36 59.667 -36 105v277h-72v65h72z" />
    <glyph glyph-name="Tbar" unicode="&#x166;" horiz-adv-x="570" 
d="M326 579v-197h125v-62h-125v-320h-82v320h-155v62h155v197h-214v65h510v-65h-214z" />
    <glyph glyph-name="tbar" unicode="&#x167;" horiz-adv-x="370" 
d="M340 66v-62c-24.667 -9.33301 -53 -14 -85 -14c-46 0 -81 12.333 -105 37s-36 59.667 -36 105v88h-84v58h84v131h-72v65h72v117l82 25v-142h131l-5 -65h-126v-131h118v-58h-118v-84c0 -29.333 6.5 -50 19.5 -62s35.5 -18 67.5 -18c17.333 0 36.333 3.33301 57 10z" />
    <glyph glyph-name="Utilde" unicode="&#x168;" horiz-adv-x="671" 
d="M320 728c-11.333 4.66699 -22.835 8.83203 -34.502 12.499s-21.834 5.5 -30.501 5.5c-35.333 0 -63 -11.667 -83 -35v63c8 8.66699 19.833 15.834 35.5 21.501s31.5 8.5 47.5 8.5c12.667 0 24.834 -1.66699 36.501 -5s24.834 -8.33301 39.501 -15
c16.667 -6.66699 29.5 -11.334 38.5 -14.001s18.833 -4 29.5 -4c34 0 59.667 12 77 36v-64c-6.66699 -9.33301 -17 -16.666 -31 -21.999s-29.333 -8 -46 -8c-19.333 0 -45.666 6.66699 -78.999 20zM475.498 103.998c32.333 29.333 48.498 73 48.498 131v409h82v-408
c0 -80 -23.167 -141 -69.5 -183s-113.166 -63 -200.499 -63c-88 0 -155.167 21 -201.5 63s-69.5 103 -69.5 183v408h82v-409c0 -58 16.333 -101.667 49 -131s79.334 -44 140.001 -44s107.167 14.667 139.5 44z" />
    <glyph glyph-name="utilde" unicode="&#x169;" horiz-adv-x="570" 
d="M275 562c-11.333 4.66699 -22.835 8.83203 -34.502 12.499s-21.834 5.5 -30.501 5.5c-35.333 0 -63 -11.667 -83 -35v63c8 8.66699 19.833 15.834 35.5 21.501s31.5 8.5 47.5 8.5c12.667 0 24.834 -1.66699 36.501 -5s24.834 -8.33301 39.501 -15
c16.667 -6.66699 29.5 -11.334 38.5 -14.001s18.833 -4 29.5 -4c34 0 59.667 12 77 36v-64c-6.66699 -9.33301 -17 -16.666 -31 -21.999s-29.333 -8 -46 -8c-19.333 0 -45.666 6.66699 -78.999 20zM146.998 473.998v-303.001c0 -39.333 9.83301 -68.333 29.5 -87
s50.167 -28 91.5 -28c29.333 0 57 5.33301 83 16s48.333 25.334 67 44.001v358h82v-474h-74l-5 54c-24 -19.333 -51.833 -34.833 -83.5 -46.5s-65.167 -17.5 -100.5 -17.5c-56.667 0 -99.5 15.667 -128.5 47s-43.5 77 -43.5 137v300h82z" />
    <glyph glyph-name="Umacron" unicode="&#x16a;" horiz-adv-x="671" 
d="M468 720h-288v59h288v-59zM475.5 104c32.333 29.333 48.498 73 48.498 131v409h82v-408c0 -80 -23.167 -141 -69.5 -183s-113.166 -63 -200.499 -63c-88 0 -155.167 21 -201.5 63s-69.5 103 -69.5 183v408h82v-409c0 -58 16.333 -101.667 49 -131s79.334 -44 140.001 -44
s107.167 14.667 139.5 44z" />
    <glyph glyph-name="umacron" unicode="&#x16b;" horiz-adv-x="570" 
d="M421 554h-288v59h288v-59zM147 474v-303.001c0 -39.333 9.83301 -68.333 29.5 -87s50.167 -28 91.5 -28c29.333 0 57 5.33301 83 16s48.333 25.334 67 44.001v358h82v-474h-74l-5 54c-24 -19.333 -51.833 -34.833 -83.5 -46.5s-65.167 -17.5 -100.5 -17.5
c-56.667 0 -99.5 15.667 -128.5 47s-43.5 77 -43.5 137v300h82z" />
    <glyph glyph-name="Ubreve" unicode="&#x16c;" horiz-adv-x="671" 
d="M265 758.5c12 -12.333 28.668 -18.5 50.001 -18.5c46.667 0 70 24.667 70 74h58c0 -38.667 -11 -69.334 -33 -92.001s-53.667 -34 -95 -34c-40.667 0 -71.834 11.333 -93.501 34s-32.5 53.334 -32.5 92.001h58c0 -24.667 6 -43.167 18 -55.5zM475.501 104
c32.333 29.333 48.498 73 48.498 131v409h82v-408c0 -80 -23.167 -141 -69.5 -183s-113.166 -63 -200.499 -63c-88 0 -155.167 21 -201.5 63s-69.5 103 -69.5 183v408h82v-409c0 -58 16.333 -101.667 49 -131s79.334 -44 140.001 -44s107.167 14.667 139.5 44z" />
    <glyph glyph-name="ubreve" unicode="&#x16d;" horiz-adv-x="570" 
d="M229 592.5c12 -12.333 28.668 -18.5 50.001 -18.5c46.667 0 70 24.667 70 74h58c0 -38.667 -11 -69.334 -33 -92.001s-53.667 -34 -95 -34c-40.667 0 -71.834 11.333 -93.501 34s-32.5 53.334 -32.5 92.001h58c0 -24.667 6 -43.167 18 -55.5zM147.001 474v-303.001
c0 -39.333 9.83301 -68.333 29.5 -87s50.167 -28 91.5 -28c29.333 0 57 5.33301 83 16s48.333 25.334 67 44.001v358h82v-474h-74l-5 54c-24 -19.333 -51.833 -34.833 -83.5 -46.5s-65.167 -17.5 -100.5 -17.5c-56.667 0 -99.5 15.667 -128.5 47s-43.5 77 -43.5 137v300h82z
" />
    <glyph glyph-name="Uring" unicode="&#x16e;" horiz-adv-x="671" 
d="M245 872c20.667 20.667 46.667 31 78 31c32.667 0 59.334 -10.333 80.001 -31s31 -46.334 31 -77.001s-10.333 -56.167 -31 -76.5s-47.334 -30.5 -80.001 -30.5c-31.333 0 -57.333 10.333 -78 31s-31 46 -31 76c0 30.667 10.333 56.334 31 77.001zM279.5 751.5
c11.667 -11.667 26.167 -17.5 43.5 -17.5c18 0 32.833 5.83301 44.5 17.5s17.5 26.167 17.5 43.5s-5.83301 31.833 -17.5 43.5s-26.5 17.5 -44.5 17.5c-17.333 0 -31.833 -5.83301 -43.5 -17.5s-17.5 -26.167 -17.5 -43.5s5.83301 -31.833 17.5 -43.5zM475.5 104
c32.333 29.333 48.498 73 48.498 131v409h82v-408c0 -80 -23.167 -141 -69.5 -183s-113.166 -63 -200.499 -63c-88 0 -155.167 21 -201.5 63s-69.5 103 -69.5 183v408h82v-409c0 -58 16.333 -101.667 49 -131s79.334 -44 140.001 -44s107.167 14.667 139.5 44z" />
    <glyph glyph-name="uring" unicode="&#x16f;" horiz-adv-x="570" 
d="M194 706c20.667 20.667 46.667 31 78 31c32.667 0 59.334 -10.333 80.001 -31s31 -46.334 31 -77.001s-10.333 -56.167 -31 -76.5s-47.334 -30.5 -80.001 -30.5c-31.333 0 -57.333 10.333 -78 31s-31 46 -31 76c0 30.667 10.333 56.334 31 77.001zM228.5 585.5
c11.667 -11.667 26.167 -17.5 43.5 -17.5c18 0 32.833 5.83301 44.5 17.5s17.5 26.167 17.5 43.5s-5.83301 31.833 -17.5 43.5s-26.5 17.5 -44.5 17.5c-17.333 0 -31.833 -5.83301 -43.5 -17.5s-17.5 -26.167 -17.5 -43.5s5.83301 -31.833 17.5 -43.5zM147 474v-303.001
c0 -39.333 9.83301 -68.333 29.5 -87s50.167 -28 91.5 -28c29.333 0 57 5.33301 83 16s48.333 25.334 67 44.001v358h82v-474h-74l-5 54c-24 -19.333 -51.833 -34.833 -83.5 -46.5s-65.167 -17.5 -100.5 -17.5c-56.667 0 -99.5 15.667 -128.5 47s-43.5 77 -43.5 137v300h82z
" />
    <glyph glyph-name="Uhungarumlaut" unicode="&#x170;" horiz-adv-x="671" 
d="M231 840h78l-81 -152h-68zM437 840h78l-81 -152h-68zM475.5 104c32.333 29.333 48.498 73 48.498 131v409h82v-408c0 -80 -23.167 -141 -69.5 -183s-113.166 -63 -200.499 -63c-88 0 -155.167 21 -201.5 63s-69.5 103 -69.5 183v408h82v-409
c0 -58 16.333 -101.667 49 -131s79.334 -44 140.001 -44s107.167 14.667 139.5 44z" />
    <glyph glyph-name="uhungarumlaut" unicode="&#x171;" horiz-adv-x="570" 
d="M184 674h78l-81 -152h-68zM390 674h78l-81 -152h-68zM147 474v-303.001c0 -39.333 9.83301 -68.333 29.5 -87s50.167 -28 91.5 -28c29.333 0 57 5.33301 83 16s48.333 25.334 67 44.001v358h82v-474h-74l-5 54c-24 -19.333 -51.833 -34.833 -83.5 -46.5
s-65.167 -17.5 -100.5 -17.5c-56.667 0 -99.5 15.667 -128.5 47s-43.5 77 -43.5 137v300h82z" />
    <glyph glyph-name="Uogonek" unicode="&#x172;" horiz-adv-x="671" 
d="M606 644l-0.000976562 -407.999c0 -74 -19.833 -131.833 -59.5 -173.5s-97.167 -65.5 -172.5 -71.5c-40.667 -33.333 -61 -70.333 -61 -111c0 -16 4 -27.167 12 -33.5s20.667 -9.5 38 -9.5c8.66699 0 17.667 1 27 3s17 4.66699 23 8v-56c-16 -8 -38.667 -12 -68 -12
s-53.166 7.16699 -71.499 21.5s-27.5 36.5 -27.5 66.5c0 23.333 5.66699 45.666 17 66.999s26.666 40 45.999 56c-79.333 4 -139.833 27 -181.5 69s-62.5 100.667 -62.5 176v408h82v-409c0 -58 16.333 -101.667 49 -131s79.334 -44 140.001 -44s107.167 14.667 139.5 44
s48.5 73 48.5 131v409h82z" />
    <glyph glyph-name="uogonek" unicode="&#x173;" horiz-adv-x="570" 
d="M495 -160c9.33301 2 16.9971 4.66602 22.9971 7.99902v-56c-16 -8 -38.667 -12 -68 -12s-53.166 7.16699 -71.499 21.5s-27.5 36.5 -27.5 66.5c0 25.333 6.83301 49.833 20.5 73.5s31.834 43.167 54.501 58.5l-5 54c-24 -19.333 -51.833 -34.833 -83.5 -46.5
s-65.167 -17.5 -100.5 -17.5c-56.667 0 -99.5 15.667 -128.5 47s-43.5 77 -43.5 137v300h82v-303c0 -39.333 9.83301 -68.333 29.5 -87s50.167 -28 91.5 -28c29.333 0 57 5.33301 83 16s48.333 25.334 67 44.001v358h82v-474h-10
c-23.333 -17.333 -41.166 -36.333 -53.499 -57s-18.5 -41.667 -18.5 -63c0 -16 4 -27.167 12 -33.5s20.667 -9.5 38 -9.5c8.66699 0 17.667 1 27 3z" />
    <glyph glyph-name="Wcircumflex" unicode="&#x174;" horiz-adv-x="861" 
d="M512 688l-77 102l-77 -102h-71l115 148h66l115 -148h-71zM288 0h-88l-150 644h81l121 -530l139 459v71h67l150 -530l123 530h80l-149 -644h-87l-140 490z" />
    <glyph glyph-name="wcircumflex" unicode="&#x175;" horiz-adv-x="736" 
d="M446 522l-77 102l-77 -102h-71l115 148h66l115 -148h-71zM369 344l-113 -344h-82l-124 474h82l93 -381l106 326v55h63l117 -381l93 381h82l-124 -474h-82z" />
    <glyph glyph-name="Ycircumflex" unicode="&#x176;" horiz-adv-x="642" 
d="M398 688l-77 102l-77 -102h-71l115 148h66l115 -148h-71zM280 240l-230 404h85l186 -334l186 334h85l-230 -404v-240h-82v240z" />
    <glyph glyph-name="ycircumflex" unicode="&#x177;" horiz-adv-x="584" 
d="M379 522l-77 102l-77 -102h-71l115 148h66l115 -148h-71zM135 474l164.999 -382l170 382h84l-199 -453c-19.333 -44.667 -37.333 -80.667 -54 -108s-36.5 -49 -59.5 -65s-50.5 -24 -82.5 -24c-31.333 0 -58.666 4.33301 -81.999 13v66c18.667 -6.66699 39 -10 61 -10
s39.5 3.83301 52.5 11.5s24.167 18.667 33.5 33s21 36.833 35 67.5l-209 469h85z" />
    <glyph glyph-name="Ydieresis" unicode="&#x178;" horiz-adv-x="642" 
d="M194 786h78v-75h-78v75zM370 786h78v-75h-78v75zM280 240l-230 404h85l186 -334l186 334h85l-230 -404v-240h-82v240z" />
    <glyph glyph-name="Zacute" unicode="&#x179;" horiz-adv-x="572" 
d="M331 856h74l-79 -168h-66zM50 46l368 533h-351v65h455v-51l-365 -529h370v-64h-477v46z" />
    <glyph glyph-name="zacute" unicode="&#x17a;" horiz-adv-x="485" 
d="M277 690h74l-79 -168h-66zM50 45l279 364h-266v65h365v-51l-275 -359h282v-64h-385v45z" />
    <glyph glyph-name="Zdotaccent" unicode="&#x17b;" horiz-adv-x="572" 
d="M255 787h80v-77h-80v77zM50 46l368 533h-351v65h455v-51l-365 -529h370v-64h-477v46z" />
    <glyph glyph-name="zdotaccent" unicode="&#x17c;" horiz-adv-x="485" 
d="M202 621h80v-77h-80v77zM50 45l279 364h-266v65h365v-51l-275 -359h282v-64h-385v45z" />
    <glyph glyph-name="Zcaron" unicode="&#x17d;" horiz-adv-x="572" 
d="M270 688l-115 148h71l77 -102l77 102h71l-115 -148h-66zM50 46l368 533h-351v65h455v-51l-365 -529h370v-64h-477v46z" />
    <glyph glyph-name="zcaron" unicode="&#x17e;" horiz-adv-x="485" 
d="M199 522l-115 148h71l77 -102l77 102h71l-115 -148h-66zM50 45l279 364h-266v65h365v-51l-275 -359h282v-64h-385v45z" />
    <glyph glyph-name="uni018F" unicode="&#x18f;" horiz-adv-x="670" 
d="M514 490c-18 33.333 -46.498 58 -85.498 74s-91.167 24 -156.5 24c-29.333 0 -60.333 -3.33301 -93 -10s-62.334 -15.667 -89.001 -27v66c28 11.333 59.667 20.333 95 27s70.333 10 105 10c113.333 0 196.666 -28 249.999 -84s80 -141 80 -255
c0 -216.667 -99.667 -325 -299 -325c-90 0 -157.667 23.833 -203 71.5s-68 111.5 -68 191.5v106h495c-2.66699 54 -13 97.667 -31 131zM490.502 116.5c36.333 40.333 54.501 101.5 54.501 183.5h-422v-60c0 -60 17.167 -105.667 51.5 -137s83.166 -47 146.499 -47
c76.667 0 133.167 20.167 169.5 60.5z" />
    <glyph glyph-name="florin" unicode="&#x192;" horiz-adv-x="518" 
d="M105 409l13.999 65h71l15 69c10.667 49.333 30.334 86.166 59.001 110.499s68.667 36.5 120 36.5c31.333 0 59.333 -5 84 -15l-13 -62c-20 7.33301 -41.333 11 -64 11c-31.333 0 -55 -6.16699 -71 -18.5s-27 -33.166 -33 -62.499l-15 -69h128l-18 -65h-124l-81 -385
c-22 -98 -82 -147 -180 -147c-30 0 -57.333 5 -82 15l13 62c18.667 -7.33301 39.667 -11 63 -11c32.667 0 56.5 6 71.5 18s25.833 33 32.5 63l81 385h-71z" />
    <glyph glyph-name="Ohorn" unicode="&#x1a0;" horiz-adv-x="760" 
d="M571.5 70c-48.333 -53.333 -123.168 -80.001 -224.501 -80.001s-176.166 26.667 -224.499 80s-72.5 137.333 -72.5 252s24.167 198.667 72.5 252s123.166 80 224.499 80s176.333 -26.667 225 -80c26 0.666992 45.833 4.33398 59.5 11.001s23.334 18 29.001 34
s8.5 39 8.5 69h71c0 -58 -10.5 -100.667 -31.5 -128s-53.167 -44 -96.5 -50c21.333 -50 32 -112.667 32 -188c0 -114.667 -24.167 -198.667 -72.5 -252zM538.998 475.499c-15.333 38.333 -38.666 66 -69.999 83s-72 25.5 -122 25.5s-90.667 -8.5 -122 -25.5
s-54.666 -44.667 -69.999 -83s-23 -89.5 -23 -153.5s7.66699 -115.167 23 -153.5s38.666 -66 69.999 -83s72 -25.5 122 -25.5s90.667 8.5 122 25.5s54.666 44.667 69.999 83s23 89.5 23 153.5s-7.66699 115.167 -23 153.5z" />
    <glyph glyph-name="ohorn" unicode="&#x1a1;" horiz-adv-x="658" 
d="M471 415c26 0.666992 45.8311 4.83301 59.498 12.5s23.167 20 28.5 37s8 40.833 8 71.5h71c0 -58.667 -11 -102 -33 -130s-55.333 -45 -100 -51c12.667 -32 19 -71.333 19 -118c0 -82 -19.167 -143.667 -57.5 -185s-98.166 -62 -179.499 -62s-141.166 20.667 -179.499 62
s-57.5 103 -57.5 185c0 164.667 79 247 237 247c82.667 0 144 -23 184 -69zM406.498 101.999c23.667 28 35.5 73 35.5 135s-12 107 -36 135s-63.667 42 -119 42s-95 -14 -119 -42s-36 -73 -36 -135s11.833 -107 35.5 -135s63.5 -42 119.5 -42s95.833 14 119.5 42z" />
    <glyph glyph-name="Uhorn" unicode="&#x1af;" horiz-adv-x="805" 
d="M475.5 104c32.333 29.333 48.498 73.001 48.498 131.001v409h82v-75c26 0.666992 46 4.5 60 11.5s23.833 19 29.5 36s8.5 40.833 8.5 71.5h71c0 -66 -13.667 -112.833 -41 -140.5s-70 -41.834 -128 -42.501v-269c0 -80 -23.167 -141 -69.5 -183
s-113.166 -63 -200.499 -63c-88 0 -155.167 21 -201.5 63s-69.5 103 -69.5 183v408h82v-409c0 -58 16.333 -101.667 49 -131s79.334 -44 140.001 -44s107.167 14.667 139.5 44z" />
    <glyph glyph-name="uhorn" unicode="&#x1b0;" horiz-adv-x="683" 
d="M147 474l-0.000976562 -303.003c0 -39.333 9.83301 -68.333 29.5 -87s50.167 -28 91.5 -28c29.333 0 57 5.33301 83 16s48.333 25.334 67 44.001v358h82v-59c32 2.66699 53.667 12.834 65 30.501s17 47.834 17 90.501h71c0 -60 -13.167 -105 -39.5 -135
s-64.166 -45.333 -113.499 -46v-355h-74l-5 54c-24 -19.333 -51.833 -34.833 -83.5 -46.5s-65.167 -17.5 -100.5 -17.5c-56.667 0 -99.5 15.667 -128.5 47s-43.5 77 -43.5 137v300h82z" />
    <glyph glyph-name="uni01CD" unicode="&#x1cd;" horiz-adv-x="685" 
d="M309 688l-115 148h71l77 -102l77 102h71l-115 -148h-66zM135 0h-85l245 644h96l244 -644h-84l-68 177h-280zM217 242h251l-126 331z" />
    <glyph glyph-name="uni01CE" unicode="&#x1ce;" horiz-adv-x="541" 
d="M247 522l-115 148h71l77 -102l77 102h71l-115 -148h-66zM401 54c-20.667 -22 -45.832 -38.166 -75.499 -48.499s-65.834 -15.5 -108.501 -15.5c-48 0 -87.833 12.333 -119.5 37s-47.5 60 -47.5 106s15 82.167 45 108.5s76 39.5 138 39.5h165v29
c0 26.667 -3.66699 47.5 -11 62.5s-20.666 25.833 -39.999 32.5s-47.333 10 -84 10c-55.333 0 -108 -8.66699 -158 -26v68c47.333 18 103.666 27 168.999 27c68 0 118.667 -13.833 152 -41.5s50 -71.834 50 -132.501v-310h-69zM235.002 218.001
c-36.667 0 -63.166 -6.83301 -79.499 -20.5s-24.5 -35.167 -24.5 -64.5c0 -27.333 9 -46.833 27 -58.5s44.667 -17.5 80 -17.5c67.333 0 120.666 23 159.999 69v92h-163z" />
    <glyph glyph-name="uni01CF" unicode="&#x1cf;" horiz-adv-x="222" 
d="M79 688l-115 148h71l77 -102l77 102h71l-115 -148h-66zM70 644h82v-644h-82v644z" />
    <glyph glyph-name="uni01D0" unicode="&#x1d0;" horiz-adv-x="295" 
d="M130 522l-115 148h71l77 -102l77 102h71l-115 -148h-66zM225 0h-82v409h-73l8 65h147v-474z" />
    <glyph glyph-name="uni01D1" unicode="&#x1d1;" horiz-adv-x="694" 
d="M314 688l-115 148h71l77 -102l77 102h71l-115 -148h-66zM571.5 70c-48.333 -53.333 -123.166 -80 -224.499 -80s-176.166 26.667 -224.499 80s-72.5 137.333 -72.5 252s24.167 198.667 72.5 252s123.166 80 224.499 80s176.166 -26.667 224.499 -80
s72.5 -137.333 72.5 -252s-24.167 -198.667 -72.5 -252zM539 475.5c-15.333 38.333 -38.666 66 -69.999 83s-72 25.5 -122 25.5s-90.667 -8.5 -122 -25.5s-54.666 -44.667 -69.999 -83s-23 -89.5 -23 -153.5s7.66699 -115.167 23 -153.5s38.666 -66 69.999 -83
s72 -25.5 122 -25.5s90.667 8.5 122 25.5s54.666 44.667 69.999 83s23 89.5 23 153.5s-7.66699 115.167 -23 153.5z" />
    <glyph glyph-name="uni01D2" unicode="&#x1d2;" horiz-adv-x="574" 
d="M254 522l-115 148h71l77 -102l77 102h71l-115 -148h-66zM524 237c0 -82 -19.1689 -143.667 -57.502 -185s-98.166 -62 -179.499 -62s-141.166 20.667 -179.499 62s-57.5 103 -57.5 185c0 164.667 79 247 237 247s237 -82.333 237 -247zM406.498 102
c23.667 28 35.5 73 35.5 135s-12 107 -36 135s-63.667 42 -119 42s-95 -14 -119 -42s-36 -73 -36 -135s11.833 -107 35.5 -135s63.5 -42 119.5 -42s95.833 14 119.5 42z" />
    <glyph glyph-name="uni01D3" unicode="&#x1d3;" horiz-adv-x="671" 
d="M302 688l-115 148h71l77 -102l77 102h71l-115 -148h-66zM475.5 104c32.333 29.333 48.498 73 48.498 131v409h82v-408c0 -80 -23.167 -141 -69.5 -183s-113.166 -63 -200.499 -63c-88 0 -155.167 21 -201.5 63s-69.5 103 -69.5 183v408h82v-409
c0 -58 16.333 -101.667 49 -131s79.334 -44 140.001 -44s107.167 14.667 139.5 44z" />
    <glyph glyph-name="uni01D4" unicode="&#x1d4;" horiz-adv-x="570" 
d="M249 522l-115 148h71l77 -102l77 102h71l-115 -148h-66zM147 474v-303.001c0 -39.333 9.83301 -68.333 29.5 -87s50.167 -28 91.5 -28c29.333 0 57 5.33301 83 16s48.333 25.334 67 44.001v358h82v-474h-74l-5 54c-24 -19.333 -51.833 -34.833 -83.5 -46.5
s-65.167 -17.5 -100.5 -17.5c-56.667 0 -99.5 15.667 -128.5 47s-43.5 77 -43.5 137v300h82z" />
    <glyph glyph-name="uni01D5" unicode="&#x1d5;" horiz-adv-x="671" 
d="M480 826h-288v59h288v-59zM208 780h78v-75h-78v75zM384 780h78v-75h-78v75zM475.5 104c32.333 29.333 48.498 73 48.498 131v409h82v-408c0 -80 -23.167 -141 -69.5 -183s-113.166 -63 -200.499 -63c-88 0 -155.167 21 -201.5 63s-69.5 103 -69.5 183v408h82v-409
c0 -58 16.333 -101.667 49 -131s79.334 -44 140.001 -44s107.167 14.667 139.5 44z" />
    <glyph glyph-name="uni01D6" unicode="&#x1d6;" horiz-adv-x="570" 
d="M431 679h-288v59h288v-59zM159 615h78v-75h-78v75zM335 615h78v-75h-78v75zM147 474v-303.001c0 -39.333 9.83301 -68.333 29.5 -87s50.167 -28 91.5 -28c29.333 0 57 5.33301 83 16s48.333 25.334 67 44.001v358h82v-474h-74l-5 54
c-24 -19.333 -51.833 -34.833 -83.5 -46.5s-65.167 -17.5 -100.5 -17.5c-56.667 0 -99.5 15.667 -128.5 47s-43.5 77 -43.5 137v300h82z" />
    <glyph glyph-name="uni01D7" unicode="&#x1d7;" horiz-adv-x="671" 
d="M366 896h65l-68 -125h-59zM199 763h78v-75h-78v75zM395 763h78v-75h-78v75zM475.5 104c32.333 29.333 48.498 73 48.498 131v409h82v-408c0 -80 -23.167 -141 -69.5 -183s-113.166 -63 -200.499 -63c-88 0 -155.167 21 -201.5 63s-69.5 103 -69.5 183v408h82v-409
c0 -58 16.333 -101.667 49 -131s79.334 -44 140.001 -44s107.167 14.667 139.5 44z" />
    <glyph glyph-name="uni01D8" unicode="&#x1d8;" horiz-adv-x="570" 
d="M313 730h65l-68 -125h-59zM146 597h78v-75h-78v75zM342 597h78v-75h-78v75zM147 474v-303.001c0 -39.333 9.83301 -68.333 29.5 -87s50.167 -28 91.5 -28c29.333 0 57 5.33301 83 16s48.333 25.334 67 44.001v358h82v-474h-74l-5 54
c-24 -19.333 -51.833 -34.833 -83.5 -46.5s-65.167 -17.5 -100.5 -17.5c-56.667 0 -99.5 15.667 -128.5 47s-43.5 77 -43.5 137v300h82z" />
    <glyph glyph-name="uni01D9" unicode="&#x1d9;" horiz-adv-x="671" 
d="M261 889l74 -83l75 83h69l-111 -118h-66l-111 118h70zM194 763h78v-75h-78v75zM390 763h78v-75h-78v75zM475.5 104c32.333 29.333 48.498 73 48.498 131v409h82v-408c0 -80 -23.167 -141 -69.5 -183s-113.166 -63 -200.499 -63c-88 0 -155.167 21 -201.5 63
s-69.5 103 -69.5 183v408h82v-409c0 -58 16.333 -101.667 49 -131s79.334 -44 140.001 -44s107.167 14.667 139.5 44z" />
    <glyph glyph-name="uni01DA" unicode="&#x1da;" horiz-adv-x="570" 
d="M210 723l74 -83l75 83h69l-111 -118h-66l-111 118h70zM143 597h78v-75h-78v75zM339 597h78v-75h-78v75zM147 474v-303.001c0 -39.333 9.83301 -68.333 29.5 -87s50.167 -28 91.5 -28c29.333 0 57 5.33301 83 16s48.333 25.334 67 44.001v358h82v-474h-74l-5 54
c-24 -19.333 -51.833 -34.833 -83.5 -46.5s-65.167 -17.5 -100.5 -17.5c-56.667 0 -99.5 15.667 -128.5 47s-43.5 77 -43.5 137v300h82z" />
    <glyph glyph-name="uni01DB" unicode="&#x1db;" horiz-adv-x="671" 
d="M240 896h65l62 -125h-59zM198 763h78v-75h-78v75zM394 763h78v-75h-78v75zM475.5 104c32.333 29.333 48.498 73 48.498 131v409h82v-408c0 -80 -23.167 -141 -69.5 -183s-113.166 -63 -200.499 -63c-88 0 -155.167 21 -201.5 63s-69.5 103 -69.5 183v408h82v-409
c0 -58 16.333 -101.667 49 -131s79.334 -44 140.001 -44s107.167 14.667 139.5 44z" />
    <glyph glyph-name="uni01DC" unicode="&#x1dc;" horiz-adv-x="570" 
d="M188 730h65l62 -125h-59zM146 597h78v-75h-78v75zM342 597h78v-75h-78v75zM147 474v-303.001c0 -39.333 9.83301 -68.333 29.5 -87s50.167 -28 91.5 -28c29.333 0 57 5.33301 83 16s48.333 25.334 67 44.001v358h82v-474h-74l-5 54
c-24 -19.333 -51.833 -34.833 -83.5 -46.5s-65.167 -17.5 -100.5 -17.5c-56.667 0 -99.5 15.667 -128.5 47s-43.5 77 -43.5 137v300h82z" />
    <glyph glyph-name="Gcaron" unicode="&#x1e6;" horiz-adv-x="639" 
d="M317 687l-115 148h71l77 -102l77 102h71l-115 -148h-66zM518 86l-0.000976562 205h-172v56h243v-306c-53.333 -34 -130 -51 -230 -51c-101.333 0 -178.166 28.333 -230.499 85s-78.5 134.334 -78.5 233.001c0 109.333 25.167 194.333 75.5 255s127.833 91 232.5 91
c68.667 0 131 -10 187 -30v-72c-56.667 21.333 -116.667 32 -180 32c-83.333 0 -143 -23.333 -179 -70s-54 -115.334 -54 -206.001c0 -81.333 18.667 -143 56 -185s96 -63 176 -63c58 0 109.333 8.66699 154 26z" />
    <glyph glyph-name="gcaron" unicode="&#x1e7;" horiz-adv-x="547" 
d="M248 522l-115 148h71l77 -102l77 102h71l-115 -148h-66zM376.5 -18c-12.333 7.33301 -34.166 11.002 -65.499 11.002h-126c-43.333 0 -76 7.5 -98 22.5s-33 36.833 -33 65.5c0 20.667 6.33301 39.5 19 56.5s31 29.167 55 36.5c-52 25.333 -78 72 -78 140
c0 58.667 17 101.667 51 129s86.667 41 158 41c24.667 0 52 -3.33301 82 -10h171l-3 -56h-86c28.667 -24.667 43 -59.334 43 -104.001c0 -53.333 -15.5 -94.333 -46.5 -123s-77.833 -43 -140.5 -43c-14 0 -33.333 1.66699 -58 5c-22 -1.33301 -41.667 -7.5 -59 -18.5
s-26 -24.833 -26 -41.5c0 -12 4.66699 -20.5 14 -25.5s25.666 -7.5 48.999 -7.5h131c47.333 0 83.666 -9.66699 108.999 -29s38 -47 38 -83c0 -44.667 -18.5 -76.5 -55.5 -95.5s-92.833 -28.5 -167.5 -28.5c-79.333 0 -142.666 8.33301 -189.999 25v68
c26 -8.66699 55.5 -15.334 88.5 -20.001s65.5 -7 97.5 -7c36.667 0 65 1.33301 85 4s35 7.83398 45 15.501s15 19.5 15 35.5c0 17.333 -6.16699 29.666 -18.5 36.999zM356.5 233.002c18.333 15.333 27.5 42.333 27.5 81s-9.5 66.667 -28.5 84s-51.167 26 -96.5 26
c-44.667 0 -77 -8.5 -97 -25.5s-30 -45.167 -30 -84.5c0 -37.333 9.66699 -64 29 -80s52 -24 98 -24c46.667 0 79.167 7.66699 97.5 23z" />
    <glyph glyph-name="Aringacute" unicode="&#x1fa;" horiz-adv-x="685" 
d="M357 852h-66l71 168h74zM635 0h-84.001l-68 177h-280l-68 -177h-85l237 622c-17.333 9.33301 -30.833 22.166 -40.5 38.499s-14.5 34.833 -14.5 55.5c0 30.667 10.333 56.334 31 77.001s46.667 31 78 31c32.667 0 59.334 -10.333 80.001 -31s31 -46.334 31 -77.001
c0 -20 -4.66699 -38.167 -14 -54.5s-22.333 -29.166 -39 -38.499zM297.499 759.5c-11.667 -11.667 -17.5 -26.167 -17.5 -43.5s5.83301 -31.833 17.5 -43.5s26.167 -17.5 43.5 -17.5c18 0 32.833 5.83301 44.5 17.5s17.5 26.167 17.5 43.5s-5.83301 31.833 -17.5 43.5
s-26.5 17.5 -44.5 17.5c-17.333 0 -31.833 -5.83301 -43.5 -17.5zM467.999 242l-126 331l-125 -331h251z" />
    <glyph glyph-name="aringacute" unicode="&#x1fb;" horiz-adv-x="541" 
d="M310 917h74l-79 -134h-66zM197 703c20.667 20.667 46.667 31 78 31c32.667 0 59.334 -10.333 80.001 -31s31 -46.334 31 -77.001s-10.333 -56.167 -31 -76.5s-47.334 -30.5 -80.001 -30.5c-31.333 0 -57.333 10.333 -78 31s-31 46 -31 76
c0 30.667 10.333 56.334 31 77.001zM231.5 582.5c11.667 -11.667 26.167 -17.5 43.5 -17.5c18 0 32.833 5.83301 44.5 17.5s17.5 26.167 17.5 43.5s-5.83301 31.833 -17.5 43.5s-26.5 17.5 -44.5 17.5c-17.333 0 -31.833 -5.83301 -43.5 -17.5s-17.5 -26.167 -17.5 -43.5
s5.83301 -31.833 17.5 -43.5zM401 54c-20.667 -22 -45.832 -38.166 -75.499 -48.499s-65.834 -15.5 -108.501 -15.5c-48 0 -87.833 12.333 -119.5 37s-47.5 60 -47.5 106s15 82.167 45 108.5s76 39.5 138 39.5h165v29c0 26.667 -3.66699 47.5 -11 62.5
s-20.666 25.833 -39.999 32.5s-47.333 10 -84 10c-55.333 0 -108 -8.66699 -158 -26v68c47.333 18 103.666 27 168.999 27c68 0 118.667 -13.833 152 -41.5s50 -71.834 50 -132.501v-310h-69zM235.002 218.001c-36.667 0 -63.166 -6.83301 -79.499 -20.5
s-24.5 -35.167 -24.5 -64.5c0 -27.333 9 -46.833 27 -58.5s44.667 -17.5 80 -17.5c67.333 0 120.666 23 159.999 69v92h-163z" />
    <glyph glyph-name="AEacute" unicode="&#x1fc;" horiz-adv-x="840" 
d="M503 856h74l-79 -168h-66zM409 178h-203l-68 -178h-88l245 644h495v-65h-299v-225h263v-64h-263v-226h299v-64h-381v178zM409 579h-51l-127 -337h178v337z" />
    <glyph glyph-name="aeacute" unicode="&#x1fd;" horiz-adv-x="881" 
d="M473 690h74l-79 -168h-66zM356 15c-34.667 -16.667 -81.002 -25 -139.002 -25c-48 0 -87.833 12.333 -119.5 37s-47.5 60 -47.5 106s15 82.167 45 108.5s76 39.5 138 39.5h165v29c0 26.667 -3.66699 47.5 -11 62.5s-20.666 25.833 -39.999 32.5s-47.333 10 -84 10
c-55.333 0 -108 -8.66699 -158 -26v68c47.333 18 103.666 27 168.999 27c85.333 0 143.666 -24.333 174.999 -73c40.667 48.667 99.334 73 176.001 73c67.333 0 118.5 -18 153.5 -54s52.5 -83.333 52.5 -142v-89h-351c2.66699 -36.667 10.5 -65.167 23.5 -85.5
s32.5 -35 58.5 -44s61 -13.5 105 -13.5c48.667 0 93.334 8.33301 134.001 25v-64c-40.667 -18 -90.667 -27 -150 -27c-51.333 0 -93.666 7.33301 -126.999 22s-60.333 37.334 -81 68.001c-23.333 -26.667 -52.333 -48.334 -87 -65.001zM512.498 379.5
c-21.667 -25.667 -32.499 -66.167 -32.499 -121.5h278v39c0 39.333 -10.5 69.333 -31.5 90s-54.167 31 -99.5 31c-54.667 0 -92.834 -12.833 -114.501 -38.5zM234.999 218c-36.667 0 -63.166 -6.83398 -79.499 -20.501s-24.5 -35.167 -24.5 -64.5
c0 -27.333 9 -46.833 27 -58.5s44.667 -17.5 80 -17.5c36.667 0 67.667 5.83301 93 17.5s47.666 28.834 66.999 51.501v92h-163z" />
    <glyph glyph-name="Oslashacute" unicode="&#x1fe;" horiz-adv-x="694" 
d="M372 856h74l-79 -168h-66zM195 17c-48.667 22 -84.999 57.999 -108.999 107.999s-36 115.667 -36 197c0 114.667 24.167 198.667 72.5 252s123.166 80 224.499 80c24.667 0 51 -2.33301 79 -7l17 46h72l-24 -64c51.333 -21.333 89.666 -57.166 114.999 -107.499
s38 -116.833 38 -199.5c0 -114.667 -24.167 -198.667 -72.5 -252s-123.166 -80 -224.499 -80c-30 0 -59.333 2.66699 -88 8l-18 -51h-72zM154.001 170.999c14.667 -38 36.999 -65.667 66.999 -83l180 492c-22.667 2.66699 -40.667 4 -54 4c-50 0 -90.667 -8.5 -122 -25.5
s-54.666 -44.667 -69.999 -83s-23 -89.5 -23 -153.5c0 -62.667 7.33301 -113 22 -151zM538.5 476.499c-15.667 38.333 -39.832 66.167 -72.499 83.5l-182 -495c21.333 -3.33301 42.333 -5 63 -5c50 0 90.667 8.5 122 25.5s54.666 44.667 69.999 83s23 89.5 23 153.5
c0 64.667 -7.83301 116.167 -23.5 154.5z" />
    <glyph glyph-name="oslashacute" unicode="&#x1ff;" horiz-adv-x="574" 
d="M311 690h74l-79 -168h-66zM341 480l17.999 47.999h72l-24 -66c78 -34 117 -109 117 -225c0 -82 -19.167 -143.667 -57.5 -185s-98.166 -62 -179.499 -62c-18.667 0 -36 1 -52 3l-17 -47h-72l23 64c-79.333 32.667 -119 108.334 -119 227.001c0 164.667 79 247 237 247
c20.667 0 38.667 -1.33301 54 -4zM146.999 136.499c10 -25.667 26 -44.833 48 -57.5l122 333c-13.333 1.33301 -23.333 2 -30 2c-55.333 0 -95 -14 -119 -42s-36 -73 -36 -135c0 -41.333 5 -74.833 15 -100.5zM406.499 102c23.667 28 35.5 73 35.5 135
c0 40 -4.83301 72.667 -14.5 98s-25.167 44.333 -46.5 57l-121 -331c6 -0.666992 15 -1 27 -1c56 0 95.833 14 119.5 42z" />
    <glyph glyph-name="Scommaaccent" unicode="&#x218;" horiz-adv-x="556" 
d="M443.5 36c-41.667 -30.667 -103.166 -45.9971 -184.499 -45.9971c-80 0 -144.667 10 -194 30v73c58.667 -22 121 -33 187 -33c59.333 0 102.833 8 130.5 24s41.5 44 41.5 84c0 24.667 -5.83301 44.5 -17.5 59.5s-30 27.667 -55 38s-61.5 21.166 -109.5 32.499
c-70.667 17.333 -120.334 39.666 -149.001 66.999s-43 64.666 -43 111.999c0 56 20.167 99.5 60.5 130.5s99.833 46.5 178.5 46.5c34.667 0 68.167 -2.5 100.5 -7.5s58.166 -10.833 77.499 -17.5v-72c-50.667 18 -105.667 27 -165 27c-56.667 0 -99.167 -8.33301 -127.5 -25
s-42.5 -44 -42.5 -82c0 -22 5 -39.667 15 -53s26.833 -24.833 50.5 -34.5s58.834 -20.167 105.501 -31.5c75.333 -18 128 -42.167 158 -72.5s45 -69.5 45 -117.5c0 -57.333 -20.833 -101.333 -62.5 -132zM232.001 -51.9971h75l-39 -166h-63z" />
    <glyph glyph-name="scommaaccent" unicode="&#x219;" horiz-adv-x="457" 
d="M314 160.5c-7.33301 9 -17.8311 16.668 -31.498 23.001s-35.167 14.166 -64.5 23.499l-27 9c-33.333 11.333 -59.5 21.833 -78.5 31.5s-34.167 23 -45.5 40s-17 39.167 -17 66.5c0 42.667 15 75 45 97s77 33 141 33c49.333 0 94 -6.33301 134 -19v-72
c-42 14 -82.333 21 -121 21c-42.667 0 -72.834 -4.33301 -90.501 -13s-26.5 -24 -26.5 -46c0 -15.333 3.83301 -27.333 11.5 -36s18.667 -15.834 33 -21.501s39.5 -14.167 75.5 -25.5c39.333 -12 69.833 -24 91.5 -36s37.667 -26.667 48 -44s15.5 -39.666 15.5 -66.999
c0 -90 -62.667 -135 -188 -135c-30 0 -59 2 -87 6s-51.333 9.33301 -70 16v72c45.333 -16 94 -24 146 -24c43.333 0 73.666 4.5 90.999 13.5s26 25.833 26 50.5c0 15.333 -3.66699 27.5 -11 36.5zM188.002 -51.999h75l-39 -166h-63z" />
    <glyph glyph-name="uni021A" unicode="&#x21a;" horiz-adv-x="570" 
d="M326 0h-82v579h-214v65h510v-65h-214v-579zM250 -42h74l-42 -177h-60z" />
    <glyph glyph-name="uni021B" unicode="&#x21b;" horiz-adv-x="358" 
d="M102 474v117l82 25v-142h131l-5 -65h-126v-273c0 -29.333 6.5 -50 19.5 -62s35.5 -18 67.5 -18c17.333 0 36.333 3.33301 57 10v-62c-24.667 -9.33301 -53 -14 -85 -14c-46 0 -81 12.333 -105 37s-36 59.667 -36 105v277h-72v65h72zM198 -42h74l-42 -177h-60z" />
    <glyph glyph-name="uni0237" unicode="&#x237;" horiz-adv-x="294" 
d="M186.5 -196.5c-25 -25 -60.833 -37.501 -107.5 -37.501c-33.333 0 -63 4.66699 -89 14v65c20.667 -6.66699 41 -10 61 -10c35.333 0 59.333 5.83301 72 17.5s19 31.834 19 60.501v496h-73l8 65h147v-568c0 -43.333 -12.5 -77.5 -37.5 -102.5z" />
    <glyph glyph-name="uni0251" unicode="&#x251;" horiz-adv-x="575" 
d="M106.5 420.5c37.667 42.333 90.833 63.501 159.5 63.501c61.333 0 113.666 -15 156.999 -45v35h82v-474h-70l-6 50c-22 -20.667 -46.167 -35.834 -72.5 -45.501s-57.166 -14.5 -92.499 -14.5c-142.667 0 -214 80.333 -214 241c0 84 18.833 147.167 56.5 189.5z
M169.999 372.501c-25.333 -30.333 -38 -77.5 -38 -141.5c0 -62.667 11.667 -107.5 35 -134.5s62.666 -40.5 117.999 -40.5c56.667 0 102.667 19 138 57v258c-35.333 31.333 -80.333 47 -135 47c-53.333 0 -92.666 -15.167 -117.999 -45.5z" />
    <glyph glyph-name="uni0259" unicode="&#x259;" horiz-adv-x="533" 
d="M377.5 360.5c-13 20.333 -32.499 35.001 -58.499 44.001s-61 13.5 -105 13.5c-48.667 0 -93.334 -8.33301 -134.001 -25v64c41.333 18 91.333 27 150 27c84.667 0 148 -20.333 190 -61s63 -103.334 63 -188.001c0 -78 -18.667 -138.333 -56 -181s-94.333 -64 -171 -64
c-67.333 0 -118.5 18 -153.5 54s-52.5 83.333 -52.5 142v89h351c-2.66699 36.667 -10.5 65.167 -23.5 85.5zM368.501 94.501c21.667 25.667 32.499 66.167 32.499 121.5h-278v-39c0 -39.333 10.5 -69.333 31.5 -90s54.167 -31 99.5 -31c54.667 0 92.834 12.833 114.501 38.5
z" />
    <glyph glyph-name="uni02BB" unicode="&#x2bb;" horiz-adv-x="224" 
d="M125 471h-75l62 183h62z" />
    <glyph glyph-name="uni02BC" unicode="&#x2bc;" horiz-adv-x="224" 
d="M100 654h74l-62 -183h-62z" />
    <glyph glyph-name="uni02BE" unicode="&#x2be;" 
d="M-311 674c-14.667 15.333 -35.667 23.001 -63 23.001v50c45.333 0 80.166 -12.333 104.499 -37s36.5 -57.667 36.5 -99s-12.167 -74.5 -36.5 -99.5s-59.166 -37.5 -104.499 -37.5v50c27.333 0 48.333 7.66699 63 23s22 36.666 22 63.999c0 26.667 -7.33301 47.667 -22 63
z" />
    <glyph glyph-name="uni02BF" unicode="&#x2bf;" 
d="M-296 547c14.667 -15.333 35.667 -23.001 63 -23.001v-50c-45.333 0 -80.166 12.5 -104.499 37.5s-36.5 58.167 -36.5 99.5s12.167 74.333 36.5 99s59.166 37 104.499 37v-50c-27.333 0 -48.333 -7.66699 -63 -23s-22 -36.333 -22 -63
c0 -27.333 7.33301 -48.666 22 -63.999z" />
    <glyph glyph-name="circumflex" unicode="&#x2c6;" horiz-adv-x="396" 
d="M275 537l-77 102l-77 -102h-71l115 148h66l115 -148h-71z" />
    <glyph glyph-name="caron" unicode="&#x2c7;" horiz-adv-x="396" 
d="M165 537l-115 148h71l77 -102l77 102h71l-115 -148h-66z" />
    <glyph glyph-name="uni02C8" unicode="&#x2c8;" 
d="M-41 655h58v-170h-58v170z" />
    <glyph glyph-name="uni02C9" unicode="&#x2c9;" 
d="M366 565h-288v59h288v-59z" />
    <glyph glyph-name="uni02CA" unicode="&#x2ca;" 
d="M-11 690h74l-79 -168h-66z" />
    <glyph glyph-name="uni02CB" unicode="&#x2cb;" 
d="M-87 690h74l71 -168h-66z" />
    <glyph glyph-name="uni02CC" unicode="&#x2cc;" 
d="M-41 -41h58v-170h-58v170z" />
    <glyph glyph-name="breve" unicode="&#x2d8;" horiz-adv-x="354" 
d="M126 610.5c12 -12.333 28.668 -18.5 50.001 -18.5c46.667 0 70 24.667 70 74h58c0 -38.667 -11 -69.334 -33 -92.001s-53.667 -34 -95 -34c-40.667 0 -71.834 11.333 -93.501 34s-32.5 53.334 -32.5 92.001h58c0 -24.667 6 -43.167 18 -55.5z" />
    <glyph glyph-name="dotaccent" unicode="&#x2d9;" horiz-adv-x="180" 
d="M50 637h80v-77h-80v77z" />
    <glyph glyph-name="ring" unicode="&#x2da;" horiz-adv-x="320" 
d="M81 709c20.667 20.667 46.667 31 78 31c32.667 0 59.334 -10.333 80.001 -31s31 -46.334 31 -77.001s-10.333 -56.167 -31 -76.5s-47.334 -30.5 -80.001 -30.5c-31.333 0 -57.333 10.333 -78 31s-31 46 -31 76c0 30.667 10.333 56.334 31 77.001zM115.5 588.5
c11.667 -11.667 26.167 -17.5 43.5 -17.5c18 0 32.833 5.83301 44.5 17.5s17.5 26.167 17.5 43.5s-5.83301 31.833 -17.5 43.5s-26.5 17.5 -44.5 17.5c-17.333 0 -31.833 -5.83301 -43.5 -17.5s-17.5 -26.167 -17.5 -43.5s5.83301 -31.833 17.5 -43.5z" />
    <glyph glyph-name="ogonek" unicode="&#x2db;" horiz-adv-x="267" 
d="M129 -153.5c8 -6.33301 20.6641 -9.5 37.9971 -9.5c8.66699 0 17.667 1 27 3s17 4.66699 23 8v-56c-16 -8 -38.667 -12 -68 -12s-53.166 7.16699 -71.499 21.5s-27.5 36.5 -27.5 66.5c0 25.333 6.83301 49.833 20.5 73.5s31.834 43.167 54.501 58.5h64
c-23.333 -17.333 -41.166 -36.333 -53.499 -57s-18.5 -41.667 -18.5 -63c0 -16 4 -27.167 12 -33.5z" />
    <glyph glyph-name="tilde" unicode="&#x2dc;" horiz-adv-x="404" 
d="M198 593c-11.333 4.66699 -22.835 8.83203 -34.502 12.499s-21.834 5.5 -30.501 5.5c-35.333 0 -63 -11.667 -83 -35v63c8 8.66699 19.833 15.834 35.5 21.501s31.5 8.5 47.5 8.5c12.667 0 24.834 -1.66699 36.501 -5s24.834 -8.33301 39.501 -15
c16.667 -6.66699 29.5 -11.334 38.5 -14.001s18.833 -4 29.5 -4c34 0 59.667 12 77 36v-64c-6.66699 -9.33301 -17 -16.666 -31 -21.999s-29.333 -8 -46 -8c-19.333 0 -45.666 6.66699 -78.999 20z" />
    <glyph glyph-name="hungarumlaut" unicode="&#x2dd;" horiz-adv-x="455" 
d="M121 689h78l-81 -152h-68zM327 689h78l-81 -152h-68z" />
    <glyph glyph-name="gravecomb" unicode="&#x300;" 
d="M-441 690h74l71 -168h-66z" />
    <glyph glyph-name="acutecomb" unicode="&#x301;" 
d="M-303 690h74l-79 -168h-66z" />
    <glyph glyph-name="uni0302" unicode="&#x302;" 
d="M54 537l-77 102l-77 -102h-71l115 148h66l115 -148h-71z" />
    <glyph glyph-name="tildecomb" unicode="&#x303;" 
d="M-322 593c-11.333 4.66699 -22.835 8.83203 -34.502 12.499s-21.834 5.5 -30.501 5.5c-35.333 0 -63 -11.667 -83 -35v63c8 8.66699 19.833 15.834 35.5 21.501s31.5 8.5 47.5 8.5c12.667 0 24.834 -1.66699 36.501 -5s24.834 -8.33301 39.501 -15
c16.667 -6.66699 29.5 -11.334 38.5 -14.001s18.833 -4 29.5 -4c34 0 59.667 12 77 36v-64c-6.66699 -9.33301 -17 -16.666 -31 -21.999s-29.333 -8 -46 -8c-19.333 0 -45.666 6.66699 -78.999 20z" />
    <glyph glyph-name="uni0304" unicode="&#x304;" 
d="M124 565h-288v59h288v-59z" />
    <glyph glyph-name="uni0306" unicode="&#x306;" 
d="M-62 611.5c12 -12.333 28.668 -18.5 50.001 -18.5c46.667 0 70 24.667 70 74h58c0 -38.667 -11 -69.334 -33 -92.001s-53.667 -34 -95 -34c-40.667 0 -71.834 11.333 -93.501 34s-32.5 53.334 -32.5 92.001h58c0 -24.667 6 -43.167 18 -55.5z" />
    <glyph glyph-name="uni0307" unicode="&#x307;" 
d="M-51 637h80v-77h-80v77z" />
    <glyph glyph-name="uni0308" unicode="&#x308;" 
d="M-136 636h78v-75h-78v75zM40 636h78v-75h-78v75z" />
    <glyph glyph-name="hookabovecomb" unicode="&#x309;" 
d="M-216 587c-13.333 -14.667 -36.334 -24.3359 -69.001 -29.0029v-48h-66v83c26 1.33301 45.667 3.83301 59 7.5s22.333 8.83398 27 15.501s7 16.334 7 29.001c0 16 -6.16699 27.5 -18.5 34.5s-32.166 10.5 -59.499 10.5c-10.667 0 -22.167 -1.16699 -34.5 -3.5
s-22.833 -5.16602 -31.5 -8.49902v51c10 4 23 7.16699 39 9.5s31.333 3.5 46 3.5c39.333 0 69.333 -8 90 -24s31 -38.333 31 -67c0 -28 -6.66699 -49.333 -20 -64z" />
    <glyph glyph-name="uni030A" unicode="&#x30a;" 
d="M-90 709c20.667 20.667 46.667 31 78 31c32.667 0 59.334 -10.333 80.001 -31s31 -46.334 31 -77.001s-10.333 -56.167 -31 -76.5s-47.334 -30.5 -80.001 -30.5c-32 0 -58.167 10.333 -78.5 31s-30.5 46 -30.5 76c0 30.667 10.333 56.334 31 77.001zM-55.5 588.5
c11.667 -11.667 26.167 -17.5 43.5 -17.5c18 0 32.833 5.83301 44.5 17.5s17.5 26.167 17.5 43.5s-5.83301 31.833 -17.5 43.5s-26.5 17.5 -44.5 17.5c-17.333 0 -31.833 -5.83301 -43.5 -17.5s-17.5 -26.167 -17.5 -43.5s5.83301 -31.833 17.5 -43.5z" />
    <glyph glyph-name="uni030B" unicode="&#x30b;" 
d="M-133 689h78l-81 -152h-68zM73 689h78l-81 -152h-68z" />
    <glyph glyph-name="uni030C" unicode="&#x30c;" 
d="M-56 537l-115 148h71l77 -102l77 102h71l-115 -148h-66z" />
    <glyph glyph-name="uni031B" unicode="&#x31b;" 
d="M-39.5 601.5c14.333 5.66699 24.168 15.999 29.501 30.999s8 38.167 8 69.5h71c0 -44.667 -6.33301 -79.667 -19 -105s-31.5 -43.166 -56.5 -53.499s-57.833 -15.833 -98.5 -16.5v66c29.333 0 51.166 2.83301 65.499 8.5z" />
    <glyph glyph-name="dotbelowcomb" unicode="&#x323;" 
d="M-351 -87h80v-77h-80v77z" />
    <glyph glyph-name="uni0324" unicode="&#x324;" 
d="M-128 -87h78v-75h-78v75zM48 -87h78v-75h-78v75z" />
    <glyph glyph-name="uni0326" unicode="&#x326;" 
d="M-124 -37h74l-42 -177h-60z" />
    <glyph glyph-name="uni0327" unicode="&#x327;" 
d="M-29 -240c-10.667 0 -23 0.833984 -37 2.50098s-25 3.5 -33 5.5v50c19.333 -5.33301 40.333 -8 63 -8c32 0 55 3.83301 69 11.5s21 21.5 21 41.5c0 18.667 -6.5 31 -19.5 37s-34.833 9 -65.5 9h-37l29 91h58l-16 -48c36 0 63.5 -7.83301 82.5 -23.5
s28.5 -37.834 28.5 -66.501c0 -68 -47.667 -102 -143 -102z" />
    <glyph glyph-name="uni0328" unicode="&#x328;" 
d="M-16 -153.5c8 -6.33301 20.6641 -9.5 37.9971 -9.5c8.66699 0 17.667 1 27 3s17 4.66699 23 8v-56c-16 -8 -38.667 -12 -68 -12s-53.166 7.16699 -71.499 21.5s-27.5 36.5 -27.5 66.5c0 25.333 6.83301 49.833 20.5 73.5s31.834 43.167 54.501 58.5h64
c-23.333 -17.333 -41.166 -36.333 -53.499 -57s-18.5 -41.667 -18.5 -63c0 -16 4 -27.167 12 -33.5z" />
    <glyph glyph-name="uni032E" unicode="&#x32e;" 
d="M-62 -125.5c12 -12.333 28.668 -18.5 50.001 -18.5c46.667 0 70 24.667 70 74h58c0 -38.667 -11 -69.334 -33 -92.001s-53.667 -34 -95 -34c-40.667 0 -71.834 11.333 -93.501 34s-32.5 53.334 -32.5 92.001h58c0 -24.667 6 -43.167 18 -55.5z" />
    <glyph glyph-name="uni0331" unicode="&#x331;" 
d="M124 -130h-288v59h288v-59z" />
    <glyph glyph-name="uni0394" unicode="&#x394;" horiz-adv-x="654" 
d="M285 644h82l237 -598v-46h-554v47zM130 64h391l-195 497z" />
    <glyph glyph-name="uni03A9" unicode="&#x3a9;" horiz-adv-x="769" 
d="M252.5 592c-38.333 -22 -68.002 -52.835 -89.002 -92.502s-31.5 -85.167 -31.5 -136.5c0 -64 15.833 -121.167 47.5 -171.5s78.834 -92.5 141.501 -126.5v-65h-264v64h159c-51.333 32 -91.833 73.167 -121.5 123.5s-44.5 108.833 -44.5 175.5
c0 63.333 13.5 120.166 40.5 170.499s65.667 89.833 116 118.5s109.833 43 178.5 43c68 0 127.167 -14.333 177.5 -43s89 -68.167 116 -118.5s40.5 -107.166 40.5 -170.499c0 -67.333 -14.667 -126.166 -44 -176.499s-69.666 -91.166 -120.999 -122.499h158v-64h-263v65
c125.333 68 188 167.333 188 298c0 51.333 -10.5 96.833 -31.5 136.5s-50.5 70.5 -88.5 92.5s-82 33 -132 33s-94.167 -11 -132.5 -33z" />
    <glyph glyph-name="uni03BC" unicode="&#x3bc;" horiz-adv-x="575" 
d="M152 474v-303.001c0 -39.333 9.83301 -68.333 29.5 -87s50.167 -28 91.5 -28c29.333 0 57 5.33301 83 16s48.333 25.334 67 44.001v358h82v-474h-74l-5 54c-24 -19.333 -51.833 -34.833 -83.5 -46.5s-65.167 -17.5 -100.5 -17.5s-65.333 7.33301 -90 22v-155h-82v617h82z
" />
    <glyph glyph-name="pi" unicode="&#x3c0;" horiz-adv-x="668" 
d="M556 410l-68 0.000976562v-274c0 -28.667 6.16699 -48.667 18.5 -60s33.833 -17 64.5 -17c17.333 0 36.333 3.33301 57 10v-65c-26 -9.33301 -54.667 -14 -86 -14c-43.333 0 -76.833 13.167 -100.5 39.5s-35.5 62.166 -35.5 107.499v273h-216v-410h-82v410h-68v64h516
v-64z" />
    <glyph glyph-name="uni0E01" unicode="&#xe01;" horiz-adv-x="608" 
d="M182 280c-12 -14.667 -18.001 -35.666 -18.001 -62.999v-217h-82v219c0 29.333 6.5 54.166 19.5 74.499s33.5 34.5 61.5 42.5l-113 26v96c28 26.667 63.5 48.667 106.5 66s91.167 26 144.5 26c79.333 0 138.666 -16.833 177.999 -50.5s59 -85.5 59 -155.5v-344h-82v347
c0 49.333 -11.667 83.833 -35 103.5s-63.333 29.5 -120 29.5c-37.333 0 -72.166 -5.16699 -104.499 -15.5s-57.166 -24.166 -74.499 -41.499v-21l117 -28v-62c-26 -6.66699 -45 -17.334 -57 -32.001z" />
    <glyph glyph-name="uni0E02" unicode="&#xe02;" horiz-adv-x="571" 
d="M75.5 313.5c9.66699 17.667 23.502 38.834 41.502 63.501c13.333 19.333 23 34 29 44s9 19.667 9 29c0 10.667 -2.33301 17.667 -7 21s-13.334 5 -26.001 5h-72l7 64h111c46 0 69 -22.667 69 -68c0 -20.667 -4.16699 -39.5 -12.5 -56.5s-20.833 -37.167 -37.5 -60.5
c-15.333 -22 -26.5 -40 -33.5 -54s-10.5 -29.333 -10.5 -46v-79c0 -77.333 45.667 -116 137 -116c92.667 0 139 39.333 139 118v362h82v-354c0 -62.667 -19.5 -111 -58.5 -145s-93.167 -51 -162.5 -51c-70.667 0 -124.834 16.667 -162.501 50s-56.5 81.666 -56.5 144.999v73
c0 19.333 4.83301 37.833 14.5 55.5z" />
    <glyph glyph-name="uni0E03" unicode="&#xe03;" horiz-adv-x="563" 
d="M80 298c12 20 28.666 43.666 49.999 70.999c16.667 21.333 28.834 38.166 36.501 50.499s11.5 23.5 11.5 33.5c0 16.667 -8 25 -24 25c-14.667 0 -28.334 -6.33301 -41.001 -19v-39h-63v120h63v-28c20 18.667 44 28 72 28c22 0 39.5 -6.16699 52.5 -18.5
s19.5 -29.833 19.5 -52.5c0 -19.333 -4.83301 -37.666 -14.5 -54.999s-24.167 -38.666 -43.5 -63.999c-19.333 -26 -33.333 -47 -42 -63s-13 -32.667 -13 -50v-61c0 -40.667 11.167 -70.167 33.5 -88.5s55.5 -27.5 99.5 -27.5s77.333 9.33301 100 28s34 48.667 34 90v362h82
v-354c0 -62.667 -18.667 -111 -56 -145s-90.666 -51 -159.999 -51c-70.667 0 -124.167 16.167 -160.5 48.5s-54.5 79.833 -54.5 142.5v58c0 19.333 6 39 18 59z" />
    <glyph glyph-name="uni0E04" unicode="&#xe04;" horiz-adv-x="606" 
d="M189.5 451c-25 -19.333 -37.5 -50 -37.5 -92v-125c31.333 27.333 70 41 116 41h66l4 -67h-72c-45.333 0 -83.333 -13 -114 -39v-169h-82v350c0 133.333 78 200 234 200c154.667 0 232 -66.667 232 -200v-350h-82v359c0 42 -12.5 72.667 -37.5 92s-62.5 29 -112.5 29
c-51.333 0 -89.5 -9.66699 -114.5 -29z" />
    <glyph glyph-name="uni0E05" unicode="&#xe05;" horiz-adv-x="606" 
d="M268 275l66.001 0.000976562l4 -67h-72c-45.333 0 -83.333 -13 -114 -39v-169h-82v404c0 49.333 11 86 33 110s53 36 93 36c46 0 82 -17.667 108 -53c12.667 17.333 29.167 30.5 49.5 39.5s41.833 13.5 64.5 13.5c44.667 0 75.5 -11.333 92.5 -34
s25.5 -60.334 25.5 -113.001v-403h-82v414c0 22 -3.33301 38.5 -10 49.5s-19.667 16.5 -39 16.5c-30.667 0 -56.334 -15.667 -77.001 -47h-50c-8 15.333 -16.833 27 -26.5 35s-21.5 12 -35.5 12c-42.667 0 -64 -22.333 -64 -67v-179c31.333 27.333 70 41 116 41z" />
    <glyph glyph-name="uni0E06" unicode="&#xe06;" horiz-adv-x="589" 
d="M79.5 287c11.667 21.333 28.502 46.998 50.502 76.998c17.333 24 29.666 42.333 36.999 55s11 24 11 34c0 16.667 -8 25 -24 25c-14.667 0 -28.334 -6.33301 -41.001 -19v-39h-63v120h63v-28c20 18.667 44 28 72 28c22 0 39.5 -6.16699 52.5 -18.5
s19.5 -29.833 19.5 -52.5c0 -19.333 -4.83301 -38.166 -14.5 -56.499s-24.167 -41.166 -43.5 -68.499c-18.667 -28 -32.5 -50.5 -41.5 -67.5s-13.5 -34.5 -13.5 -52.5v-90c22 -22.667 47 -40.667 75 -54s58.333 -20 91 -20c44 0 76.167 9.83301 96.5 29.5
s30.5 51.5 30.5 95.5v355h82v-356c0 -62.667 -15.833 -110.667 -47.5 -144s-76.5 -50 -134.5 -50c-41.333 0 -77.5 6.33301 -108.5 19s-60.167 31.334 -87.5 56.001l-5 -65h-74v226c0 19.333 5.83301 39.666 17.5 60.999z" />
    <glyph glyph-name="uni0E07" unicode="&#xe07;" horiz-adv-x="576" 
d="M267 540l43.999 0.000976562c75.333 0 130 -20.333 164 -61s51 -104 51 -190c0 -101.333 -21.5 -176.5 -64.5 -225.5s-100.167 -73.5 -171.5 -73.5c-39.333 0 -68.666 3.66699 -87.999 11l-152 370h80l128 -311l20 -1c56.667 0 98.5 18.833 125.5 56.5
s40.5 95.167 40.5 172.5c0 48 -4.33301 85.167 -13 111.5s-23.167 45.166 -43.5 56.499s-48.833 17 -85.5 17h-35v67z" />
    <glyph glyph-name="uni0E08" unicode="&#xe08;" horiz-adv-x="569" 
d="M60 454l0.00195312 68.001c56 18.667 120 28 192 28c178 0 267 -91.333 267 -274c0 -60.667 -11 -112.5 -33 -155.5s-51.667 -75.5 -89 -97.5s-78.333 -33 -123 -33c-12.667 0 -26.334 1 -41.001 3s-26.334 4.66699 -35.001 8l-84 224h-64l4 67h113l87 -232l17 -1
c48 0 87.667 17.833 119 53.5s47 90.167 47 163.5c0 50.667 -6.66699 90.667 -20 120s-35 50.666 -65 63.999s-70.667 20 -122 20c-61.333 0 -118 -8.66699 -170 -26z" />
    <glyph glyph-name="uni0E09" unicode="&#xe09;" horiz-adv-x="575" 
d="M431 0l-5.00098 65.002c-26 -24 -54.667 -42.5 -86 -55.5s-68.333 -19.5 -111 -19.5c-56.667 0 -99.5 15.833 -128.5 47.5s-43.5 78.5 -43.5 140.5v122h82v-122c0 -30 3.33301 -53.333 10 -70s18.5 -28.834 35.5 -36.501s41.5 -11.5 73.5 -11.5s62 6.5 90 19.5
s53 31.167 75 54.5v208c0 35.333 -5.5 63 -16.5 83s-29.5 34.167 -55.5 42.5s-62 12.5 -108 12.5c-28.667 0 -61.167 -2.83301 -97.5 -8.5s-68.166 -12.834 -95.499 -21.501v68c28 9.33301 61.333 17 100 23s76.667 9 114 9c82.667 0 143.5 -17 182.5 -51
s58.5 -86.667 58.5 -158v-341h-74z" />
    <glyph glyph-name="uni0E0A" unicode="&#xe0a;" horiz-adv-x="571" 
d="M442.5 41c-39 -34 -93.165 -51.001 -162.498 -51.001c-70.667 0 -124.834 16.667 -162.501 50s-56.5 81.666 -56.5 144.999v73c0 19.333 4.83301 37.833 14.5 55.5s23.5 38.834 41.5 63.501c13.333 19.333 23 34 29 44s9 19.667 9 29c0 10.667 -2.33301 17.667 -7 21
s-13.334 5 -26.001 5h-72l7 64h111c46 0 69 -22.667 69 -68c0 -20.667 -4.16699 -39.5 -12.5 -56.5s-20.833 -37.167 -37.5 -60.5c-15.333 -22 -26.5 -40 -33.5 -54s-10.5 -29.333 -10.5 -46v-79c0 -77.333 45.667 -116 137 -116c92.667 0 139 39.333 139 118v69
c0 36.667 -6 62 -18 76s-34 21 -66 21h-28l4 65h22c32.667 0 55.167 7.5 67.5 22.5s18.5 39.833 18.5 74.5v44h82v-43c0 -35.333 -5.16699 -63.333 -15.5 -84s-29.833 -36 -58.5 -46c30 -11.333 49.833 -27.166 59.5 -47.499s14.5 -48.5 14.5 -84.5v-59
c0 -62.667 -19.5 -111 -58.5 -145z" />
    <glyph glyph-name="uni0E0B" unicode="&#xe0b;" horiz-adv-x="572" 
d="M80 298c12 20 28.668 43.666 50.001 70.999c16.667 21.333 28.834 38.166 36.501 50.499s11.5 23.5 11.5 33.5c0 16.667 -8 25 -24 25c-14.667 0 -28.334 -6.33301 -41.001 -19v-39h-63v120h63v-28c20 18.667 44 28 72 28c22 0 39.5 -6.16699 52.5 -18.5
s19.5 -29.833 19.5 -52.5c0 -19.333 -4.83301 -37.666 -14.5 -54.999s-24.167 -38.666 -43.5 -63.999c-19.333 -26 -33.333 -47 -42 -63s-13 -32.667 -13 -50v-61c0 -77.333 45.667 -116 137 -116c92.667 0 139 39.333 139 118v69c0 36.667 -6 62 -18 76s-34 21 -66 21h-28
l4 65h22c32.667 0 55.167 7.5 67.5 22.5s18.5 39.833 18.5 74.5v44h82v-43c0 -35.333 -5.16699 -63.333 -15.5 -84s-29.833 -36 -58.5 -46c30 -11.333 49.833 -27.166 59.5 -47.499s14.5 -48.5 14.5 -84.5v-59c0 -62.667 -19.5 -111 -58.5 -145s-93.167 -51 -162.5 -51
c-70.667 0 -124.834 16.667 -162.501 50s-56.5 81.666 -56.5 144.999v54c0 19.333 6 39 18 59z" />
    <glyph glyph-name="uni0E0C" unicode="&#xe0c;" horiz-adv-x="958" 
d="M685 60c42 0 72.667 9.66602 92 28.999s29 51.333 29 96v355h82v-356c0 -62.667 -15.333 -110.667 -46 -144s-74 -50 -130 -50c-40 0 -74.833 6.33301 -104.5 19s-58.167 31.334 -85.5 56.001l-5 -65h-73v347c0 34 -4.83301 60.5 -14.5 79.5s-25.167 32.667 -46.5 41
s-50.666 12.5 -87.999 12.5c-36 0 -69.5 -5.16699 -100.5 -15.5s-55.167 -24.166 -72.5 -41.499v-21l117 -28v-62c-26 -6.66699 -45 -17.334 -57 -32.001s-18 -35.667 -18 -63v-101c0 -16.667 3.83301 -29 11.5 -37s19.5 -12 35.5 -12h57v-67h-94
c-28.667 -0 -51.167 8.83301 -67.5 26.5s-24.5 40.834 -24.5 69.501v123c0 29.333 6.5 54.166 19.5 74.499s33.5 34.5 61.5 42.5l-113 26v96c28 26.667 62.833 48.667 104.5 66s88.5 26 140.5 26c77.333 0 135 -16.667 173 -50s57 -85.333 57 -156v-210
c47.333 -49.333 100.666 -74 159.999 -74z" />
    <glyph glyph-name="uni0E0D" unicode="&#xe0d;" horiz-adv-x="967" 
d="M559.5 192.5c23 -21.667 59.832 -32.501 110.499 -32.501s87.5 10.833 110.5 32.5s34.5 56.834 34.5 105.501v242h82v-236c0 -52.667 -11.667 -95.667 -35 -129c23.333 -22 35 -51.667 35 -89c0 -44.667 -19 -78.5 -57 -101.5s-94.333 -34.5 -169 -34.5
c-36.667 0 -72.167 3.5 -106.5 10.5s-64.166 17.5 -89.499 31.5v71c25.333 -14 56.166 -24.667 92.499 -32s70.833 -11 103.5 -11c50 0 87.5 5.83301 112.5 17.5s37.5 27.834 37.5 48.501c0 15.333 -4 28.333 -12 39c-38 -23.333 -84.333 -35 -139 -35
c-150.667 0 -226 71.333 -226 214v43c0 34 -4.83301 60.5 -14.5 79.5s-25.167 32.667 -46.5 41s-50.666 12.5 -87.999 12.5c-36 0 -69.5 -5.16699 -100.5 -15.5s-55.167 -24.166 -72.5 -41.499v-21l117 -28v-62c-26 -6.66699 -45 -17.334 -57 -32.001s-18 -35.667 -18 -63
v-101c0 -16.667 3.83301 -29 11.5 -37s19.5 -12 35.5 -12h57v-67h-94c-28.667 0 -51.167 8.83301 -67.5 26.5s-24.5 40.834 -24.5 69.501v123c0 29.333 6.5 54.166 19.5 74.499s33.5 34.5 61.5 42.5l-113 26v96c28 26.667 62.833 48.667 104.5 66s88.5 26 140.5 26
c77.333 0 135 -16.667 173 -50s57 -85.333 57 -156v-46c0 -48.667 11.5 -83.834 34.5 -105.501z" />
    <glyph glyph-name="uni0E0E" unicode="&#xe0e;" horiz-adv-x="642" 
d="M420 -166.5c-24 5.66699 -51.668 8.49414 -83.001 8.49414c-57.333 0 -112 -12.667 -164 -38v70c52 25.333 108.333 38 169 38c30 0 57.667 -3 83 -9s47 -14 65 -24v468c0 49.333 -11.667 83.833 -35 103.5s-63.333 29.5 -120 29.5
c-37.333 0 -72.166 -5.16699 -104.499 -15.5s-57.166 -24.166 -74.499 -41.499v-21l123 -28v-62c-24.667 -7.33301 -41.5 -17.666 -50.5 -30.999s-13.5 -34.666 -13.5 -63.999v-107c0 -73.333 -34.333 -110 -103 -110h-62v67h40c15.333 0 26.333 3.83301 33 11.5
s10 19.834 10 36.501v104c0 30 5.16699 54.833 15.5 74.5s28.5 33.834 54.5 42.501l-119 26v96c28 26.667 63.5 48.667 106.5 66s91.167 26 144.5 26c79.333 0 138.666 -16.833 177.999 -50.5s59 -85.5 59 -155.5v-538h-81c-23.333 12.667 -47 21.834 -71 27.501z" />
    <glyph glyph-name="uni0E0F" unicode="&#xe0f;" horiz-adv-x="642" 
d="M536.5 -161c-23.667 -22.667 -56.833 -34.0039 -99.5 -34.0039c-22.667 0 -43.5 4.16699 -62.5 12.5s-33.5 19.166 -43.5 32.499c-16 -29.333 -46.333 -44 -91 -44h-90l5 72h69c20 0 35.667 3.16699 47 9.5s21.333 17.5 30 33.5h56
c7.33301 -15.333 16.666 -26.833 27.999 -34.5s26 -11.5 44 -11.5c22.667 0 38.5 5.5 47.5 16.5s13.5 29.167 13.5 54.5v401c0 49.333 -11.667 83.833 -35 103.5s-63.333 29.5 -120 29.5c-37.333 0 -72.166 -5.16699 -104.499 -15.5s-57.166 -24.166 -74.499 -41.499v-21
l123 -28v-62c-24.667 -7.33301 -41.5 -17.666 -50.5 -30.999s-13.5 -34.666 -13.5 -63.999v-107c0 -73.333 -34.333 -110 -103 -110h-62v67h40c15.333 0 26.333 3.83301 33 11.5s10 19.834 10 36.501v104c0 30 5.16699 54.833 15.5 74.5s28.5 33.834 54.5 42.501l-119 26v96
c28 26.667 63.5 48.667 106.5 66s91.167 26 144.5 26c79.333 0 138.666 -16.833 177.999 -50.5s59 -85.5 59 -155.5v-408c0 -42 -11.833 -74.333 -35.5 -97z" />
    <glyph glyph-name="uni0E10" unicode="&#xe10;" horiz-adv-x="612" 
d="M504.5 389c9.66699 -32 14.501 -69.666 14.501 -112.999c0 -60.667 -11 -112.5 -33 -155.5s-51.667 -75.5 -89 -97.5s-78.333 -33 -123 -33c-12.667 0 -26.334 1 -41.001 3s-26.334 4.66699 -35.001 8l-84 224h-64l4 67h113l87 -232l17 -1c48 0 87.667 17.833 119 53.5
s47 90.167 47 163.5c0 50.667 -6.66699 90.667 -20 120s-35 50.666 -65 63.999s-70.667 20 -122 20c-61.333 0 -118 -8.66699 -170 -26v68c56 18.667 120 28 192 28c31.333 0 62 -3.33301 92 -10h218l-4 -67h-102c22.667 -24 38.834 -52 48.501 -84zM404.001 -109.999
c-9.33301 -10 -25.001 -15.001 -47.001 -15.001c-18 0 -32.667 3.83301 -44 11.5s-20.666 19.167 -27.999 34.5h-56c-8.66699 -16 -18.667 -27.167 -30 -33.5s-27 -9.5 -47 -9.5h-69l-5 -72h90c44.667 0 75 14.667 91 44c10 -13.333 24.5 -24.166 43.5 -32.499
s39.833 -12.5 62.5 -12.5c42 0 75 10.833 99 32.5s36 51.167 36 88.5v34h-82v-24c0 -20.667 -4.66699 -36 -14 -46z" />
    <glyph glyph-name="uni0E11" unicode="&#xe11;" horiz-adv-x="595" 
d="M113 459l-0.00390625 -39h-63v120h63v-28c20 18.667 44 28 72 28c27.333 0 46.333 -10 57 -30c36.667 26.667 78 40 124 40c56.667 0 97.334 -15 122.001 -45s37 -77 37 -141v-364h-82v365c0 28.667 -2.83301 51.167 -8.5 67.5s-15.5 28.333 -29.5 36
s-34.333 11.5 -61 11.5c-15.333 0 -31.666 -3.16699 -48.999 -9.5s-31.666 -14.833 -42.999 -25.5c0 -15.333 -3 -30 -9 -44s-15.667 -33 -29 -57c-14 -24 -24.667 -44.833 -32 -62.5s-11 -36.5 -11 -56.5v-225h-82v230c0 19.333 4.33301 38.666 13 57.999
s21.334 43.333 38.001 72c14 24.667 24 43.334 30 56.001s9 24.667 9 36c0 17.333 -8 26 -24 26c-15.333 0 -29.333 -6.33301 -42 -19z" />
    <glyph glyph-name="uni0E12" unicode="&#xe12;" horiz-adv-x="989" 
d="M716 60c42 0 72.666 9.66602 91.999 28.999s29 51.333 29 96v355h82v-356c0 -62.667 -15.333 -110.667 -46 -144s-74 -50 -130 -50c-40 0 -74.833 6.33301 -104.5 19s-58.167 31.334 -85.5 56.001l-5 -65h-73v405c0 28.667 -3.83301 48.334 -11.5 59.001
s-23.167 16 -46.5 16c-33.333 0 -56.333 -15.667 -69 -47h-55c-10 18 -19.667 30.333 -29 37s-22.666 10 -39.999 10c-34 0 -57.833 -18.333 -71.5 -55s-20.5 -90 -20.5 -160c0 -74 12.167 -126.667 36.5 -158s61.5 -47 111.5 -47c30 0 53 2.66699 69 8v-68
c-22 -6.66699 -49.667 -10 -83 -10c-65.333 0 -117.666 22.833 -156.999 68.5s-59 114.5 -59 206.5c0 91.333 14.333 161.666 43 210.999s69 74 121 74c25.333 0 46 -4.33301 62 -13s31 -22 45 -40c14.667 16.667 32.5 29.667 53.5 39s42.833 14 65.5 14
c38.667 0 67.667 -11.333 87 -34s29 -56 29 -100v-282c47.333 -49.333 100.666 -74 159.999 -74z" />
    <glyph glyph-name="uni0E13" unicode="&#xe13;" horiz-adv-x="958" 
d="M554 89c19.333 -19.333 50 -28.999 92 -28.999c59.333 0 112.666 24.667 159.999 74v406h82v-540h-74l-5 65c-27.333 -24.667 -55.833 -43.334 -85.5 -56.001s-64.5 -19 -104.5 -19c-56 0 -99.167 16.667 -129.5 50s-45.5 81.333 -45.5 144v163
c0 34 -4.83301 60.5 -14.5 79.5s-25.167 32.667 -46.5 41s-50.666 12.5 -87.999 12.5c-36 0 -69.5 -5.16699 -100.5 -15.5s-55.167 -24.166 -72.5 -41.499v-21l117 -28v-62c-26 -6.66699 -45 -17.334 -57 -32.001s-18 -35.667 -18 -63v-101c0 -16.667 3.83301 -29 11.5 -37
s19.5 -12 35.5 -12h57v-67h-94c-28.667 -0 -51.167 8.83301 -67.5 26.5s-24.5 40.834 -24.5 69.501v123c0 29.333 6.5 54.166 19.5 74.499s33.5 34.5 61.5 42.5l-113 26v96c28 26.667 62.833 48.667 104.5 66s88.5 26 140.5 26c77.333 0 135 -16.667 173 -50
s57 -85.333 57 -156v-159c0 -44.667 9.66699 -76.667 29 -96z" />
    <glyph glyph-name="uni0E14" unicode="&#xe14;" horiz-adv-x="637" 
d="M459.5 520.5c37 -19.667 64.165 -45.668 81.498 -78.001s26 -68.166 26 -107.499v-335h-82v334c0 45.333 -13.167 81 -39.5 107s-68.833 39 -127.5 39c-65.333 0 -112.666 -18.167 -141.999 -54.5s-44 -89.833 -44 -160.5c0 -74 12.167 -126.667 36.5 -158
s61.5 -47 111.5 -47c30 0 53 2.66699 69 8v-68c-22 -6.66699 -49.667 -10 -83 -10c-65.333 0 -117.666 22.833 -156.999 68.5s-59 114.5 -59 206.5c0 90 22.5 160 67.5 210s112.5 75 202.5 75c56 0 102.5 -9.83301 139.5 -29.5z" />
    <glyph glyph-name="uni0E15" unicode="&#xe15;" horiz-adv-x="637" 
d="M472.5 464c-8.33301 10.667 -24.1689 16 -47.502 16c-34.667 0 -58.334 -15.667 -71.001 -47h-55c-10 17.333 -20 29.5 -30 36.5s-23.667 10.5 -41 10.5c-36 0 -61 -18.167 -75 -54.5s-21 -89.833 -21 -160.5c0 -74 12.167 -126.667 36.5 -158s61.5 -47 111.5 -47
c30 0 53 2.66699 69 8v-68c-22 -6.66699 -49.667 -10 -83 -10c-65.333 0 -117.666 22.833 -156.999 68.5s-59 114.5 -59 206.5c0 91.333 14.5 161.666 43.5 210.999s70.5 74 124.5 74c25.333 0 46.333 -4.33301 63 -13s32 -22 46 -40c14.667 16.667 32.834 29.667 54.501 39
s43.834 14 66.501 14c38.667 0 68.167 -11.5 88.5 -34.5s30.5 -56.167 30.5 -99.5v-416h-82v405c0 28.667 -4.16699 48.334 -12.5 59.001z" />
    <glyph glyph-name="uni0E16" unicode="&#xe16;" horiz-adv-x="608" 
d="M175.5 79c7.66699 -8 19.499 -12 35.499 -12h57v-67h-94c-28.667 -0 -51.167 8.83301 -67.5 26.5s-24.5 40.834 -24.5 69.501v123c0 29.333 6.5 54.166 19.5 74.499s33.5 34.5 61.5 42.5l-113 26v96c28 26.667 63.5 48.667 106.5 66s91.167 26 144.5 26
c79.333 0 138.666 -16.833 177.999 -50.5s59 -85.5 59 -155.5v-344h-82v347c0 49.333 -11.667 83.833 -35 103.5s-63.333 29.5 -120 29.5c-37.333 0 -72.166 -5.16699 -104.499 -15.5s-57.166 -24.166 -74.499 -41.499v-21l117 -28v-62
c-26 -6.66699 -45 -17.334 -57 -32.001s-18 -35.667 -18 -63v-101c0 -16.667 3.83301 -29 11.5 -37z" />
    <glyph glyph-name="uni0E17" unicode="&#xe17;" horiz-adv-x="597" 
d="M445 0l0.000976562 355.999c0 43.333 -10.333 74.833 -31 94.5s-52.667 29.5 -96 29.5c-32.667 0 -63 -6.66699 -91 -20s-53 -31.666 -75 -54.999v-405h-82v540h74l5 -65c26.667 24 56 42.5 88 55.5s68.667 19.5 110 19.5c57.333 0 101.666 -16.667 132.999 -50
s47 -81 47 -143v-357h-82z" />
    <glyph glyph-name="uni0E18" unicode="&#xe18;" horiz-adv-x="531" 
d="M366 81c22 14 33.002 38.6641 33.002 73.9971c0 28 -5.66699 49.333 -17 64s-27.166 25.334 -47.499 32.001s-54.166 15.334 -101.499 26.001c-40 8.66699 -72.167 17.334 -96.5 26.001s-44.833 22 -61.5 40s-25 42.333 -25 73c0 89.333 74.333 134 223 134
c32.667 0 66 -2.5 100 -7.5s61 -11.167 81 -18.5v-72c-22.667 8 -49.5 14.667 -80.5 20s-60.833 8 -89.5 8c-50.667 0 -89.334 -4 -116.001 -12s-40 -24.667 -40 -50c0 -15.333 4.66699 -27.5 14 -36.5s21.666 -16 36.999 -21s38 -10.833 68 -17.5l55 -13
c41.333 -10.667 74.166 -21.667 98.499 -33s43.833 -28.166 58.5 -50.499s22 -52.833 22 -91.5c0 -54.667 -18.833 -95.834 -56.5 -123.501s-89.5 -41.5 -155.5 -41.5c-39.333 0 -77.333 3.66699 -114 11s-68.334 16.333 -95.001 27v205h76v-152c38 -14 80.333 -21 127 -21
s81 7 103 21z" />
    <glyph glyph-name="uni0E19" unicode="&#xe19;" horiz-adv-x="597" 
d="M152 540v-355c0 -44 9.83301 -75.833 29.5 -95.5s51.5 -29.5 95.5 -29.5c32.667 0 63.5 6.66699 92.5 20s54.167 31.333 75.5 54v406h82v-540h-74l-5 65c-55.333 -50 -121.333 -75 -198 -75c-58 0 -102.5 16.667 -133.5 50s-46.5 81.333 -46.5 144v356h82z" />
    <glyph glyph-name="uni0E1A" unicode="&#xe1a;" horiz-adv-x="614" 
d="M423 93c26 22 39.002 57 39.002 105v342h82v-336c0 -70.667 -20.333 -124 -61 -160s-99.334 -54 -176.001 -54s-135.334 18 -176.001 54s-61 89.333 -61 160v336h82v-342c0 -48 13 -83 39 -105s64.667 -33 116 -33s90 11 116 33z" />
    <glyph glyph-name="uni0E1B" unicode="&#xe1b;" horiz-adv-x="614" 
d="M423 93c26 22 39.002 57 39.002 105v502h82v-496c0 -70.667 -20.333 -124 -61 -160s-99.334 -54 -176.001 -54s-135.334 18 -176.001 54s-61 89.333 -61 160v336h82v-342c0 -48 13 -83 39 -105s64.667 -33 116 -33s90 11 116 33z" />
    <glyph glyph-name="uni0E1C" unicode="&#xe1c;" horiz-adv-x="642" 
d="M96 512c17.333 18.667 40.333 27.999 69 27.999h86l3 -68h-53c-18 0 -30.833 -4 -38.5 -12s-11.5 -21.667 -11.5 -41v-305l151 261h39l151 -261v426h80v-540h-84l-166 291l-168 -291h-84v441c0 28.667 8.66699 52.334 26 71.001z" />
    <glyph glyph-name="uni0E1D" unicode="&#xe1d;" horiz-adv-x="642" 
d="M96 512c17.333 18.667 40.333 27.999 69 27.999h86l3 -68h-53c-18 0 -30.833 -4 -38.5 -12s-11.5 -21.667 -11.5 -41v-305l151 261h39l151 -261v586h80v-700h-84l-166 291l-168 -291h-84v441c0 28.667 8.66699 52.334 26 71.001z" />
    <glyph glyph-name="uni0E1E" unicode="&#xe1e;" horiz-adv-x="721" 
d="M245 0h-81l-124 540h84l89 -425l114 357v68h61l122 -425l88 425h83l-123 -540h-82l-111 380z" />
    <glyph glyph-name="uni0E1F" unicode="&#xe1f;" horiz-adv-x="721" 
d="M245 0h-81l-124 540h84l89 -425l114 357v68h61l122 -425l123 585h83l-158 -700h-82l-111 380z" />
    <glyph glyph-name="uni0E20" unicode="&#xe20;" horiz-adv-x="642" 
d="M279 312c-24.667 -7.33301 -41.501 -17.6709 -50.501 -31.0039s-13.5 -34.666 -13.5 -63.999v-107c0 -73.333 -34.333 -110 -103 -110h-62v67h40c15.333 0 26.333 3.83301 33 11.5s10 19.834 10 36.501v104c0 30 5.16699 54.833 15.5 74.5s28.5 33.834 54.5 42.501
l-119 26v96c28 26.667 63.5 48.667 106.5 66s91.167 26 144.5 26c79.333 0 138.666 -16.833 177.999 -50.5s59 -85.5 59 -155.5v-344h-82v347c0 49.333 -11.667 83.833 -35 103.5s-63.333 29.5 -120 29.5c-37.333 0 -72.166 -5.16699 -104.499 -15.5
s-57.166 -24.166 -74.499 -41.499v-21l123 -28v-62z" />
    <glyph glyph-name="uni0E21" unicode="&#xe21;" horiz-adv-x="597" 
d="M479.5 40c-31.667 -33.333 -76.5 -50.001 -134.5 -50.001c-41.333 0 -77.5 6.33301 -108.5 19s-60.167 31.334 -87.5 56.001l-5 -65h-74v540h82v-406c22 -22.667 47 -40.667 75 -54s58.333 -20 91 -20c44 0 76.167 9.83301 96.5 29.5s30.5 51.5 30.5 95.5v355h82v-356
c0 -62.667 -15.833 -110.667 -47.5 -144z" />
    <glyph glyph-name="uni0E22" unicode="&#xe22;" horiz-adv-x="591" 
d="M135 399c0 -28.667 9.33105 -50.001 27.998 -64.001s44.334 -21 77.001 -21h57l5 -62h-65c-35.333 0 -61.666 -8.33301 -78.999 -25s-26 -41 -26 -73s12.5 -55.667 37.5 -71s63.5 -23 115.5 -23s90.667 10 116 30s38 51.333 38 94v356h82v-342
c0 -68.667 -19 -120.5 -57 -155.5s-96.667 -52.5 -176 -52.5c-74.667 0 -133 13.667 -175 41s-63 68.333 -63 123c0 30.667 7.16699 56.834 21.5 78.501s34.5 38.167 60.5 49.5c-24 7.33301 -43.167 21 -57.5 41s-21.5 45.333 -21.5 76c0 48.667 14.667 86 44 112
s68 39 116 39c32 0 59.667 -3.66699 83 -11v-68c-18 6 -40.667 9 -68 9c-62 0 -93 -27 -93 -81z" />
    <glyph glyph-name="uni0E23" unicode="&#xe23;" horiz-adv-x="505" 
d="M359.5 184c-9 11.333 -20.999 20.3369 -35.999 27.0039s-37.5 14.667 -67.5 24l-36 12c-36.667 12 -66.667 24 -90 36s-42.5 27.833 -57.5 47.5s-22.5 44.167 -22.5 73.5c0 47.333 17.667 83.5 53 108.5s87.333 37.5 156 37.5c28 0 56.333 -2.33301 85 -7
s53.334 -10.334 74.001 -17.001v-72c-44.667 17.333 -93.667 26 -147 26c-48.667 0 -84 -5.16699 -106 -15.5s-33 -29.833 -33 -58.5c0 -18.667 5.83301 -33.834 17.5 -45.501s26.667 -21 45 -28s49.166 -17.5 92.499 -31.5c37.333 -12 67.833 -24.5 91.5 -37.5
s42.334 -29.5 56.001 -49.5s20.5 -45 20.5 -75c0 -99.333 -71.333 -149 -214 -149c-34 0 -66.833 2.33301 -98.5 7s-57.834 11 -78.501 19v73c49.333 -19.333 103.666 -29 162.999 -29c52.667 0 90.167 5.16699 112.5 15.5s33.5 31.166 33.5 62.499
c0 19.333 -4.5 34.666 -13.5 45.999z" />
    <glyph glyph-name="uni0E24" unicode="&#xe24;" horiz-adv-x="608" 
d="M175.5 79c7.66699 -8 19.499 -12 35.499 -12h57v-67h-94c-28.667 -0 -51.167 8.83301 -67.5 26.5s-24.5 40.834 -24.5 69.501v123c0 29.333 6.5 54.166 19.5 74.499s33.5 34.5 61.5 42.5l-113 26v96c28 26.667 63.5 48.667 106.5 66s91.167 26 144.5 26
c79.333 0 138.666 -16.833 177.999 -50.5s59 -85.5 59 -155.5v-504h-82v507c0 49.333 -11.667 83.833 -35 103.5s-63.333 29.5 -120 29.5c-37.333 0 -72.166 -5.16699 -104.499 -15.5s-57.166 -24.166 -74.499 -41.499v-21l117 -28v-62
c-26 -6.66699 -45 -17.334 -57 -32.001s-18 -35.667 -18 -63v-101c0 -16.667 3.83301 -29 11.5 -37z" />
    <glyph glyph-name="uni0E25" unicode="&#xe25;" horiz-adv-x="586" 
d="M109 454l0.00292969 68.002c25.333 8.66699 54.666 15.5 87.999 20.5s66.666 7.5 99.999 7.5c76 0 131.5 -15.833 166.5 -47.5s52.5 -81.834 52.5 -150.501v-352h-82v248h-172c-46 0 -79.5 -7.66699 -100.5 -23s-31.5 -40 -31.5 -74c0 -33.333 9.5 -56.833 28.5 -70.5
s50.167 -20.5 93.5 -20.5c26 0 48.667 2.66699 68 8v-68c-25.333 -6.66699 -55.333 -10 -90 -10c-54.667 0 -98.334 13.167 -131.001 39.5s-49 66.833 -49 121.5c0 52 17.333 92.5 52 121.5s86.334 43.5 155.001 43.5h177v42c0 31.333 -4.66699 55.666 -14 72.999
s-24.833 29.833 -46.5 37.5s-52.167 11.5 -91.5 11.5c-62.667 0 -120.334 -8.66699 -173.001 -26z" />
    <glyph glyph-name="uni0E26" unicode="&#xe26;" horiz-adv-x="642" 
d="M279 312c-24.667 -7.33301 -41.501 -17.6709 -50.501 -31.0039s-13.5 -34.666 -13.5 -63.999v-107c0 -73.333 -34.333 -110 -103 -110h-62v67h40c15.333 0 26.333 3.83301 33 11.5s10 19.834 10 36.501v104c0 30 5.16699 54.833 15.5 74.5s28.5 33.834 54.5 42.501
l-119 26v96c28 26.667 63.5 48.667 106.5 66s91.167 26 144.5 26c79.333 0 138.666 -16.833 177.999 -50.5s59 -85.5 59 -155.5v-504h-82v507c0 49.333 -11.667 83.833 -35 103.5s-63.333 29.5 -120 29.5c-37.333 0 -72.166 -5.16699 -104.499 -15.5
s-57.166 -24.166 -74.499 -41.499v-21l123 -28v-62z" />
    <glyph glyph-name="uni0E27" unicode="&#xe27;" horiz-adv-x="504" 
d="M182 60c48.667 0 86.8311 7 114.498 21s47.167 36.167 58.5 66.5s17 71.166 17 122.499c0 74.667 -14.833 128.334 -44.5 161.001s-79.167 49 -148.5 49c-44.667 0 -87.667 -9.33301 -129 -28v70c42.667 18.667 91.334 28 146.001 28c172 0 258 -93.333 258 -280
c0 -92.667 -20 -162.5 -60 -209.5s-104.333 -70.5 -193 -70.5c-57.333 0 -107.666 9.33301 -150.999 28v69c44 -18 88 -27 132 -27z" />
    <glyph glyph-name="uni0E28" unicode="&#xe28;" horiz-adv-x="626" 
d="M189.5 451c-25 -19.333 -37.5 -50 -37.5 -92v-125c31.333 27.333 70 41 116 41h66l4 -67h-72c-45.333 0 -83.333 -13 -114 -39v-169h-82v350c0 133.333 78 200 234 200c31.333 0 62 -3.33301 92 -10h190l-4 -67h-83c24.667 -30.667 37 -71.667 37 -123v-350h-82v359
c0 42 -12.5 72.667 -37.5 92s-62.5 29 -112.5 29c-51.333 0 -89.5 -9.66699 -114.5 -29z" />
    <glyph glyph-name="uni0E29" unicode="&#xe29;" horiz-adv-x="631" 
d="M423 93c26 22 39.002 57 39.002 105v80h-143v67h143v195h82v-195h62l-7 -67h-55v-74c0 -70.667 -20.333 -124 -61 -160s-99.334 -54 -176.001 -54s-135.334 18 -176.001 54s-61 89.333 -61 160v336h82v-342c0 -48 13 -83 39 -105s64.667 -33 116 -33s90 11 116 33z" />
    <glyph glyph-name="uni0E2A" unicode="&#xe2a;" horiz-adv-x="591" 
d="M516 352l0.00292969 -351.999h-82v248h-172c-46 0 -79.5 -7.66699 -100.5 -23s-31.5 -40 -31.5 -74c0 -33.333 9.5 -56.833 28.5 -70.5s50.167 -20.5 93.5 -20.5c26 0 48.667 2.66699 68 8v-68c-25.333 -6.66699 -55.333 -10 -90 -10
c-54.667 0 -98.334 13.167 -131.001 39.5s-49 66.833 -49 121.5c0 52 17.333 92.5 52 121.5s86.334 43.5 155.001 43.5h177v42c0 31.333 -4.66699 55.666 -14 72.999s-24.833 29.833 -46.5 37.5s-52.167 11.5 -91.5 11.5c-62.667 0 -120.334 -8.66699 -173.001 -26v68
c25.333 8.66699 54.666 15.5 87.999 20.5s66.666 7.5 99.999 7.5c31.333 0 62 -3.33301 92 -10h172l-4 -67h-72c20.667 -28 31 -68.333 31 -121z" />
    <glyph glyph-name="uni0E2B" unicode="&#xe2b;" horiz-adv-x="593" 
d="M152 365h179c42.667 0 72.667 8.83301 90 26.5s26 45.167 26 82.5v66h82v-65c0 -76.667 -28.667 -124 -86 -142c31.333 -10 52.5 -26.167 63.5 -48.5s16.5 -51.5 16.5 -87.5v-197h-82v187c0 28.667 -3.5 51 -10.5 67s-18.667 27.333 -35 34s-39.5 10 -69.5 10h-174v-298
h-82v540h82v-175z" />
    <glyph glyph-name="uni0E2C" unicode="&#xe2c;" horiz-adv-x="721" 
d="M476 0l-110.998 345l-120 -345h-81l-124 540h84l92 -425l111 317v68h61l119 -385l73 329c3.33301 18 5 31.333 5 40c0 17.333 -4.5 29.666 -13.5 36.999s-23.167 11 -42.5 11h-40l10 65h42c27.333 0 47.166 4.5 59.499 13.5s21.166 25.5 26.499 49.5l9 40h80l-11 -49
c-6.66699 -28 -16.167 -49 -28.5 -63s-28.833 -23 -49.5 -27c24.667 -12 37 -35 37 -69c0 -15.333 -1.66699 -29.666 -5 -42.999l-101 -449h-82z" />
    <glyph glyph-name="uni0E2D" unicode="&#xe2d;" horiz-adv-x="564" 
d="M58 454v68c26 8.66699 56.167 15.5 90.5 20.5s69.5 7.5 105.5 7.5c90.667 0 156.667 -23 198 -69s62 -116.667 62 -212c0 -93.333 -20.667 -163.166 -62 -209.499s-106.333 -69.5 -195 -69.5c-38.667 0 -76.167 3.5 -112.5 10.5s-67.833 16.167 -94.5 27.5v272h198l4 -67
h-120v-153c38.667 -13.333 79.667 -20 123 -20c44 0 78.667 6.66699 104 20s43.833 35.166 55.5 65.499s17.5 71.5 17.5 123.5c0 54 -6.33301 96.167 -19 126.5s-33.167 52 -61.5 65s-67.833 19.5 -118.5 19.5c-64 0 -122.333 -8.66699 -175 -26z" />
    <glyph glyph-name="uni0E2E" unicode="&#xe2e;" horiz-adv-x="596" 
d="M514 269c0 -93.333 -20.667 -163.166 -62 -209.499s-106.333 -69.5 -195 -69.5c-38.667 0 -76.167 3.5 -112.5 10.5s-67.833 16.167 -94.5 27.5v272h198l4 -67h-120v-153c38.667 -13.333 79.667 -20 123 -20c44 0 78.667 6.66699 104 20s43.833 35.166 55.5 65.499
s17.5 71.5 17.5 123.5c0 54 -6.33301 96.167 -19 126.5s-33.167 52 -61.5 65s-67.833 19.5 -118.5 19.5c-64 0 -122.333 -8.66699 -175 -26v68c26 8.66699 56.167 15.5 90.5 20.5s69.5 7.5 105.5 7.5c31.333 0 62 -3.33301 92 -10h200l-4 -67h-87
c39.333 -45.333 59 -113.333 59 -204z" />
    <glyph glyph-name="uni0E2F" unicode="&#xe2f;" horiz-adv-x="533" 
d="M381 380l-0.000976562 159.998h82v-540h-82v310c-18.667 -12 -40.167 -21.5 -64.5 -28.5s-50.166 -10.5 -77.499 -10.5c-54 0 -97.333 14.667 -130 44s-49 67.666 -49 114.999c0 38.667 7.66699 75.334 23 110.001h84c-8.66699 -17.333 -15 -34.166 -19 -50.499
s-6 -36.166 -6 -59.499c0 -29.333 8.33301 -51.5 25 -66.5s43 -22.5 79 -22.5c56 0 101 13 135 39z" />
    <glyph glyph-name="uni0E30" unicode="&#xe30;" horiz-adv-x="326" 
d="M121 452v-49h155l-3 -63h-223v112h71zM121 176v-50h155l-3 -62h-223v112h71z" />
    <glyph glyph-name="uni0E31" unicode="&#xe31;" 
d="M-218 763v-73h269l-4 -59h-334v132h69z" />
    <glyph glyph-name="uni0E32" unicode="&#xe32;" horiz-adv-x="439" 
d="M287 349c0 32.667 -3.16797 57.999 -9.50098 75.999s-18.666 31.667 -36.999 41s-45.833 14 -82.5 14c-21.333 0 -44.5 -2.33301 -69.5 -7s-47.833 -11 -68.5 -19v68c20.667 8 44.667 14.667 72 20s54.333 8 81 8c68.667 0 118.5 -15.167 149.5 -45.5
s46.5 -79.166 46.5 -146.499v-358h-82v349z" />
    <glyph glyph-name="uni0E33" unicode="&#xe33;" horiz-adv-x="439" 
d="M-186.5 783.5c20.333 19.667 45.166 29.5 74.499 29.5s54 -9.83301 74 -29.5s30 -43.834 30 -72.501s-10 -52.667 -30 -72s-44.667 -29 -74 -29s-54.166 9.66699 -74.499 29s-30.5 43.333 -30.5 72s10.167 52.834 30.5 72.501zM-147.5 676.5
c9.66699 -9.66699 21.5 -14.5 35.5 -14.5c13.333 0 24.833 4.83301 34.5 14.5s14.5 21.167 14.5 34.5s-4.83301 25 -14.5 35s-21.167 15 -34.5 15c-14 0 -25.833 -5 -35.5 -15s-14.5 -21.667 -14.5 -35s4.83301 -24.833 14.5 -34.5zM287 349
c0 32.667 -3.16797 57.999 -9.50098 75.999s-18.666 31.667 -36.999 41s-45.833 14 -82.5 14c-21.333 0 -44.5 -2.33301 -69.5 -7s-47.833 -11 -68.5 -19v68c20.667 8 44.667 14.667 72 20s54.333 8 81 8c68.667 0 118.5 -15.167 149.5 -45.5s46.5 -79.166 46.5 -146.499
v-358h-82v349z" />
    <glyph glyph-name="uni0E34" unicode="&#xe34;" 
d="M-468 631l4 59h393v-59h-397z" />
    <glyph glyph-name="uni0E35" unicode="&#xe35;" 
d="M-140 775h69v-144h-397l4 59h324v85z" />
    <glyph glyph-name="uni0E36" unicode="&#xe36;" 
d="M-203 770.5c15.333 14.333 35.668 21.498 61.001 21.498c27.333 0 48.166 -7.66699 62.499 -23s21.5 -33.666 21.5 -54.999c0 -24 -8 -43.833 -24 -59.5s-37.333 -23.5 -64 -23.5h-322l4 59h243c-3.33301 6.66699 -5 14.334 -5 23.001c0 24 7.66699 43.167 23 57.5z
M-169.998 686.498c7.33301 -7.66699 16.668 -11.5 28.001 -11.5s20.666 3.66699 27.999 11s11 16.333 11 27c0 11.333 -3.66699 20.833 -11 28.5s-16.666 11.5 -27.999 11.5c-10.667 0 -19.834 -3.66699 -27.501 -11s-11.5 -17 -11.5 -29c0 -10 3.66699 -18.833 11 -26.5z
" />
    <glyph glyph-name="uni0E37" unicode="&#xe37;" 
d="M-259 775h62v-85h64v85h62v-144h-397l4 59h205v85z" />
    <glyph glyph-name="uni0E38" unicode="&#xe38;" 
d="M-70 -63v-187h-71v131h-66l4 56h133z" />
    <glyph glyph-name="uni0E39" unicode="&#xe39;" 
d="M-70 -63v-110c0 -24.667 -9.66699 -45 -29 -61s-45.333 -24 -78 -24c-31.333 0 -56.5 8.16699 -75.5 24.5s-28.5 36.5 -28.5 60.5v56h-53l3 54h111v-105c0 -11.333 3.66699 -20 11 -26s18 -9 32 -9s25 3.16699 33 9.5s12 14.833 12 25.5v105h62z" />
    <glyph glyph-name="uni0E3A" unicode="&#xe3a;" 
d="M-142.5 -70.5c9 9 19.833 13.5 32.5 13.5s23.5 -4.5 32.5 -13.5s13.5 -19.833 13.5 -32.5s-4.5 -23.334 -13.5 -32.001s-19.833 -13 -32.5 -13s-23.5 4.33301 -32.5 13s-13.5 19.334 -13.5 32.001s4.5 23.5 13.5 32.5z" />
    <glyph glyph-name="uni0E3F" unicode="&#xe3f;" horiz-adv-x="627" 
d="M266 0l-196 0.000976562v644h196v86h64v-86h38c122.667 0 184 -56.667 184 -170c0 -34.667 -7 -63.834 -21 -87.501s-34 -41.834 -60 -54.501c70.667 -17.333 106 -66.666 106 -147.999c0 -122.667 -64.333 -184 -193 -184h-54v-86h-64v86zM266 362.001v219h-114v-219
h114zM447.5 554.001c-18.333 18 -51.5 27 -99.5 27h-18v-219h33c74.667 0 112 35.333 112 106c0 39.333 -9.16699 68 -27.5 86zM266 300.001h-114v-238h114v238zM330 62.001h40.001c43.333 0 75 9.66699 95 29s30 51.333 30 96c0 38.667 -10.333 67.167 -31 85.5
s-56.334 27.5 -107.001 27.5h-27v-238z" />
    <glyph glyph-name="uni0E40" unicode="&#xe40;" horiz-adv-x="306" 
d="M152 540v-424.001c0 -16.667 3.83301 -29 11.5 -37s19.5 -12 35.5 -12h57v-67h-94c-28.667 0 -51.167 8.83301 -67.5 26.5s-24.5 40.834 -24.5 69.501v444h82z" />
    <glyph glyph-name="uni0E41" unicode="&#xe41;" horiz-adv-x="525" 
d="M152 540v-424.001c0 -16.667 3.83301 -29 11.5 -37s19.5 -12 35.5 -12h47v-67h-84c-28.667 0 -51.167 8.83301 -67.5 26.5s-24.5 40.834 -24.5 69.501v444h82zM381 539.999v-424.001c0 -16.667 3.83301 -29 11.5 -37s19.5 -12 35.5 -12h47v-67h-84
c-28.667 0 -51.167 8.83301 -67.5 26.5s-24.5 40.834 -24.5 69.501v444h82z" />
    <glyph glyph-name="uni0E42" unicode="&#xe42;" horiz-adv-x="317" 
d="M86.5 571.5c-16.333 21.667 -43.5 40.4971 -81.5 56.4971v66h277v-66h-173c32 -17.333 54 -38.666 66 -63.999s18 -63.666 18 -114.999v-333c0 -16.667 3.83301 -29 11.5 -37s19.5 -12 35.5 -12h57v-67h-94c-28.667 0 -51.167 8.83301 -67.5 26.5
s-24.5 40.834 -24.5 69.501v378c0 43.333 -8.16699 75.833 -24.5 97.5z" />
    <glyph glyph-name="uni0E43" unicode="&#xe43;" horiz-adv-x="288" 
d="M78.5 433c14.333 23.333 34.168 46.999 59.501 70.999c16 16 27.667 29.167 35 39.5s11 21.5 11 33.5c0 20 -5.83301 33.667 -17.5 41s-30.167 11 -55.5 11c-36.667 0 -73.667 -10.333 -111 -31v64c19.333 11.333 41 20 65 26s47.667 9 71 9
c43.333 0 76.166 -10 98.499 -30s33.5 -48 33.5 -84c0 -22 -4.83301 -40.333 -14.5 -55s-24.5 -32 -44.5 -52c-22.667 -21.333 -40 -41.5 -52 -60.5s-18 -43.5 -18 -73.5v-226c0 -16.667 3.83301 -29 11.5 -37s19.5 -12 35.5 -12h57v-67h-94
c-28.667 0 -51.167 8.83301 -67.5 26.5s-24.5 40.834 -24.5 69.501v247c0 36.667 7.16699 66.667 21.5 90z" />
    <glyph glyph-name="uni0E44" unicode="&#xe44;" horiz-adv-x="295" 
d="M110 560c15.333 28.667 36.667 51.332 64 67.999h-169v66h270v-65c-40 -17.333 -67.667 -41 -83 -71s-23 -72.667 -23 -128v-314c0 -16.667 3.83301 -29 11.5 -37s19.5 -12 35.5 -12h57v-67h-94c-28.667 0 -51.167 8.83301 -67.5 26.5s-24.5 40.834 -24.5 69.501v361
c0 40 7.66699 74.333 23 103z" />
    <glyph glyph-name="uni0E45" unicode="&#xe45;" horiz-adv-x="439" 
d="M287 349c0 32.667 -3.16797 57.999 -9.50098 75.999s-18.666 31.667 -36.999 41s-45.833 14 -82.5 14c-21.333 0 -44.5 -2.33301 -69.5 -7s-47.833 -11 -68.5 -19v68c20.667 8 44.667 14.667 72 20s54.333 8 81 8c68.667 0 118.5 -15.167 149.5 -45.5
s46.5 -79.166 46.5 -146.499v-518h-82v509z" />
    <glyph glyph-name="uni0E46" unicode="&#xe46;" horiz-adv-x="582" 
d="M420.5 462c-6.33301 12 -18.5 18.002 -36.5 18.002c-30 0 -53 -16.667 -69 -50h-49c-8.66699 18.667 -16.5 31.667 -23.5 39s-18.167 11 -33.5 11c-20.667 0 -37 -8.5 -49 -25.5s-18 -43.167 -18 -78.5c0 -34.667 8.16699 -59.334 24.5 -74.001s40.5 -22 72.5 -22
c30 0 53 2.66699 69 8v-68c-22 -6.66699 -50 -10 -84 -10c-51.333 0 -91.5 14 -120.5 42s-43.5 69.333 -43.5 124c0 52 12.167 94 36.5 126s57.166 48 98.499 48c22.667 0 41.334 -3.83301 56.001 -11.5s28 -20.5 40 -38.5c26 33.333 62 50 108 50
c42 0 71.333 -11.333 88 -34s25 -60.334 25 -113.001v-403h-82v415c0 19.333 -3.16699 35 -9.5 47z" />
    <glyph glyph-name="uni0E47" unicode="&#xe47;" 
d="M-438.5 823.5c22.333 21 53.834 31.501 94.501 31.501h240l-4 -53h-229c-26 0 -44.833 -5 -56.5 -15s-17.5 -26.333 -17.5 -49c0 -20.667 5.5 -35.5 16.5 -44.5s27.167 -13.5 48.5 -13.5c20 0 34.667 3.66699 44 11s14 18.333 14 33v23h54v-23
c0 -15.333 3.83301 -26 11.5 -32s20.167 -9 37.5 -9h64v-52h-69c-17.333 0 -32.333 2.5 -45 7.5s-21.334 12.833 -26.001 23.5c-6.66699 -10.667 -18.667 -18.834 -36 -24.501s-35.333 -8.5 -54 -8.5c-38 0 -67.667 9.5 -89 28.5s-32 45.833 -32 80.5
c0 36 11.167 64.5 33.5 85.5z" />
    <glyph glyph-name="uni0E48" unicode="&#xe48;" 
d="M-151 631v162h82v-162h-82z" />
    <glyph glyph-name="uni0E49" unicode="&#xe49;" 
d="M-222 690h219l-4 -59h-274v94h-79v59h138v-94z" />
    <glyph glyph-name="uni0E4A" unicode="&#xe4a;" 
d="M-305 622h-34.0029c-34.667 0 -61.5 8.5 -80.5 25.5s-28.5 42.833 -28.5 77.5c0 32.667 8.33301 57.834 25 75.501s38.334 26.5 65.001 26.5c34.667 0 56.667 -13.667 66 -41h1c4.66699 13.333 13.167 23.5 25.5 30.5s26.833 10.5 43.5 10.5
c28.667 0 49.834 -6.83301 63.501 -20.5s20.5 -32.834 20.5 -57.501v-72h14c10 0 16.667 2.33301 20 7s5 13 5 25v114h53v-118c0 -22.667 -6.66699 -40.667 -20 -54s-31.666 -20 -54.999 -20h-72v103c0 16 -2.16699 27 -6.5 33s-13.833 9 -28.5 9
c-16 0 -26.5 -3.66699 -31.5 -11s-7.5 -18.666 -7.5 -33.999v-14h-47v14c0 15.333 -2.5 26.666 -7.5 33.999s-14.833 11 -29.5 11c-15.333 0 -25.833 -3.83301 -31.5 -11.5s-8.5 -21.5 -8.5 -41.5c0 -21.333 4.16699 -35.5 12.5 -42.5s23.833 -10.5 46.5 -10.5h27v-48z" />
    <glyph glyph-name="uni0E4B" unicode="&#xe4b;" 
d="M-218 805h76v-58h72v-62h-72v-54h-76v54h-71v62h71v58z" />
    <glyph glyph-name="uni0E4C" unicode="&#xe4c;" 
d="M-218 706v-75h-69v134h281l-3 -59h-209z" />
    </font>
</defs>
</svg>
