<?xml version="1.0" standalone="no"?>
<!DOCTYPE svg PUBLIC "-//W3C//DTD SVG 1.1//EN" "http://www.w3.org/Graphics/SVG/1.1/DTD/svg11.dtd" >
<svg xmlns="http://www.w3.org/2000/svg" xmlns:xlink="http://www.w3.org/1999/xlink" version="1.1">
<metadata>
Created by FontForge 20170731 at Fri May  5 14:18:55 2017
 By Aleksey,,,
Copyright (c) 2015, Cadson Demak (info@cadsondemak.com)
</metadata>
<defs>
<font id="Pridi-Bold" horiz-adv-x="0" >
  <font-face 
    font-family="Pridi"
    font-weight="700"
    font-stretch="normal"
    units-per-em="1000"
    panose-1="0 0 8 0 0 0 0 0 0 0"
    ascent="750"
    descent="-250"
    x-height="480"
    cap-height="647"
    bbox="-687 -431 1312 1092"
    underline-thickness="50"
    underline-position="-150"
    unicode-range="U+000D-FB02"
  />
<missing-glyph horiz-adv-x="600" 
d="M94 714h411v-714h-411v714zM454 51v612h-309v-612h309z" />
    <glyph glyph-name="fi" unicode="fi" horiz-adv-x="594" 
d="M24 118h10q42 0 42 38v208h-71v116h71v21q0 176 237 176q73 0 123.5 -18t90.5 -48v-105h-173v39q-19 21 -45 21q-23 0 -34.5 -9.5t-11.5 -31.5v-45h264v-324q0 -38 41 -38h21v-118h-250v364h-76v-208q0 -19 8.5 -28.5t29.5 -9.5h9v-118h-286v118z" />
    <glyph glyph-name="fl" unicode="fl" horiz-adv-x="594" 
d="M24 118h10q42 0 42 38v208h-71v116h71v21q0 176 237 176q73 0 123.5 -18t90.5 -48v-455q0 -38 41 -38h21v-118h-250v364h-76v-208q0 -19 8.5 -28.5t29.5 -9.5h9v-118h-286v118zM339 480v78q-14 8 -30 8q-23 0 -34.5 -9.5t-11.5 -31.5v-45h76z" />
    <glyph glyph-name="ru_lakkhangyaothai" unicode="&#xe24;&#xe45;" horiz-adv-x="921" 
d="M837.5 490q48.5 -54 48.5 -150v-541h-188v544q0 41 -18.5 59t-54.5 18q-39 0 -72 -26q6 -24 6 -52v-543h-188v554q0 30 -22.5 48.5t-62.5 18.5q-48 0 -88 -20v-14l67 -41v-64q-29 -9 -39 -22.5t-10 -41.5v-22q42 -4 58.5 -27.5t16.5 -75.5q0 -55 -27 -81t-103 -26
q-74 0 -102 34t-28 106v60q0 47 12 74.5t42 47.5l-70 42v90q50 50 119.5 77.5t152.5 27.5q129 0 201 -53q35 27 78 40t98 13q125 0 173.5 -54zM192.5 121q-7.5 7 -27.5 7t-27.5 -7t-7.5 -26q0 -20 7.5 -27t27.5 -7t27.5 8t7.5 26q0 19 -7.5 26z" />
    <glyph glyph-name="lu_lakkhangyaothai" unicode="&#xe26;&#xe45;" horiz-adv-x="950" 
d="M866.5 490q48.5 -54 48.5 -150v-541h-188v544q0 41 -18.5 59t-54.5 18q-39 0 -72 -26q6 -24 6 -52v-543h-188v554q0 30 -22.5 48.5t-62.5 18.5q-48 0 -88 -20v-14l77 -46v-64q-19 -7 -24 -23t-5 -50v-78q0 -72 -28 -106t-102 -34q-76 0 -103 26t-27 81q0 52 16.5 75.5
t58.5 27.5v19q0 32 6.5 49.5t27.5 38.5l-80 47v90q50 50 119.5 77.5t152.5 27.5q129 0 201 -53q35 27 78 40t98 13q125 0 173.5 -54zM168.5 68q7.5 7 7.5 27q0 19 -7.5 26t-27.5 7t-27.5 -7t-7.5 -26q0 -18 7.5 -26t27.5 -8t27.5 7z" />
    <glyph glyph-name=".notdef" horiz-adv-x="600" 
d="M94 714h411v-714h-411v714zM454 51v612h-309v-612h309z" />
    <glyph glyph-name=".null" 
 />
    <glyph glyph-name="nonmarkingreturn" unicode="&#xd;" horiz-adv-x="280" 
 />
    <glyph glyph-name="space" unicode=" " horiz-adv-x="280" 
 />
    <glyph glyph-name="exclam" unicode="!" horiz-adv-x="249" 
d="M28 647h193l-7 -420h-179zM25 133h199v-133h-199v133z" />
    <glyph glyph-name="quotedbl" unicode="&#x22;" horiz-adv-x="431" 
d="M25 721h157l-14 -224h-129zM249 721h157l-14 -224h-129z" />
    <glyph glyph-name="numbersign" unicode="#" horiz-adv-x="750" 
d="M121 163h-96v116h122l25 109h-120v117h146l32 142h155l-32 -142h127l32 142h154l-32 -142h91v-117h-117l-25 -109h115v-116h-141l-36 -163h-154l36 163h-127l-36 -163h-155zM429 279l25 109h-127l-25 -109h127z" />
    <glyph glyph-name="dollar" unicode="$" horiz-adv-x="576" 
d="M196 -6q-100 19 -171 78v125h186v-77q33 -18 84 -18q37 0 55 14.5t18 46.5q0 22 -13.5 37t-36.5 26.5t-79 35.5q-74 32 -118 60.5t-67.5 65.5t-23.5 90q0 69 45 113t121 60v116h165v-110q57 -8 99.5 -30t79.5 -55v-112h-186v68q-29 17 -69 17q-72 0 -72 -60
q0 -25 17.5 -43.5t39 -29t62.5 -27.5q90 -37 132 -60.5t64.5 -58.5t22.5 -93q0 -70 -49.5 -120t-140.5 -63v-110h-165v114z" />
    <glyph glyph-name="percent" unicode="%" horiz-adv-x="764" 
d="M101.5 374.5q-35.5 20.5 -56 56t-20.5 77.5t20.5 77.5t56 56t77.5 20.5t77.5 -20.5t56 -56t20.5 -77.5t-20.5 -77.5t-56 -56t-77.5 -20.5t-77.5 20.5zM483 647h187l-377 -647h-187zM209.5 477.5q12.5 12.5 12.5 30.5t-12.5 30.5t-30.5 12.5t-30.5 -12.5t-12.5 -30.5
t12.5 -30.5t30.5 -12.5t30.5 12.5zM507.5 5.5q-35.5 20.5 -56 56t-20.5 77.5t20.5 77.5t56 56t77.5 20.5t77.5 -20.5t56 -56t20.5 -77.5t-20.5 -77.5t-56 -56t-77.5 -20.5t-77.5 20.5zM615.5 108.5q12.5 12.5 12.5 30.5t-12.5 30.5t-30.5 12.5t-30.5 -12.5t-12.5 -30.5
t12.5 -30.5t30.5 -12.5t30.5 12.5z" />
    <glyph glyph-name="ampersand" unicode="&#x26;" horiz-adv-x="718" 
d="M96.5 34.5q-71.5 49.5 -71.5 137.5q0 63 30 109t91 80q-38 36 -56.5 70t-18.5 69q0 76 53.5 119t156.5 43q102 0 156 -46t54 -119v-19h-184v42q0 13 -7 21t-18 8q-12 0 -20 -11.5t-8 -37.5q0 -22 13 -41t29.5 -36.5t22.5 -23.5l122 -127v120h217v-112h-30q-14 0 -19 -5.5
t-5 -20.5q0 -41 -7 -71t-25 -60l121 -123h-204l-28 28q-36 -25 -75 -34t-98 -9q-120 0 -191.5 49.5zM334.5 102.5q19.5 4.5 39.5 15.5l-128 138q-20 -18 -28.5 -36.5t-8.5 -47.5q0 -35 23 -54.5t56 -19.5q27 0 46.5 4.5z" />
    <glyph glyph-name="quotesingle" unicode="'" horiz-adv-x="228" 
d="M25 721h178l-14 -224h-150z" />
    <glyph glyph-name="parenleft" unicode="(" horiz-adv-x="399" 
d="M25 316q0 242 146 391h203q-167 -161 -167 -391q0 -118 37.5 -212.5t129.5 -178.5h-203q-146 149 -146 391z" />
    <glyph glyph-name="parenright" unicode=")" horiz-adv-x="399" 
d="M192 316q0 118 -37.5 212.5t-129.5 178.5h203q146 -149 146 -391t-146 -391h-203q167 161 167 391z" />
    <glyph glyph-name="asterisk" unicode="*" horiz-adv-x="448" 
d="M63 449l57 72l-95 25l45 125l77 -35l-2 85h158l-4 -86l78 35l46 -124l-96 -25l59 -72l-114 -77l-48 76l-48 -77z" />
    <glyph glyph-name="plus" unicode="+" horiz-adv-x="414" 
d="M135 252h-110v116h110v99h142v-99h112v-116h-112v-99h-142v99z" />
    <glyph glyph-name="comma" unicode="," horiz-adv-x="258" 
d="M62 116h171l-73 -237h-135z" />
    <glyph glyph-name="hyphen" unicode="-" horiz-adv-x="366" 
d="M25 358h316v-117h-316v117z" />
    <glyph glyph-name="period" unicode="." horiz-adv-x="178" 
d="M25 116h128v-116h-128v116z" />
    <glyph glyph-name="slash" unicode="/" horiz-adv-x="487" 
d="M275 676h187l-250 -676h-187z" />
    <glyph glyph-name="zero" unicode="0" horiz-adv-x="634" 
d="M89 68.5q-74 84.5 -74 255.5q0 170 74 253t228 83t228 -83t74 -253q0 -171 -74 -255.5t-228 -84.5t-228 84.5zM405.5 153q30.5 52 30.5 171q0 117 -30.5 168t-88.5 51t-88.5 -51t-30.5 -168q0 -119 30.5 -171t88.5 -52t88.5 52z" />
    <glyph glyph-name="one" unicode="1" horiz-adv-x="441" 
d="M56 116h52q41 0 41 40v313l-67 -41l-67 110l173 109h145v-491q0 -40 41 -40h52v-116h-370v116z" />
    <glyph glyph-name="two" unicode="2" horiz-adv-x="556" 
d="M25 66q0 92 58 160.5t167 120.5q38 18 58.5 33.5t30 37t9.5 55.5q0 72 -72 72q-17 0 -31 -1.5t-34 -8.5v-67h-181v118q115 76 245 76q120 0 188 -46.5t68 -141.5q0 -53 -20 -90.5t-62.5 -68.5t-119.5 -72q-53 -28 -84.5 -57t-31.5 -70h310v-116h-498v66z" />
    <glyph glyph-name="three" unicode="3" horiz-adv-x="572" 
d="M134 6.5q-67 21.5 -109 63.5v120h184v-69q35 -19 74 -19q44 0 63 20.5t19 74.5q0 40 -18 62t-54 22h-92v114h92q65 0 65 78q0 35 -19.5 53.5t-52.5 18.5q-34 0 -64 -9v-68h-185v117q47 35 112.5 56t135.5 21q114 0 185 -46t71 -137q0 -79 -79 -139q85 -52 85 -136
q0 -114 -65 -166.5t-202 -52.5q-79 0 -146 21.5z" />
    <glyph glyph-name="four" unicode="4" horiz-adv-x="538" 
d="M188 116h32q41 0 41 40v14h-256v103l278 374h157v-361h93v-116h-93v-14q0 -40 41 -40h32v-116h-325v116zM276 286v121l-90 -121h90z" />
    <glyph glyph-name="five" unicode="5" horiz-adv-x="575" 
d="M25 71v119h184v-71q38 -17 80 -17q41 0 59.5 30.5t18.5 91.5q0 55 -26 80.5t-80 25.5h-215v76l20 241h464v-117h-291l-9 -82h52q268 0 268 -224q0 -115 -65.5 -177t-199.5 -62q-159 0 -260 86z" />
    <glyph glyph-name="six" unicode="6" horiz-adv-x="581" 
d="M98.5 59q-73.5 74 -73.5 225q0 133 42.5 218t111.5 122.5t151 37.5q70 0 115.5 -16t92.5 -53l-63 -103q-25 21 -53 30t-70 9q-62 0 -96 -27.5t-59 -87.5q37 27 66.5 37t73.5 10q239 0 239 -229q0 -120 -70.5 -183.5t-207.5 -63.5q-126 0 -199.5 74zM372 130q22 28 22 102
q0 61 -23 90t-73 29q-44 0 -67 -28t-23 -83q0 -76 23 -107t67 -31q52 0 74 28z" />
    <glyph glyph-name="seven" unicode="7" horiz-adv-x="530" 
d="M322 530h-132v-65h-185v182h520v-71l-233 -576h-186z" />
    <glyph glyph-name="eight" unicode="8" horiz-adv-x="598" 
d="M96 33q-71 49 -71 152q0 99 78 151q-69 59 -69 137q0 92 72.5 140.5t191.5 48.5q120 0 192.5 -48.5t72.5 -140.5q0 -39 -16 -72t-54 -64q80 -56 80 -152q0 -103 -71.5 -152t-203.5 -49q-131 0 -202 49zM308 391q37 0 55 19.5t18 62.5q0 37 -22 54.5t-61 17.5
q-81 0 -81 -72q0 -43 18 -62.5t55 -19.5h18zM368 123.5q22 22.5 22 72.5q0 41 -21 63t-62 22h-16q-41 0 -62.5 -22t-21.5 -63q0 -49 22 -72t69 -23q48 0 70 22.5z" />
    <glyph glyph-name="nine" unicode="9" horiz-adv-x="601" 
d="M155.5 -2q-52.5 14 -96.5 45l68 113q26 -21 54.5 -30.5t65.5 -9.5q63 0 97 24.5t61 84.5q-32 -23 -65 -31t-76 -8q-119 0 -179 60t-60 174q0 118 72.5 180t205.5 62q126 0 199.5 -74t73.5 -225q0 -134 -41 -218.5t-108 -122.5t-149 -38q-70 0 -122.5 14zM372 324.5
q21 28.5 21 86.5q0 76 -22.5 105t-67.5 29q-51 0 -73.5 -28t-22.5 -102q0 -61 23 -90t73 -29q48 0 69 28.5z" />
    <glyph glyph-name="colon" unicode=":" horiz-adv-x="178" 
d="M25 501h128v-137h-128v137zM25 137h128v-137h-128v137z" />
    <glyph glyph-name="semicolon" unicode=";" horiz-adv-x="247" 
d="M60 501h148v-137h-148v137zM61 116h161l-73 -237h-124z" />
    <glyph glyph-name="less" unicode="&#x3c;" horiz-adv-x="619" 
d="M25 288v77l569 258v-142l-357 -154l357 -155v-142z" />
    <glyph glyph-name="equal" unicode="=" horiz-adv-x="438" 
d="M25 448h388v-116h-388v116zM25 271h388v-117h-388v117z" />
    <glyph glyph-name="greater" unicode="&#x3e;" horiz-adv-x="619" 
d="M25 172l357 155l-357 154v142l569 -258v-77l-569 -258v142z" />
    <glyph glyph-name="question" unicode="?" horiz-adv-x="557" 
d="M150 195q0 62 28 108t93 84q40 23 59.5 43t19.5 50q0 65 -81 65q-38 0 -83 -18v-63h-161v122q47 35 110 55.5t140 20.5q126 0 191.5 -45.5t65.5 -136.5q0 -42 -15 -71.5t-42.5 -52.5t-76.5 -53q-28 -17 -41 -32.5t-17.5 -34t-4.5 -50.5v-18h-185v27zM143 133h199v-133
h-199v133z" />
    <glyph glyph-name="at" unicode="@" horiz-adv-x="866" 
d="M123.5 -7q-98.5 103 -98.5 284q0 111 53 196t148 132t217 47q123 0 212.5 -40t137.5 -116t48 -182q0 -119 -42 -182t-136 -63q-33 0 -65 16t-40 43q-44 -66 -161 -66q-81 0 -120.5 33t-39.5 91q0 59 33.5 94t93.5 39l109 7v18q0 32 -32 32q-9 0 -15.5 -2t-12.5 -5v-27
h-151v72q75 57 181 57q99 0 145 -35t46 -107v-122q0 -11 3 -16.5t11 -5.5q18 0 26.5 31.5t8.5 101.5q0 101 -56 146t-184 45q-125 0 -192 -54t-67 -178q0 -139 64.5 -195.5t195.5 -56.5q58 0 122 8t116 24v-130q-68 -21 -118.5 -29t-121.5 -8q-220 0 -318.5 103zM459 169.5
q14 12.5 14 37.5v21l-54 -4q-33 -2 -33 -35q0 -15 10.5 -23.5t24.5 -8.5q24 0 38 12.5z" />
    <glyph glyph-name="A" unicode="A" horiz-adv-x="712" 
d="M15 116h24q28 0 38.5 6t18.5 28l171 497h181l168 -497q8 -22 18.5 -28t38.5 -6h24v-116h-292v116h38l-21 73h-130l-22 -73h38v-116h-293v116zM396 280l-37 133l-40 -133h77z" />
    <glyph glyph-name="B" unicode="B" horiz-adv-x="614" 
d="M15 116h21q21 0 30.5 10t9.5 30v337q0 37 -40 37h-21v117h389q86 0 136 -45.5t50 -133.5q0 -42 -24 -79.5t-66 -60.5q49 -22 74 -55.5t25 -88.5q0 -86 -52 -135t-137 -49h-395v116zM338 383q28 0 48.5 18.5t20.5 55.5q0 34 -19 54t-51 20h-76v-148h77zM344 116
q32 0 52.5 18.5t20.5 57.5q0 40 -22.5 56t-53.5 16h-80v-148h83z" />
    <glyph glyph-name="C" unicode="C" horiz-adv-x="614" 
d="M173 27q-79 42 -118.5 117t-39.5 174q0 155 82.5 249.5t249.5 94.5q84 0 140.5 -15t103.5 -49v-138h-185v79q-26 6 -59 6q-74 0 -112 -59.5t-38 -167.5q0 -106 43.5 -161t137.5 -55q47 0 84 10t76 37l61 -98q-56 -39 -104.5 -52.5t-126.5 -13.5q-116 0 -195 42z" />
    <glyph glyph-name="D" unicode="D" horiz-adv-x="640" 
d="M15 116h21q41 0 41 40v337q0 37 -41 37h-21v117h324q143 0 214.5 -83t71.5 -243q0 -91 -32 -163.5t-96.5 -115t-157.5 -42.5h-324v116zM311 116q74 0 102.5 50.5t28.5 154.5q0 107 -28.5 158.5t-102.5 51.5h-49v-415h49z" />
    <glyph glyph-name="E" unicode="E" horiz-adv-x="548" 
d="M15 116h21q41 0 41 40v337q0 37 -41 37h-21v117h518v-168h-168v13q0 39 -41 39h-62v-150h115v-116h-115v-149h62q41 0 41 40v12h168v-168h-518v116z" />
    <glyph glyph-name="F" unicode="F" horiz-adv-x="548" 
d="M15 116h21q41 0 41 40v337q0 37 -41 37h-21v117h518v-168h-168v13q0 39 -41 39h-62v-150h115v-116h-115v-112q0 -37 40 -37h21v-116h-308v116z" />
    <glyph glyph-name="G" unicode="G" horiz-adv-x="640" 
d="M172.5 26.5q-77.5 42.5 -117.5 118t-40 173.5q0 100 37 177.5t113.5 122t188.5 44.5q84 0 141 -15t104 -49v-138h-185v74q-25 11 -60 11q-74 0 -115 -60t-41 -167q0 -105 43.5 -161t127.5 -56q38 0 71 8v139h-116v116h301v-303q-106 -77 -265 -77q-110 0 -187.5 42.5z
" />
    <glyph glyph-name="H" unicode="H" horiz-adv-x="691" 
d="M15 116h21q21 0 30.5 10t9.5 30v337q0 37 -40 37h-21v117h297v-117h-11q-40 0 -40 -37v-111h168v108q0 20 -9.5 30t-30.5 10h-11v117h298v-117h-21q-41 0 -41 -37v-337q0 -40 41 -40h21v-116h-298v116h11q21 0 30.5 10t9.5 30v110h-168v-110q0 -40 41 -40h10v-116h-297
v116z" />
    <glyph glyph-name="I" unicode="I" horiz-adv-x="337" 
d="M15 116h20q22 0 31.5 10t9.5 30v337q0 37 -41 37h-20v117h307v-117h-20q-41 0 -41 -37v-340q0 -37 41 -37h20v-116h-307v116z" />
    <glyph glyph-name="J" unicode="J" horiz-adv-x="516" 
d="M79 7q-59 23 -94 67v102h163v-54q10 -9 24.5 -15t27.5 -6q29 0 42 13.5t13 44.5v334q0 37 -41 37h-21v117h308v-117h-21q-40 0 -40 -37v-302q0 -97 -59 -152t-169 -55q-74 0 -133 23z" />
    <glyph glyph-name="K" unicode="K" horiz-adv-x="670" 
d="M15 117h21q20 0 30.5 10t10.5 27v339q0 37 -41 37h-21v117h286v-117h-7q-16 0 -24.5 -10.5t-8.5 -26.5v-123l155 170h-40v107h272v-117h-34q-21 0 -31.5 -4t-19.5 -14l-135 -145l150 -230q7 -11 18.5 -16t28.5 -5h30v-116h-290v116h52l-94 146l-62 -67v-41
q0 -16 7.5 -26.5t23.5 -10.5h9v-117h-286v117z" />
    <glyph glyph-name="L" unicode="L" horiz-adv-x="518" 
d="M15 116h21q41 0 41 40v337q0 37 -41 37h-21v117h308v-117h-21q-40 0 -40 -37v-377h62q41 0 41 40v43h168v-199h-518v116z" />
    <glyph glyph-name="M" unicode="M" horiz-adv-x="773" 
d="M15 116h21q41 0 41 40v336q0 39 -41 39h-21v116h241l131 -300l130 300h241v-116h-21q-40 0 -40 -39v-336q0 -20 9.5 -30t30.5 -10h21v-116h-305v116h21q41 0 41 37v218l-75 -174h-107l-75 174v-218q0 -37 41 -37h21v-116h-305v116z" />
    <glyph glyph-name="N" unicode="N" horiz-adv-x="698" 
d="M15 117h21q40 0 40 37v339q0 37 -40 37h-21v117h196l227 -354v200q0 37 -41 37h-21v117h307v-117h-21q-41 0 -41 -37v-493h-135l-226 350v-196q0 -17 10.5 -27t30.5 -10h21v-117h-307v117z" />
    <glyph glyph-name="O" unicode="O" horiz-adv-x="670" 
d="M94 68.5q-79 83.5 -79 252.5q0 172 77 256.5t243 84.5t243 -84.5t77 -256.5q0 -169 -79 -252.5t-241 -83.5t-241 83.5zM415.5 123.5q29.5 21.5 43 69t13.5 128.5q0 84 -13.5 132.5t-43 70t-80.5 21.5t-80.5 -21.5t-43 -70t-13.5 -132.5q0 -81 13.5 -128.5t43 -69
t80.5 -21.5t80.5 21.5z" />
    <glyph glyph-name="P" unicode="P" horiz-adv-x="633" 
d="M15 116h20q41 0 41 37v340q0 37 -41 37h-20v117h359q115 0 179.5 -53t64.5 -157t-65.5 -160.5t-179.5 -56.5h-112v-67q0 -37 41 -37h20v-116h-307v116zM348 337q46 0 66.5 24t20.5 76t-20 72.5t-67 20.5h-87v-193h87z" />
    <glyph glyph-name="Q" unicode="Q" horiz-adv-x="670" 
d="M330 -110.5q-46 34.5 -63 98.5q-128 16 -190 98.5t-62 233.5q0 171 77 255.5t243 84.5t243 -84.5t77 -255.5q0 -152 -63 -234t-193 -98q8 -21 26 -31t40 -10t33.5 3t20.5 10v27h124v-65q-26 -32 -72.5 -49.5t-109.5 -17.5q-85 0 -131 34.5zM415.5 122.5q29.5 21.5 43 69
t13.5 128.5q0 84 -13.5 132t-43 69.5t-80.5 21.5t-80.5 -21.5t-43 -69.5t-13.5 -132q0 -81 13.5 -128.5t43 -69t80.5 -21.5t80.5 21.5z" />
    <glyph glyph-name="R" unicode="R" horiz-adv-x="642" 
d="M15 116h21q41 0 41 37v340q0 37 -41 37h-21v117h359q115 0 180 -53t65 -157q0 -133 -123 -193l60 -101q8 -15 20.5 -21t34.5 -6h16v-116h-262v116h32l-62 105h-73v-73q0 -18 6.5 -25t23.5 -7h12v-116h-289v116zM348 337q47 0 67.5 24t20.5 76t-20.5 72.5t-67.5 20.5h-86
v-193h86z" />
    <glyph glyph-name="S" unicode="S" horiz-adv-x="556" 
d="M15 72v125h186v-77q33 -18 84 -18q37 0 55 14.5t18 46.5q0 22 -13.5 37t-36.5 26.5t-79 35.5q-74 32 -118 60.5t-67.5 65.5t-23.5 90q0 90 75 137t190 47q85 0 142 -24t103 -66v-112h-186v68q-29 17 -69 17q-72 0 -72 -60q0 -25 17.5 -43.5t39 -29t62.5 -27.5
q90 -37 132 -60.5t64.5 -58.5t22.5 -93q0 -54 -29.5 -96.5t-87.5 -67t-139 -24.5q-165 0 -270 87z" />
    <glyph glyph-name="T" unicode="T" horiz-adv-x="633" 
d="M163 117h21q40 0 40 37v374h-52q-41 0 -41 -39v-44h-126v199h623v-199h-126v44q0 39 -41 39h-52v-374q0 -17 10.5 -27t30.5 -10h21v-117h-308v117z" />
    <glyph glyph-name="U" unicode="U" horiz-adv-x="680" 
d="M134.5 39.5q-68.5 54.5 -68.5 150.5v303q0 37 -41 37h-20v117h297v-117h-10q-21 0 -31 -9.5t-10 -30.5v-306q0 -44 22 -63t67 -19t66.5 19t21.5 63v306q0 20 -9.5 30t-30.5 10h-11v117h298v-117h-21q-41 0 -41 -37v-303q0 -96 -68.5 -150.5t-204.5 -54.5
q-137 0 -205.5 54.5z" />
    <glyph glyph-name="V" unicode="V" horiz-adv-x="712" 
d="M101 483q-10 28 -26.5 38t-49.5 10h-10v116h229l114 -413l108 413h231v-116h-9q-34 0 -51 -10t-26 -38l-163 -483h-181z" />
    <glyph glyph-name="W" unicode="W" horiz-adv-x="846" 
d="M93 480q-7 31 -21.5 40.5t-49.5 9.5h-7v117h210l66 -319l68 210h128l68 -210l66 319h210v-117h-7q-35 0 -49.5 -9.5t-21.5 -40.5l-106 -480h-147l-77 218l-77 -218h-147z" />
    <glyph glyph-name="X" unicode="X" horiz-adv-x="694" 
d="M15 117h26q31 0 50 8t36 31l123 166l-123 170q-16 22 -35 30t-51 8h-16v117h287v-117h-30l65 -107l64 107h-30v117h287v-117h-16q-32 0 -51 -8t-35 -30l-124 -170l124 -166q17 -23 36 -31t50 -8h27v-117h-298v116h30l-64 104l-65 -104h30v-116h-297v117z" />
    <glyph glyph-name="Y" unicode="Y" horiz-adv-x="670" 
d="M181 116h21q41 0 41 40v87l-132 243q-15 27 -29.5 36.5t-44.5 9.5h-22v115h289v-115h-28l61 -142l57 142h-28v115h289v-115h-22q-30 0 -45 -10t-30 -37l-131 -243v-89q0 -37 41 -37h21v-116h-308v116z" />
    <glyph glyph-name="Z" unicode="Z" horiz-adv-x="572" 
d="M15 91l312 440h-99q-41 0 -41 -39v-13h-168v168h518v-90l-300 -441h111q41 0 41 40v12h168v-168h-542v91z" />
    <glyph glyph-name="bracketleft" unicode="[" horiz-adv-x="334" 
d="M35 750h274v-117h-89v-600h89v-116h-274v833z" />
    <glyph glyph-name="backslash" unicode="\" horiz-adv-x="485" 
d="M25 676h186l249 -676h-186z" />
    <glyph glyph-name="bracketright" unicode="]" horiz-adv-x="334" 
d="M25 33h89v600h-89v117h274v-833h-274v116z" />
    <glyph glyph-name="asciicircum" unicode="^" horiz-adv-x="642" 
d="M249 719h143l225 -365h-190l-106 194l-107 -194h-189z" />
    <glyph glyph-name="underscore" unicode="_" horiz-adv-x="491" 
d="M25 -31h441v-117h-441v117z" />
    <glyph glyph-name="grave" unicode="`" horiz-adv-x="331" 
d="M25 702h195l86 -203h-155z" />
    <glyph glyph-name="a" unicode="a" horiz-adv-x="530" 
d="M49.5 21.5q-44.5 36.5 -44.5 101.5q0 75 50.5 112.5t150.5 44.5l88 6v53q0 44 -46 44q-26 0 -45 -20v-33h-154v106q95 59 209 59q111 0 167 -48t56 -128v-172q0 -35 32 -35h12v-112h-143l-15 67q-38 -45 -78 -63.5t-106 -18.5q-89 0 -133.5 36.5zM294 159v34l-67 -6
q-54 -4 -54 -47q0 -20 13.5 -31.5t38.5 -11.5q69 0 69 62z" />
    <glyph glyph-name="b" unicode="b" horiz-adv-x="595" 
d="M253.5 0q-41.5 16 -69.5 59l-7 -59h-120v505q0 19 -8 28.5t-28 9.5h-16v119h214v-212q32 23 66 34t81 11q106 0 160 -68t54 -195q0 -119 -61 -183.5t-163 -64.5q-61 0 -102.5 16zM378.5 121.5q17.5 33.5 17.5 112.5q0 80 -17.5 114.5t-66.5 34.5q-81 0 -81 -119v-53
q0 -54 20.5 -88.5t60.5 -34.5q49 0 66.5 33.5z" />
    <glyph glyph-name="c" unicode="c" horiz-adv-x="528" 
d="M150.5 13q-62.5 28 -99 84t-36.5 136q0 131 73.5 196.5t204.5 65.5q71 0 119 -16.5t95 -53.5v-124h-153v54q-12 9 -26.5 12.5t-35.5 3.5q-43 0 -68 -34.5t-25 -103.5q0 -65 31.5 -94t98.5 -29q79 0 127 36l57 -94q-50 -38 -96 -52.5t-126 -14.5q-78 0 -140.5 28z" />
    <glyph glyph-name="d" unicode="d" horiz-adv-x="586" 
d="M74 47q-59 61 -59 179q0 130 57.5 199.5t169.5 69.5q43 0 73 -10t61 -33v53q0 38 -41 38h-11v119h214v-512q0 -22 7 -30t28 -8h8v-112h-162l-8 61q-34 -38 -76 -56.5t-100 -18.5q-102 0 -161 61zM345.5 125.5q19.5 35.5 19.5 91.5v43q0 61 -19 93t-63 32q-48 0 -66 -37.5
t-18 -118.5q0 -53 7 -82.5t25 -43t52 -13.5q43 0 62.5 35.5z" />
    <glyph glyph-name="e" unicode="e" horiz-adv-x="546" 
d="M88 48q-73 64 -73 189q0 131 68 194.5t195 63.5q124 0 188.5 -66.5t64.5 -177.5v-48h-331q0 -60 21 -85t74 -25q37 0 66 13v40h153v-89q-39 -36 -92 -54.5t-130 -18.5q-131 0 -204 64zM347 299q0 41 -19.5 63.5t-53.5 22.5q-36 0 -55 -22.5t-19 -63.5h147z" />
    <glyph glyph-name="f" unicode="f" horiz-adv-x="454" 
d="M24 118h10q42 0 42 38v208h-71v116h71v21q0 85 55 130.5t168 45.5q63 0 113 -15.5t85 -42.5v-106h-143v32q-15 21 -45 21q-23 0 -34.5 -9.5t-11.5 -31.5v-45h125v-116h-125v-208q0 -19 8.5 -28.5t29.5 -9.5h9v-118h-286v118z" />
    <glyph glyph-name="g" unicode="g" horiz-adv-x="585" 
d="M193.5 -181.5q-51.5 18.5 -92.5 54.5v77h153v-27q23 -19 63 -19q31 0 45 18t14 48v72q-29 -22 -60 -32t-75 -10q-110 0 -168 61t-58 187q0 118 62.5 182.5t165.5 64.5q61 0 99.5 -19t67.5 -61l8 65h162v-115h-10q-19 0 -26 -10t-7 -32v-318q0 -94 -56.5 -149.5
t-161.5 -55.5q-74 0 -125.5 18.5zM345.5 138.5q18.5 32.5 18.5 92.5v31q0 57 -18.5 93t-62.5 36q-49 0 -66.5 -32t-17.5 -111q0 -53 7 -83.5t25 -44.5t52 -14q44 0 62.5 32.5z" />
    <glyph glyph-name="h" unicode="h" horiz-adv-x="613" 
d="M15 118h10q42 0 42 38v350q0 18 -10.5 28t-31.5 10h-10v118h214v-218q38 31 74 41t85 10q84 0 122 -43t38 -127v-169q0 -38 41 -38h19v-118h-248v324q0 31 -13 45t-39 14q-28 0 -41 -13.5t-13 -45.5v-168q0 -38 33 -38h14v-118h-286v118z" />
    <glyph glyph-name="i" unicode="i" horiz-adv-x="322" 
d="M67 679h188v-135h-188v135zM5 118h21q22 0 31.5 10t9.5 30v165q0 38 -41 38h-21v119h250v-324q0 -38 41 -38h21v-118h-312v118z" />
    <glyph glyph-name="j" unicode="j" horiz-adv-x="417" 
d="M194 679h188v-135h-188v135zM41.5 -163.5q-52.5 15.5 -86.5 42.5v111h148v-42q20 -16 46 -16q22 0 33.5 9.5t11.5 30.5v351q0 18 -10.5 28t-30.5 10h-21v119h250v-483q0 -85 -55 -130.5t-169 -45.5q-64 0 -116.5 15.5z" />
    <glyph glyph-name="k" unicode="k" horiz-adv-x="589" 
d="M15 109h21q17 0 23.5 7.5t6.5 25.5v380q0 18 -6.5 25.5t-23.5 7.5h-21v107h280v-107h-31q-17 0 -23.5 -7.5t-6.5 -25.5v-211l71 61h-33v108h290v-108h-57q-16 0 -25 -3t-17 -10l-66 -54l100 -178q11 -18 36 -18h51v-109h-181l-121 211l-48 -39v-30q0 -18 6.5 -25.5
t23.5 -7.5h31v-109h-280v109z" />
    <glyph glyph-name="l" unicode="l" horiz-adv-x="332" 
d="M15 118h21q22 0 31.5 10t9.5 30v347q0 38 -41 38h-21v119h250v-506q0 -38 41 -38h21v-118h-312v118z" />
    <glyph glyph-name="m" unicode="m" horiz-adv-x="878" 
d="M15 118h11q41 0 41 38v167q0 18 -10.5 28t-30.5 10h-11v119h162l8 -67q32 41 78.5 61.5t104.5 20.5q78 0 131 -61q27 33 63 47t82 14q89 0 129 -43t40 -127v-169q0 -38 41 -38h19v-118h-242v324q0 31 -13 45t-39 14q-28 0 -41 -13.5t-13 -44.5v-169q0 -19 7.5 -28.5
t26.5 -9.5h15v-118h-220v324q0 31 -13 45t-39 14q-28 0 -41 -13.5t-13 -45.5v-168q0 -38 33 -38h14v-118h-280v118z" />
    <glyph glyph-name="n" unicode="n" horiz-adv-x="613" 
d="M15 118h10q42 0 42 38v166q0 38 -39 38h-13v120h168l7 -64q65 79 184 79q90 0 132 -43.5t42 -126.5v-169q0 -38 41 -38h19v-118h-248v324q0 31 -13 45t-39 14q-28 0 -41 -13.5t-13 -45.5v-168q0 -19 7.5 -28.5t26.5 -9.5h13v-118h-286v118z" />
    <glyph glyph-name="o" unicode="o" horiz-adv-x="558" 
d="M84.5 50q-69.5 65 -69.5 190q0 126 68 190.5t197 64.5q128 0 195.5 -64.5t67.5 -190.5q0 -125 -69 -190t-194 -65q-126 0 -195.5 65zM341.5 135.5q17.5 31.5 17.5 104.5q0 74 -17.5 105t-61.5 31q-45 0 -62 -30.5t-17 -105.5q0 -74 17 -105t62 -31q44 0 61.5 31.5z" />
    <glyph glyph-name="p" unicode="p" horiz-adv-x="595" 
d="M5 -90h10q21 0 31.5 10t10.5 28v374q0 18 -10.5 28t-31.5 10h-10v120h171l9 -65q30 39 71.5 59.5t98.5 20.5q102 0 163.5 -64.5t61.5 -183.5q0 -126 -57.5 -194.5t-164.5 -68.5q-47 0 -76.5 9.5t-62.5 32.5v-78q0 -38 41 -38h11v-118h-266v118zM378.5 129
q17.5 36 17.5 116q0 79 -17.5 112.5t-66.5 33.5q-40 0 -61 -35t-21 -88v-55q0 -58 20.5 -89t61.5 -31q49 0 66.5 36z" />
    <glyph glyph-name="q" unicode="q" horiz-adv-x="595" 
d="M376 27q-62 -42 -147 -42q-107 0 -160.5 67.5t-53.5 194.5q0 119 61 183.5t163 64.5q62 0 101.5 -21t69.5 -66l8 72h172v-120h-11q-20 0 -30.5 -10t-10.5 -28v-374q0 -18 10.5 -28t30.5 -10h11v-118h-214v235zM364 213v60q0 58 -18.5 88t-62.5 30q-49 0 -66.5 -33.5
t-17.5 -112.5q0 -80 17.5 -115.5t66.5 -35.5q81 0 81 119z" />
    <glyph glyph-name="r" unicode="r" horiz-adv-x="417" 
d="M15 118h11q41 0 41 38v168q0 18 -8.5 28t-29.5 10h-12v118h206l11 -48q17 25 49.5 36.5t63.5 11.5h65v-118h-94q-34 0 -48.5 -16t-14.5 -50v-140q0 -19 8.5 -28.5t28.5 -9.5h10v-118h-287v118z" />
    <glyph glyph-name="s" unicode="s" horiz-adv-x="488" 
d="M116 0.5q-55 15.5 -101 51.5v89h166v-31q20 -14 50 -14q47 0 47 30q0 17 -11 25.5t-47 23.5q-18 7 -60 26q-49 23 -77 40.5t-46 44t-18 65.5q0 71 58 107.5t158 36.5q67 0 126 -17t103 -51v-83h-161v24q-21 15 -47 15q-42 0 -42 -32q0 -15 15.5 -27t43.5 -23.5t58 -22.5
q76 -29 109 -61.5t33 -90.5q0 -141 -229 -141q-73 0 -128 15.5z" />
    <glyph glyph-name="t" unicode="t" horiz-adv-x="488" 
d="M131 30.5q-55 45.5 -55 130.5v207h-71v112h71v94l187 49v-143h125v-112h-125v-224q0 -26 11.5 -37t34.5 -11q28 0 45 17v42h149v-101q-88 -69 -204 -69q-113 0 -168 45.5z" />
    <glyph glyph-name="u" unicode="u" horiz-adv-x="603" 
d="M107 27.5q-42 43.5 -42 126.5v170q0 38 -41 38h-19v118h248v-325q0 -32 13 -46t39 -14q28 0 41 14t13 46v169q0 19 -6.5 28.5t-24.5 9.5h-16v118h234v-323q0 -38 42 -38h10v-119h-168l-7 61q-39 -42 -81 -59.5t-103 -17.5q-90 0 -132 43.5z" />
    <glyph glyph-name="v" unicode="v" horiz-adv-x="565" 
d="M80 337q-7 20 -19.5 27t-42.5 7h-13v109h200l79 -281l78 281h198v-109h-13q-30 0 -42.5 -7t-19.5 -27l-119 -337h-166z" />
    <glyph glyph-name="w" unicode="w" horiz-adv-x="754" 
d="M76 336q-5 20 -16.5 27.5t-33.5 7.5h-21v109h195l56 -244l60 201h122l60 -201l56 244h195v-109h-21q-21 0 -33 -7.5t-17 -27.5l-81 -336h-153l-67 211l-67 -211h-153z" />
    <glyph glyph-name="x" unicode="x" horiz-adv-x="563" 
d="M5 87h19q23 0 37.5 6t26.5 23l95 124l-95 125q-12 16 -26.5 22t-37.5 6h-12v87h244v-87h-22l47 -69l48 69h-23v87h244v-87h-12q-23 0 -37.5 -6t-26.5 -22l-95 -125l95 -124q12 -17 26.5 -23t37.5 -6h20v-87h-252v86h23l-48 68l-47 -68h22v-86h-251v87z" />
    <glyph glyph-name="y" unicode="y" horiz-adv-x="592" 
d="M194 -181q-57 19 -94 54v81h153v-26q13 -13 28.5 -18.5t38.5 -5.5q66 0 66 76v45q-26 -9 -55.5 -14.5t-49.5 -5.5q-100 0 -157.5 47t-57.5 131v141q0 18 -10.5 28t-31.5 10h-19v118h248v-305q0 -61 59 -61q30 0 44 13.5t14 44.5v152q0 20 -6.5 29t-26.5 9h-14v118h234
v-451q0 -69 -28.5 -120.5t-81 -80t-124.5 -28.5t-129 19z" />
    <glyph glyph-name="z" unicode="z" horiz-adv-x="513" 
d="M15 77l245 285h-93q-41 0 -41 -40v-12h-108v170h470v-80l-242 -282h102q42 0 42 40v11h108v-169h-483v77z" />
    <glyph glyph-name="braceleft" unicode="{" horiz-adv-x="347" 
d="M110 -45.5q-45 41.5 -45 118.5v150q0 55 -59 55h-1v117h1q29 0 44 13t15 41v143q0 77 45 118.5t134 41.5h78v-116h-14q-26 0 -42.5 -13.5t-16.5 -41.5v-150q0 -25 -14 -50.5t-40 -46.5q26 -19 40 -44t14 -49v-157q0 -28 16.5 -41.5t42.5 -13.5h14v-116h-78
q-89 0 -134 41.5z" />
    <glyph glyph-name="bar" unicode="|" horiz-adv-x="235" 
d="M25 767h185v-887h-185v887z" />
    <glyph glyph-name="braceright" unicode="}" horiz-adv-x="348" 
d="M25 33h14q26 0 42.5 13.5t16.5 41.5v136q0 80 55 112q-55 32 -55 112v131q0 28 -16.5 41.5t-42.5 13.5h-14v116h79q89 0 133.5 -41.5t44.5 -118.5v-140q0 -30 11 -42t40 -12h10v-115h-10q-29 0 -40 -12.5t-11 -42.5v-149q0 -77 -44.5 -118.5t-133.5 -41.5h-79v116z" />
    <glyph glyph-name="asciitilde" unicode="~" horiz-adv-x="555" 
d="M169 405q30 0 52 -6.5t54 -19.5q22 -10 38 -15t34 -5q43 0 43 46h140q0 -95 -34 -140t-106 -45q-37 0 -63.5 7.5t-55.5 20.5q-21 9 -34 13.5t-28 4.5q-21 0 -32.5 -12t-11.5 -34h-140q0 185 144 185z" />
    <glyph glyph-name="uni00A0" unicode="&#xa0;" horiz-adv-x="280" 
 />
    <glyph glyph-name="exclamdown" unicode="&#xa1;" horiz-adv-x="249" 
d="M25 495h199v-133h-199v133zM35 268h179l7 -420h-193z" />
    <glyph glyph-name="cent" unicode="&#xa2;" horiz-adv-x="528" 
d="M195 -3q-83 22 -131.5 82t-48.5 154q0 103 47 166t133 85v86h165v-80q43 -6 77 -21.5t70 -43.5v-124h-153v54q-12 9 -26.5 12.5t-35.5 3.5q-43 0 -68 -34.5t-25 -103.5q0 -65 31.5 -94t98.5 -29q79 0 127 36l57 -94q-38 -30 -72 -44.5t-81 -19.5v-78h-165v87z" />
    <glyph glyph-name="sterling" unicode="&#xa3;" horiz-adv-x="525" 
d="M27 118h29q23 0 33 9.5t10 32.5v165h-74v116h74v45q0 85 55 130.5t168 45.5q63 0 113 -15.5t85 -42.5v-106h-143v32q-14 21 -42 21q-49 0 -49 -47v-63h155v-116h-155v-152q0 -37 -19 -55h253v-118h-493v118z" />
    <glyph glyph-name="currency" unicode="&#xa4;" horiz-adv-x="646" 
d="M34 138l88 80q-29 52 -29 114q0 52 22 101l-90 83l104 107l91 -84q50 24 103 24t103 -24l92 84l103 -107l-90 -83q23 -46 23 -101q0 -60 -30 -114l89 -80l-104 -108l-98 89q-42 -17 -88 -17q-47 0 -89 17l-97 -89zM384.5 271q25.5 25 25.5 61t-25.5 61.5t-61.5 25.5
t-61 -25.5t-25 -61.5t25 -61t61 -25t61.5 25z" />
    <glyph glyph-name="yen" unicode="&#xa5;" horiz-adv-x="670" 
d="M132 382h35l-56 104q-15 27 -29.5 36.5t-44.5 9.5h-22v115h289v-115h-28l61 -150l57 150h-28v115h289v-115h-22q-30 0 -45 -10t-30 -37l-56 -103h36v-100h-406v100zM181 116h21q40 0 41 37h-111v100h406v-100h-111q0 -37 41 -37h21v-116h-308v116z" />
    <glyph glyph-name="brokenbar" unicode="&#xa6;" horiz-adv-x="234" 
d="M25 767h184v-372h-184v372zM25 251h184v-371h-184v371z" />
    <glyph glyph-name="section" unicode="&#xa7;" horiz-adv-x="536" 
d="M5 -69v125h186v-77q33 -18 84 -18q37 0 55 14.5t18 46.5q0 22 -13.5 37t-36.5 26.5t-79 35.5q-74 32 -118 60.5t-67.5 65.5t-23.5 90q0 57 33 93q-33 39 -33 98q0 90 75 137t190 47q85 0 142 -24t103 -66v-112h-186v68q-29 17 -69 17q-72 0 -72 -60q0 -26 16 -43.5
t36.5 -27.5t66.5 -29q91 -38 132.5 -61t64 -58t22.5 -93q0 -54 -32 -92q17 -19 24.5 -43t7.5 -56q0 -54 -29.5 -96.5t-87.5 -67t-139 -24.5q-165 0 -270 87zM345.5 252q-20.5 14 -78.5 41q-11 4 -19 9q-32 15 -70 31q0 -19 8.5 -30.5t26 -20.5t64.5 -31q18 -8 45 -18.5
t43 -15.5q1 21 -19.5 35z" />
    <glyph glyph-name="dieresis" unicode="&#xa8;" horiz-adv-x="445" 
d="M25 648h124v-137h-124v137zM295 648h125v-137h-125v137z" />
    <glyph glyph-name="copyright" unicode="&#xa9;" horiz-adv-x="765" 
d="M203 36q-82 48 -130 130t-48 179t48 179.5t130 130.5t179 48t179.5 -48t130.5 -130.5t48 -179.5t-48 -179t-130.5 -130t-179.5 -48t-179 48zM513 122q56 34 86.5 92.5t30.5 130.5t-30.5 131t-86.5 93t-131 34t-131 -34t-86 -93t-30 -131t30 -130.5t86 -92.5t131 -34
t131 34zM271 142.5q-50 28.5 -79.5 79.5t-29.5 116q0 108 60 170t159 62q60 0 95 -13.5t76 -47.5v-100h-124v44q-12 8 -22.5 12t-25.5 4q-33 0 -51 -34t-18 -97q0 -59 22.5 -90.5t73.5 -31.5q30 0 59 14t47 36l45 -76q-65 -76 -177 -76q-60 0 -110 28.5z" />
    <glyph glyph-name="ordfeminine" unicode="&#xaa;" horiz-adv-x="383" 
d="M54 358.5q-29 23.5 -29 65.5q0 96 129 105l56 4v29q0 29 -29 29q-17 0 -29 -13v-22h-99v68q60 38 134 38q71 0 107 -31t36 -82v-110q0 -22 20 -22h8v-72h-91l-11 36q-24 -27 -48.5 -36.5t-68.5 -9.5q-56 0 -85 23.5zM210 447v22l-43 -4q-34 -3 -34 -30q0 -13 8.5 -20.5
t24.5 -7.5q44 0 44 40z" />
    <glyph glyph-name="guillemotleft" unicode="&#xab;" horiz-adv-x="660" 
d="M25 298v57l343 285v-182l-153 -132l153 -131v-183zM292 298v57l343 285v-182l-153 -132l153 -131v-183z" />
    <glyph glyph-name="logicalnot" unicode="&#xac;" horiz-adv-x="495" 
d="M328 250h-303v116h445v-238h-142v122z" />
    <glyph glyph-name="uni00AD" unicode="&#xad;" horiz-adv-x="366" 
d="M25 358h316v-117h-316v117z" />
    <glyph glyph-name="registered" unicode="&#xae;" horiz-adv-x="765" 
d="M203 36q-82 48 -130 130t-48 179t48 179.5t130 130.5t179 48t179.5 -48t130.5 -130.5t48 -179.5t-48 -179t-130.5 -130t-179.5 -48t-179 48zM513 122q56 34 86.5 92.5t30.5 130.5t-30.5 131t-86.5 93t-131 34t-131 -34t-86 -93t-30 -131t30 -130.5t86 -92.5t131 -34
t131 34zM207 250h5q14 0 19.5 6t5.5 23v136q0 17 -5.5 23t-19.5 6h-5v86h199q70 0 110.5 -30t40.5 -83q0 -74 -56 -101l25 -47q8 -12 14 -15.5t16 -3.5h8v-84h-172v84h18l-27 52h-29v-23q0 -17 4 -23t16 -6h7v-84h-174v84zM401 383q21 0 21 30q0 31 -21 31h-28v-61h28z" />
    <glyph glyph-name="macron" unicode="&#xaf;" horiz-adv-x="423" 
d="M25 628h373v-105h-373v105z" />
    <glyph glyph-name="degree" unicode="&#xb0;" horiz-adv-x="330" 
d="M95 418q-32 19 -51 51t-19 69q0 38 19 70.5t51 51.5t69 19q38 0 70.5 -19t51.5 -51.5t19 -70.5q0 -37 -19 -69t-51.5 -51t-70.5 -19q-37 0 -69 19zM192.5 512q10.5 11 10.5 27q0 17 -10.5 27.5t-27.5 10.5q-16 0 -27 -10.5t-11 -27.5q0 -16 11 -27t27 -11q17 0 27.5 11z
" />
    <glyph glyph-name="plusminus" unicode="&#xb1;" horiz-adv-x="414" 
d="M135 272h-110v116h110v99h142v-99h112v-116h-112v-99h-142v99zM25 128h364v-116h-364v116z" />
    <glyph glyph-name="uni00B2" unicode="&#xb2;" horiz-adv-x="327" 
d="M25 376q0 44 19.5 69.5t71.5 56.5q34 20 48 33t14 31q0 25 -25 25q-13 0 -21 -5v-32h-107v72q24 16 64.5 26t75.5 10q62 0 99 -23t37 -69q0 -35 -14.5 -55t-55.5 -45q-7 -4 -24 -13.5t-25.5 -17.5t-8.5 -14h129v-80h-277v31z" />
    <glyph glyph-name="uni00B3" unicode="&#xb3;" horiz-adv-x="338" 
d="M25 376v70h104v-34q12 -6 31 -6q18 0 26 7t8 23q0 18 -8 25t-27 7h-33v71h33q17 0 24.5 6t7.5 23q0 12 -6.5 17.5t-23.5 5.5q-14 0 -26 -5v-29h-104v68q20 15 55 26t74 11q77 0 113 -23.5t36 -64.5q0 -52 -38 -70q42 -18 42 -65q0 -51 -33.5 -77.5t-116.5 -26.5
q-85 0 -138 41z" />
    <glyph glyph-name="acute" unicode="&#xb4;" horiz-adv-x="332" 
d="M112 702h195l-126 -203h-156z" />
    <glyph glyph-name="paragraph" unicode="&#xb6;" horiz-adv-x="711" 
d="M140 -39h21q40 0 40 40v285q-53 0 -93 23.5t-61.5 62t-21.5 84.5q0 91 54.5 141t162.5 50h444v-114h-21q-40 0 -40 -40v-492q0 -40 40 -40h21v-117h-246v689h-55v-689h-245v117z" />
    <glyph glyph-name="periodcentered" unicode="&#xb7;" horiz-adv-x="178" 
d="M25 365h128v-116h-128v116z" />
    <glyph glyph-name="cedilla" unicode="&#xb8;" horiz-adv-x="323" 
d="M74.5 -223.5q-24.5 4.5 -49.5 15.5v95q37 -20 84 -20q31 0 31 19t-19 28t-72 9l11 77h170l-6 -36q74 -16 74 -87q0 -105 -166 -105q-33 0 -57.5 4.5z" />
    <glyph glyph-name="uni00B9" unicode="&#xb9;" horiz-adv-x="262" 
d="M39 425h30q20 0 20 19v107l-33 -20l-41 68l93 58h90v-213q0 -10 4.5 -14.5t14.5 -4.5h30v-80h-208v80z" />
    <glyph glyph-name="ordmasculine" unicode="&#xba;" horiz-adv-x="389" 
d="M69.5 376.5q-44.5 41.5 -44.5 121.5q0 81 44 122.5t126 41.5t125.5 -41.5t43.5 -122.5q0 -80 -44.5 -121.5t-124.5 -41.5q-81 0 -125.5 41.5zM234.5 431q11.5 20 11.5 67q0 48 -11.5 68t-39.5 20q-29 0 -40 -20t-11 -68q0 -47 11 -67t40 -20q28 0 39.5 20z" />
    <glyph glyph-name="guillemotright" unicode="&#xbb;" horiz-adv-x="660" 
d="M25 195l153 131l-153 132v182l343 -285v-57l-343 -286v183zM292 195l153 131l-153 132v182l343 -285v-57l-343 -286v183z" />
    <glyph glyph-name="onequarter" unicode="&#xbc;" horiz-adv-x="667" 
d="M49 425h30q20 0 20 19v107l-33 -20l-41 68l93 58h90v-213q0 -10 4.5 -14.5t14.5 -4.5h30v-80h-208v80zM458 647h167l-377 -647h-167zM458 63h13q20 0 20 19v7h-133v62l124 161h116v-154h44v-69h-44v-7q0 -19 20 -19h13v-63h-173v63zM507 158v55l-43 -55h43z" />
    <glyph glyph-name="onehalf" unicode="&#xbd;" horiz-adv-x="731" 
d="M49 425h30q20 0 20 19v107l-33 -20l-41 68l93 58h90v-213q0 -10 4.5 -14.5t14.5 -4.5h30v-80h-208v80zM458 647h167l-377 -647h-167zM429 31q0 44 19.5 69.5t71.5 56.5q34 20 48 33t14 31q0 25 -25 25q-13 0 -21 -5v-32h-107v72q24 16 64.5 26t75.5 10q62 0 99 -23
t37 -69q0 -35 -14.5 -55t-55.5 -45q-7 -4 -24 -13.5t-25.5 -17.5t-8.5 -14h129v-80h-277v31z" />
    <glyph glyph-name="threequarters" unicode="&#xbe;" horiz-adv-x="680" 
d="M25 376v70h104v-34q12 -6 31 -6q18 0 26 7t8 23q0 18 -8 25t-27 7h-33v71h33q17 0 24.5 6t7.5 23q0 12 -6.5 17.5t-23.5 5.5q-14 0 -26 -5v-29h-104v68q20 15 55 26t74 11q77 0 113 -23.5t36 -64.5q0 -52 -38 -70q42 -18 42 -65q0 -51 -33.5 -77.5t-116.5 -26.5
q-85 0 -138 41zM471 647h167l-377 -647h-167zM471 63h13q20 0 20 19v7h-133v62l124 161h116v-154h44v-69h-44v-7q0 -19 20 -19h13v-63h-173v63zM520 158v55l-43 -55h43z" />
    <glyph glyph-name="questiondown" unicode="&#xbf;" horiz-adv-x="557" 
d="M215 495h199v-133h-199v133zM90.5 -121.5q-65.5 45.5 -65.5 136.5q0 42 15 71.5t42.5 52.5t76.5 53q28 17 41 32.5t17.5 34t4.5 50.5v18h185v-27q0 -62 -28 -108t-93 -84q-40 -23 -59.5 -43t-19.5 -50q0 -65 81 -65q38 0 83 18v63h161v-122q-47 -35 -110 -55.5
t-140 -20.5q-126 0 -191.5 45.5z" />
    <glyph glyph-name="Agrave" unicode="&#xc0;" horiz-adv-x="712" 
d="M168 879h196l72 -182h-156zM15 116h24q28 0 38.5 6t18.5 28l171 497h181l168 -497q8 -22 18.5 -28t38.5 -6h24v-116h-292v116h38l-21 73h-130l-22 -73h38v-116h-293v116zM396 280l-37 133l-40 -133h77z" />
    <glyph glyph-name="Aacute" unicode="&#xc1;" horiz-adv-x="712" 
d="M342 879h196l-112 -182h-155zM15 116h24q28 0 38.5 6t18.5 28l171 497h181l168 -497q8 -22 18.5 -28t38.5 -6h24v-116h-292v116h38l-21 73h-130l-22 -73h38v-116h-293v116zM396 280l-37 133l-40 -133h77z" />
    <glyph glyph-name="Acircumflex" unicode="&#xc2;" horiz-adv-x="712" 
d="M284 900h154l140 -203h-163l-55 107l-57 -107h-160zM15 116h24q28 0 38.5 6t18.5 28l171 497h181l168 -497q8 -22 18.5 -28t38.5 -6h24v-116h-292v116h38l-21 73h-130l-22 -73h38v-116h-293v116zM396 280l-37 133l-40 -133h77z" />
    <glyph glyph-name="Atilde" unicode="&#xc3;" horiz-adv-x="712" 
d="M166.5 837q31.5 45 102.5 45q28 0 48.5 -7.5t45.5 -20.5q3 -2 14.5 -7.5t21 -8t18.5 -2.5q43 0 43 46h125q0 -97 -29.5 -141t-100.5 -44q-30 0 -51.5 7.5t-47.5 20.5q-16 9 -28 13.5t-24 4.5q-21 0 -32.5 -12t-11.5 -34h-125q0 95 31.5 140zM15 116h24q28 0 38.5 6
t18.5 28l171 497h181l168 -497q8 -22 18.5 -28t38.5 -6h24v-116h-292v116h38l-21 73h-130l-22 -73h38v-116h-293v116zM396 280l-37 133l-40 -133h77z" />
    <glyph glyph-name="Adieresis" unicode="&#xc4;" horiz-adv-x="712" 
d="M170 854h128v-137h-128v137zM420 854h129v-137h-129v137zM15 116h24q28 0 38.5 6t18.5 28l171 497h181l168 -497q8 -22 18.5 -28t38.5 -6h24v-116h-292v116h38l-21 73h-130l-22 -73h38v-116h-293v116zM396 280l-37 133l-40 -133h77z" />
    <glyph glyph-name="Aring" unicode="&#xc5;" horiz-adv-x="712" 
d="M697 116v-116h-292v116h38l-21 73h-130l-22 -73h38v-116h-293v116h24q28 0 38.5 6t18.5 28l169 490q-28 33 -28 78q0 51 35.5 86.5t86.5 35.5t86.5 -35.5t35.5 -86.5q0 -47 -30 -80l165 -488q8 -22 18.5 -28t38.5 -6h24zM333.5 743.5q-10.5 -10.5 -10.5 -25.5t10.5 -25.5
t25.5 -10.5t25.5 10.5t10.5 25.5t-10.5 25.5t-25.5 10.5t-25.5 -10.5zM396 280l-37 133l-40 -133h77z" />
    <glyph glyph-name="AE" unicode="&#xc6;" horiz-adv-x="820" 
d="M15 116h24q28 0 38.5 6t18.5 28l171 497h538v-168h-168v13q0 39 -41 39h-62v-150h115v-116h-115v-149h62q41 0 41 40v12h168v-168h-446v189h-67l-22 -73h38v-116h-293v116zM359 280v154l-40 -154h40z" />
    <glyph glyph-name="Ccedilla" unicode="&#xc7;" horiz-adv-x="614" 
d="M497 -123q0 -105 -166 -105q-33 0 -57.5 4.5t-49.5 15.5v95q38 -20 84 -20q31 0 31 19t-19 28t-72 9l10 73q-119 27 -181 112t-62 210q0 155 82.5 249.5t249.5 94.5q84 0 140.5 -15t103.5 -49v-138h-185v79q-26 6 -59 6q-74 0 -112 -59.5t-38 -167.5q0 -106 43.5 -161
t137.5 -55q47 0 84 10t76 37l61 -98q-44 -31 -83 -45t-89 -19l-4 -23q74 -16 74 -87z" />
    <glyph glyph-name="Egrave" unicode="&#xc8;" horiz-adv-x="548" 
d="M88 879h196l72 -182h-156zM15 116h21q41 0 41 40v337q0 37 -41 37h-21v117h518v-168h-168v13q0 39 -41 39h-62v-150h115v-116h-115v-149h62q41 0 41 40v12h168v-168h-518v116z" />
    <glyph glyph-name="Eacute" unicode="&#xc9;" horiz-adv-x="548" 
d="M247 879h196l-112 -182h-155zM15 116h21q41 0 41 40v337q0 37 -41 37h-21v117h518v-168h-168v13q0 39 -41 39h-62v-150h115v-116h-115v-149h62q41 0 41 40v12h168v-168h-518v116z" />
    <glyph glyph-name="Ecircumflex" unicode="&#xca;" horiz-adv-x="548" 
d="M176 900h154l140 -203h-163l-55 107l-57 -107h-160zM15 116h21q41 0 41 40v337q0 37 -41 37h-21v117h518v-168h-168v13q0 39 -41 39h-62v-150h115v-116h-115v-149h62q41 0 41 40v12h168v-168h-518v116z" />
    <glyph glyph-name="Edieresis" unicode="&#xcb;" horiz-adv-x="548" 
d="M65 854h128v-137h-128v137zM315 854h129v-137h-129v137zM15 116h21q41 0 41 40v337q0 37 -41 37h-21v117h518v-168h-168v13q0 39 -41 39h-62v-150h115v-116h-115v-149h62q41 0 41 40v12h168v-168h-518v116z" />
    <glyph glyph-name="Igrave" unicode="&#xcc;" horiz-adv-x="337" 
d="M-15 878h196l72 -182h-156zM15 116h20q22 0 31.5 10t9.5 30v337q0 37 -41 37h-20v117h307v-117h-20q-41 0 -41 -37v-340q0 -37 41 -37h20v-116h-307v116z" />
    <glyph glyph-name="Iacute" unicode="&#xcd;" horiz-adv-x="337" 
d="M161 879h196l-112 -182h-155zM15 116h20q22 0 31.5 10t9.5 30v337q0 37 -41 37h-20v117h307v-117h-20q-41 0 -41 -37v-340q0 -37 41 -37h20v-116h-307v116z" />
    <glyph glyph-name="Icircumflex" unicode="&#xce;" horiz-adv-x="337" 
d="M93 900h154l140 -203h-163l-55 107l-57 -107h-160zM15 116h20q22 0 31.5 10t9.5 30v337q0 37 -41 37h-20v117h307v-117h-20q-41 0 -41 -37v-340q0 -37 41 -37h20v-116h-307v116z" />
    <glyph glyph-name="Idieresis" unicode="&#xcf;" horiz-adv-x="337" 
d="M-21 854h128v-137h-128v137zM229 854h129v-137h-129v137zM15 116h20q22 0 31.5 10t9.5 30v337q0 37 -41 37h-20v117h307v-117h-20q-41 0 -41 -37v-340q0 -37 41 -37h20v-116h-307v116z" />
    <glyph glyph-name="Eth" unicode="&#xd0;" horiz-adv-x="640" 
d="M15 116h21q41 0 41 40v107h-62v117h62v113q0 37 -41 37h-21v117h324q143 0 214.5 -83t71.5 -243q0 -91 -32 -163.5t-96.5 -115t-157.5 -42.5h-324v116zM311 116q74 0 102.5 50.5t28.5 154.5q0 107 -28.5 158.5t-102.5 51.5h-49v-151h103v-117h-103v-147h49z" />
    <glyph glyph-name="Ntilde" unicode="&#xd1;" horiz-adv-x="698" 
d="M142.5 837q31.5 45 102.5 45q28 0 48.5 -7.5t45.5 -20.5q3 -2 14.5 -7.5t21 -8t18.5 -2.5q43 0 43 46h125q0 -97 -29.5 -141t-100.5 -44q-30 0 -51.5 7.5t-47.5 20.5q-16 9 -28 13.5t-24 4.5q-21 0 -32.5 -12t-11.5 -34h-125q0 95 31.5 140zM15 117h21q40 0 40 37v339
q0 37 -40 37h-21v117h196l227 -354v200q0 37 -41 37h-21v117h307v-117h-21q-41 0 -41 -37v-493h-135l-226 350v-196q0 -17 10.5 -27t30.5 -10h21v-117h-307v117z" />
    <glyph glyph-name="Ograve" unicode="&#xd2;" horiz-adv-x="670" 
d="M155 879h196l72 -182h-156zM94 68.5q-79 83.5 -79 252.5q0 172 77 256.5t243 84.5t243 -84.5t77 -256.5q0 -169 -79 -252.5t-241 -83.5t-241 83.5zM415.5 123.5q29.5 21.5 43 69t13.5 128.5q0 84 -13.5 132.5t-43 70t-80.5 21.5t-80.5 -21.5t-43 -70t-13.5 -132.5
q0 -81 13.5 -128.5t43 -69t80.5 -21.5t80.5 21.5z" />
    <glyph glyph-name="Oacute" unicode="&#xd3;" horiz-adv-x="670" 
d="M320 879h196l-112 -182h-155zM94 68.5q-79 83.5 -79 252.5q0 172 77 256.5t243 84.5t243 -84.5t77 -256.5q0 -169 -79 -252.5t-241 -83.5t-241 83.5zM415.5 123.5q29.5 21.5 43 69t13.5 128.5q0 84 -13.5 132.5t-43 70t-80.5 21.5t-80.5 -21.5t-43 -70t-13.5 -132.5
q0 -81 13.5 -128.5t43 -69t80.5 -21.5t80.5 21.5z" />
    <glyph glyph-name="Ocircumflex" unicode="&#xd4;" horiz-adv-x="670" 
d="M259 900h154l140 -203h-163l-55 107l-57 -107h-160zM94 68.5q-79 83.5 -79 252.5q0 172 77 256.5t243 84.5t243 -84.5t77 -256.5q0 -169 -79 -252.5t-241 -83.5t-241 83.5zM415.5 123.5q29.5 21.5 43 69t13.5 128.5q0 84 -13.5 132.5t-43 70t-80.5 21.5t-80.5 -21.5
t-43 -70t-13.5 -132.5q0 -81 13.5 -128.5t43 -69t80.5 -21.5t80.5 21.5z" />
    <glyph glyph-name="Otilde" unicode="&#xd5;" horiz-adv-x="670" 
d="M141.5 837q31.5 45 102.5 45q28 0 48.5 -7.5t45.5 -20.5q3 -2 14.5 -7.5t21 -8t18.5 -2.5q43 0 43 46h125q0 -97 -29.5 -141t-100.5 -44q-30 0 -51.5 7.5t-47.5 20.5q-16 9 -28 13.5t-24 4.5q-21 0 -32.5 -12t-11.5 -34h-125q0 95 31.5 140zM94 68.5q-79 83.5 -79 252.5
q0 172 77 256.5t243 84.5t243 -84.5t77 -256.5q0 -169 -79 -252.5t-241 -83.5t-241 83.5zM415.5 123.5q29.5 21.5 43 69t13.5 128.5q0 84 -13.5 132.5t-43 70t-80.5 21.5t-80.5 -21.5t-43 -70t-13.5 -132.5q0 -81 13.5 -128.5t43 -69t80.5 -21.5t80.5 21.5z" />
    <glyph glyph-name="Odieresis" unicode="&#xd6;" horiz-adv-x="670" 
d="M145 854h128v-137h-128v137zM395 854h129v-137h-129v137zM94 68.5q-79 83.5 -79 252.5q0 172 77 256.5t243 84.5t243 -84.5t77 -256.5q0 -169 -79 -252.5t-241 -83.5t-241 83.5zM415.5 123.5q29.5 21.5 43 69t13.5 128.5q0 84 -13.5 132.5t-43 70t-80.5 21.5t-80.5 -21.5
t-43 -70t-13.5 -132.5q0 -81 13.5 -128.5t43 -69t80.5 -21.5t80.5 21.5z" />
    <glyph glyph-name="multiply" unicode="&#xd7;" horiz-adv-x="392" 
d="M25 231l79 79l-79 80l92 90l79 -79l79 79l92 -90l-80 -80l80 -79l-92 -92l-79 79l-79 -79z" />
    <glyph glyph-name="Oslash" unicode="&#xd8;" horiz-adv-x="670" 
d="M181 10q-84 34 -125 111t-41 200q0 172 77 256.5t243 84.5q40 0 85 -7l13 34h57l-17 -46q93 -31 137.5 -111t44.5 -211q0 -169 -79 -252.5t-241 -83.5q-59 0 -102 10l-14 -38h-58zM378 540q-22 5 -43 5q-51 0 -80.5 -21.5t-43 -70t-13.5 -132.5q0 -65 7.5 -107t25.5 -67z
M415.5 123.5q29.5 21.5 43 69t13.5 128.5q0 76 -11 123t-36 71l-149 -404q26 -9 59 -9q51 0 80.5 21.5z" />
    <glyph glyph-name="Ugrave" unicode="&#xd9;" horiz-adv-x="680" 
d="M134 879h196l72 -182h-156zM134.5 39.5q-68.5 54.5 -68.5 150.5v303q0 37 -41 37h-20v117h297v-117h-10q-21 0 -31 -9.5t-10 -30.5v-306q0 -44 22 -63t67 -19t66.5 19t21.5 63v306q0 20 -9.5 30t-30.5 10h-11v117h298v-117h-21q-41 0 -41 -37v-303q0 -96 -68.5 -150.5
t-204.5 -54.5q-137 0 -205.5 54.5z" />
    <glyph glyph-name="Uacute" unicode="&#xda;" horiz-adv-x="680" 
d="M322 879h196l-112 -182h-155zM134.5 39.5q-68.5 54.5 -68.5 150.5v303q0 37 -41 37h-20v117h297v-117h-10q-21 0 -31 -9.5t-10 -30.5v-306q0 -44 22 -63t67 -19t66.5 19t21.5 63v306q0 20 -9.5 30t-30.5 10h-11v117h298v-117h-21q-41 0 -41 -37v-303q0 -96 -68.5 -150.5
t-204.5 -54.5q-137 0 -205.5 54.5z" />
    <glyph glyph-name="Ucircumflex" unicode="&#xdb;" horiz-adv-x="680" 
d="M263 900h154l140 -203h-163l-55 107l-57 -107h-160zM134.5 39.5q-68.5 54.5 -68.5 150.5v303q0 37 -41 37h-20v117h297v-117h-10q-21 0 -31 -9.5t-10 -30.5v-306q0 -44 22 -63t67 -19t66.5 19t21.5 63v306q0 20 -9.5 30t-30.5 10h-11v117h298v-117h-21q-41 0 -41 -37
v-303q0 -96 -68.5 -150.5t-204.5 -54.5q-137 0 -205.5 54.5z" />
    <glyph glyph-name="Udieresis" unicode="&#xdc;" horiz-adv-x="680" 
d="M151 854h128v-137h-128v137zM401 854h129v-137h-129v137zM134.5 39.5q-68.5 54.5 -68.5 150.5v303q0 37 -41 37h-20v117h297v-117h-10q-21 0 -31 -9.5t-10 -30.5v-306q0 -44 22 -63t67 -19t66.5 19t21.5 63v306q0 20 -9.5 30t-30.5 10h-11v117h298v-117h-21
q-41 0 -41 -37v-303q0 -96 -68.5 -150.5t-204.5 -54.5q-137 0 -205.5 54.5z" />
    <glyph glyph-name="Yacute" unicode="&#xdd;" horiz-adv-x="670" 
d="M312 879h196l-112 -182h-155zM181 116h21q41 0 41 40v87l-132 243q-15 27 -29.5 36.5t-44.5 9.5h-22v115h289v-115h-28l61 -142l57 142h-28v115h289v-115h-22q-30 0 -45 -10t-30 -37l-131 -243v-89q0 -37 41 -37h21v-116h-308v116z" />
    <glyph glyph-name="Thorn" unicode="&#xde;" horiz-adv-x="633" 
d="M15 116h20q41 0 41 37v341q0 37 -41 37h-20v116h246v-70h113q115 0 179.5 -53t64.5 -157t-65.5 -160.5t-179.5 -56.5h-112q0 -17 9.5 -25.5t31.5 -8.5h20v-116h-307v116zM348 267q46 0 66.5 24t20.5 76t-20 72.5t-67 20.5h-87v-193h87z" />
    <glyph glyph-name="germandbls" unicode="&#xdf;" horiz-adv-x="656" 
d="M349.5 -6.5q-34.5 8.5 -57.5 24.5l57 94q23 -17 53 -17q26 0 41 24.5t15 75.5q0 49 -22.5 72t-74.5 23h-49v109h46q47 0 66.5 24t19.5 79q0 50 -23 71.5t-67 21.5q-39 0 -66 -20.5t-27 -64.5v-510h-246v116h21q41 0 41 40v339q0 99 69 158t204 59q141 0 209 -56.5
t68 -153.5q0 -52 -18 -94t-56 -62q48 -25 68 -62.5t20 -89.5q0 -97 -55 -153t-168 -56q-34 0 -68.5 8.5z" />
    <glyph glyph-name="agrave" unicode="&#xe0;" horiz-adv-x="530" 
d="M78 702h196l72 -182h-156zM49.5 21.5q-44.5 36.5 -44.5 101.5q0 75 50.5 112.5t150.5 44.5l88 6v53q0 44 -46 44q-26 0 -45 -20v-33h-154v106q95 59 209 59q111 0 167 -48t56 -128v-172q0 -35 32 -35h12v-112h-143l-15 67q-38 -45 -78 -63.5t-106 -18.5
q-89 0 -133.5 36.5zM294 159v34l-67 -6q-54 -4 -54 -47q0 -20 13.5 -31.5t38.5 -11.5q69 0 69 62z" />
    <glyph glyph-name="aacute" unicode="&#xe1;" horiz-adv-x="530" 
d="M236 702h196l-112 -182h-155zM49.5 21.5q-44.5 36.5 -44.5 101.5q0 75 50.5 112.5t150.5 44.5l88 6v53q0 44 -46 44q-26 0 -45 -20v-33h-154v106q95 59 209 59q111 0 167 -48t56 -128v-172q0 -35 32 -35h12v-112h-143l-15 67q-38 -45 -78 -63.5t-106 -18.5
q-89 0 -133.5 36.5zM294 159v34l-67 -6q-54 -4 -54 -47q0 -20 13.5 -31.5t38.5 -11.5q69 0 69 62z" />
    <glyph glyph-name="acircumflex" unicode="&#xe2;" horiz-adv-x="530" 
d="M173 723h154l140 -203h-163l-55 107l-57 -107h-160zM49.5 21.5q-44.5 36.5 -44.5 101.5q0 75 50.5 112.5t150.5 44.5l88 6v53q0 44 -46 44q-26 0 -45 -20v-33h-154v106q95 59 209 59q111 0 167 -48t56 -128v-172q0 -35 32 -35h12v-112h-143l-15 67q-38 -45 -78 -63.5
t-106 -18.5q-89 0 -133.5 36.5zM294 159v34l-67 -6q-54 -4 -54 -47q0 -20 13.5 -31.5t38.5 -11.5q69 0 69 62z" />
    <glyph glyph-name="atilde" unicode="&#xe3;" horiz-adv-x="530" 
d="M77.5 660q31.5 45 102.5 45q28 0 48.5 -7.5t45.5 -20.5q3 -2 14.5 -7.5t21 -8t18.5 -2.5q43 0 43 46h125q0 -97 -29.5 -141t-100.5 -44q-30 0 -51.5 7.5t-47.5 20.5q-16 9 -28 13.5t-24 4.5q-21 0 -32.5 -12t-11.5 -34h-125q0 95 31.5 140zM49.5 21.5
q-44.5 36.5 -44.5 101.5q0 75 50.5 112.5t150.5 44.5l88 6v53q0 44 -46 44q-26 0 -45 -20v-33h-154v106q95 59 209 59q111 0 167 -48t56 -128v-172q0 -35 32 -35h12v-112h-143l-15 67q-38 -45 -78 -63.5t-106 -18.5q-89 0 -133.5 36.5zM294 159v34l-67 -6q-54 -4 -54 -47
q0 -20 13.5 -31.5t38.5 -11.5q69 0 69 62z" />
    <glyph glyph-name="adieresis" unicode="&#xe4;" horiz-adv-x="530" 
d="M77 677h128v-137h-128v137zM327 677h129v-137h-129v137zM49.5 21.5q-44.5 36.5 -44.5 101.5q0 75 50.5 112.5t150.5 44.5l88 6v53q0 44 -46 44q-26 0 -45 -20v-33h-154v106q95 59 209 59q111 0 167 -48t56 -128v-172q0 -35 32 -35h12v-112h-143l-15 67q-38 -45 -78 -63.5
t-106 -18.5q-89 0 -133.5 36.5zM294 159v34l-67 -6q-54 -4 -54 -47q0 -20 13.5 -31.5t38.5 -11.5q69 0 69 62z" />
    <glyph glyph-name="aring" unicode="&#xe5;" horiz-adv-x="530" 
d="M182.5 555.5q-35.5 35.5 -35.5 86.5t35.5 86.5t86.5 35.5t86.5 -35.5t35.5 -86.5t-35.5 -86.5t-86.5 -35.5t-86.5 35.5zM294.5 616.5q10.5 10.5 10.5 25.5t-10.5 25.5t-25.5 10.5t-25.5 -10.5t-10.5 -25.5t10.5 -25.5t25.5 -10.5t25.5 10.5zM49.5 21.5
q-44.5 36.5 -44.5 101.5q0 75 50.5 112.5t150.5 44.5l88 6v53q0 44 -46 44q-26 0 -45 -20v-33h-154v106q95 59 209 59q111 0 167 -48t56 -128v-172q0 -35 32 -35h12v-112h-143l-15 67q-38 -45 -78 -63.5t-106 -18.5q-89 0 -133.5 36.5zM294 159v34l-67 -6q-54 -4 -54 -47
q0 -20 13.5 -31.5t38.5 -11.5q69 0 69 62z" />
    <glyph glyph-name="ae" unicode="&#xe6;" horiz-adv-x="827" 
d="M49.5 21.5q-44.5 36.5 -44.5 101.5q0 75 50.5 112.5t150.5 44.5l88 6v53q0 44 -46 44q-26 0 -45 -20v-33h-154v106q95 59 204 59q49 0 84.5 -12.5t61.5 -41.5q25 25 71.5 39.5t94.5 14.5q123 0 185 -66t62 -178v-48h-325q0 -59 22.5 -84t72.5 -25q37 0 66 13v40h147v-89
q-67 -73 -216 -73q-132 0 -180 73q-35 -38 -86 -55.5t-130 -17.5q-89 0 -133.5 36.5zM634 299q0 86 -73 86q-37 0 -55.5 -21t-18.5 -65h147zM294 159v34l-67 -6q-54 -4 -54 -47q0 -20 13.5 -31.5t38.5 -11.5q69 0 69 62z" />
    <glyph glyph-name="ccedilla" unicode="&#xe7;" horiz-adv-x="528" 
d="M445 -123q0 -105 -166 -105q-33 0 -57.5 4.5t-49.5 15.5v95q38 -20 84 -20q31 0 31 19t-19 28t-72 9l10 71q-87 20 -139 81.5t-52 157.5q0 131 73.5 196.5t204.5 65.5q71 0 119 -16.5t95 -53.5v-124h-153v54q-12 9 -26.5 12.5t-35.5 3.5q-43 0 -68 -34.5t-25 -103.5
q0 -65 31.5 -94t98.5 -29q79 0 127 36l57 -94q-35 -27 -66.5 -41t-71.5 -21l-4 -26q74 -16 74 -87z" />
    <glyph glyph-name="egrave" unicode="&#xe8;" horiz-adv-x="546" 
d="M124 702h196l72 -182h-156zM88 48q-73 64 -73 189q0 131 68 194.5t195 63.5q124 0 188.5 -66.5t64.5 -177.5v-48h-331q0 -60 21 -85t74 -25q37 0 66 13v40h153v-89q-39 -36 -92 -54.5t-130 -18.5q-131 0 -204 64zM347 299q0 41 -19.5 63.5t-53.5 22.5q-36 0 -55 -22.5
t-19 -63.5h147z" />
    <glyph glyph-name="eacute" unicode="&#xe9;" horiz-adv-x="546" 
d="M256 702h196l-112 -182h-155zM88 48q-73 64 -73 189q0 131 68 194.5t195 63.5q124 0 188.5 -66.5t64.5 -177.5v-48h-331q0 -60 21 -85t74 -25q37 0 66 13v40h153v-89q-39 -36 -92 -54.5t-130 -18.5q-131 0 -204 64zM347 299q0 41 -19.5 63.5t-53.5 22.5q-36 0 -55 -22.5
t-19 -63.5h147z" />
    <glyph glyph-name="ecircumflex" unicode="&#xea;" horiz-adv-x="546" 
d="M202 723h154l140 -203h-163l-55 107l-57 -107h-160zM88 48q-73 64 -73 189q0 131 68 194.5t195 63.5q124 0 188.5 -66.5t64.5 -177.5v-48h-331q0 -60 21 -85t74 -25q37 0 66 13v40h153v-89q-39 -36 -92 -54.5t-130 -18.5q-131 0 -204 64zM347 299q0 41 -19.5 63.5
t-53.5 22.5q-36 0 -55 -22.5t-19 -63.5h147z" />
    <glyph glyph-name="edieresis" unicode="&#xeb;" horiz-adv-x="546" 
d="M89 657h128v-137h-128v137zM339 657h129v-137h-129v137zM88 48q-73 64 -73 189q0 131 68 194.5t195 63.5q124 0 188.5 -66.5t64.5 -177.5v-48h-331q0 -60 21 -85t74 -25q37 0 66 13v40h153v-89q-39 -36 -92 -54.5t-130 -18.5q-131 0 -204 64zM347 299q0 41 -19.5 63.5
t-53.5 22.5q-36 0 -55 -22.5t-19 -63.5h147z" />
    <glyph glyph-name="igrave" unicode="&#xec;" horiz-adv-x="322" 
d="M-11 702h196l72 -182h-156zM5 118h21q22 0 31.5 10t9.5 30v165q0 38 -41 38h-21v119h250v-324q0 -38 41 -38h21v-118h-312v118z" />
    <glyph glyph-name="iacute" unicode="&#xed;" horiz-adv-x="322" 
d="M112 702h196l-112 -182h-155zM5 118h21q22 0 31.5 10t9.5 30v165q0 38 -41 38h-21v119h250v-324q0 -38 41 -38h21v-118h-312v118z" />
    <glyph glyph-name="icircumflex" unicode="&#xee;" horiz-adv-x="322" 
d="M70 723h154l140 -203h-163l-55 107l-57 -107h-160zM5 118h21q22 0 31.5 10t9.5 30v165q0 38 -41 38h-21v119h250v-324q0 -38 41 -38h21v-118h-312v118z" />
    <glyph glyph-name="idieresis" unicode="&#xef;" horiz-adv-x="322" 
d="M-43 677h128v-137h-128v137zM207 677h129v-137h-129v137zM5 118h21q22 0 31.5 10t9.5 30v165q0 38 -41 38h-21v119h250v-324q0 -38 41 -38h21v-118h-312v118z" />
    <glyph glyph-name="eth" unicode="&#xf0;" horiz-adv-x="596" 
d="M84 40q-69 55 -69 177q0 81 35.5 141t99.5 92.5t149 32.5q69 0 96 -17q-7 45 -37 64l-72 -41l-19 40l28 16q-39 0 -69 -8.5t-69 -30.5l-49 100q96 56 217 56q73 0 128 -26l80 46l18 -42l-55 -31q85 -73 85 -239q0 -169 -71.5 -277t-239.5 -108q-117 0 -186 55zM354.5 147
q27.5 45 27.5 133q0 36 -8 54.5t-23.5 25t-42.5 6.5q-110 0 -110 -171q0 -32 4.5 -51t21.5 -30.5t51 -11.5q52 0 79.5 45z" />
    <glyph glyph-name="ntilde" unicode="&#xf1;" horiz-adv-x="613" 
d="M88.5 660q31.5 45 102.5 45q28 0 48.5 -7.5t45.5 -20.5q3 -2 14.5 -7.5t21 -8t18.5 -2.5q43 0 43 46h125q0 -97 -29.5 -141t-100.5 -44q-30 0 -51.5 7.5t-47.5 20.5q-16 9 -28 13.5t-24 4.5q-21 0 -32.5 -12t-11.5 -34h-125q0 95 31.5 140zM15 118h10q42 0 42 38v166
q0 38 -39 38h-13v120h168l7 -64q65 79 184 79q90 0 132 -43.5t42 -126.5v-169q0 -38 41 -38h19v-118h-248v324q0 31 -13 45t-39 14q-28 0 -41 -13.5t-13 -45.5v-168q0 -19 7.5 -28.5t26.5 -9.5h13v-118h-286v118z" />
    <glyph glyph-name="ograve" unicode="&#xf2;" horiz-adv-x="558" 
d="M106 702h196l72 -182h-156zM84.5 50q-69.5 65 -69.5 190q0 126 68 190.5t197 64.5q128 0 195.5 -64.5t67.5 -190.5q0 -125 -69 -190t-194 -65q-126 0 -195.5 65zM341.5 135.5q17.5 31.5 17.5 104.5q0 74 -17.5 105t-61.5 31q-45 0 -62 -30.5t-17 -105.5q0 -74 17 -105
t62 -31q44 0 61.5 31.5z" />
    <glyph glyph-name="oacute" unicode="&#xf3;" horiz-adv-x="558" 
d="M266 702h196l-112 -182h-155zM84.5 50q-69.5 65 -69.5 190q0 126 68 190.5t197 64.5q128 0 195.5 -64.5t67.5 -190.5q0 -125 -69 -190t-194 -65q-126 0 -195.5 65zM341.5 135.5q17.5 31.5 17.5 104.5q0 74 -17.5 105t-61.5 31q-45 0 -62 -30.5t-17 -105.5q0 -74 17 -105
t62 -31q44 0 61.5 31.5z" />
    <glyph glyph-name="ocircumflex" unicode="&#xf4;" horiz-adv-x="558" 
d="M204 723h154l140 -203h-163l-55 107l-57 -107h-160zM84.5 50q-69.5 65 -69.5 190q0 126 68 190.5t197 64.5q128 0 195.5 -64.5t67.5 -190.5q0 -125 -69 -190t-194 -65q-126 0 -195.5 65zM341.5 135.5q17.5 31.5 17.5 104.5q0 74 -17.5 105t-61.5 31q-45 0 -62 -30.5
t-17 -105.5q0 -74 17 -105t62 -31q44 0 61.5 31.5z" />
    <glyph glyph-name="otilde" unicode="&#xf5;" horiz-adv-x="558" 
d="M86.5 660q31.5 45 102.5 45q28 0 48.5 -7.5t45.5 -20.5q3 -2 14.5 -7.5t21 -8t18.5 -2.5q43 0 43 46h125q0 -97 -29.5 -141t-100.5 -44q-30 0 -51.5 7.5t-47.5 20.5q-16 9 -28 13.5t-24 4.5q-21 0 -32.5 -12t-11.5 -34h-125q0 95 31.5 140zM84.5 50q-69.5 65 -69.5 190
q0 126 68 190.5t197 64.5q128 0 195.5 -64.5t67.5 -190.5q0 -125 -69 -190t-194 -65q-126 0 -195.5 65zM341.5 135.5q17.5 31.5 17.5 104.5q0 74 -17.5 105t-61.5 31q-45 0 -62 -30.5t-17 -105.5q0 -74 17 -105t62 -31q44 0 61.5 31.5z" />
    <glyph glyph-name="odieresis" unicode="&#xf6;" horiz-adv-x="558" 
d="M91 677h128v-137h-128v137zM341 677h129v-137h-129v137zM84.5 50q-69.5 65 -69.5 190q0 126 68 190.5t197 64.5q128 0 195.5 -64.5t67.5 -190.5q0 -125 -69 -190t-194 -65q-126 0 -195.5 65zM341.5 135.5q17.5 31.5 17.5 104.5q0 74 -17.5 105t-61.5 31q-45 0 -62 -30.5
t-17 -105.5q0 -74 17 -105t62 -31q44 0 61.5 31.5z" />
    <glyph glyph-name="divide" unicode="&#xf7;" horiz-adv-x="414" 
d="M153 483h108v-101h-108v101zM25 358h364v-96h-364v96zM153 238h108v-101h-108v101z" />
    <glyph glyph-name="oslash" unicode="&#xf8;" horiz-adv-x="558" 
d="M167 1q-74 24 -113 84.5t-39 154.5q0 126 68 190.5t197 64.5q30 0 63 -5l16 45h57l-21 -57q73 -25 110.5 -85t37.5 -153q0 -125 -69 -190t-194 -65q-22 0 -60 4l-14 -41h-58zM301 374q-12 2 -21 2q-45 0 -62 -30.5t-17 -105.5q0 -72 15 -102zM341.5 135.5
q17.5 31.5 17.5 104.5q0 66 -14 97l-83 -232q5 -1 18 -1q44 0 61.5 31.5z" />
    <glyph glyph-name="ugrave" unicode="&#xf9;" horiz-adv-x="603" 
d="M95 702h196l72 -182h-156zM107 27.5q-42 43.5 -42 126.5v170q0 38 -41 38h-19v118h248v-325q0 -32 13 -46t39 -14q28 0 41 14t13 46v169q0 19 -6.5 28.5t-24.5 9.5h-16v118h234v-323q0 -38 42 -38h10v-119h-168l-7 61q-39 -42 -81 -59.5t-103 -17.5q-90 0 -132 43.5z" />
    <glyph glyph-name="uacute" unicode="&#xfa;" horiz-adv-x="603" 
d="M262 702h196l-112 -182h-155zM107 27.5q-42 43.5 -42 126.5v170q0 38 -41 38h-19v118h248v-325q0 -32 13 -46t39 -14q28 0 41 14t13 46v169q0 19 -6.5 28.5t-24.5 9.5h-16v118h234v-323q0 -38 42 -38h10v-119h-168l-7 61q-39 -42 -81 -59.5t-103 -17.5q-90 0 -132 43.5z
" />
    <glyph glyph-name="ucircumflex" unicode="&#xfb;" horiz-adv-x="603" 
d="M207 723h154l140 -203h-163l-55 107l-57 -107h-160zM107 27.5q-42 43.5 -42 126.5v170q0 38 -41 38h-19v118h248v-325q0 -32 13 -46t39 -14q28 0 41 14t13 46v169q0 19 -6.5 28.5t-24.5 9.5h-16v118h234v-323q0 -38 42 -38h10v-119h-168l-7 61q-39 -42 -81 -59.5
t-103 -17.5q-90 0 -132 43.5z" />
    <glyph glyph-name="udieresis" unicode="&#xfc;" horiz-adv-x="603" 
d="M99 677h128v-137h-128v137zM349 677h129v-137h-129v137zM107 27.5q-42 43.5 -42 126.5v170q0 38 -41 38h-19v118h248v-325q0 -32 13 -46t39 -14q28 0 41 14t13 46v169q0 19 -6.5 28.5t-24.5 9.5h-16v118h234v-323q0 -38 42 -38h10v-119h-168l-7 61q-39 -42 -81 -59.5
t-103 -17.5q-90 0 -132 43.5z" />
    <glyph glyph-name="yacute" unicode="&#xfd;" horiz-adv-x="592" 
d="M261 702h196l-112 -182h-155zM194 -181q-57 19 -94 54v81h153v-26q13 -13 28.5 -18.5t38.5 -5.5q66 0 66 76v45q-26 -9 -55.5 -14.5t-49.5 -5.5q-100 0 -157.5 47t-57.5 131v141q0 18 -10.5 28t-31.5 10h-19v118h248v-305q0 -61 59 -61q30 0 44 13.5t14 44.5v152
q0 20 -6.5 29t-26.5 9h-14v118h234v-451q0 -69 -28.5 -120.5t-81 -80t-124.5 -28.5t-129 19z" />
    <glyph glyph-name="thorn" unicode="&#xfe;" horiz-adv-x="605" 
d="M15 -90h10q21 0 31.5 10t10.5 28v556q0 18 -10.5 28t-31.5 10h-10v120h214v-206q30 21 61 30t75 9q106 0 165.5 -64t59.5 -184q0 -126 -57.5 -194.5t-164.5 -68.5q-47 0 -76.5 9.5t-62.5 32.5v-78q0 -38 41 -38h11v-118h-266v118zM388.5 129q17.5 36 17.5 116
q0 79 -17.5 112.5t-66.5 33.5q-40 0 -61 -35t-21 -88v-55q0 -58 20.5 -89t61.5 -31q49 0 66.5 36z" />
    <glyph glyph-name="ydieresis" unicode="&#xff;" horiz-adv-x="592" 
d="M103 677h128v-137h-128v137zM353 677h129v-137h-129v137zM194 -181q-57 19 -94 54v81h153v-26q13 -13 28.5 -18.5t38.5 -5.5q66 0 66 76v45q-26 -9 -55.5 -14.5t-49.5 -5.5q-100 0 -157.5 47t-57.5 131v141q0 18 -10.5 28t-31.5 10h-19v118h248v-305q0 -61 59 -61
q30 0 44 13.5t14 44.5v152q0 20 -6.5 29t-26.5 9h-14v118h234v-451q0 -69 -28.5 -120.5t-81 -80t-124.5 -28.5t-129 19z" />
    <glyph glyph-name="Amacron" unicode="&#x100;" horiz-adv-x="712" 
d="M202 822h317v-105h-317v105zM15 116h24q28 0 38.5 6t18.5 28l171 497h181l168 -497q8 -22 18.5 -28t38.5 -6h24v-116h-292v116h38l-21 73h-130l-22 -73h38v-116h-293v116zM396 280l-37 133l-40 -133h77z" />
    <glyph glyph-name="amacron" unicode="&#x101;" horiz-adv-x="530" 
d="M105 645h317v-105h-317v105zM49.5 21.5q-44.5 36.5 -44.5 101.5q0 75 50.5 112.5t150.5 44.5l88 6v53q0 44 -46 44q-26 0 -45 -20v-33h-154v106q95 59 209 59q111 0 167 -48t56 -128v-172q0 -35 32 -35h12v-112h-143l-15 67q-38 -45 -78 -63.5t-106 -18.5
q-89 0 -133.5 36.5zM294 159v34l-67 -6q-54 -4 -54 -47q0 -20 13.5 -31.5t38.5 -11.5q69 0 69 62z" />
    <glyph glyph-name="Abreve" unicode="&#x102;" horiz-adv-x="712" 
d="M221 741q-49 44 -49 119h153q0 -27 8 -41.5t27 -14.5q22 0 28.5 13.5t6.5 42.5h153q0 -75 -49 -119t-139 -44t-139 44zM15 116h24q28 0 38.5 6t18.5 28l171 497h181l168 -497q8 -22 18.5 -28t38.5 -6h24v-116h-292v116h38l-21 73h-130l-22 -73h38v-116h-293v116zM396 280
l-37 133l-40 -133h77z" />
    <glyph glyph-name="abreve" unicode="&#x103;" horiz-adv-x="530" 
d="M123 564q-49 44 -49 119h153q0 -27 8 -41.5t27 -14.5q22 0 28.5 13.5t6.5 42.5h153q0 -75 -49 -119t-139 -44t-139 44zM49.5 21.5q-44.5 36.5 -44.5 101.5q0 75 50.5 112.5t150.5 44.5l88 6v53q0 44 -46 44q-26 0 -45 -20v-33h-154v106q95 59 209 59q111 0 167 -48
t56 -128v-172q0 -35 32 -35h12v-112h-143l-15 67q-38 -45 -78 -63.5t-106 -18.5q-89 0 -133.5 36.5zM294 159v34l-67 -6q-54 -4 -54 -47q0 -20 13.5 -31.5t38.5 -11.5q69 0 69 62z" />
    <glyph glyph-name="Aogonek" unicode="&#x104;" horiz-adv-x="712" 
d="M575 -33q-11 -15 -11 -35q0 -14 7 -23t21 -9q18 0 32 8v-98q-23 -17 -47 -24t-59 -7q-48 0 -80 25.5t-32 77.5q0 35 15 68t40 50h-56v116h38l-21 73h-130l-22 -73h38v-116h-293v116h24q28 0 38.5 6t18.5 28l171 497h181l168 -497q8 -22 18.5 -28t38.5 -6h24v-116h-85
q-26 -18 -37 -33zM396 280l-37 133l-40 -133h77z" />
    <glyph glyph-name="aogonek" unicode="&#x105;" horiz-adv-x="539" 
d="M534 -92v-98q-23 -17 -47 -24t-59 -7q-48 0 -80 25.5t-32 77.5q0 72 66 118l-15 67q-38 -45 -78 -63.5t-106 -18.5q-89 0 -133.5 36.5t-44.5 101.5q0 75 50.5 112.5t150.5 44.5l88 6v53q0 44 -46 44q-26 0 -45 -20v-33h-154v106q95 59 209 59q111 0 167 -48t56 -128v-172
q0 -35 32 -35h12v-112q-51 -26 -51 -68q0 -14 7 -23t21 -9q18 0 32 8zM294 193l-67 -6q-54 -4 -54 -47q0 -20 13.5 -31.5t38.5 -11.5q69 0 69 62v34z" />
    <glyph glyph-name="Cacute" unicode="&#x106;" horiz-adv-x="614" 
d="M319 879h196l-112 -182h-155zM173 27q-79 42 -118.5 117t-39.5 174q0 155 82.5 249.5t249.5 94.5q84 0 140.5 -15t103.5 -49v-138h-185v79q-26 6 -59 6q-74 0 -112 -59.5t-38 -167.5q0 -106 43.5 -161t137.5 -55q47 0 84 10t76 37l61 -98q-56 -39 -104.5 -52.5
t-126.5 -13.5q-116 0 -195 42z" />
    <glyph glyph-name="cacute" unicode="&#x107;" horiz-adv-x="528" 
d="M270 702h196l-112 -182h-155zM150.5 13q-62.5 28 -99 84t-36.5 136q0 131 73.5 196.5t204.5 65.5q71 0 119 -16.5t95 -53.5v-124h-153v54q-12 9 -26.5 12.5t-35.5 3.5q-43 0 -68 -34.5t-25 -103.5q0 -65 31.5 -94t98.5 -29q79 0 127 36l57 -94q-50 -38 -96 -52.5
t-126 -14.5q-78 0 -140.5 28z" />
    <glyph glyph-name="Ccircumflex" unicode="&#x108;" horiz-adv-x="614" 
d="M272 900h154l140 -203h-163l-55 107l-57 -107h-160zM173 27q-79 42 -118.5 117t-39.5 174q0 155 82.5 249.5t249.5 94.5q84 0 140.5 -15t103.5 -49v-138h-185v79q-26 6 -59 6q-74 0 -112 -59.5t-38 -167.5q0 -106 43.5 -161t137.5 -55q47 0 84 10t76 37l61 -98
q-56 -39 -104.5 -52.5t-126.5 -13.5q-116 0 -195 42z" />
    <glyph glyph-name="ccircumflex" unicode="&#x109;" horiz-adv-x="528" 
d="M197 723h154l140 -203h-163l-55 107l-57 -107h-160zM150.5 13q-62.5 28 -99 84t-36.5 136q0 131 73.5 196.5t204.5 65.5q71 0 119 -16.5t95 -53.5v-124h-153v54q-12 9 -26.5 12.5t-35.5 3.5q-43 0 -68 -34.5t-25 -103.5q0 -65 31.5 -94t98.5 -29q79 0 127 36l57 -94
q-50 -38 -96 -52.5t-126 -14.5q-78 0 -140.5 28z" />
    <glyph glyph-name="Cdotaccent" unicode="&#x10a;" horiz-adv-x="614" 
d="M289 854h130v-137h-130v137zM173 27q-79 42 -118.5 117t-39.5 174q0 155 82.5 249.5t249.5 94.5q84 0 140.5 -15t103.5 -49v-138h-185v79q-26 6 -59 6q-74 0 -112 -59.5t-38 -167.5q0 -106 43.5 -161t137.5 -55q47 0 84 10t76 37l61 -98q-56 -39 -104.5 -52.5
t-126.5 -13.5q-116 0 -195 42z" />
    <glyph glyph-name="cdotaccent" unicode="&#x10b;" horiz-adv-x="528" 
d="M221 657h130v-137h-130v137zM150.5 13q-62.5 28 -99 84t-36.5 136q0 131 73.5 196.5t204.5 65.5q71 0 119 -16.5t95 -53.5v-124h-153v54q-12 9 -26.5 12.5t-35.5 3.5q-43 0 -68 -34.5t-25 -103.5q0 -65 31.5 -94t98.5 -29q79 0 127 36l57 -94q-50 -38 -96 -52.5
t-126 -14.5q-78 0 -140.5 28z" />
    <glyph glyph-name="Ccaron" unicode="&#x10c;" horiz-adv-x="614" 
d="M132 901h160l57 -108l55 108h163l-140 -204h-154zM173 27q-79 42 -118.5 117t-39.5 174q0 155 82.5 249.5t249.5 94.5q84 0 140.5 -15t103.5 -49v-138h-185v79q-26 6 -59 6q-74 0 -112 -59.5t-38 -167.5q0 -106 43.5 -161t137.5 -55q47 0 84 10t76 37l61 -98
q-56 -39 -104.5 -52.5t-126.5 -13.5q-116 0 -195 42z" />
    <glyph glyph-name="ccaron" unicode="&#x10d;" horiz-adv-x="528" 
d="M70 724h160l57 -108l55 108h163l-140 -204h-154zM150.5 13q-62.5 28 -99 84t-36.5 136q0 131 73.5 196.5t204.5 65.5q71 0 119 -16.5t95 -53.5v-124h-153v54q-12 9 -26.5 12.5t-35.5 3.5q-43 0 -68 -34.5t-25 -103.5q0 -65 31.5 -94t98.5 -29q79 0 127 36l57 -94
q-50 -38 -96 -52.5t-126 -14.5q-78 0 -140.5 28z" />
    <glyph glyph-name="Dcaron" unicode="&#x10e;" horiz-adv-x="640" 
d="M70 901h160l57 -108l55 108h163l-140 -204h-154zM15 116h21q41 0 41 40v337q0 37 -41 37h-21v117h324q143 0 214.5 -83t71.5 -243q0 -91 -32 -163.5t-96.5 -115t-157.5 -42.5h-324v116zM311 116q74 0 102.5 50.5t28.5 154.5q0 107 -28.5 158.5t-102.5 51.5h-49v-415h49z
" />
    <glyph glyph-name="dcaron" unicode="&#x10f;" horiz-adv-x="774" 
d="M616 721h189l-71 -233h-153zM74 47q-59 61 -59 179q0 130 57.5 199.5t169.5 69.5q43 0 73 -10t61 -33v53q0 38 -41 38h-11v119h214v-512q0 -22 7 -30t28 -8h8v-112h-162l-8 61q-34 -38 -76 -56.5t-100 -18.5q-102 0 -161 61zM345.5 125.5q19.5 35.5 19.5 91.5v43
q0 61 -19 93t-63 32q-48 0 -66 -37.5t-18 -118.5q0 -53 7 -82.5t25 -43t52 -13.5q43 0 62.5 35.5z" />
    <glyph glyph-name="Dcroat" unicode="&#x110;" horiz-adv-x="640" 
d="M15 116h21q41 0 41 40v107h-62v117h62v113q0 37 -41 37h-21v117h324q143 0 214.5 -83t71.5 -243q0 -91 -32 -163.5t-96.5 -115t-157.5 -42.5h-324v116zM311 116q74 0 102.5 50.5t28.5 154.5q0 107 -28.5 158.5t-102.5 51.5h-49v-151h103v-117h-103v-147h49z" />
    <glyph glyph-name="dcroat" unicode="&#x111;" horiz-adv-x="586" 
d="M74 47q-59 61 -59 179q0 130 57.5 199.5t169.5 69.5q43 0 73 -10t61 -33v71h-117v101h117v38h162v-38h43v-101h-43v-373q0 -22 7 -30t28 -8h8v-112h-162l-8 61q-34 -38 -76 -56.5t-100 -18.5q-102 0 -161 61zM345.5 125.5q19.5 35.5 19.5 91.5v43q0 61 -19 93t-63 32
q-48 0 -66 -37.5t-18 -118.5q0 -53 7 -82.5t25 -43t52 -13.5q43 0 62.5 35.5z" />
    <glyph glyph-name="Emacron" unicode="&#x112;" horiz-adv-x="548" 
d="M128 822h317v-105h-317v105zM15 116h21q41 0 41 40v337q0 37 -41 37h-21v117h518v-168h-168v13q0 39 -41 39h-62v-150h115v-116h-115v-149h62q41 0 41 40v12h168v-168h-518v116z" />
    <glyph glyph-name="emacron" unicode="&#x113;" horiz-adv-x="546" 
d="M123 645h317v-105h-317v105zM88 48q-73 64 -73 189q0 131 68 194.5t195 63.5q124 0 188.5 -66.5t64.5 -177.5v-48h-331q0 -60 21 -85t74 -25q37 0 66 13v40h153v-89q-39 -36 -92 -54.5t-130 -18.5q-131 0 -204 64zM347 299q0 41 -19.5 63.5t-53.5 22.5q-36 0 -55 -22.5
t-19 -63.5h147z" />
    <glyph glyph-name="Ebreve" unicode="&#x114;" horiz-adv-x="548" 
d="M133 741q-49 44 -49 119h153q0 -27 8 -41.5t27 -14.5q22 0 28.5 13.5t6.5 42.5h153q0 -75 -49 -119t-139 -44t-139 44zM15 116h21q41 0 41 40v337q0 37 -41 37h-21v117h518v-168h-168v13q0 39 -41 39h-62v-150h115v-116h-115v-149h62q41 0 41 40v12h168v-168h-518v116z
" />
    <glyph glyph-name="ebreve" unicode="&#x115;" horiz-adv-x="546" 
d="M137 564q-49 44 -49 119h153q0 -27 8 -41.5t27 -14.5q22 0 28.5 13.5t6.5 42.5h153q0 -75 -49 -119t-139 -44t-139 44zM88 48q-73 64 -73 189q0 131 68 194.5t195 63.5q124 0 188.5 -66.5t64.5 -177.5v-48h-331q0 -60 21 -85t74 -25q37 0 66 13v40h153v-89
q-39 -36 -92 -54.5t-130 -18.5q-131 0 -204 64zM347 299q0 41 -19.5 63.5t-53.5 22.5q-36 0 -55 -22.5t-19 -63.5h147z" />
    <glyph glyph-name="Edotaccent" unicode="&#x116;" horiz-adv-x="548" 
d="M197 854h130v-137h-130v137zM15 116h21q41 0 41 40v337q0 37 -41 37h-21v117h518v-168h-168v13q0 39 -41 39h-62v-150h115v-116h-115v-149h62q41 0 41 40v12h168v-168h-518v116z" />
    <glyph glyph-name="edotaccent" unicode="&#x117;" horiz-adv-x="546" 
d="M209 677h130v-137h-130v137zM88 48q-73 64 -73 189q0 131 68 194.5t195 63.5q124 0 188.5 -66.5t64.5 -177.5v-48h-331q0 -60 21 -85t74 -25q37 0 66 13v40h153v-89q-39 -36 -92 -54.5t-130 -18.5q-131 0 -204 64zM347 299q0 41 -19.5 63.5t-53.5 22.5q-36 0 -55 -22.5
t-19 -63.5h147z" />
    <glyph glyph-name="Eogonek" unicode="&#x118;" horiz-adv-x="548" 
d="M365 479v13q0 39 -41 39h-62v-150h115v-116h-115v-149h62q41 0 41 40v12h168v-168h-16q-26 -18 -37 -33t-11 -35q0 -14 7 -23t21 -9q18 0 32 8v-98q-23 -17 -47 -24t-59 -7q-48 0 -80 25.5t-32 77.5q0 35 15 68t40 50h-351v116h21q41 0 41 40v337q0 37 -41 37h-21v117
h518v-168h-168z" />
    <glyph glyph-name="eogonek" unicode="&#x119;" horiz-adv-x="546" 
d="M531 203h-331q0 -60 21 -85t74 -25q37 0 66 13v40h153v-89q-44 -41 -104 -58q-25 -18 -35.5 -33t-10.5 -34q0 -14 7 -23t21 -9q18 0 32 8v-98q-23 -17 -47 -24t-59 -7q-48 0 -80 25.5t-32 77.5q0 29 10.5 57t28.5 47q-110 11 -170 74.5t-60 176.5q0 131 68 194.5
t195 63.5q124 0 188.5 -66.5t64.5 -177.5v-48zM347 299q0 41 -19.5 63.5t-53.5 22.5q-36 0 -55 -22.5t-19 -63.5h147z" />
    <glyph glyph-name="Ecaron" unicode="&#x11a;" horiz-adv-x="548" 
d="M54 901h160l57 -108l55 108h163l-140 -204h-154zM15 116h21q41 0 41 40v337q0 37 -41 37h-21v117h518v-168h-168v13q0 39 -41 39h-62v-150h115v-116h-115v-149h62q41 0 41 40v12h168v-168h-518v116z" />
    <glyph glyph-name="ecaron" unicode="&#x11b;" horiz-adv-x="546" 
d="M59 724h160l57 -108l55 108h163l-140 -204h-154zM88 48q-73 64 -73 189q0 131 68 194.5t195 63.5q124 0 188.5 -66.5t64.5 -177.5v-48h-331q0 -60 21 -85t74 -25q37 0 66 13v40h153v-89q-39 -36 -92 -54.5t-130 -18.5q-131 0 -204 64zM347 299q0 41 -19.5 63.5
t-53.5 22.5q-36 0 -55 -22.5t-19 -63.5h147z" />
    <glyph glyph-name="Gcircumflex" unicode="&#x11c;" horiz-adv-x="640" 
d="M264 900h154l140 -203h-163l-55 107l-57 -107h-160zM172.5 26.5q-77.5 42.5 -117.5 118t-40 173.5q0 100 37 177.5t113.5 122t188.5 44.5q84 0 141 -15t104 -49v-138h-185v74q-25 11 -60 11q-74 0 -115 -60t-41 -167q0 -105 43.5 -161t127.5 -56q38 0 71 8v139h-116v116
h301v-303q-106 -77 -265 -77q-110 0 -187.5 42.5z" />
    <glyph glyph-name="gcircumflex" unicode="&#x11d;" horiz-adv-x="585" 
d="M203 723h154l140 -203h-163l-55 107l-57 -107h-160zM193.5 -181.5q-51.5 18.5 -92.5 54.5v77h153v-27q23 -19 63 -19q31 0 45 18t14 48v72q-29 -22 -60 -32t-75 -10q-110 0 -168 61t-58 187q0 118 62.5 182.5t165.5 64.5q61 0 99.5 -19t67.5 -61l8 65h162v-115h-10
q-19 0 -26 -10t-7 -32v-318q0 -94 -56.5 -149.5t-161.5 -55.5q-74 0 -125.5 18.5zM345.5 138.5q18.5 32.5 18.5 92.5v31q0 57 -18.5 93t-62.5 36q-49 0 -66.5 -32t-17.5 -111q0 -53 7 -83.5t25 -44.5t52 -14q44 0 62.5 32.5z" />
    <glyph glyph-name="Gbreve" unicode="&#x11e;" horiz-adv-x="640" 
d="M208 741q-49 44 -49 119h153q0 -27 8 -41.5t27 -14.5q22 0 28.5 13.5t6.5 42.5h153q0 -75 -49 -119t-139 -44t-139 44zM172.5 26.5q-77.5 42.5 -117.5 118t-40 173.5q0 100 37 177.5t113.5 122t188.5 44.5q84 0 141 -15t104 -49v-138h-185v74q-25 11 -60 11
q-74 0 -115 -60t-41 -167q0 -105 43.5 -161t127.5 -56q38 0 71 8v139h-116v116h301v-303q-106 -77 -265 -77q-110 0 -187.5 42.5z" />
    <glyph glyph-name="gbreve" unicode="&#x11f;" horiz-adv-x="585" 
d="M155 564q-49 44 -49 119h153q0 -27 8 -41.5t27 -14.5q22 0 28.5 13.5t6.5 42.5h153q0 -75 -49 -119t-139 -44t-139 44zM193.5 -181.5q-51.5 18.5 -92.5 54.5v77h153v-27q23 -19 63 -19q31 0 45 18t14 48v72q-29 -22 -60 -32t-75 -10q-110 0 -168 61t-58 187
q0 118 62.5 182.5t165.5 64.5q61 0 99.5 -19t67.5 -61l8 65h162v-115h-10q-19 0 -26 -10t-7 -32v-318q0 -94 -56.5 -149.5t-161.5 -55.5q-74 0 -125.5 18.5zM345.5 138.5q18.5 32.5 18.5 92.5v31q0 57 -18.5 93t-62.5 36q-49 0 -66.5 -32t-17.5 -111q0 -53 7 -83.5t25 -44.5
t52 -14q44 0 62.5 32.5z" />
    <glyph glyph-name="Gdotaccent" unicode="&#x120;" horiz-adv-x="640" 
d="M287 854h130v-137h-130v137zM172.5 26.5q-77.5 42.5 -117.5 118t-40 173.5q0 100 37 177.5t113.5 122t188.5 44.5q84 0 141 -15t104 -49v-138h-185v74q-25 11 -60 11q-74 0 -115 -60t-41 -167q0 -105 43.5 -161t127.5 -56q38 0 71 8v139h-116v116h301v-303
q-106 -77 -265 -77q-110 0 -187.5 42.5z" />
    <glyph glyph-name="gdotaccent" unicode="&#x121;" horiz-adv-x="585" 
d="M231 657h130v-137h-130v137zM193.5 -181.5q-51.5 18.5 -92.5 54.5v77h153v-27q23 -19 63 -19q31 0 45 18t14 48v72q-29 -22 -60 -32t-75 -10q-110 0 -168 61t-58 187q0 118 62.5 182.5t165.5 64.5q61 0 99.5 -19t67.5 -61l8 65h162v-115h-10q-19 0 -26 -10t-7 -32v-318
q0 -94 -56.5 -149.5t-161.5 -55.5q-74 0 -125.5 18.5zM345.5 138.5q18.5 32.5 18.5 92.5v31q0 57 -18.5 93t-62.5 36q-49 0 -66.5 -32t-17.5 -111q0 -53 7 -83.5t25 -44.5t52 -14q44 0 62.5 32.5z" />
    <glyph glyph-name="Gcommaaccent" unicode="&#x122;" horiz-adv-x="640" 
d="M172.5 26.5q-77.5 42.5 -117.5 118t-40 173.5q0 100 37 177.5t113.5 122t188.5 44.5q84 0 141 -15t104 -49v-138h-185v74q-25 11 -60 11q-74 0 -115 -60t-41 -167q0 -105 43.5 -161t127.5 -56q38 0 71 8v139h-116v116h301v-303q-106 -77 -265 -77q-110 0 -187.5 42.5z
M287 -49h189l-71 -233h-153z" />
    <glyph glyph-name="gcommaaccent" unicode="&#x123;" horiz-adv-x="585" 
d="M234 753h153l-35 -233h-189zM193.5 -181.5q-51.5 18.5 -92.5 54.5v77h153v-27q23 -19 63 -19q31 0 45 18t14 48v72q-29 -22 -60 -32t-75 -10q-110 0 -168 61t-58 187q0 118 62.5 182.5t165.5 64.5q61 0 99.5 -19t67.5 -61l8 65h162v-115h-10q-19 0 -26 -10t-7 -32v-318
q0 -94 -56.5 -149.5t-161.5 -55.5q-74 0 -125.5 18.5zM345.5 138.5q18.5 32.5 18.5 92.5v31q0 57 -18.5 93t-62.5 36q-49 0 -66.5 -32t-17.5 -111q0 -53 7 -83.5t25 -44.5t52 -14q44 0 62.5 32.5z" />
    <glyph glyph-name="Hcircumflex" unicode="&#x124;" horiz-adv-x="691" 
d="M269 900h154l140 -203h-163l-55 107l-57 -107h-160zM15 116h21q21 0 30.5 10t9.5 30v337q0 37 -40 37h-21v117h297v-117h-11q-40 0 -40 -37v-111h168v108q0 20 -9.5 30t-30.5 10h-11v117h298v-117h-21q-41 0 -41 -37v-337q0 -40 41 -40h21v-116h-298v116h11q21 0 30.5 10
t9.5 30v110h-168v-110q0 -40 41 -40h10v-116h-297v116z" />
    <glyph glyph-name="hcircumflex" unicode="&#x125;" horiz-adv-x="614" 
d="M155 900h154l140 -203h-163l-55 107l-57 -107h-160zM16 118h10q42 0 42 38v350q0 18 -10.5 28t-31.5 10h-10v118h214v-218q38 31 74 41t85 10q84 0 122 -43t38 -127v-169q0 -38 41 -38h19v-118h-248v324q0 31 -13 45t-39 14q-28 0 -41 -13.5t-13 -45.5v-168q0 -38 33 -38
h14v-118h-286v118z" />
    <glyph glyph-name="Hbar" unicode="&#x126;" horiz-adv-x="691" 
d="M614 493v-5h62v-66h-62v-266q0 -40 41 -40h21v-116h-298v116h11q21 0 30.5 10t9.5 30v110h-168v-110q0 -40 41 -40h10v-116h-297v116h21q21 0 30.5 10t9.5 30v266h-61v66h61v5q0 37 -40 37h-21v117h297v-117h-11q-40 0 -40 -37v-5h168v2q0 20 -9.5 30t-30.5 10h-11v117
h298v-117h-21q-41 0 -41 -37zM429 422h-168v-40h168v40z" />
    <glyph glyph-name="hbar" unicode="&#x127;" horiz-adv-x="613" 
d="M15 118h10q42 0 42 38v357h-52v108h52v41h162v-41h125v-108h-125v-69q38 31 74 41t85 10q84 0 122 -43t38 -127v-169q0 -38 41 -38h19v-118h-248v324q0 31 -13 45t-39 14q-28 0 -41 -13.5t-13 -45.5v-168q0 -38 33 -38h14v-118h-286v118z" />
    <glyph glyph-name="Itilde" unicode="&#x128;" horiz-adv-x="337" 
d="M-26.5 837q31.5 45 102.5 45q28 0 48.5 -7.5t45.5 -20.5q3 -2 14.5 -7.5t21 -8t18.5 -2.5q43 0 43 46h125q0 -97 -29.5 -141t-100.5 -44q-30 0 -51.5 7.5t-47.5 20.5q-16 9 -28 13.5t-24 4.5q-21 0 -32.5 -12t-11.5 -34h-125q0 95 31.5 140zM15 116h20q22 0 31.5 10
t9.5 30v337q0 37 -41 37h-20v117h307v-117h-20q-41 0 -41 -37v-340q0 -37 41 -37h20v-116h-307v116z" />
    <glyph glyph-name="itilde" unicode="&#x129;" horiz-adv-x="322" 
d="M-52.5 660q31.5 45 102.5 45q28 0 48.5 -7.5t45.5 -20.5q3 -2 14.5 -7.5t21 -8t18.5 -2.5q43 0 43 46h125q0 -97 -29.5 -141t-100.5 -44q-30 0 -51.5 7.5t-47.5 20.5q-16 9 -28 13.5t-24 4.5q-21 0 -32.5 -12t-11.5 -34h-125q0 95 31.5 140zM5 118h21q22 0 31.5 10
t9.5 30v165q0 38 -41 38h-21v119h250v-324q0 -38 41 -38h21v-118h-312v118z" />
    <glyph glyph-name="Imacron" unicode="&#x12a;" horiz-adv-x="337" 
d="M10 822h317v-105h-317v105zM15 116h20q22 0 31.5 10t9.5 30v337q0 37 -41 37h-20v117h307v-117h-20q-41 0 -41 -37v-340q0 -37 41 -37h20v-116h-307v116z" />
    <glyph glyph-name="imacron" unicode="&#x12b;" horiz-adv-x="322" 
d="M-12 645h317v-105h-317v105zM5 118h21q22 0 31.5 10t9.5 30v165q0 38 -41 38h-21v119h250v-324q0 -38 41 -38h21v-118h-312v118z" />
    <glyph glyph-name="Ibreve" unicode="&#x12c;" horiz-adv-x="337" 
d="M29 741q-49 44 -49 119h153q0 -27 8 -41.5t27 -14.5q22 0 28.5 13.5t6.5 42.5h153q0 -75 -49 -119t-139 -44t-139 44zM15 116h20q22 0 31.5 10t9.5 30v337q0 37 -41 37h-20v117h307v-117h-20q-41 0 -41 -37v-340q0 -37 41 -37h20v-116h-307v116z" />
    <glyph glyph-name="ibreve" unicode="&#x12d;" horiz-adv-x="322" 
d="M17 564q-49 44 -49 119h153q0 -27 8 -41.5t27 -14.5q22 0 28.5 13.5t6.5 42.5h153q0 -75 -49 -119t-139 -44t-139 44zM5 118h21q22 0 31.5 10t9.5 30v165q0 38 -41 38h-21v119h250v-324q0 -38 41 -38h21v-118h-312v118z" />
    <glyph glyph-name="Iogonek" unicode="&#x12e;" horiz-adv-x="337" 
d="M261 493v-340q0 -37 41 -37h20v-116h-59q-26 -18 -37 -33t-11 -35q0 -14 7 -23t21 -9q18 0 32 8v-98q-23 -17 -47 -24t-59 -7q-48 0 -80 25.5t-32 77.5q0 35 15 68t40 50h-97v116h20q22 0 31.5 10t9.5 30v337q0 37 -41 37h-20v117h307v-117h-20q-41 0 -41 -37z" />
    <glyph glyph-name="iogonek" unicode="&#x12f;" horiz-adv-x="322" 
d="M255 544h-188v135h188v-135zM214 -33q-11 -15 -11 -35q0 -14 7 -23t21 -9q18 0 32 8v-98q-23 -17 -47 -24t-59 -7q-48 0 -80 25.5t-32 77.5q0 35 15 68t40 50h-95v118h21q22 0 31.5 10t9.5 30v165q0 38 -41 38h-21v119h250v-324q0 -38 41 -38h21v-118h-66
q-26 -18 -37 -33z" />
    <glyph glyph-name="Idotaccent" unicode="&#x130;" horiz-adv-x="337" 
d="M103 854h130v-137h-130v137zM15 116h20q22 0 31.5 10t9.5 30v337q0 37 -41 37h-20v117h307v-117h-20q-41 0 -41 -37v-340q0 -37 41 -37h20v-116h-307v116z" />
    <glyph glyph-name="dotlessi" unicode="&#x131;" horiz-adv-x="322" 
d="M5 118h21q22 0 31.5 10t9.5 30v165q0 38 -41 38h-21v119h250v-324q0 -38 41 -38h21v-118h-312v118z" />
    <glyph glyph-name="IJ" unicode="&#x132;" horiz-adv-x="821" 
d="M816 647v-117h-21q-40 0 -40 -37v-302q0 -97 -59 -152t-169 -55q-63 0 -116 17t-89 50v-51h-307v116h20q22 0 31.5 10t9.5 30v337q0 37 -41 37h-20v117h307v-117h-20q-41 0 -41 -37v-340q0 -36 39 -37v60h163v-54q10 -9 24.5 -15t27.5 -6q29 0 42 13.5t13 44.5v334
q0 37 -41 37h-21v117h308z" />
    <glyph glyph-name="ij" unicode="&#x133;" horiz-adv-x="668" 
d="M67 679h188v-135h-188v135zM405 679h188v-135h-188v135zM5 118h21q22 0 31.5 10t9.5 30v165q0 38 -41 38h-21v119h250v-324q0 -38 41 -38h21v-118h-312v118zM252.5 -163.5q-52.5 15.5 -86.5 42.5v111h148v-42q20 -16 46 -16q22 0 33.5 9.5t11.5 30.5v351q0 18 -10.5 28
t-30.5 10h-21v119h250v-483q0 -85 -55 -130.5t-169 -45.5q-64 0 -116.5 15.5z" />
    <glyph glyph-name="Jcircumflex" unicode="&#x134;" horiz-adv-x="516" 
d="M266 900h154l140 -203h-163l-55 107l-57 -107h-160zM79 7q-59 23 -94 67v102h163v-54q10 -9 24.5 -15t27.5 -6q29 0 42 13.5t13 44.5v334q0 37 -41 37h-21v117h308v-117h-21q-40 0 -40 -37v-302q0 -97 -59 -152t-169 -55q-74 0 -133 23z" />
    <glyph glyph-name="jcircumflex" unicode="&#x135;" horiz-adv-x="417" 
d="M185 723h154l140 -203h-163l-55 107l-57 -107h-160zM41.5 -163.5q-52.5 15.5 -86.5 42.5v111h148v-42q20 -16 46 -16q22 0 33.5 9.5t11.5 30.5v351q0 18 -10.5 28t-30.5 10h-21v119h250v-483q0 -85 -55 -130.5t-169 -45.5q-64 0 -116.5 15.5z" />
    <glyph glyph-name="Kcommaaccent" unicode="&#x136;" horiz-adv-x="670" 
d="M15 117h21q20 0 30.5 10t10.5 27v339q0 37 -41 37h-21v117h286v-117h-7q-16 0 -24.5 -10.5t-8.5 -26.5v-123l155 170h-40v107h272v-117h-34q-21 0 -31.5 -4t-19.5 -14l-135 -145l150 -230q7 -11 18.5 -16t28.5 -5h30v-116h-290v116h52l-94 146l-62 -67v-41
q0 -16 7.5 -26.5t23.5 -10.5h9v-117h-286v117zM249 -49h189l-71 -233h-153z" />
    <glyph glyph-name="kcommaaccent" unicode="&#x137;" horiz-adv-x="589" 
d="M15 109h21q17 0 23.5 7.5t6.5 25.5v380q0 18 -6.5 25.5t-23.5 7.5h-21v107h280v-107h-31q-17 0 -23.5 -7.5t-6.5 -25.5v-211l71 61h-33v108h290v-108h-57q-16 0 -25 -3t-17 -10l-66 -54l100 -178q11 -18 36 -18h51v-109h-181l-121 211l-48 -39v-30q0 -18 6.5 -25.5
t23.5 -7.5h31v-109h-280v109zM224 -49h189l-71 -233h-153z" />
    <glyph glyph-name="kgreenlandic" unicode="&#x138;" horiz-adv-x="599" 
d="M15 109h21q17 0 23.5 7.5t6.5 25.5v198q0 18 -6.5 25.5t-23.5 7.5h-21v107h258v-107h-9q-17 0 -23.5 -7.5t-6.5 -25.5v-29l71 62h-17v107h274v-107h-57q-16 0 -25 -3t-17 -10l-66 -55l100 -178q11 -18 36 -18h51v-109h-273v109h30l-59 102l-48 -39v-30q0 -18 6.5 -25.5
t23.5 -7.5h31v-109h-280v109z" />
    <glyph glyph-name="Lacute" unicode="&#x139;" horiz-adv-x="518" 
d="M128 879h196l-112 -182h-155zM15 116h21q41 0 41 40v337q0 37 -41 37h-21v117h308v-117h-21q-40 0 -40 -37v-377h62q41 0 41 40v43h168v-199h-518v116z" />
    <glyph glyph-name="lacute" unicode="&#x13a;" horiz-adv-x="332" 
d="M116 879h196l-112 -182h-155zM15 118h21q22 0 31.5 10t9.5 30v347q0 38 -41 38h-21v119h250v-506q0 -38 41 -38h21v-118h-312v118z" />
    <glyph glyph-name="Lcommaaccent" unicode="&#x13b;" horiz-adv-x="518" 
d="M15 116h21q41 0 41 40v337q0 37 -41 37h-21v117h308v-117h-21q-40 0 -40 -37v-377h62q41 0 41 40v43h168v-199h-518v116zM240 -49h189l-71 -233h-153z" />
    <glyph glyph-name="lcommaaccent" unicode="&#x13c;" horiz-adv-x="332" 
d="M15 118h21q22 0 31.5 10t9.5 30v347q0 38 -41 38h-21v119h250v-506q0 -38 41 -38h21v-118h-312v118zM81 -49h189l-71 -233h-153z" />
    <glyph glyph-name="Lcaron" unicode="&#x13d;" horiz-adv-x="550" 
d="M441 714h189l-71 -233h-153zM15 116h21q41 0 41 40v337q0 37 -41 37h-21v117h308v-117h-21q-40 0 -40 -37v-377h62q41 0 41 40v43h168v-199h-518v116z" />
    <glyph glyph-name="lcaron" unicode="&#x13e;" horiz-adv-x="481" 
d="M334 760h189l-71 -233h-153zM15 118h21q22 0 31.5 10t9.5 30v347q0 38 -41 38h-21v119h250v-506q0 -38 41 -38h21v-118h-312v118z" />
    <glyph glyph-name="Ldot" unicode="&#x13f;" horiz-adv-x="518" 
d="M15 116h21q41 0 41 40v337q0 37 -41 37h-21v117h308v-117h-21q-40 0 -40 -37v-377h62q41 0 41 40v43h168v-199h-518v116zM329 446h130v-137h-130v137z" />
    <glyph glyph-name="ldot" unicode="&#x140;" horiz-adv-x="429" 
d="M15 118h21q22 0 31.5 10t9.5 30v347q0 38 -41 38h-21v119h250v-506q0 -38 41 -38h21v-118h-312v118zM324 425h130v-137h-130v137z" />
    <glyph glyph-name="Lslash" unicode="&#x141;" horiz-adv-x="518" 
d="M533 199v-199h-518v116h21q41 0 41 40v57l-57 -33v122l57 33v158q0 37 -41 37h-21v117h308v-117h-21q-40 0 -40 -37v-51l70 40v-122l-70 -40v-204h62q41 0 41 40v43h168z" />
    <glyph glyph-name="lslash" unicode="&#x142;" horiz-adv-x="332" 
d="M15 118h21q22 0 31.5 10t9.5 30v67l-62 -36v122l62 36v158q0 38 -41 38h-21v119h250v-207l62 36v-122l-62 -36v-177q0 -38 41 -38h21v-118h-312v118z" />
    <glyph glyph-name="Nacute" unicode="&#x143;" horiz-adv-x="698" 
d="M319 879h196l-112 -182h-155zM15 117h21q40 0 40 37v339q0 37 -40 37h-21v117h196l227 -354v200q0 37 -41 37h-21v117h307v-117h-21q-41 0 -41 -37v-493h-135l-226 350v-196q0 -17 10.5 -27t30.5 -10h21v-117h-307v117z" />
    <glyph glyph-name="nacute" unicode="&#x144;" horiz-adv-x="613" 
d="M255 702h196l-112 -182h-155zM15 118h10q42 0 42 38v166q0 38 -39 38h-13v120h168l7 -64q65 79 184 79q90 0 132 -43.5t42 -126.5v-169q0 -38 41 -38h19v-118h-248v324q0 31 -13 45t-39 14q-28 0 -41 -13.5t-13 -45.5v-168q0 -19 7.5 -28.5t26.5 -9.5h13v-118h-286v118z
" />
    <glyph glyph-name="Ncommaaccent" unicode="&#x145;" horiz-adv-x="698" 
d="M15 117h21q40 0 40 37v339q0 37 -40 37h-21v117h196l227 -354v200q0 37 -41 37h-21v117h307v-117h-21q-41 0 -41 -37v-493h-135l-226 350v-196q0 -17 10.5 -27t30.5 -10h21v-117h-307v117zM323 -49h189l-71 -233h-153z" />
    <glyph glyph-name="ncommaaccent" unicode="&#x146;" horiz-adv-x="613" 
d="M15 118h10q42 0 42 38v166q0 38 -39 38h-13v120h168l7 -64q65 79 184 79q90 0 132 -43.5t42 -126.5v-169q0 -38 41 -38h19v-118h-248v324q0 31 -13 45t-39 14q-28 0 -41 -13.5t-13 -45.5v-168q0 -19 7.5 -28.5t26.5 -9.5h13v-118h-286v118zM291 -49h189l-71 -233h-153z
" />
    <glyph glyph-name="Ncaron" unicode="&#x147;" horiz-adv-x="698" 
d="M117 901h160l57 -108l55 108h163l-140 -204h-154zM15 117h21q40 0 40 37v339q0 37 -40 37h-21v117h196l227 -354v200q0 37 -41 37h-21v117h307v-117h-21q-41 0 -41 -37v-493h-135l-226 350v-196q0 -17 10.5 -27t30.5 -10h21v-117h-307v117z" />
    <glyph glyph-name="ncaron" unicode="&#x148;" horiz-adv-x="613" 
d="M78 724h160l57 -108l55 108h163l-140 -204h-154zM15 118h10q42 0 42 38v166q0 38 -39 38h-13v120h168l7 -64q65 79 184 79q90 0 132 -43.5t42 -126.5v-169q0 -38 41 -38h19v-118h-248v324q0 31 -13 45t-39 14q-28 0 -41 -13.5t-13 -45.5v-168q0 -19 7.5 -28.5t26.5 -9.5
h13v-118h-286v118z" />
    <glyph glyph-name="napostrophe" unicode="&#x149;" horiz-adv-x="809" 
d="M67 713h189l-71 -233h-153zM211 118h10q42 0 42 38v166q0 38 -39 38h-13v120h168l7 -64q65 79 184 79q90 0 132 -43.5t42 -126.5v-169q0 -38 41 -38h19v-118h-248v324q0 31 -13 45t-39 14q-28 0 -41 -13.5t-13 -45.5v-168q0 -19 7.5 -28.5t26.5 -9.5h13v-118h-286v118z
" />
    <glyph glyph-name="Eng" unicode="&#x14a;" horiz-adv-x="698" 
d="M280.5 -269.5q-52.5 15.5 -86.5 42.5v111h148v-42q20 -16 46 -16q22 0 33.5 9.5t11.5 30.5v216l-173 268v-196q0 -17 10.5 -27t30.5 -10h21v-117h-307v117h21q40 0 40 37v339q0 37 -40 37h-21v117h196l227 -354v200q0 37 -41 37h-21v117h307v-117h-21q-41 0 -41 -37v-602
q0 -85 -55 -130.5t-169 -45.5q-64 0 -116.5 15.5z" />
    <glyph glyph-name="eng" unicode="&#x14b;" horiz-adv-x="598" 
d="M207.5 -244.5q-52.5 15.5 -86.5 42.5v111h148v-42q20 -16 46 -16q22 0 33.5 9.5t11.5 30.5v433q0 31 -13 45t-39 14q-28 0 -41 -13.5t-13 -45.5v-168q0 -19 7.5 -28.5t26.5 -9.5h13v-118h-286v118h10q42 0 42 38v166q0 38 -39 38h-13v120h168l7 -64q65 79 184 79
q90 0 132 -43.5t42 -126.5v-409q0 -85 -55 -130.5t-169 -45.5q-64 0 -116.5 15.5z" />
    <glyph glyph-name="Omacron" unicode="&#x14c;" horiz-adv-x="670" 
d="M182 822h317v-105h-317v105zM94 68.5q-79 83.5 -79 252.5q0 172 77 256.5t243 84.5t243 -84.5t77 -256.5q0 -169 -79 -252.5t-241 -83.5t-241 83.5zM415.5 123.5q29.5 21.5 43 69t13.5 128.5q0 84 -13.5 132.5t-43 70t-80.5 21.5t-80.5 -21.5t-43 -70t-13.5 -132.5
q0 -81 13.5 -128.5t43 -69t80.5 -21.5t80.5 21.5z" />
    <glyph glyph-name="omacron" unicode="&#x14d;" horiz-adv-x="558" 
d="M122 645h317v-105h-317v105zM84.5 50q-69.5 65 -69.5 190q0 126 68 190.5t197 64.5q128 0 195.5 -64.5t67.5 -190.5q0 -125 -69 -190t-194 -65q-126 0 -195.5 65zM341.5 135.5q17.5 31.5 17.5 104.5q0 74 -17.5 105t-61.5 31q-45 0 -62 -30.5t-17 -105.5q0 -74 17 -105
t62 -31q44 0 61.5 31.5z" />
    <glyph glyph-name="Obreve" unicode="&#x14e;" horiz-adv-x="670" 
d="M200 741q-49 44 -49 119h153q0 -27 8 -41.5t27 -14.5q22 0 28.5 13.5t6.5 42.5h153q0 -75 -49 -119t-139 -44t-139 44zM94 68.5q-79 83.5 -79 252.5q0 172 77 256.5t243 84.5t243 -84.5t77 -256.5q0 -169 -79 -252.5t-241 -83.5t-241 83.5zM415.5 123.5q29.5 21.5 43 69
t13.5 128.5q0 84 -13.5 132.5t-43 70t-80.5 21.5t-80.5 -21.5t-43 -70t-13.5 -132.5q0 -81 13.5 -128.5t43 -69t80.5 -21.5t80.5 21.5z" />
    <glyph glyph-name="obreve" unicode="&#x14f;" horiz-adv-x="558" 
d="M140 564q-49 44 -49 119h153q0 -27 8 -41.5t27 -14.5q22 0 28.5 13.5t6.5 42.5h153q0 -75 -49 -119t-139 -44t-139 44zM84.5 50q-69.5 65 -69.5 190q0 126 68 190.5t197 64.5q128 0 195.5 -64.5t67.5 -190.5q0 -125 -69 -190t-194 -65q-126 0 -195.5 65zM341.5 135.5
q17.5 31.5 17.5 104.5q0 74 -17.5 105t-61.5 31q-45 0 -62 -30.5t-17 -105.5q0 -74 17 -105t62 -31q44 0 61.5 31.5z" />
    <glyph glyph-name="Ohungarumlaut" unicode="&#x150;" horiz-adv-x="670" 
d="M195 899h202l-128 -202h-164zM444 899h202l-128 -202h-163zM94 68.5q-79 83.5 -79 252.5q0 172 77 256.5t243 84.5t243 -84.5t77 -256.5q0 -169 -79 -252.5t-241 -83.5t-241 83.5zM415.5 123.5q29.5 21.5 43 69t13.5 128.5q0 84 -13.5 132.5t-43 70t-80.5 21.5
t-80.5 -21.5t-43 -70t-13.5 -132.5q0 -81 13.5 -128.5t43 -69t80.5 -21.5t80.5 21.5z" />
    <glyph glyph-name="ohungarumlaut" unicode="&#x151;" horiz-adv-x="558" 
d="M134 722h202l-128 -202h-164zM383 722h202l-128 -202h-163zM84.5 50q-69.5 65 -69.5 190q0 126 68 190.5t197 64.5q128 0 195.5 -64.5t67.5 -190.5q0 -125 -69 -190t-194 -65q-126 0 -195.5 65zM341.5 135.5q17.5 31.5 17.5 104.5q0 74 -17.5 105t-61.5 31
q-45 0 -62 -30.5t-17 -105.5q0 -74 17 -105t62 -31q44 0 61.5 31.5z" />
    <glyph glyph-name="OE" unicode="&#x152;" horiz-adv-x="798" 
d="M103 78q-88 78 -88 244q0 167 86 246t259 79h423v-168h-168v13q0 39 -41 39h-52v-150h105v-116h-105v-149h52q41 0 41 40v12h168v-168h-423q-169 0 -257 78zM337 533q-68 -3 -103.5 -50.5t-35.5 -160.5q0 -111 36 -159t103 -51v421z" />
    <glyph glyph-name="oe" unicode="&#x153;" horiz-adv-x="888" 
d="M452 42q-68 -57 -172 -57q-126 0 -195.5 65t-69.5 190q0 126 68 190.5t197 64.5q102 0 170 -55q69 55 170 55q124 0 188.5 -66.5t64.5 -177.5v-48h-331q0 -60 21 -85t74 -25q37 0 66 13v40h153v-89q-39 -36 -92 -54.5t-130 -18.5q-108 0 -182 58zM689 299
q0 41 -19.5 63.5t-53.5 22.5q-36 0 -55 -22.5t-19 -63.5h147zM341 134.5q18 30.5 18 105.5q0 74 -18 105t-61 31q-45 0 -62 -30.5t-17 -105.5q0 -74 17 -105t62 -31q43 0 61 30.5z" />
    <glyph glyph-name="Racute" unicode="&#x154;" horiz-adv-x="642" 
d="M274 879h196l-112 -182h-155zM15 116h21q41 0 41 37v340q0 37 -41 37h-21v117h359q115 0 180 -53t65 -157q0 -133 -123 -193l60 -101q8 -15 20.5 -21t34.5 -6h16v-116h-262v116h32l-62 105h-73v-73q0 -18 6.5 -25t23.5 -7h12v-116h-289v116zM348 337q47 0 67.5 24
t20.5 76t-20.5 72.5t-67.5 20.5h-86v-193h86z" />
    <glyph glyph-name="racute" unicode="&#x155;" horiz-adv-x="417" 
d="M139 702h196l-112 -182h-155zM15 118h11q41 0 41 38v168q0 18 -8.5 28t-29.5 10h-12v118h206l11 -48q17 25 49.5 36.5t63.5 11.5h65v-118h-94q-34 0 -48.5 -16t-14.5 -50v-140q0 -19 8.5 -28.5t28.5 -9.5h10v-118h-287v118z" />
    <glyph glyph-name="Rcommaaccent" unicode="&#x156;" horiz-adv-x="642" 
d="M15 116h21q41 0 41 37v340q0 37 -41 37h-21v117h359q115 0 180 -53t65 -157q0 -133 -123 -193l60 -101q8 -15 20.5 -21t34.5 -6h16v-116h-262v116h32l-62 105h-73v-73q0 -18 6.5 -25t23.5 -7h12v-116h-289v116zM348 337q47 0 67.5 24t20.5 76t-20.5 72.5t-67.5 20.5h-86
v-193h86zM224 -49h189l-71 -233h-153z" />
    <glyph glyph-name="rcommaaccent" unicode="&#x157;" horiz-adv-x="417" 
d="M15 118h11q41 0 41 38v168q0 18 -8.5 28t-29.5 10h-12v118h206l11 -48q17 25 49.5 36.5t63.5 11.5h65v-118h-94q-34 0 -48.5 -16t-14.5 -50v-140q0 -19 8.5 -28.5t28.5 -9.5h10v-118h-287v118zM138 -49h189l-71 -233h-153z" />
    <glyph glyph-name="Rcaron" unicode="&#x158;" horiz-adv-x="642" 
d="M84 901h160l57 -108l55 108h163l-140 -204h-154zM15 116h21q41 0 41 37v340q0 37 -41 37h-21v117h359q115 0 180 -53t65 -157q0 -133 -123 -193l60 -101q8 -15 20.5 -21t34.5 -6h16v-116h-262v116h32l-62 105h-73v-73q0 -18 6.5 -25t23.5 -7h12v-116h-289v116zM348 337
q47 0 67.5 24t20.5 76t-20.5 72.5t-67.5 20.5h-86v-193h86z" />
    <glyph glyph-name="rcaron" unicode="&#x159;" horiz-adv-x="417" 
d="M-15 724h160l57 -108l55 108h163l-140 -204h-154zM15 118h11q41 0 41 38v168q0 18 -8.5 28t-29.5 10h-12v118h206l11 -48q17 25 49.5 36.5t63.5 11.5h65v-118h-94q-34 0 -48.5 -16t-14.5 -50v-140q0 -19 8.5 -28.5t28.5 -9.5h10v-118h-287v118z" />
    <glyph glyph-name="Sacute" unicode="&#x15a;" horiz-adv-x="556" 
d="M260 879h196l-112 -182h-155zM15 72v125h186v-77q33 -18 84 -18q37 0 55 14.5t18 46.5q0 22 -13.5 37t-36.5 26.5t-79 35.5q-74 32 -118 60.5t-67.5 65.5t-23.5 90q0 90 75 137t190 47q85 0 142 -24t103 -66v-112h-186v68q-29 17 -69 17q-72 0 -72 -60q0 -25 17.5 -43.5
t39 -29t62.5 -27.5q90 -37 132 -60.5t64.5 -58.5t22.5 -93q0 -54 -29.5 -96.5t-87.5 -67t-139 -24.5q-165 0 -270 87z" />
    <glyph glyph-name="sacute" unicode="&#x15b;" horiz-adv-x="488" 
d="M211 702h196l-112 -182h-155zM116 0.5q-55 15.5 -101 51.5v89h166v-31q20 -14 50 -14q47 0 47 30q0 17 -11 25.5t-47 23.5q-18 7 -60 26q-49 23 -77 40.5t-46 44t-18 65.5q0 71 58 107.5t158 36.5q67 0 126 -17t103 -51v-83h-161v24q-21 15 -47 15q-42 0 -42 -32
q0 -15 15.5 -27t43.5 -23.5t58 -22.5q76 -29 109 -61.5t33 -90.5q0 -141 -229 -141q-73 0 -128 15.5z" />
    <glyph glyph-name="Scircumflex" unicode="&#x15c;" horiz-adv-x="556" 
d="M207 900h154l140 -203h-163l-55 107l-57 -107h-160zM15 72v125h186v-77q33 -18 84 -18q37 0 55 14.5t18 46.5q0 22 -13.5 37t-36.5 26.5t-79 35.5q-74 32 -118 60.5t-67.5 65.5t-23.5 90q0 90 75 137t190 47q85 0 142 -24t103 -66v-112h-186v68q-29 17 -69 17
q-72 0 -72 -60q0 -25 17.5 -43.5t39 -29t62.5 -27.5q90 -37 132 -60.5t64.5 -58.5t22.5 -93q0 -54 -29.5 -96.5t-87.5 -67t-139 -24.5q-165 0 -270 87z" />
    <glyph glyph-name="scircumflex" unicode="&#x15d;" horiz-adv-x="488" 
d="M164 723h154l140 -203h-163l-55 107l-57 -107h-160zM116 0.5q-55 15.5 -101 51.5v89h166v-31q20 -14 50 -14q47 0 47 30q0 17 -11 25.5t-47 23.5q-18 7 -60 26q-49 23 -77 40.5t-46 44t-18 65.5q0 71 58 107.5t158 36.5q67 0 126 -17t103 -51v-83h-161v24q-21 15 -47 15
q-42 0 -42 -32q0 -15 15.5 -27t43.5 -23.5t58 -22.5q76 -29 109 -61.5t33 -90.5q0 -141 -229 -141q-73 0 -128 15.5z" />
    <glyph glyph-name="Scedilla" unicode="&#x15e;" horiz-adv-x="556" 
d="M494.5 56q-46.5 -49 -132.5 -65l-5 -27q74 -16 74 -87q0 -105 -166 -105q-33 0 -57.5 4.5t-49.5 15.5v95q38 -20 84 -20q31 0 31 19t-19 28t-72 9l10 70q-104 18 -177 79v125h186v-77q33 -18 84 -18q37 0 55 14.5t18 46.5q0 22 -13.5 37t-36.5 26.5t-79 35.5
q-74 32 -118 60.5t-67.5 65.5t-23.5 90q0 90 75 137t190 47q85 0 142 -24t103 -66v-112h-186v68q-29 17 -69 17q-72 0 -72 -60q0 -25 17.5 -43.5t39 -29t62.5 -27.5q90 -37 132 -60.5t64.5 -58.5t22.5 -93q0 -68 -46.5 -117z" />
    <glyph glyph-name="scedilla" unicode="&#x15f;" horiz-adv-x="488" 
d="M339 -7l-5 -29q74 -16 74 -87q0 -105 -166 -105q-33 0 -57.5 4.5t-49.5 15.5v95q38 -20 84 -20q31 0 31 19t-19 28t-72 9l10 67q-90 12 -154 62v89h166v-31q20 -14 50 -14q47 0 47 30q0 17 -11 25.5t-47 23.5q-18 7 -60 26q-49 23 -77 40.5t-46 44t-18 65.5
q0 71 58 107.5t158 36.5q67 0 126 -17t103 -51v-83h-161v24q-21 15 -47 15q-42 0 -42 -32q0 -15 15.5 -27t43.5 -23.5t58 -22.5q76 -29 109 -61.5t33 -90.5q0 -108 -134 -133z" />
    <glyph glyph-name="Scaron" unicode="&#x160;" horiz-adv-x="556" 
d="M67 901h160l57 -108l55 108h163l-140 -204h-154zM15 72v125h186v-77q33 -18 84 -18q37 0 55 14.5t18 46.5q0 22 -13.5 37t-36.5 26.5t-79 35.5q-74 32 -118 60.5t-67.5 65.5t-23.5 90q0 90 75 137t190 47q85 0 142 -24t103 -66v-112h-186v68q-29 17 -69 17q-72 0 -72 -60
q0 -25 17.5 -43.5t39 -29t62.5 -27.5q90 -37 132 -60.5t64.5 -58.5t22.5 -93q0 -54 -29.5 -96.5t-87.5 -67t-139 -24.5q-165 0 -270 87z" />
    <glyph glyph-name="scaron" unicode="&#x161;" horiz-adv-x="488" 
d="M18 724h160l57 -108l55 108h163l-140 -204h-154zM116 0.5q-55 15.5 -101 51.5v89h166v-31q20 -14 50 -14q47 0 47 30q0 17 -11 25.5t-47 23.5q-18 7 -60 26q-49 23 -77 40.5t-46 44t-18 65.5q0 71 58 107.5t158 36.5q67 0 126 -17t103 -51v-83h-161v24q-21 15 -47 15
q-42 0 -42 -32q0 -15 15.5 -27t43.5 -23.5t58 -22.5q76 -29 109 -61.5t33 -90.5q0 -141 -229 -141q-73 0 -128 15.5z" />
    <glyph glyph-name="uni0162" unicode="&#x162;" horiz-adv-x="633" 
d="M628 644v-199h-126v44q0 39 -41 39h-52v-374q0 -17 10.5 -27t30.5 -10h21v-117h-84l-6 -36q74 -16 74 -87q0 -105 -166 -105q-33 0 -57.5 4.5t-49.5 15.5v95q38 -20 84 -20q31 0 31 19t-19 28t-72 9l11 77h-54v117h21q40 0 40 37v374h-52q-41 0 -41 -39v-44h-126v199h623
z" />
    <glyph glyph-name="uni0163" unicode="&#x163;" horiz-adv-x="488" 
d="M361 -9l-4 -27q74 -16 74 -87q0 -105 -166 -105q-33 0 -57.5 4.5t-49.5 15.5v95q38 -20 84 -20q31 0 31 19t-19 28t-72 9l11 76q-117 35 -117 162v207h-71v112h71v94l187 49v-143h125v-112h-125v-224q0 -26 11.5 -37t34.5 -11q28 0 45 17v42h149v-101q-65 -50 -142 -63z
" />
    <glyph glyph-name="Tcaron" unicode="&#x164;" horiz-adv-x="633" 
d="M100 901h160l57 -108l55 108h163l-140 -204h-154zM163 117h21q40 0 40 37v374h-52q-41 0 -41 -39v-44h-126v199h623v-199h-126v44q0 39 -41 39h-52v-374q0 -17 10.5 -27t30.5 -10h21v-117h-308v117z" />
    <glyph glyph-name="tcaron" unicode="&#x165;" horiz-adv-x="492" 
d="M341 753h189l-71 -233h-153zM131 30.5q-55 45.5 -55 130.5v207h-71v112h71v94l187 49v-143h125v-112h-125v-224q0 -26 11.5 -37t34.5 -11q28 0 45 17v42h149v-101q-88 -69 -204 -69q-113 0 -168 45.5z" />
    <glyph glyph-name="Tbar" unicode="&#x166;" horiz-adv-x="633" 
d="M502 445v44q0 39 -41 39h-52v-173h115v-105h-115v-96q0 -17 10.5 -27t30.5 -10h21v-117h-308v117h21q40 0 40 37v96h-73v105h73v173h-52q-41 0 -41 -39v-44h-126v199h623v-199h-126z" />
    <glyph glyph-name="tbar" unicode="&#x167;" horiz-adv-x="488" 
d="M503 155v-101q-88 -69 -204 -69q-113 0 -168 45.5t-55 130.5v41h-71v111h71v55h-71v112h71v94l187 49v-143h125v-112h-125v-55h125v-111h-125v-58q0 -26 11.5 -37t34.5 -11q28 0 45 17v42h149z" />
    <glyph glyph-name="Utilde" unicode="&#x168;" horiz-adv-x="680" 
d="M134.5 837q31.5 45 102.5 45q28 0 48.5 -7.5t45.5 -20.5q3 -2 14.5 -7.5t21 -8t18.5 -2.5q43 0 43 46h125q0 -97 -29.5 -141t-100.5 -44q-30 0 -51.5 7.5t-47.5 20.5q-16 9 -28 13.5t-24 4.5q-21 0 -32.5 -12t-11.5 -34h-125q0 95 31.5 140zM134.5 39.5
q-68.5 54.5 -68.5 150.5v303q0 37 -41 37h-20v117h297v-117h-10q-21 0 -31 -9.5t-10 -30.5v-306q0 -44 22 -63t67 -19t66.5 19t21.5 63v306q0 20 -9.5 30t-30.5 10h-11v117h298v-117h-21q-41 0 -41 -37v-303q0 -96 -68.5 -150.5t-204.5 -54.5q-137 0 -205.5 54.5z" />
    <glyph glyph-name="utilde" unicode="&#x169;" horiz-adv-x="603" 
d="M89.5 660q31.5 45 102.5 45q28 0 48.5 -7.5t45.5 -20.5q3 -2 14.5 -7.5t21 -8t18.5 -2.5q43 0 43 46h125q0 -97 -29.5 -141t-100.5 -44q-30 0 -51.5 7.5t-47.5 20.5q-16 9 -28 13.5t-24 4.5q-21 0 -32.5 -12t-11.5 -34h-125q0 95 31.5 140zM107 27.5q-42 43.5 -42 126.5
v170q0 38 -41 38h-19v118h248v-325q0 -32 13 -46t39 -14q28 0 41 14t13 46v169q0 19 -6.5 28.5t-24.5 9.5h-16v118h234v-323q0 -38 42 -38h10v-119h-168l-7 61q-39 -42 -81 -59.5t-103 -17.5q-90 0 -132 43.5z" />
    <glyph glyph-name="Umacron" unicode="&#x16a;" horiz-adv-x="680" 
d="M163 822h317v-105h-317v105zM134.5 39.5q-68.5 54.5 -68.5 150.5v303q0 37 -41 37h-20v117h297v-117h-10q-21 0 -31 -9.5t-10 -30.5v-306q0 -44 22 -63t67 -19t66.5 19t21.5 63v306q0 20 -9.5 30t-30.5 10h-11v117h298v-117h-21q-41 0 -41 -37v-303q0 -96 -68.5 -150.5
t-204.5 -54.5q-137 0 -205.5 54.5z" />
    <glyph glyph-name="umacron" unicode="&#x16b;" horiz-adv-x="603" 
d="M124 645h317v-105h-317v105zM107 27.5q-42 43.5 -42 126.5v170q0 38 -41 38h-19v118h248v-325q0 -32 13 -46t39 -14q28 0 41 14t13 46v169q0 19 -6.5 28.5t-24.5 9.5h-16v118h234v-323q0 -38 42 -38h10v-119h-168l-7 61q-39 -42 -81 -59.5t-103 -17.5q-90 0 -132 43.5z
" />
    <glyph glyph-name="Ubreve" unicode="&#x16c;" horiz-adv-x="680" 
d="M200 741q-49 44 -49 119h153q0 -27 8 -41.5t27 -14.5q22 0 28.5 13.5t6.5 42.5h153q0 -75 -49 -119t-139 -44t-139 44zM134.5 39.5q-68.5 54.5 -68.5 150.5v303q0 37 -41 37h-20v117h297v-117h-10q-21 0 -31 -9.5t-10 -30.5v-306q0 -44 22 -63t67 -19t66.5 19t21.5 63
v306q0 20 -9.5 30t-30.5 10h-11v117h298v-117h-21q-41 0 -41 -37v-303q0 -96 -68.5 -150.5t-204.5 -54.5q-137 0 -205.5 54.5z" />
    <glyph glyph-name="ubreve" unicode="&#x16d;" horiz-adv-x="603" 
d="M143 584q-49 44 -49 119h153q0 -27 8 -41.5t27 -14.5q22 0 28.5 13.5t6.5 42.5h153q0 -75 -49 -119t-139 -44t-139 44zM107 27.5q-42 43.5 -42 126.5v170q0 38 -41 38h-19v118h248v-325q0 -32 13 -46t39 -14q28 0 41 14t13 46v169q0 19 -6.5 28.5t-24.5 9.5h-16v118h234
v-323q0 -38 42 -38h10v-119h-168l-7 61q-39 -42 -81 -59.5t-103 -17.5q-90 0 -132 43.5z" />
    <glyph glyph-name="Uring" unicode="&#x16e;" horiz-adv-x="680" 
d="M252.5 732.5q-35.5 35.5 -35.5 86.5t35.5 86.5t86.5 35.5t86.5 -35.5t35.5 -86.5t-35.5 -86.5t-86.5 -35.5t-86.5 35.5zM364.5 793.5q10.5 10.5 10.5 25.5t-10.5 25.5t-25.5 10.5t-25.5 -10.5t-10.5 -25.5t10.5 -25.5t25.5 -10.5t25.5 10.5zM134.5 39.5
q-68.5 54.5 -68.5 150.5v303q0 37 -41 37h-20v117h297v-117h-10q-21 0 -31 -9.5t-10 -30.5v-306q0 -44 22 -63t67 -19t66.5 19t21.5 63v306q0 20 -9.5 30t-30.5 10h-11v117h298v-117h-21q-41 0 -41 -37v-303q0 -96 -68.5 -150.5t-204.5 -54.5q-137 0 -205.5 54.5z" />
    <glyph glyph-name="uring" unicode="&#x16f;" horiz-adv-x="603" 
d="M189.5 555.5q-35.5 35.5 -35.5 86.5t35.5 86.5t86.5 35.5t86.5 -35.5t35.5 -86.5t-35.5 -86.5t-86.5 -35.5t-86.5 35.5zM301.5 616.5q10.5 10.5 10.5 25.5t-10.5 25.5t-25.5 10.5t-25.5 -10.5t-10.5 -25.5t10.5 -25.5t25.5 -10.5t25.5 10.5zM107 27.5q-42 43.5 -42 126.5
v170q0 38 -41 38h-19v118h248v-325q0 -32 13 -46t39 -14q28 0 41 14t13 46v169q0 19 -6.5 28.5t-24.5 9.5h-16v118h234v-323q0 -38 42 -38h10v-119h-168l-7 61q-39 -42 -81 -59.5t-103 -17.5q-90 0 -132 43.5z" />
    <glyph glyph-name="Uhungarumlaut" unicode="&#x170;" horiz-adv-x="680" 
d="M187 899h202l-128 -202h-164zM436 899h202l-128 -202h-163zM134.5 39.5q-68.5 54.5 -68.5 150.5v303q0 37 -41 37h-20v117h297v-117h-10q-21 0 -31 -9.5t-10 -30.5v-306q0 -44 22 -63t67 -19t66.5 19t21.5 63v306q0 20 -9.5 30t-30.5 10h-11v117h298v-117h-21
q-41 0 -41 -37v-303q0 -96 -68.5 -150.5t-204.5 -54.5q-137 0 -205.5 54.5z" />
    <glyph glyph-name="uhungarumlaut" unicode="&#x171;" horiz-adv-x="603" 
d="M135 722h202l-128 -202h-164zM384 722h202l-128 -202h-163zM107 27.5q-42 43.5 -42 126.5v170q0 38 -41 38h-19v118h248v-325q0 -32 13 -46t39 -14q28 0 41 14t13 46v169q0 19 -6.5 28.5t-24.5 9.5h-16v118h234v-323q0 -38 42 -38h10v-119h-168l-7 61q-39 -42 -81 -59.5
t-103 -17.5q-90 0 -132 43.5z" />
    <glyph glyph-name="Uogonek" unicode="&#x172;" horiz-adv-x="680" 
d="M675 647v-117h-21q-41 0 -41 -37v-303q0 -80 -48 -132t-144 -67q-19 -14 -27.5 -28t-8.5 -31q0 -14 7 -23t21 -9q18 0 32 8v-98q-23 -17 -47 -24t-59 -7q-48 0 -80 25.5t-32 77.5q0 30 11.5 59t30.5 48q-102 14 -152.5 66.5t-50.5 134.5v303q0 37 -41 37h-20v117h297
v-117h-10q-21 0 -31 -9.5t-10 -30.5v-306q0 -44 22 -63t67 -19t66.5 19t21.5 63v306q0 20 -9.5 30t-30.5 10h-11v117h298z" />
    <glyph glyph-name="uogonek" unicode="&#x173;" horiz-adv-x="603" 
d="M544 -33q-11 -15 -11 -35q0 -14 7 -23t21 -9q18 0 32 8v-98q-23 -17 -47 -24t-59 -7q-48 0 -80 25.5t-32 77.5q0 35 15 68t40 50l-7 61q-39 -42 -81 -59.5t-103 -17.5q-90 0 -132 43.5t-42 126.5v170q0 38 -41 38h-19v118h248v-325q0 -32 13 -46t39 -14q28 0 41 14t13 46
v169q0 19 -6.5 28.5t-24.5 9.5h-16v118h234v-323q0 -38 42 -38h10v-119h-17q-26 -18 -37 -33z" />
    <glyph glyph-name="Wcircumflex" unicode="&#x174;" horiz-adv-x="846" 
d="M347 900h154l140 -203h-163l-55 107l-57 -107h-160zM93 480q-7 31 -21.5 40.5t-49.5 9.5h-7v117h210l66 -319l68 210h128l68 -210l66 319h210v-117h-7q-35 0 -49.5 -9.5t-21.5 -40.5l-106 -480h-147l-77 218l-77 -218h-147z" />
    <glyph glyph-name="wcircumflex" unicode="&#x175;" horiz-adv-x="754" 
d="M301 723h154l140 -203h-163l-55 107l-57 -107h-160zM76 336q-5 20 -16.5 27.5t-33.5 7.5h-21v109h195l56 -244l60 201h122l60 -201l56 244h195v-109h-21q-21 0 -33 -7.5t-17 -27.5l-81 -336h-153l-67 211l-67 -211h-153z" />
    <glyph glyph-name="Ycircumflex" unicode="&#x176;" horiz-adv-x="670" 
d="M260 900h154l140 -203h-163l-55 107l-57 -107h-160zM181 116h21q41 0 41 40v87l-132 243q-15 27 -29.5 36.5t-44.5 9.5h-22v115h289v-115h-28l61 -142l57 142h-28v115h289v-115h-22q-30 0 -45 -10t-30 -37l-131 -243v-89q0 -37 41 -37h21v-116h-308v116z" />
    <glyph glyph-name="ycircumflex" unicode="&#x177;" horiz-adv-x="592" 
d="M220 723h154l140 -203h-163l-55 107l-57 -107h-160zM194 -181q-57 19 -94 54v81h153v-26q13 -13 28.5 -18.5t38.5 -5.5q66 0 66 76v45q-26 -9 -55.5 -14.5t-49.5 -5.5q-100 0 -157.5 47t-57.5 131v141q0 18 -10.5 28t-31.5 10h-19v118h248v-305q0 -61 59 -61
q30 0 44 13.5t14 44.5v152q0 20 -6.5 29t-26.5 9h-14v118h234v-451q0 -69 -28.5 -120.5t-81 -80t-124.5 -28.5t-129 19z" />
    <glyph glyph-name="Ydieresis" unicode="&#x178;" horiz-adv-x="670" 
d="M148 854h128v-137h-128v137zM398 854h129v-137h-129v137zM181 116h21q41 0 41 40v87l-132 243q-15 27 -29.5 36.5t-44.5 9.5h-22v115h289v-115h-28l61 -142l57 142h-28v115h289v-115h-22q-30 0 -45 -10t-30 -37l-131 -243v-89q0 -37 41 -37h21v-116h-308v116z" />
    <glyph glyph-name="Zacute" unicode="&#x179;" horiz-adv-x="572" 
d="M241 879h196l-112 -182h-155zM15 91l312 440h-99q-41 0 -41 -39v-13h-168v168h518v-90l-300 -441h111q41 0 41 40v12h168v-168h-542v91z" />
    <glyph glyph-name="zacute" unicode="&#x17a;" horiz-adv-x="513" 
d="M239 702h196l-112 -182h-155zM15 77l245 285h-93q-41 0 -41 -40v-12h-108v170h470v-80l-242 -282h102q42 0 42 40v11h108v-169h-483v77z" />
    <glyph glyph-name="Zdotaccent" unicode="&#x17b;" horiz-adv-x="572" 
d="M228 834h130v-137h-130v137zM15 91l312 440h-99q-41 0 -41 -39v-13h-168v168h518v-90l-300 -441h111q41 0 41 40v12h168v-168h-542v91z" />
    <glyph glyph-name="zdotaccent" unicode="&#x17c;" horiz-adv-x="513" 
d="M194 677h130v-137h-130v137zM15 77l245 285h-93q-41 0 -41 -40v-12h-108v170h470v-80l-242 -282h102q42 0 42 40v11h108v-169h-483v77z" />
    <glyph glyph-name="Zcaron" unicode="&#x17d;" horiz-adv-x="572" 
d="M73 901h160l57 -108l55 108h163l-140 -204h-154zM15 91l312 440h-99q-41 0 -41 -39v-13h-168v168h518v-90l-300 -441h111q41 0 41 40v12h168v-168h-542v91z" />
    <glyph glyph-name="zcaron" unicode="&#x17e;" horiz-adv-x="513" 
d="M38 724h160l57 -108l55 108h163l-140 -204h-154zM15 77l245 285h-93q-41 0 -41 -40v-12h-108v170h470v-80l-242 -282h102q42 0 42 40v11h108v-169h-483v77z" />
    <glyph glyph-name="uni018F" unicode="&#x18f;" horiz-adv-x="686" 
d="M161.5 26.5q-74.5 41.5 -110.5 113.5t-36 163v84h473q0 76 -41 117t-114 41q-63 0 -109 -16v-74h-189v117q62 47 135.5 68.5t162.5 21.5q153 0 245.5 -81.5t92.5 -245.5q0 -173 -81 -261.5t-243 -88.5q-111 0 -185.5 41.5zM488 267h-282q0 -77 36.5 -121t104.5 -44
q141 0 141 165z" />
    <glyph glyph-name="florin" unicode="&#x192;" horiz-adv-x="657" 
d="M-99 -143q-51 16 -80 42l23 106h143l-9 -40q14 -13 42 -13q23 0 37 9.5t18 31.5l80 371h-71l25 116h71l3 21q13 90 76.5 133t179.5 43q63 0 113.5 -16t79.5 -42l-23 -106h-143l8 38q-11 15 -39 15q-26 0 -41 -9.5t-19 -31.5l-9 -45h126l-25 -116h-126l-74 -347
q-13 -59 -39.5 -97t-77.5 -58.5t-135 -20.5q-63 0 -114 16z" />
    <glyph glyph-name="Ohorn" unicode="&#x1a0;" horiz-adv-x="739" 
d="M94 68.5q-79 83.5 -79 252.5q0 172 77 256.5t243 84.5q146 0 225 -68q23 17 23 54v41h176v-42q0 -62 -30 -102.5t-98 -59.5q24 -69 24 -164q0 -169 -79 -252.5t-241 -83.5t-241 83.5zM415.5 123.5q29.5 21.5 43 69t13.5 128.5q0 84 -13.5 132.5t-43 70t-80.5 21.5
t-80.5 -21.5t-43 -70t-13.5 -132.5q0 -81 13.5 -128.5t43 -69t80.5 -21.5t80.5 21.5z" />
    <glyph glyph-name="ohorn" unicode="&#x1a1;" horiz-adv-x="636" 
d="M84.5 50q-69.5 65 -69.5 190q0 126 68 190.5t197 64.5q113 0 178 -50q22 16 22 52v41h176v-42q0 -61 -29.5 -101.5t-95.5 -59.5q12 -42 12 -95q0 -125 -69 -190t-194 -65q-126 0 -195.5 65zM341.5 135.5q17.5 31.5 17.5 104.5q0 74 -17.5 105t-61.5 31q-45 0 -62 -30.5
t-17 -105.5q0 -74 17 -105t62 -31q44 0 61.5 31.5z" />
    <glyph glyph-name="Uhorn" unicode="&#x1af;" horiz-adv-x="799" 
d="M134.5 39.5q-68.5 54.5 -68.5 150.5v303q0 37 -41 37h-20v117h297v-117h-10q-21 0 -31 -9.5t-10 -30.5v-306q0 -44 22 -63t67 -19t66.5 19t21.5 63v306q0 20 -9.5 30t-30.5 10h-11v117h236v-50q16 4 23 16t7 35v41h176v-42q0 -77 -47.5 -121.5t-158.5 -53.5v-282
q0 -96 -68.5 -150.5t-204.5 -54.5q-137 0 -205.5 54.5z" />
    <glyph glyph-name="uhorn" unicode="&#x1b0;" horiz-adv-x="726" 
d="M107 27.5q-42 43.5 -42 126.5v170q0 38 -41 38h-19v118h248v-325q0 -32 13 -46t39 -14q28 0 41 14t13 46v169q0 19 -6.5 28.5t-24.5 9.5h-16v118h234v-32q13 5 18.5 16.5t5.5 32.5v41h176v-42q0 -76 -46 -120.5t-154 -54.5v-164q0 -38 42 -38h10v-119h-168l-7 61
q-39 -42 -81 -59.5t-103 -17.5q-90 0 -132 43.5z" />
    <glyph glyph-name="uni01CD" unicode="&#x1cd;" horiz-adv-x="712" 
d="M141 900h160l57 -108l55 108h163l-140 -204h-154zM15 116h24q28 0 38.5 6t18.5 28l171 497h181l168 -497q8 -22 18.5 -28t38.5 -6h24v-116h-292v116h38l-21 73h-130l-22 -73h38v-116h-293v116zM396 280l-37 133l-40 -133h77z" />
    <glyph glyph-name="uni01CE" unicode="&#x1ce;" horiz-adv-x="530" 
d="M50 724h160l57 -108l55 108h163l-140 -204h-154zM49.5 21.5q-44.5 36.5 -44.5 101.5q0 75 50.5 112.5t150.5 44.5l88 6v53q0 44 -46 44q-26 0 -45 -20v-33h-154v106q95 59 209 59q111 0 167 -48t56 -128v-172q0 -35 32 -35h12v-112h-143l-15 67q-38 -45 -78 -63.5
t-106 -18.5q-89 0 -133.5 36.5zM294 159v34l-67 -6q-54 -4 -54 -47q0 -20 13.5 -31.5t38.5 -11.5q69 0 69 62z" />
    <glyph glyph-name="uni01CF" unicode="&#x1cf;" horiz-adv-x="337" 
d="M-49 901h160l57 -108l55 108h163l-140 -204h-154zM15 116h20q22 0 31.5 10t9.5 30v337q0 37 -41 37h-20v117h307v-117h-20q-41 0 -41 -37v-340q0 -37 41 -37h20v-116h-307v116z" />
    <glyph glyph-name="uni01D0" unicode="&#x1d0;" horiz-adv-x="322" 
d="M-69 724h160l57 -108l55 108h163l-140 -204h-154zM5 118h21q22 0 31.5 10t9.5 30v165q0 38 -41 38h-21v119h250v-324q0 -38 41 -38h21v-118h-312v118z" />
    <glyph glyph-name="uni01D1" unicode="&#x1d1;" horiz-adv-x="670" 
d="M117 901h160l57 -108l55 108h163l-140 -204h-154zM94 68.5q-79 83.5 -79 252.5q0 172 77 256.5t243 84.5t243 -84.5t77 -256.5q0 -169 -79 -252.5t-241 -83.5t-241 83.5zM415.5 123.5q29.5 21.5 43 69t13.5 128.5q0 84 -13.5 132.5t-43 70t-80.5 21.5t-80.5 -21.5
t-43 -70t-13.5 -132.5q0 -81 13.5 -128.5t43 -69t80.5 -21.5t80.5 21.5z" />
    <glyph glyph-name="uni01D2" unicode="&#x1d2;" horiz-adv-x="558" 
d="M65 724h160l57 -108l55 108h163l-140 -204h-154zM84.5 50q-69.5 65 -69.5 190q0 126 68 190.5t197 64.5q128 0 195.5 -64.5t67.5 -190.5q0 -125 -69 -190t-194 -65q-126 0 -195.5 65zM341.5 135.5q17.5 31.5 17.5 104.5q0 74 -17.5 105t-61.5 31q-45 0 -62 -30.5
t-17 -105.5q0 -74 17 -105t62 -31q44 0 61.5 31.5z" />
    <glyph glyph-name="uni01D3" unicode="&#x1d3;" horiz-adv-x="680" 
d="M121 901h160l57 -108l55 108h163l-140 -204h-154zM134.5 39.5q-68.5 54.5 -68.5 150.5v303q0 37 -41 37h-20v117h297v-117h-10q-21 0 -31 -9.5t-10 -30.5v-306q0 -44 22 -63t67 -19t66.5 19t21.5 63v306q0 20 -9.5 30t-30.5 10h-11v117h298v-117h-21q-41 0 -41 -37v-303
q0 -96 -68.5 -150.5t-204.5 -54.5q-137 0 -205.5 54.5z" />
    <glyph glyph-name="uni01D4" unicode="&#x1d4;" horiz-adv-x="603" 
d="M74 724h160l57 -108l55 108h163l-140 -204h-154zM107 27.5q-42 43.5 -42 126.5v170q0 38 -41 38h-19v118h248v-325q0 -32 13 -46t39 -14q28 0 41 14t13 46v169q0 19 -6.5 28.5t-24.5 9.5h-16v118h234v-323q0 -38 42 -38h10v-119h-168l-7 61q-39 -42 -81 -59.5t-103 -17.5
q-90 0 -132 43.5z" />
    <glyph glyph-name="uni01D5" unicode="&#x1d5;" horiz-adv-x="680" 
d="M182 972h317v-105h-317v105zM150 834h128v-137h-128v137zM400 834h129v-137h-129v137zM134.5 39.5q-68.5 54.5 -68.5 150.5v303q0 37 -41 37h-20v117h297v-117h-10q-21 0 -31 -9.5t-10 -30.5v-306q0 -44 22 -63t67 -19t66.5 19t21.5 63v306q0 20 -9.5 30t-30.5 10h-11
v117h298v-117h-21q-41 0 -41 -37v-303q0 -96 -68.5 -150.5t-204.5 -54.5q-137 0 -205.5 54.5z" />
    <glyph glyph-name="uni01D6" unicode="&#x1d6;" horiz-adv-x="603" 
d="M134 792h317v-105h-317v105zM103 656h128v-137h-128v137zM353 656h129v-137h-129v137zM107 27.5q-42 43.5 -42 126.5v170q0 38 -41 38h-19v118h248v-325q0 -32 13 -46t39 -14q28 0 41 14t13 46v169q0 19 -6.5 28.5t-24.5 9.5h-16v118h234v-323q0 -38 42 -38h10v-119h-168
l-7 61q-39 -42 -81 -59.5t-103 -17.5q-90 0 -132 43.5z" />
    <glyph glyph-name="uni01D7" unicode="&#x1d7;" horiz-adv-x="680" 
d="M323 1001h175l-104 -151h-131zM145 825h128v-128h-128v128zM395 825h129v-128h-129v128zM134.5 39.5q-68.5 54.5 -68.5 150.5v303q0 37 -41 37h-20v117h297v-117h-10q-21 0 -31 -9.5t-10 -30.5v-306q0 -44 22 -63t67 -19t66.5 19t21.5 63v306q0 20 -9.5 30t-30.5 10h-11
v117h298v-117h-21q-41 0 -41 -37v-303q0 -96 -68.5 -150.5t-204.5 -54.5q-137 0 -205.5 54.5z" />
    <glyph glyph-name="uni01D8" unicode="&#x1d8;" horiz-adv-x="603" 
d="M277 824h175l-104 -151h-131zM99 648h128v-128h-128v128zM349 648h129v-128h-129v128zM107 27.5q-42 43.5 -42 126.5v170q0 38 -41 38h-19v118h248v-325q0 -32 13 -46t39 -14q28 0 41 14t13 46v169q0 19 -6.5 28.5t-24.5 9.5h-16v118h234v-323q0 -38 42 -38h10v-119h-168
l-7 61q-39 -42 -81 -59.5t-103 -17.5q-90 0 -132 43.5z" />
    <glyph glyph-name="uni01D9" unicode="&#x1d9;" horiz-adv-x="680" 
d="M148 995h147l45 -69l40 69h150l-117 -151h-147zM149 824h129v-128h-129v128zM400 824h128v-128h-128v128zM134.5 39.5q-68.5 54.5 -68.5 150.5v303q0 37 -41 37h-20v117h297v-117h-10q-21 0 -31 -9.5t-10 -30.5v-306q0 -44 22 -63t67 -19t66.5 19t21.5 63v306
q0 20 -9.5 30t-30.5 10h-11v117h298v-117h-21q-41 0 -41 -37v-303q0 -96 -68.5 -150.5t-204.5 -54.5q-137 0 -205.5 54.5z" />
    <glyph glyph-name="uni01DA" unicode="&#x1da;" horiz-adv-x="603" 
d="M97 819h147l45 -69l40 69h150l-117 -151h-147zM98 648h129v-128h-129v128zM349 648h128v-128h-128v128zM107 27.5q-42 43.5 -42 126.5v170q0 38 -41 38h-19v118h248v-325q0 -32 13 -46t39 -14q28 0 41 14t13 46v169q0 19 -6.5 28.5t-24.5 9.5h-16v118h234v-323
q0 -38 42 -38h10v-119h-168l-7 61q-39 -42 -81 -59.5t-103 -17.5q-90 0 -132 43.5z" />
    <glyph glyph-name="uni01DB" unicode="&#x1db;" horiz-adv-x="680" 
d="M176 1001h175l60 -151h-131zM150 825h129v-128h-129v128zM401 825h128v-128h-128v128zM134.5 39.5q-68.5 54.5 -68.5 150.5v303q0 37 -41 37h-20v117h297v-117h-10q-21 0 -31 -9.5t-10 -30.5v-306q0 -44 22 -63t67 -19t66.5 19t21.5 63v306q0 20 -9.5 30t-30.5 10h-11
v117h298v-117h-21q-41 0 -41 -37v-303q0 -96 -68.5 -150.5t-204.5 -54.5q-137 0 -205.5 54.5z" />
    <glyph glyph-name="uni01DC" unicode="&#x1dc;" horiz-adv-x="603" 
d="M122 824h175l60 -151h-131zM96 648h129v-128h-129v128zM347 648h128v-128h-128v128zM107 27.5q-42 43.5 -42 126.5v170q0 38 -41 38h-19v118h248v-325q0 -32 13 -46t39 -14q28 0 41 14t13 46v169q0 19 -6.5 28.5t-24.5 9.5h-16v118h234v-323q0 -38 42 -38h10v-119h-168
l-7 61q-39 -42 -81 -59.5t-103 -17.5q-90 0 -132 43.5z" />
    <glyph glyph-name="Gcaron" unicode="&#x1e6;" horiz-adv-x="640" 
d="M140 901h160l57 -108l55 108h163l-140 -204h-154zM172.5 26.5q-77.5 42.5 -117.5 118t-40 173.5q0 100 37 177.5t113.5 122t188.5 44.5q84 0 141 -15t104 -49v-138h-185v74q-25 11 -60 11q-74 0 -115 -60t-41 -167q0 -105 43.5 -161t127.5 -56q38 0 71 8v139h-116v116
h301v-303q-106 -77 -265 -77q-110 0 -187.5 42.5z" />
    <glyph glyph-name="gcaron" unicode="&#x1e7;" horiz-adv-x="585" 
d="M105 724h160l57 -108l55 108h163l-140 -204h-154zM193.5 -181.5q-51.5 18.5 -92.5 54.5v77h153v-27q23 -19 63 -19q31 0 45 18t14 48v72q-29 -22 -60 -32t-75 -10q-110 0 -168 61t-58 187q0 118 62.5 182.5t165.5 64.5q61 0 99.5 -19t67.5 -61l8 65h162v-115h-10
q-19 0 -26 -10t-7 -32v-318q0 -94 -56.5 -149.5t-161.5 -55.5q-74 0 -125.5 18.5zM345.5 138.5q18.5 32.5 18.5 92.5v31q0 57 -18.5 93t-62.5 36q-49 0 -66.5 -32t-17.5 -111q0 -53 7 -83.5t25 -44.5t52 -14q44 0 62.5 32.5z" />
    <glyph glyph-name="Aringacute" unicode="&#x1fa;" horiz-adv-x="712" 
d="M422 872h-155l71 182h196zM697 116v-116h-292v116h38l-21 73h-130l-22 -73h38v-116h-293v116h24q28 0 38.5 6t18.5 28l169 490q-28 33 -28 78q0 51 35.5 86.5t86.5 35.5t86.5 -35.5t35.5 -86.5q0 -47 -30 -80l165 -488q8 -22 18.5 -28t38.5 -6h24zM333.5 743.5
q-10.5 -10.5 -10.5 -25.5t10.5 -25.5t25.5 -10.5t25.5 10.5t10.5 25.5t-10.5 25.5t-25.5 10.5t-25.5 -10.5zM396 280l-37 133l-40 -133h77z" />
    <glyph glyph-name="aringacute" unicode="&#x1fb;" horiz-adv-x="530" 
d="M247 930h196l-112 -146h-155zM185.5 555.5q-35.5 35.5 -35.5 86.5t35.5 86.5t86.5 35.5t86.5 -35.5t35.5 -86.5t-35.5 -86.5t-86.5 -35.5t-86.5 35.5zM297.5 616.5q10.5 10.5 10.5 25.5t-10.5 25.5t-25.5 10.5t-25.5 -10.5t-10.5 -25.5t10.5 -25.5t25.5 -10.5t25.5 10.5z
M49.5 21.5q-44.5 36.5 -44.5 101.5q0 75 50.5 112.5t150.5 44.5l88 6v53q0 44 -46 44q-26 0 -45 -20v-33h-154v106q95 59 209 59q111 0 167 -48t56 -128v-172q0 -35 32 -35h12v-112h-143l-15 67q-38 -45 -78 -63.5t-106 -18.5q-89 0 -133.5 36.5zM294 159v34l-67 -6
q-54 -4 -54 -47q0 -20 13.5 -31.5t38.5 -11.5q69 0 69 62z" />
    <glyph glyph-name="AEacute" unicode="&#x1fc;" horiz-adv-x="820" 
d="M421 879h196l-112 -182h-155zM15 116h24q28 0 38.5 6t18.5 28l171 497h538v-168h-168v13q0 39 -41 39h-62v-150h115v-116h-115v-149h62q41 0 41 40v12h168v-168h-446v189h-67l-22 -73h38v-116h-293v116zM359 280v154l-40 -154h40z" />
    <glyph glyph-name="aeacute" unicode="&#x1fd;" horiz-adv-x="827" 
d="M387 702h196l-112 -182h-155zM49.5 21.5q-44.5 36.5 -44.5 101.5q0 75 50.5 112.5t150.5 44.5l88 6v53q0 44 -46 44q-26 0 -45 -20v-33h-154v106q95 59 204 59q49 0 84.5 -12.5t61.5 -41.5q25 25 71.5 39.5t94.5 14.5q123 0 185 -66t62 -178v-48h-325q0 -59 22.5 -84
t72.5 -25q37 0 66 13v40h147v-89q-67 -73 -216 -73q-132 0 -180 73q-35 -38 -86 -55.5t-130 -17.5q-89 0 -133.5 36.5zM634 299q0 86 -73 86q-37 0 -55.5 -21t-18.5 -65h147zM294 159v34l-67 -6q-54 -4 -54 -47q0 -20 13.5 -31.5t38.5 -11.5q69 0 69 62z" />
    <glyph glyph-name="Oslashacute" unicode="&#x1fe;" horiz-adv-x="670" 
d="M302 873h196l-112 -182h-155zM181 10q-84 34 -125 111t-41 200q0 172 77 256.5t243 84.5q40 0 85 -7l13 34h57l-17 -46q93 -31 137.5 -111t44.5 -211q0 -169 -79 -252.5t-241 -83.5q-59 0 -102 10l-14 -38h-58zM378 540q-22 5 -43 5q-51 0 -80.5 -21.5t-43 -70
t-13.5 -132.5q0 -65 7.5 -107t25.5 -67zM415.5 123.5q29.5 21.5 43 69t13.5 128.5q0 76 -11 123t-36 71l-149 -404q26 -9 59 -9q51 0 80.5 21.5z" />
    <glyph glyph-name="oslashacute" unicode="&#x1ff;" horiz-adv-x="558" 
d="M231 702h196l-112 -182h-155zM167 1q-74 24 -113 84.5t-39 154.5q0 126 68 190.5t197 64.5q30 0 63 -5l16 45h57l-21 -57q73 -25 110.5 -85t37.5 -153q0 -125 -69 -190t-194 -65q-22 0 -60 4l-14 -41h-58zM301 374q-12 2 -21 2q-45 0 -62 -30.5t-17 -105.5q0 -72 15 -102
zM341.5 135.5q17.5 31.5 17.5 104.5q0 66 -14 97l-83 -232q5 -1 18 -1q44 0 61.5 31.5z" />
    <glyph glyph-name="Scommaaccent" unicode="&#x218;" horiz-adv-x="556" 
d="M15 72v125h186v-77q33 -18 84 -18q37 0 55 14.5t18 46.5q0 22 -13.5 37t-36.5 26.5t-79 35.5q-74 32 -118 60.5t-67.5 65.5t-23.5 90q0 90 75 137t190 47q85 0 142 -24t103 -66v-112h-186v68q-29 17 -69 17q-72 0 -72 -60q0 -25 17.5 -43.5t39 -29t62.5 -27.5
q90 -37 132 -60.5t64.5 -58.5t22.5 -93q0 -54 -29.5 -96.5t-87.5 -67t-139 -24.5q-165 0 -270 87zM205 -49h214l-108 -221h-174z" />
    <glyph glyph-name="scommaaccent" unicode="&#x219;" horiz-adv-x="488" 
d="M116 0.5q-55 15.5 -101 51.5v89h166v-31q20 -14 50 -14q47 0 47 30q0 17 -11 25.5t-47 23.5q-18 7 -60 26q-49 23 -77 40.5t-46 44t-18 65.5q0 71 58 107.5t158 36.5q67 0 126 -17t103 -51v-83h-161v24q-21 15 -47 15q-42 0 -42 -32q0 -15 15.5 -27t43.5 -23.5t58 -22.5
q76 -29 109 -61.5t33 -90.5q0 -141 -229 -141q-73 0 -128 15.5zM165 -49h214l-108 -221h-174z" />
    <glyph glyph-name="uni021A" unicode="&#x21a;" horiz-adv-x="633" 
d="M163 117h21q40 0 40 37v374h-52q-41 0 -41 -39v-44h-126v199h623v-199h-126v44q0 39 -41 39h-52v-374q0 -17 10.5 -27t30.5 -10h21v-117h-308v117zM223 -49h189l-71 -233h-153z" />
    <glyph glyph-name="uni021B" unicode="&#x21b;" horiz-adv-x="488" 
d="M131 30.5q-55 45.5 -55 130.5v207h-71v112h71v94l187 49v-143h125v-112h-125v-224q0 -26 11.5 -37t34.5 -11q28 0 45 17v42h149v-101q-88 -69 -204 -69q-113 0 -168 45.5zM206 -49h189l-71 -233h-153z" />
    <glyph glyph-name="uni0237" unicode="&#x237;" horiz-adv-x="417" 
d="M41.5 -163.5q-52.5 15.5 -86.5 42.5v111h148v-42q20 -16 46 -16q22 0 33.5 9.5t11.5 30.5v351q0 18 -10.5 28t-30.5 10h-21v119h250v-483q0 -85 -55 -130.5t-169 -45.5q-64 0 -116.5 15.5z" />
    <glyph glyph-name="uni0251" unicode="&#x251;" horiz-adv-x="591" 
d="M75.5 44q-60.5 58 -60.5 175q0 81 29 144t82.5 97.5t124.5 34.5q60 0 96.5 -15.5t66.5 -48.5l5 49h124v-330q0 -22 7 -30t28 -8h8v-112h-162l-8 59q-29 -41 -70 -57t-106 -16q-104 0 -164.5 58zM350.5 125.5q19.5 35.5 19.5 91.5v43q0 61 -19 93t-63 32q-49 0 -69 -41.5
t-20 -121.5q0 -52 8 -80t27 -40t54 -12q43 0 62.5 35.5z" />
    <glyph glyph-name="uni0259" unicode="&#x259;" horiz-adv-x="546" 
d="M79.5 50.5q-64.5 66.5 -64.5 177.5v48h331q0 60 -21 85t-74 25q-37 0 -66 -13v-40h-153v89q39 36 92 54.5t130 18.5q131 0 204 -64t73 -189q0 -131 -68 -194.5t-195 -63.5q-124 0 -188.5 66.5zM327 116.5q19 22.5 19 63.5h-147q0 -41 19.5 -63.5t53.5 -22.5q36 0 55 22.5
z" />
    <glyph glyph-name="uni02BB" unicode="&#x2bb;" horiz-adv-x="347" 
d="M145 632h177l-81 -252h-216z" />
    <glyph glyph-name="uni02BC" unicode="&#x2bc;" horiz-adv-x="347" 
d="M106 632h216l-120 -252h-177z" />
    <glyph glyph-name="uni02BE" unicode="&#x2be;" 
d="M-129 553q35 0 50 10t15 37q0 26 -15 36.5t-50 10.5v98q109 0 154.5 -38.5t45.5 -106.5t-45.5 -106.5t-154.5 -38.5v98z" />
    <glyph glyph-name="uni02BF" unicode="&#x2bf;" 
d="M-83.5 493.5q-45.5 38.5 -45.5 106.5t45.5 106.5t154.5 38.5v-98q-35 0 -50 -10.5t-15 -36.5q0 -27 15 -37t50 -10v-98q-109 0 -154.5 38.5z" />
    <glyph glyph-name="circumflex" unicode="&#x2c6;" horiz-adv-x="531" 
d="M180 740h172l154 -225h-202l-39 77l-41 -77h-199z" />
    <glyph glyph-name="caron" unicode="&#x2c7;" horiz-adv-x="485" 
d="M25 712h160l57 -108l55 108h163l-140 -204h-154z" />
    <glyph glyph-name="uni02C8" unicode="&#x2c8;" 
d="M-87 744h173v-199h-173v199z" />
    <glyph glyph-name="uni02C9" unicode="&#x2c9;" horiz-adv-x="589" 
d="M137 628h317v-105h-317v105z" />
    <glyph glyph-name="uni02CA" unicode="&#x2ca;" 
d="M-22 702h196l-112 -182h-155z" />
    <glyph glyph-name="uni02CB" unicode="&#x2cb;" 
d="M-93 702h196l71 -182h-155z" />
    <glyph glyph-name="uni02CC" unicode="&#x2cc;" 
d="M-87 -35h173v-199h-173v199z" />
    <glyph glyph-name="breve" unicode="&#x2d8;" horiz-adv-x="426" 
d="M74 574q-49 44 -49 119h153q0 -27 8 -41.5t27 -14.5q22 0 28.5 13.5t6.5 42.5h153q0 -75 -49 -119t-139 -44t-139 44z" />
    <glyph glyph-name="dotaccent" unicode="&#x2d9;" horiz-adv-x="180" 
d="M25 648h130v-137h-130v137z" />
    <glyph glyph-name="ring" unicode="&#x2da;" horiz-adv-x="294" 
d="M60.5 521.5q-35.5 35.5 -35.5 86.5t35.5 86.5t86.5 35.5t86.5 -35.5t35.5 -86.5t-35.5 -86.5t-86.5 -35.5t-86.5 35.5zM172.5 582.5q10.5 10.5 10.5 25.5t-10.5 25.5t-25.5 10.5t-25.5 -10.5t-10.5 -25.5t10.5 -25.5t25.5 -10.5t25.5 10.5z" />
    <glyph glyph-name="ogonek" unicode="&#x2db;" horiz-adv-x="268" 
d="M57 -195.5q-32 25.5 -32 77.5q0 35 15 68t40 50h151q-26 -18 -37 -33t-11 -35q0 -14 7 -23t21 -9q18 0 32 8v-98q-23 -17 -47 -24t-59 -7q-48 0 -80 25.5z" />
    <glyph glyph-name="tilde" unicode="&#x2dc;" horiz-adv-x="500" 
d="M56.5 660q31.5 45 102.5 45q28 0 48.5 -7.5t45.5 -20.5q3 -2 14.5 -7.5t21 -8t18.5 -2.5q43 0 43 46h125q0 -97 -29.5 -141t-100.5 -44q-30 0 -51.5 7.5t-47.5 20.5q-16 9 -28 13.5t-24 4.5q-21 0 -32.5 -12t-11.5 -34h-125q0 95 31.5 140z" />
    <glyph glyph-name="hungarumlaut" unicode="&#x2dd;" horiz-adv-x="591" 
d="M115 721h202l-128 -202h-164zM364 721h202l-128 -202h-163z" />
    <glyph glyph-name="gravecomb" unicode="&#x300;" 
d="M-463 702h196l72 -182h-156z" />
    <glyph glyph-name="acutecomb" unicode="&#x301;" 
d="M-396 702h196l-112 -182h-155z" />
    <glyph glyph-name="uni0302" unicode="&#x302;" 
d="M-76 701h154l140 -203h-163l-55 107l-57 -107h-160z" />
    <glyph glyph-name="tildecomb" unicode="&#x303;" 
d="M-502.5 660q31.5 45 102.5 45q28 0 48.5 -7.5t45.5 -20.5q3 -2 14.5 -7.5t21 -8t18.5 -2.5q43 0 43 46h125q0 -97 -29.5 -141t-100.5 -44q-30 0 -51.5 7.5t-47.5 20.5q-16 9 -28 13.5t-24 4.5q-21 0 -32.5 -12t-11.5 -34h-125q0 95 31.5 140z" />
    <glyph glyph-name="uni0304" unicode="&#x304;" 
d="M-157 628h317v-105h-317v105z" />
    <glyph glyph-name="uni0306" unicode="&#x306;" 
d="M-139 574q-49 44 -49 119h153q0 -27 8 -41.5t27 -14.5q22 0 28.5 13.5t6.5 42.5h153q0 -75 -49 -119t-139 -44t-139 44z" />
    <glyph glyph-name="uni0307" unicode="&#x307;" 
d="M-65 648h130v-137h-130v137z" />
    <glyph glyph-name="uni0308" unicode="&#x308;" 
d="M-188 668h128v-137h-128v137zM62 668h129v-137h-129v137z" />
    <glyph glyph-name="hookabovecomb" unicode="&#x309;" 
d="M-373 578q47 0 47 32q0 12 -8.5 19.5t-24.5 7.5q-24 0 -43 -9v86q41 13 97 13q137 0 137 -88q0 -30 -13.5 -50t-41.5 -32v-43h-150v64z" />
    <glyph glyph-name="uni030A" unicode="&#x30a;" 
d="M-86.5 541.5q-35.5 35.5 -35.5 86.5t35.5 86.5t86.5 35.5t86.5 -35.5t35.5 -86.5t-35.5 -86.5t-86.5 -35.5t-86.5 35.5zM25.5 602.5q10.5 10.5 10.5 25.5t-10.5 25.5t-25.5 10.5t-25.5 -10.5t-10.5 -25.5t10.5 -25.5t25.5 -10.5t25.5 10.5z" />
    <glyph glyph-name="uni030B" unicode="&#x30b;" 
d="M-211 721h202l-128 -202h-164zM38 721h202l-128 -202h-163z" />
    <glyph glyph-name="uni030C" unicode="&#x30c;" 
d="M-217 712h160l57 -108l55 108h163l-140 -204h-154z" />
    <glyph glyph-name="uni031B" unicode="&#x31b;" 
d="M-164 580q44 0 61.5 15.5t17.5 52.5v41h186v-42q0 -86 -60.5 -131.5t-204.5 -45.5v110z" />
    <glyph glyph-name="dotbelowcomb" unicode="&#x323;" 
d="M-374 -60h129v-137h-129v137z" />
    <glyph glyph-name="uni0324" unicode="&#x324;" 
d="M-188 -60h128v-137h-128v137zM62 -60h129v-137h-129v137z" />
    <glyph glyph-name="uni0326" unicode="&#x326;" 
d="M-70 -49h214l-108 -221h-174z" />
    <glyph glyph-name="uni0327" unicode="&#x327;" 
d="M-86.5 -223.5q-24.5 4.5 -49.5 15.5v95q37 -20 84 -20q31 0 31 19t-19 28t-72 9l11 77h170l-6 -36q74 -16 74 -87q0 -105 -166 -105q-33 0 -57.5 4.5z" />
    <glyph glyph-name="uni0328" unicode="&#x328;" 
d="M-96 -195.5q-32 25.5 -32 77.5q0 35 15 68t40 50h151q-26 -18 -37 -33t-11 -35q0 -14 7 -23t21 -9q18 0 32 8v-98q-23 -17 -47 -24t-59 -7q-48 0 -80 25.5z" />
    <glyph glyph-name="uni032E" unicode="&#x32e;" 
d="M-139 -165q-49 44 -49 119h153q0 -27 8 -41.5t27 -14.5q22 0 28.5 13.5t6.5 42.5h153q0 -75 -49 -119t-139 -44t-139 44z" />
    <glyph glyph-name="uni0331" unicode="&#x331;" 
d="M-157 -44h317v-105h-317v105z" />
    <glyph glyph-name="uni0394" unicode="&#x394;" horiz-adv-x="720" 
d="M25 125l257 547h156l257 -547v-125h-670v125zM498 130l-138 325l-138 -325h276z" />
    <glyph glyph-name="uni03A9" unicode="&#x3a9;" horiz-adv-x="823" 
d="M25 161h125v-12q0 -20 7.5 -26.5t28.5 -6.5h37q-39 22 -74.5 62t-57.5 92t-22 107q0 145 84.5 231.5t258.5 86.5q171 0 256.5 -87t85.5 -231q0 -55 -22 -107t-57.5 -92t-74.5 -62h37q21 0 28.5 6.5t7.5 26.5v12h125v-161h-368v131q80 47 110.5 103.5t30.5 142.5
q0 100 -38.5 150.5t-120.5 50.5q-79 0 -119.5 -51.5t-40.5 -149.5q0 -86 30.5 -142.5t110.5 -103.5v-131h-368v161z" />
    <glyph glyph-name="uni03BC" unicode="&#x3bc;" horiz-adv-x="603" 
d="M65 324q0 38 -41 38h-19v118h248v-332q0 -28 13 -40.5t39 -12.5q28 0 41 14t13 46v169q0 19 -6.5 28.5t-24.5 9.5h-16v118h234v-323q0 -38 42 -38h10v-119h-168l-7 61q-37 -41 -75.5 -58.5t-94.5 -17.5v-193h-188v532z" />
    <glyph glyph-name="pi" unicode="&#x3c0;" horiz-adv-x="735" 
d="M373.5 32.5q-50.5 47.5 -50.5 141.5v190h-71v-208q0 -40 41 -40h17v-116h-305v116h22q41 0 41 40v208h-63v116h568v-116h-63v-220q0 -27 7.5 -37.5t28.5 -10.5q13 0 20 2.5t15 10.5v42h149v-97q-41 -32 -86.5 -50.5t-107.5 -18.5q-112 0 -162.5 47.5z" />
    <glyph glyph-name="uni0E01" unicode="&#xe01;" horiz-adv-x="594" 
d="M31 185q0 47 12 74.5t42 47.5l-70 42v90q50 50 119.5 77.5t152.5 27.5q137 0 204.5 -55.5t67.5 -146.5v-342h-188v353q0 30 -22 48.5t-63 18.5q-48 0 -88 -20v-14l67 -41v-64q-28 -10 -37 -27.5t-9 -53.5v-200h-188v185z" />
    <glyph glyph-name="uni0E02" unicode="&#xe02;" horiz-adv-x="575" 
d="M148 10.5q-56 25.5 -81.5 66.5t-25.5 88v45q0 73 51 124q-43 4 -60 28t-17 75q0 55 27 81t103 26q52 0 80 -10.5t39 -35t11 -68.5v-39q0 -22 -5.5 -37t-15.5 -32q-12 -22 -18.5 -40t-6.5 -47v-79q0 -21 15 -34t47 -13q61 0 61 47v373h188v-352q0 -88 -62.5 -140
t-186.5 -52q-87 0 -143 25.5zM168.5 408q7.5 7 7.5 26t-7.5 26t-27.5 7t-27.5 -7t-7.5 -26t7.5 -26t27.5 -7t27.5 7z" />
    <glyph glyph-name="uni0E03" unicode="&#xe03;" horiz-adv-x="594" 
d="M167 10.5q-56 25.5 -81.5 66.5t-25.5 88v32q0 42 14 74t45 59q-63 0 -88.5 24t-25.5 87q0 57 24 80t81 23q45 0 62 -9.5t27 -35.5l19 30h96v-131q0 -30 -8 -49.5t-24 -44.5q-17 -26 -25.5 -47.5t-8.5 -56.5v-44q0 -21 15 -34t47 -13q61 0 61 47v373h188v-352
q0 -88 -62.5 -140t-186.5 -52q-87 0 -143 25.5zM143.5 408q7.5 7 7.5 26t-7.5 26t-27.5 7t-27.5 -7t-7.5 -26t7.5 -26t27.5 -7t27.5 7z" />
    <glyph glyph-name="uni0E04" unicode="&#xe04;" horiz-adv-x="614" 
d="M517 483q62 -61 62 -166v-317h-188v130q-25 -15 -71 -15q-32 0 -50 7.5t-30 24.5l-17 -19v-128h-188v317q0 105 62 166t210 61t210 -61zM391 316v29q0 38 -19 56.5t-65 18.5q-43 0 -63.5 -19t-20.5 -56v-51q20 18 41 26t53 8q50 0 74 -12zM341.5 196q7.5 8 7.5 26
q0 19 -7.5 26t-27.5 7t-27.5 -7t-7.5 -26q0 -20 7.5 -27t27.5 -7t27.5 8z" />
    <glyph glyph-name="uni0E05" unicode="&#xe05;" horiz-adv-x="614" 
d="M539.5 507q39.5 -37 39.5 -111v-396h-188v130q-25 -15 -71 -15q-32 0 -50 7.5t-30 24.5l-17 -19v-128h-188v396q0 72 43.5 110t111.5 38q43 0 75.5 -15t41.5 -45q11 30 45 45t80 15q68 0 107.5 -37zM391 316v69q0 24 -6 33t-21 9q-24 0 -24 -32v-6h-66v6q0 32 -22 32
q-16 0 -22.5 -9t-6.5 -34v-90q20 18 41 26t53 8q50 0 74 -12zM341.5 196q7.5 8 7.5 26q0 19 -7.5 26t-27.5 7t-27.5 -7t-7.5 -26q0 -20 7.5 -27t27.5 -7t27.5 8z" />
    <glyph glyph-name="uni0E06" unicode="&#xe06;" horiz-adv-x="579" 
d="M63.5 -2.5q-26.5 12.5 -36 35t-9.5 59.5q0 52 15 75.5t57 27.5v11q0 38 1.5 54.5t9.5 34t28 35.5q-63 0 -88.5 24t-25.5 87q0 57 24 80t81 23q45 0 62 -9.5t27 -35.5l19 30h96v-131q0 -30 -5.5 -49.5t-16.5 -44.5q-12 -26 -18 -47.5t-6 -56.5v-18l78 -25v372h188v-529
h-123l-138 55q-9 -36 -40 -53t-101 -17q-52 0 -78.5 12.5zM153.5 408q7.5 7 7.5 26t-7.5 26t-27.5 7t-27.5 -7t-7.5 -26t7.5 -26t27.5 -7t27.5 7zM184.5 68q7.5 7 7.5 26t-7.5 26t-27.5 7t-27.5 -7t-7.5 -26t7.5 -26t27.5 -7t27.5 7z" />
    <glyph glyph-name="uni0E07" unicode="&#xe07;" horiz-adv-x="531" 
d="M-5 357h181l81 -234h23q28 0 28 25v186q-42 4 -57 27.5t-15 75.5q0 55 27 81t103 26q52 0 80 -10.5t39 -35t11 -68.5v-274q0 -66 -38 -111t-139 -45h-193zM389.5 408q7.5 7 7.5 26t-7.5 26t-27.5 7t-27.5 -7t-7.5 -26t7.5 -26t27.5 -7t27.5 7z" />
    <glyph glyph-name="uni0E08" unicode="&#xe08;" horiz-adv-x="533" 
d="M121 139q-52 0 -79 26.5t-27 76.5q0 55 26 81t97 26q51 0 75 -10.5t33.5 -32.5t18.5 -71l21 -112h7q9 0 13 4t4 15v192q0 45 -26 65.5t-81 20.5q-73 0 -128 -45l-70 99q43 34 101 52t124 18q142 0 205 -52t63 -148v-198q0 -37 -18.5 -70t-60.5 -54.5t-110 -21.5h-164z
M165.5 213q7.5 7 7.5 26t-7.5 26t-27.5 7t-27.5 -7t-7.5 -26t7.5 -26t27.5 -7t27.5 7z" />
    <glyph glyph-name="uni0E09" unicode="&#xe09;" horiz-adv-x="584" 
d="M336.5 3q-30.5 18 -30.5 50l-62 -53h-154v141q-42 4 -57 27.5t-15 75.5q0 55 27 81t103 26q52 0 79.5 -10.5t38 -34.5t10.5 -69v-61l67 51q11 7 15.5 15.5t4.5 23.5v59q0 95 -130 95q-40 0 -81.5 -12.5t-66.5 -32.5l-70 99q42 32 109 51t136 19q155 0 222 -53.5
t67 -150.5v-71q0 -23 -8 -39.5t-27 -33.5q28 -12 40 -34.5t12 -61.5q0 -42 -11.5 -66.5t-42.5 -36.5t-88 -12t-87.5 18zM171.5 215q7.5 7 7.5 26t-7.5 26t-27.5 7t-27.5 -7t-7.5 -26t7.5 -26t27.5 -7t27.5 7zM455.5 77q7.5 7 7.5 26t-7.5 26t-27.5 7t-27.5 -7t-7.5 -26
t7.5 -26t27.5 -7t27.5 7z" />
    <glyph glyph-name="uni0E0A" unicode="&#xe0a;" horiz-adv-x="575" 
d="M148 10.5q-56 25.5 -81.5 66.5t-25.5 88v45q0 73 51 124q-43 4 -60 28t-17 75q0 55 27 81t103 26q52 0 80 -10.5t39 -35t11 -68.5v-39q0 -22 -5.5 -37t-15.5 -32q-12 -22 -18.5 -40t-6.5 -47v-79q0 -21 15 -34t47 -13q61 0 61 47v113q0 41 -31 41h-25v123h32q20 0 27 10
t7 31v70h178v-61q0 -43 -12.5 -70t-45.5 -43q32 -17 45 -46.5t13 -72.5v-74q0 -88 -62.5 -140t-186.5 -52q-87 0 -143 25.5zM168.5 408q7.5 7 7.5 26t-7.5 26t-27.5 7t-27.5 -7t-7.5 -26t7.5 -26t27.5 -7t27.5 7z" />
    <glyph glyph-name="uni0E0B" unicode="&#xe0b;" horiz-adv-x="594" 
d="M167 10.5q-56 25.5 -81.5 66.5t-25.5 88v32q0 42 14 74t45 59q-63 0 -88.5 24t-25.5 87q0 57 24 80t81 23q45 0 62 -9.5t27 -35.5l19 30h96v-131q0 -30 -8 -49.5t-24 -44.5q-17 -26 -25.5 -47.5t-8.5 -56.5v-44q0 -21 15 -34t47 -13q61 0 61 47v120q0 34 -27 34h-10v123
h13q20 0 27 10t7 31v70h178v-61q0 -43 -12.5 -70t-45.5 -43q32 -17 45 -46.5t13 -72.5v-74q0 -88 -62.5 -140t-186.5 -52q-87 0 -143 25.5zM143.5 408q7.5 7 7.5 26t-7.5 26t-27.5 7t-27.5 -7t-7.5 -26t7.5 -26t27.5 -7t27.5 7z" />
    <glyph glyph-name="uni0E0C" unicode="&#xe0c;" horiz-adv-x="837" 
d="M59 19q-28 34 -28 106v60q0 47 12 74.5t42 47.5l-70 42v90q105 105 267 105q136 0 199 -55t63 -147v-160l70 -25v372h188v-529h-125l-130 52q-9 -36 -37 -51.5t-97 -15.5q-60 0 -85.5 27t-25.5 80q0 94 60 103v158q0 30 -20.5 48.5t-60.5 18.5q-43 0 -83 -20v-14l67 -41
v-64q-29 -9 -39 -22.5t-10 -41.5v-22q42 -4 58.5 -27.5t16.5 -75.5q0 -55 -27 -81t-103 -26q-74 0 -102 34zM192.5 69q7.5 8 7.5 26q0 19 -7.5 26t-27.5 7t-27.5 -7t-7.5 -26q0 -20 7.5 -27t27.5 -7t27.5 8zM453.5 68q7.5 7 7.5 26t-7.5 26t-27.5 7t-27.5 -7t-7.5 -26
t7.5 -26t27.5 -7t27.5 7z" />
    <glyph glyph-name="uni0E0D" unicode="&#xe0d;" horiz-adv-x="898" 
d="M59 19q-28 34 -28 106v60q0 47 12 74.5t42 47.5l-70 42v90q105 105 267 105q136 0 199 -55t63 -147v-119q0 -31 16.5 -44.5t48.5 -13.5q35 0 50 13t15 45v306h188l1 -294q0 -84 -59.5 -139t-191.5 -55q-137 0 -193.5 48.5t-56.5 147.5v116q0 30 -20.5 48.5t-60.5 18.5
q-43 0 -83 -20v-14l67 -41v-64q-29 -9 -39 -22.5t-10 -41.5v-22q42 -4 58.5 -27.5t16.5 -75.5q0 -55 -27 -81t-103 -26q-74 0 -102 34zM192.5 69q7.5 8 7.5 26q0 19 -7.5 26t-27.5 7t-27.5 -7t-7.5 -26q0 -20 7.5 -27t27.5 -7t27.5 8zM450.5 -189q-65.5 26 -65.5 98
q0 47 12.5 73t39 36t71.5 10q109 0 109 -109q15 -2 35 -2q70 0 137 63l81 -96q-43 -53 -113 -76t-138 -23q-103 0 -168.5 26zM528.5 -107q7.5 7 7.5 26t-7.5 26t-27.5 7t-27.5 -7t-7.5 -26t7.5 -26t27.5 -7t27.5 7z" />
    <glyph glyph-name="uni0E0E" unicode="&#xe0e;" horiz-adv-x="623" 
d="M137 -84q45 43 132 43q43 0 74.5 -8t56.5 -27v429q0 30 -22.5 48.5t-62.5 18.5q-48 0 -88 -20v-14l77 -46v-64q-19 -7 -24 -23t-5 -50v-78q0 -72 -28 -106t-102 -34q-76 0 -103 26t-27 81q0 52 16.5 75.5t58.5 27.5v19q0 32 6.5 49.5t27.5 38.5l-80 47v90
q50 50 119.5 77.5t152.5 27.5q137 0 204.5 -55.5t67.5 -146.5v-563h-174q-11 26 -35.5 39.5t-60.5 13.5q-41 0 -61.5 -12t-20.5 -41h-144q0 94 45 137zM168.5 68q7.5 7 7.5 27q0 19 -7.5 26t-27.5 7t-27.5 -7t-7.5 -26q0 -18 7.5 -26t27.5 -8t27.5 7z" />
    <glyph glyph-name="uni0E0F" unicode="&#xe0f;" horiz-adv-x="623" 
d="M331 -184q-21 -17 -46.5 -26t-59.5 -9q-64 0 -102 38.5t-45 102.5l152 35q2 -21 14.5 -34t30.5 -13q19 0 28.5 7t19.5 25l77 -38v449q0 30 -22.5 48.5t-62.5 18.5q-48 0 -88 -20v-14l77 -46v-64q-19 -7 -24 -23t-5 -50v-78q0 -72 -28 -106t-102 -34q-76 0 -103 26t-27 81
q0 52 16.5 75.5t58.5 27.5v19q0 32 6.5 49.5t27.5 38.5l-80 47v90q50 50 119.5 77.5t152.5 27.5q137 0 204.5 -55.5t67.5 -146.5v-563h-188zM168.5 68q7.5 7 7.5 27q0 19 -7.5 26t-27.5 7t-27.5 -7t-7.5 -26q0 -18 7.5 -26t27.5 -8t27.5 7z" />
    <glyph glyph-name="uni0E10" unicode="&#xe10;" horiz-adv-x="543" 
d="M126 139q-52 0 -79 26.5t-27 76.5q0 55 26 81t97 26q51 0 75 -10.5t33.5 -32.5t18.5 -71l21 -112h7q9 0 13 4t4 15v192q0 45 -26 65.5t-81 20.5q-73 0 -128 -45l-70 99q43 34 101 52t124 18q87 0 140 -22q17 13 24 54l144 -31q-2 -25 -20 -55.5t-46 -48.5q26 -36 26 -97
v-198q0 -37 -18.5 -70t-60.5 -54.5t-110 -21.5h-164zM170.5 213q7.5 7 7.5 26t-7.5 26t-27.5 7t-27.5 -7t-7.5 -26t7.5 -26t27.5 -7t27.5 7zM84.5 -241.5q-39.5 33.5 -46.5 93.5l140 32q8 -51 51 -51q19 0 28 3.5t20 15.5l86 -27v16q-37 9 -50.5 23t-13.5 50q0 40 23.5 58.5
t82.5 18.5q57 0 78 -18.5t21 -62.5v-184h-133l-78 26q-23 -15 -46 -21t-58 -6q-65 0 -104.5 33.5zM428 -111.5q6 5.5 6 21.5t-6 22t-23 6t-23.5 -6t-6.5 -22t6 -21.5t24 -5.5q17 0 23 5.5z" />
    <glyph glyph-name="uni0E11" unicode="&#xe11;" horiz-adv-x="598" 
d="M80 173q0 58 9.5 95t39.5 67q-46 0 -72.5 9t-39 31.5t-12.5 65.5q0 57 24 80t81 23q45 0 62 -9.5t27 -35.5l19 30h96v-51q28 34 61 50t84 16t77.5 -27.5t26.5 -81.5v-435h-188v342q0 18 -6 26t-23 8q-14 0 -23 -6.5t-20 -22.5q-20 -30 -27.5 -58t-7.5 -82v-207h-188v173z
M142.5 413q7.5 7 7.5 26t-7.5 26t-27.5 7t-27.5 -7t-7.5 -26t7.5 -26t27.5 -7t27.5 7z" />
    <glyph glyph-name="uni0E12" unicode="&#xe12;" horiz-adv-x="871" 
d="M836 529v-529h-120l-123 52q-6 -26 -16 -39.5t-34 -20.5t-71 -7q-61 0 -86 26t-25 79q0 14 1 21l-12 -12l-104 -99h-201v396q0 73 39.5 110.5t106.5 37.5q43 0 74 -15t40 -45q11 30 46.5 45t81.5 15q69 0 111 -37.5t42 -110.5v-214l67 -25v372h183zM425 381q0 26 -8 36
t-26 10q-14 0 -22.5 -8t-8.5 -24v-6h-100v6q0 15 -8 23.5t-20 8.5q-16 0 -25 -10.5t-9 -36.5v-266l49 45q-22 10 -32 26t-10 45q0 57 22.5 80t77.5 23q60 0 81.5 -24t21.5 -79q0 -24 -5 -47q12 5 22 5v193zM333.5 208q7.5 8 7.5 26q0 19 -7.5 26t-27.5 7t-27.5 -7t-7.5 -26
q0 -20 7.5 -27t27.5 -7t27.5 8zM505.5 65q7.5 7 7.5 26t-7.5 26t-27.5 7t-27.5 -7t-7.5 -26t7.5 -26t27.5 -7t27.5 7z" />
    <glyph glyph-name="uni0E13" unicode="&#xe13;" horiz-adv-x="858" 
d="M59 19q-28 34 -28 106v60q0 47 12 74.5t42 47.5l-70 42v90q105 105 267 105q136 0 199 -55t63 -147v-167l73 52q11 8 15.5 16.5t4.5 22.5v263h186v-260q0 -23 -8 -39.5t-27 -33.5q28 -12 40 -34.5t12 -61.5q0 -42 -11.5 -66.5t-42.5 -36.5t-88 -12t-87.5 18t-30.5 50
l-64 -53h-154v353q0 30 -20.5 48.5t-60.5 18.5q-43 0 -83 -20v-14l67 -41v-64q-29 -9 -39 -22.5t-10 -41.5v-22q42 -4 58.5 -27.5t16.5 -75.5q0 -55 -27 -81t-103 -26q-74 0 -102 34zM729.5 77q7.5 7 7.5 26t-7.5 26t-27.5 7t-27.5 -7t-7.5 -26t7.5 -26t27.5 -7t27.5 7z
M192.5 69q7.5 8 7.5 26q0 19 -7.5 26t-27.5 7t-27.5 -7t-7.5 -26q0 -20 7.5 -27t27.5 -7t27.5 8z" />
    <glyph glyph-name="uni0E14" unicode="&#xe14;" horiz-adv-x="606" 
d="M571 325v-325h-168v150q-12 -17 -34 -36l-128 -114h-206v325q0 103 61.5 161t204.5 58q270 0 270 -219zM367.5 327q22.5 -6 35.5 -20v33q0 39 -24.5 59.5t-77.5 20.5q-56 0 -82 -20t-26 -60v-226l51 44q-21 10 -29.5 26t-8.5 46q0 57 23.5 80t78.5 23q37 0 59.5 -6z
M340.5 206q7.5 8 7.5 26q0 19 -7.5 26t-27.5 7t-27.5 -7t-7.5 -26q0 -20 7.5 -27t27.5 -7t27.5 8z" />
    <glyph glyph-name="uni0E15" unicode="&#xe15;" horiz-adv-x="596" 
d="M523 507q38 -37 38 -111v-396h-168v137q-7 -8 -24 -23l-128 -114h-206v396q0 72 41.5 110t109.5 38q88 0 107 -60q11 30 45 45t80 15q67 0 105 -37zM393 316v65q0 27 -6.5 36.5t-23.5 9.5q-27 0 -27 -32v-6h-86v6q0 15 -6.5 23.5t-18.5 8.5q-16 0 -24 -10.5t-8 -36.5
v-266l51 44q-21 10 -29.5 26t-8.5 46q0 57 23.5 80t78.5 23q61 0 85 -17zM340.5 206q7.5 8 7.5 26q0 19 -7.5 26t-27.5 7t-27.5 -7t-7.5 -26q0 -20 7.5 -27t27.5 -7t27.5 8z" />
    <glyph glyph-name="uni0E16" unicode="&#xe16;" horiz-adv-x="594" 
d="M59 19q-28 34 -28 106v60q0 47 12 74.5t42 47.5l-70 42v90q50 50 119.5 77.5t152.5 27.5q137 0 204.5 -55.5t67.5 -146.5v-342h-188v353q0 30 -22.5 48.5t-62.5 18.5q-48 0 -88 -20v-14l67 -41v-64q-29 -9 -39 -22.5t-10 -41.5v-22q42 -4 58.5 -27.5t16.5 -75.5
q0 -55 -27 -81t-103 -26q-74 0 -102 34zM192.5 69q7.5 8 7.5 26q0 19 -7.5 26t-27.5 7t-27.5 -7t-7.5 -26q0 -20 7.5 -27t27.5 -7t27.5 8z" />
    <glyph glyph-name="uni0E17" unicode="&#xe17;" horiz-adv-x="612" 
d="M94 332q-48 0 -68.5 26t-20.5 78q0 55 27 81t103 26q52 0 80 -10.5t39 -35t11 -68.5v-72l80 118q25 37 53.5 53t74.5 16q56 0 80 -27.5t24 -83.5v-433h-189v321l-123 -180v-141h-171v332zM158.5 407q7.5 7 7.5 26t-7.5 26t-27.5 7t-27.5 -7t-7.5 -26t7.5 -26t27.5 -7
t27.5 7z" />
    <glyph glyph-name="uni0E18" unicode="&#xe18;" horiz-adv-x="540" 
d="M82.5 36q-56.5 51 -56.5 126v66h188v-72q0 -61 59 -61q30 0 44.5 13t14.5 43v33q0 24 -7.5 33t-32.5 14l-277 61v80q0 77 66.5 124.5t197.5 47.5q75 0 135.5 -19.5t100.5 -54.5l-69 -97q-27 20 -69.5 33.5t-84.5 13.5t-65.5 -10t-23.5 -28v-6l171 -38q77 -17 111.5 -54.5
t34.5 -94.5v-38q0 -78 -64 -122t-183 -44q-134 0 -190.5 51z" />
    <glyph glyph-name="uni0E19" unicode="&#xe19;" horiz-adv-x="583" 
d="M335.5 3q-30.5 18 -30.5 50l-74 -53h-154v334q-42 4 -57 27.5t-15 75.5q0 55 27 81t103 26q52 0 79.5 -10.5t38 -34.5t10.5 -69v-254l79 51q11 7 15.5 15.5t4.5 23.5v263h186v-260q0 -23 -8 -39.5t-27 -33.5q28 -12 40 -34.5t12 -61.5q0 -42 -11.5 -66.5t-42.5 -36.5
t-88 -12t-87.5 18zM158.5 408q7.5 7 7.5 26t-7.5 26t-27.5 7t-27.5 -7t-7.5 -26t7.5 -26t27.5 -7t27.5 7zM454.5 77q7.5 7 7.5 26t-7.5 26t-27.5 7t-27.5 -7t-7.5 -26t7.5 -26t27.5 -7t27.5 7z" />
    <glyph glyph-name="uni0E1A" unicode="&#xe1a;" horiz-adv-x="629" 
d="M138.5 32.5q-61.5 47.5 -61.5 144.5v157q-42 4 -57 27.5t-15 75.5q0 55 27 81t103 26q52 0 80 -10.5t39 -35t11 -68.5v-263q0 -58 71 -58q36 0 53 13t17 45v362h188v-352q0 -98 -58.5 -145t-196.5 -47q-139 0 -200.5 47.5zM158.5 408q7.5 7 7.5 26t-7.5 26t-27.5 7
t-27.5 -7t-7.5 -26t7.5 -26t27.5 -7t27.5 7z" />
    <glyph glyph-name="uni0E1B" unicode="&#xe1b;" horiz-adv-x="629" 
d="M138.5 32.5q-61.5 47.5 -61.5 144.5v157q-42 4 -57 27.5t-15 75.5q0 55 27 81t103 26q52 0 80 -10.5t39 -35t11 -68.5v-263q0 -58 71 -58q36 0 53 13t17 45v547h188v-537q0 -98 -58.5 -145t-196.5 -47q-139 0 -200.5 47.5zM158.5 408q7.5 7 7.5 26t-7.5 26t-27.5 7
t-27.5 -7t-7.5 -26t7.5 -26t27.5 -7t27.5 7z" />
    <glyph glyph-name="uni0E1C" unicode="&#xe1c;" horiz-adv-x="604" 
d="M35 430q0 42 11.5 66.5t39.5 36t79 11.5q76 0 103 -26t27 -81q0 -52 -16.5 -75.5t-58.5 -27.5v-148l52 84h55l57 -84v343h185v-529h-201l-66 118l-66 -118h-201v430zM196.5 408q7.5 7 7.5 26t-7.5 26t-27.5 7t-27.5 -7t-7.5 -26t7.5 -26t27.5 -7t27.5 7z" />
    <glyph glyph-name="uni0E1D" unicode="&#xe1d;" horiz-adv-x="604" 
d="M35 430q0 44 11 68.5t39 35t80 10.5q76 0 103 -26t27 -81q0 -52 -15 -75.5t-57 -27.5v-147l49 86h55l54 -86v527h188v-714h-201l-66 118l-66 -118h-201v430zM196.5 408q7.5 7 7.5 26t-7.5 26t-27.5 7t-27.5 -7t-7.5 -26t7.5 -26t27.5 -7t27.5 7z" />
    <glyph glyph-name="uni0E1E" unicode="&#xe1e;" horiz-adv-x="629" 
d="M80 334q-42 4 -58.5 27.5t-16.5 75.5q0 55 27 81t103 26q51 0 79 -11.5t39.5 -36t11.5 -66.5v-184l42 104h55l47 -104v283h185v-529h-191l-66 153l-66 -153h-191v334zM158.5 408q7.5 7 7.5 26t-7.5 26t-27.5 7t-27.5 -7t-7.5 -26t7.5 -26t27.5 -7t27.5 7z" />
    <glyph glyph-name="uni0E1F" unicode="&#xe1f;" horiz-adv-x="629" 
d="M80 334q-42 4 -58.5 27.5t-16.5 75.5q0 55 27 81t103 26q51 0 79 -11.5t39.5 -36t11.5 -66.5v-184l42 104h55l47 -104v468h185v-714h-191l-66 153l-66 -153h-191v334zM158.5 408q7.5 7 7.5 26t-7.5 26t-27.5 7t-27.5 -7t-7.5 -26t7.5 -26t27.5 -7t27.5 7z" />
    <glyph glyph-name="uni0E20" unicode="&#xe20;" horiz-adv-x="623" 
d="M42 11q-27 26 -27 81q0 52 16.5 75.5t58.5 27.5v19q0 32 6.5 49.5t27.5 38.5l-80 47v90q50 50 119.5 77.5t152.5 27.5q137 0 204.5 -55.5t67.5 -146.5v-342h-188v353q0 30 -22.5 48.5t-62.5 18.5q-48 0 -88 -20v-14l77 -46v-64q-19 -7 -24 -23t-5 -50v-78q0 -72 -28 -106
t-102 -34q-76 0 -103 26zM168.5 68q7.5 7 7.5 27q0 19 -7.5 26t-27.5 7t-27.5 -7t-7.5 -26q0 -18 7.5 -26t27.5 -8t27.5 7z" />
    <glyph glyph-name="uni0E21" unicode="&#xe21;" horiz-adv-x="578" 
d="M60.5 -2.5q-26.5 12.5 -36 35t-9.5 59.5q0 52 15 75.5t57 27.5v139q-42 4 -57 27.5t-15 75.5q0 55 27 81t103 26q52 0 80 -10.5t39 -35t11 -68.5v-248l80 -25v372h188v-529h-125l-138 55q-9 -36 -40 -53t-101 -17q-52 0 -78.5 12.5zM168.5 408q7.5 7 7.5 26t-7.5 26
t-27.5 7t-27.5 -7t-7.5 -26t7.5 -26t27.5 -7t27.5 7zM181.5 68q7.5 7 7.5 26t-7.5 26t-27.5 7t-27.5 -7t-7.5 -26t7.5 -26t27.5 -7t27.5 7z" />
    <glyph glyph-name="uni0E22" unicode="&#xe22;" horiz-adv-x="574" 
d="M82 28.5q-67 43.5 -67 125.5q0 33 11 56t39 40q-25 25 -36 62.5t-11 78.5v25q0 67 28 97.5t102 30.5q76 0 103 -26t27 -81q0 -52 -18 -76.5t-61 -24.5q0 -11 9.5 -19t29.5 -8h42v-111h-40q-39 0 -39 -42q0 -26 19.5 -36.5t57.5 -10.5q34 0 53.5 18.5t19.5 54.5v347h188
v-339q0 -95 -64.5 -150t-196.5 -55q-129 0 -196 43.5zM179.5 408q7.5 7 7.5 26t-7.5 26t-27.5 7t-27.5 -7t-7.5 -26t7.5 -26t27.5 -7t27.5 7z" />
    <glyph glyph-name="uni0E23" unicode="&#xe23;" horiz-adv-x="478" 
d="M154 11q-27 26 -27 81q0 52 15 75.5t57 27.5v21q0 20 -6 28.5t-27 15.5l-151 49v59q0 77 56.5 126.5t165.5 49.5q81 0 133.5 -16.5t92.5 -51.5l-69 -97q-53 41 -125 41q-66 0 -66 -32v-8l110 -36q42 -14 58 -40.5t16 -79.5v-125q0 -44 -11 -68.5t-39 -35t-80 -10.5
q-76 0 -103 26zM280.5 69q7.5 7 7.5 26t-7.5 26t-27.5 7t-27.5 -7t-7.5 -26t7.5 -26t27.5 -7t27.5 7z" />
    <glyph glyph-name="uni0E24" unicode="&#xe24;" horiz-adv-x="594" 
d="M371 353q0 30 -22.5 48.5t-62.5 18.5q-48 0 -88 -20v-14l67 -41v-64q-29 -9 -39 -22.5t-10 -41.5v-22q42 -4 58.5 -27.5t16.5 -75.5q0 -55 -27 -81t-103 -26q-74 0 -102 34t-28 106v60q0 47 12 74.5t42 47.5l-70 42v90q50 50 119.5 77.5t152.5 27.5q137 0 204.5 -55.5
t67.5 -146.5v-543h-188v554zM192.5 69q7.5 8 7.5 26q0 19 -7.5 26t-27.5 7t-27.5 -7t-7.5 -26q0 -20 7.5 -27t27.5 -7t27.5 8z" />
    <glyph glyph-name="uni0E25" unicode="&#xe25;" horiz-adv-x="554" 
d="M43 21.5q-28 36.5 -28 113.5q0 107 55 156.5t153 49.5q31 0 61.5 -4t46.5 -12v19q0 76 -104 76q-35 0 -68.5 -12t-59.5 -33l-70 99q43 33 103 51.5t129 18.5q128 0 193 -55t65 -150v-339h-175q0 86 -11.5 133t-34.5 65.5t-62 18.5q-41 0 -52 -23q47 0 69 -25.5t22 -76.5
q0 -55 -27 -81t-103 -26q-74 0 -102 36.5zM176.5 69q7.5 8 7.5 26q0 19 -7.5 26t-27.5 7t-27.5 -7t-7.5 -26q0 -20 7.5 -27t27.5 -7t27.5 8z" />
    <glyph glyph-name="uni0E26" unicode="&#xe26;" horiz-adv-x="623" 
d="M400 353q0 30 -22.5 48.5t-62.5 18.5q-48 0 -88 -20v-14l77 -46v-64q-19 -7 -24 -23t-5 -50v-78q0 -72 -28 -106t-102 -34q-76 0 -103 26t-27 81q0 52 16.5 75.5t58.5 27.5v19q0 32 6.5 49.5t27.5 38.5l-80 47v90q50 50 119.5 77.5t152.5 27.5q137 0 204.5 -55.5
t67.5 -146.5v-543h-188v554zM168.5 68q7.5 7 7.5 27q0 19 -7.5 26t-27.5 7t-27.5 -7t-7.5 -26q0 -18 7.5 -26t27.5 -8t27.5 7z" />
    <glyph glyph-name="uni0E27" unicode="&#xe27;" horiz-adv-x="462" 
d="M194 11q-27 26 -27 81q0 52 15 75.5t57 27.5v158q0 33 -19.5 50t-57.5 17q-26 0 -52.5 -12t-44.5 -30l-70 99q77 67 201 67q122 0 176.5 -51.5t54.5 -148.5v-245q0 -44 -11 -68.5t-39 -35t-80 -10.5q-76 0 -103 26zM320.5 69q7.5 7 7.5 26t-7.5 26t-27.5 7t-27.5 -7
t-7.5 -26t7.5 -26t27.5 -7t27.5 7z" />
    <glyph glyph-name="uni0E28" unicode="&#xe28;" horiz-adv-x="623" 
d="M577 495.5q-14 -27.5 -36 -47.5q38 -42 38 -131v-317h-188v130q-25 -15 -71 -15q-32 0 -50 7.5t-30 24.5l-17 -19v-128h-188v317q0 105 62 166t210 61q71 0 120 -20q14 14 22 52l144 -31q-2 -22 -16 -49.5zM391 316v29q0 38 -19 56.5t-65 18.5q-43 0 -63.5 -19t-20.5 -56
v-51q20 18 41 26t53 8q50 0 74 -12zM341.5 196q7.5 8 7.5 26q0 19 -7.5 26t-27.5 7t-27.5 -7t-7.5 -26q0 -20 7.5 -27t27.5 -7t27.5 8z" />
    <glyph glyph-name="uni0E29" unicode="&#xe29;" horiz-adv-x="619" 
d="M136 32q-59 47 -59 145v157q-42 4 -57 27.5t-15 75.5q0 55 27 81t103 26q52 0 80 -10.5t39 -35t11 -68.5v-263q0 -31 17 -44.5t49 -13.5q35 0 50 13t15 45v8q-46 0 -70 11.5t-33.5 35.5t-9.5 67t9.5 67t33.5 35.5t70 11.5v126h188v-352q0 -65 -23.5 -107t-78.5 -63.5
t-148 -21.5q-139 0 -198 47zM158.5 408q7.5 7 7.5 26t-7.5 26t-27.5 7t-27.5 -7t-7.5 -26t7.5 -26t27.5 -7t27.5 7zM431 267.5q7 6.5 7 25.5t-7 25.5t-27 6.5t-27 -6.5t-7 -25.5t7 -25.5t27 -6.5t27 6.5z" />
    <glyph glyph-name="uni0E2A" unicode="&#xe2a;" horiz-adv-x="564" 
d="M43 21.5q-28 36.5 -28 113.5q0 107 55 156.5t153 49.5q31 0 61.5 -4t46.5 -12v19q0 76 -100 76q-77 0 -132 -45l-70 99q43 33 103 51.5t129 18.5q32 0 62 -5.5t51 -15.5q10 8 16 20.5t10 32.5l144 -31q-2 -25 -17.5 -53t-43.5 -49q36 -36 36 -114v-329h-175
q0 86 -11.5 133t-34.5 65.5t-62 18.5q-41 0 -52 -23q47 0 69 -25.5t22 -76.5q0 -55 -27 -81t-103 -26q-74 0 -102 36.5zM176.5 69q7.5 8 7.5 26q0 19 -7.5 26t-27.5 7t-27.5 -7t-7.5 -26q0 -20 7.5 -27t27.5 -7t27.5 8z" />
    <glyph glyph-name="uni0E2B" unicode="&#xe2b;" horiz-adv-x="584" 
d="M77 334q-42 4 -57 27.5t-15 75.5q0 55 27 81t103 26q52 0 80 -10.5t39 -35t11 -68.5v-187l76 112q-35 19 -35 82q0 55 27 81t103 26q50 0 78 -10.5t40 -35t12 -68.5q0 -21 -11.5 -44t-28.5 -32q13 -11 17.5 -26.5t4.5 -41.5v-286h-188v182l-121 -182h-162v334zM158.5 408
q7.5 7 7.5 26t-7.5 26t-27.5 7t-27.5 -7t-7.5 -26t7.5 -26t27.5 -7t27.5 7zM459.5 408q7.5 7 7.5 26t-7.5 26t-27.5 7t-27.5 -7t-7.5 -26t7.5 -26t27.5 -7t27.5 7z" />
    <glyph glyph-name="uni0E2C" unicode="&#xe2c;" horiz-adv-x="629" 
d="M80 334q-42 4 -58.5 27.5t-16.5 75.5q0 55 27 81t103 26q51 0 79 -11.5t39.5 -36t11.5 -66.5v-184l42 104h55l47 -104v187q0 24 -10 35t-34 11h-33v123h27q29 0 39.5 11.5t10.5 41.5v59h185v-65q0 -35 -14 -66.5t-40 -43.5q54 -26 54 -107v-432h-191l-66 153l-66 -153
h-191v334zM158.5 408q7.5 7 7.5 26t-7.5 26t-27.5 7t-27.5 -7t-7.5 -26t7.5 -26t27.5 -7t27.5 7z" />
    <glyph glyph-name="uni0E2D" unicode="&#xe2d;" horiz-adv-x="553" 
d="M68 34q-52 49 -52 136v62q0 61 36.5 90t113.5 29q76 0 103 -26t27 -81q0 -99 -104 -99v-8q0 -28 69 -28q39 0 54 10t15 31v187q0 83 -110 83q-80 0 -135 -45l-70 99q43 33 105 51.5t130 18.5q268 0 268 -200v-185q0 -42 -24.5 -81.5t-82 -66t-150.5 -26.5q-141 0 -193 49
zM187.5 215q7.5 7 7.5 26t-7.5 26t-27.5 7t-27.5 -7t-7.5 -26t7.5 -26t27.5 -7t27.5 7z" />
    <glyph glyph-name="uni0E2E" unicode="&#xe2e;" horiz-adv-x="560" 
d="M68 34q-52 49 -52 136v62q0 61 36.5 90t113.5 29q76 0 103 -26t27 -81q0 -99 -104 -99v-8q0 -28 69 -28q39 0 54 10t15 31v187q0 83 -110 83q-80 0 -135 -45l-70 99q43 33 105 51.5t130 18.5q79 0 125 -20q18 15 21 52l144 -31q-2 -23 -18 -52t-39 -45q20 -20 27.5 -45
t7.5 -59v-185q0 -42 -24.5 -81.5t-82 -66t-150.5 -26.5q-141 0 -193 49zM187.5 215q7.5 7 7.5 26t-7.5 26t-27.5 7t-27.5 -7t-7.5 -26t7.5 -26t27.5 -7t27.5 7z" />
    <glyph glyph-name="uni0E2F" unicode="&#xe2f;" horiz-adv-x="563" 
d="M340 273q-41 -30 -136 -30q-81 0 -135 42.5t-54 117.5q0 53 11.5 83t39.5 44t79 14q76 0 103 -26t27 -81q0 -33 -7.5 -51.5t-27.5 -28.5q101 0 101 172h187v-529h-188v273zM175.5 404q7.5 7 7.5 26q0 18 -7.5 26t-27.5 8t-27.5 -7t-7.5 -27q0 -19 7.5 -26t27.5 -7t27.5 7
z" />
    <glyph glyph-name="uni0E30" unicode="&#xe30;" horiz-adv-x="440" 
d="M59.5 318.5q-44.5 29.5 -44.5 96.5q0 63 30 92.5t106 29.5q54 0 80 -12.5t34 -37t8 -71.5q25 0 44 10t44 30l64 -92q-38 -40 -88.5 -57.5t-122.5 -17.5q-110 0 -154.5 29.5zM174 398.5q7 6.5 7 24.5q0 19 -7 25.5t-26 6.5t-26 -6.5t-7 -25.5q0 -18 7 -24.5t26 -6.5
t26 6.5zM59.5 47.5q-44.5 29.5 -44.5 96.5q0 63 30 92.5t106 29.5q54 0 80 -12.5t34 -37t8 -71.5q25 0 44 10t44 30l64 -92q-38 -40 -88.5 -57.5t-122.5 -17.5q-110 0 -154.5 29.5zM174 127.5q7 6.5 7 24.5q0 19 -7 25.5t-26 6.5t-26 -6.5t-7 -25.5q0 -18 7 -24.5t26 -6.5
t26 6.5z" />
    <glyph glyph-name="uni0E31" unicode="&#xe31;" 
d="M-326.5 597.5q-48.5 31.5 -48.5 101.5q0 66 32 97.5t108 31.5q55 0 82.5 -14t37 -42t9.5 -79q32 0 69 16.5t65 42.5l71 -93q-95 -93 -258 -93q-119 0 -167.5 31.5zM-210.5 682q7.5 7 7.5 26t-7.5 26t-27.5 7t-27.5 -7t-7.5 -26t7.5 -26t27.5 -7t27.5 7z" />
    <glyph glyph-name="uni0E32" unicode="&#xe32;" horiz-adv-x="441" 
d="M218 343q0 41 -18.5 59t-54.5 18q-48 0 -87 -39l-68 96q40 34 86.5 50.5t107.5 16.5q125 0 173.5 -54t48.5 -150v-340h-188v343z" />
    <glyph glyph-name="uni0E33" unicode="&#xe33;" horiz-adv-x="441" 
d="M-227 606.5q-35 29.5 -35 89.5t35 89.5t96 29.5t96 -29.5t35 -89.5t-35 -89.5t-96 -29.5t-96 29.5zM-97 696q0 31 -34 31t-34 -31t34 -31t34 31zM218 343q0 41 -18.5 59t-54.5 18q-48 0 -87 -39l-68 96q40 34 86.5 50.5t107.5 16.5q125 0 173.5 -54t48.5 -150v-340h-188
v343z" />
    <glyph glyph-name="uni0E34" unicode="&#xe34;" 
d="M-480 737q73 56 181 56q109 0 182 -56t82 -160h-527q9 104 82 160zM-204 661q-13 37 -94 37q-83 0 -94 -37h188z" />
    <glyph glyph-name="uni0E35" unicode="&#xe35;" 
d="M-483 737.5q70 55.5 177 55.5q32 0 63 -6.5t49 -19.5v55h159v-245h-527q9 105 79 160.5zM-204 661q-7 20 -35 28.5t-66 8.5q-36 0 -58.5 -8.5t-28.5 -28.5h188z" />
    <glyph glyph-name="uni0E36" unicode="&#xe36;" 
d="M-479 737q73 56 181 56q16 0 34 -3t30 -8q6 21 31.5 33t65.5 12q48 0 72 -11.5t32 -33t8 -58.5q0 -26 -8 -42t-26 -26q22 -34 25 -79h-527q9 104 82 160zM-108.5 704.5q7.5 7.5 7.5 25.5q0 19 -7 25.5t-27 6.5t-27 -6.5t-7 -25.5t7.5 -26t26.5 -7t26.5 7.5zM-203 661
q-20 37 -94 37q-83 0 -94 -37h188z" />
    <glyph glyph-name="uni0E37" unicode="&#xe37;" 
d="M-489.5 731.5q63.5 54.5 160.5 54.5v36h131v-46q25 -7 32 -15v61h131v-245h-527q9 100 72.5 154.5zM-204 661q-7 20 -35 28.5t-66 8.5q-36 0 -58.5 -8.5t-28.5 -28.5h188z" />
    <glyph glyph-name="uni0E38" unicode="&#xe38;" 
d="M-223 -251q-42 4 -57 27.5t-15 75.5q0 55 27 81t103 26q52 0 80 -10.5t39 -35t11 -68.5v-166h-188v70zM-141.5 -177q7.5 7 7.5 26t-7.5 26t-27.5 7t-27.5 -7t-7.5 -26t7.5 -26t27.5 -7t27.5 7z" />
    <glyph glyph-name="uni0E39" unicode="&#xe39;" 
d="M-328.5 -314.5q-41.5 32.5 -41.5 79.5v4q-80 0 -80 95q0 48 27.5 71.5t88.5 23.5q44 0 67 -10.5t32 -33.5t9 -65v-61q0 -12 4.5 -17t16.5 -5q11 0 16 5t5 17v164h149v-161q0 -63 -40 -101t-130 -38q-82 0 -123.5 32.5zM-309.5 -168q7.5 7 7.5 26t-7.5 26t-27.5 7
t-27.5 -7t-7.5 -26t7.5 -26t27.5 -7t27.5 7z" />
    <glyph glyph-name="uni0E3A" unicode="&#xe3a;" 
d="M-202 -200.5q-20 19.5 -20 70.5q0 37 8.5 56.5t29 27.5t58.5 8q53 0 74 -19.5t21 -72.5q0 -48 -22 -69t-73 -21q-56 0 -76 19.5z" />
    <glyph glyph-name="uni0E3F" unicode="&#xe3f;" horiz-adv-x="604" 
d="M180 0h-175v116h21q21 0 30.5 10t9.5 30v337q0 37 -40 37h-21v117h175v120h165v-120h49q86 0 136 -45.5t50 -133.5q0 -42 -24 -79.5t-66 -60.5q49 -22 74 -55.5t25 -88.5q0 -86 -52 -135t-137 -49h-55v-120h-165v120zM328 383q28 0 48.5 18.5t20.5 55.5q0 34 -19 54
t-51 20h-76v-148h77zM334 116q32 0 52.5 18.5t20.5 57.5q0 40 -22.5 56t-53.5 16h-80v-148h83z" />
    <glyph glyph-name="uni0E40" unicode="&#xe40;" horiz-adv-x="295" 
d="M85 -4.5q-28 10.5 -39 35t-11 68.5v430h188v-334q42 -4 57 -27.5t15 -75.5q0 -55 -27 -81t-103 -26q-52 0 -80 10.5zM196.5 69q7.5 7 7.5 26t-7.5 26t-27.5 7t-27.5 -7t-7.5 -26t7.5 -26t27.5 -7t27.5 7z" />
    <glyph glyph-name="uni0E41" unicode="&#xe41;" horiz-adv-x="574" 
d="M85 -4.5q-28 10.5 -39 35t-11 68.5v430h188v-334q42 -4 57 -27.5t15 -75.5q0 -55 -27 -81t-103 -26q-52 0 -80 10.5zM364 -4.5q-28 10.5 -39 35t-11 68.5v430h188v-334q42 -4 57 -27.5t15 -75.5q0 -55 -27 -81t-103 -26q-52 0 -80 10.5zM196.5 69q7.5 7 7.5 26t-7.5 26
t-27.5 7t-27.5 -7t-7.5 -26t7.5 -26t27.5 -7t27.5 7zM475.5 69q7.5 7 7.5 26t-7.5 26t-27.5 7t-27.5 -7t-7.5 -26t7.5 -26t27.5 -7t27.5 7z" />
    <glyph glyph-name="uni0E42" unicode="&#xe42;" horiz-adv-x="355" 
d="M111 -4.5q-28 10.5 -39 35t-11 68.5v396q0 22 -3.5 31.5t-17.5 16.5l-95 50v102q41 32 98 49.5t121 17.5q65 0 111 -11t95 -42l-60 -93q-36 21 -64 28t-69 7q-36 0 -54 -9v-8l54 -28q31 -15 46 -31t20.5 -40t5.5 -67v-273q42 -4 57 -27.5t15 -75.5q0 -55 -27 -81
t-103 -26q-52 0 -80 10.5zM222.5 69q7.5 7 7.5 26t-7.5 26t-27.5 7t-27.5 -7t-7.5 -26t7.5 -26t27.5 -7t27.5 7z" />
    <glyph glyph-name="uni0E43" unicode="&#xe43;" horiz-adv-x="372" 
d="M132 -4.5q-28 10.5 -39 35t-11 68.5v267q0 39 16.5 67t49.5 68q26 29 39 49.5t13 44.5q0 19 -6.5 28t-22.5 9q-18 0 -25 -7t-7 -25v-47h-184v40q0 75 63.5 116t157.5 41q108 0 159.5 -40.5t51.5 -114.5q0 -33 -15 -59t-45 -62q-28 -34 -42.5 -59.5t-14.5 -55.5v-164
q42 -4 57 -27.5t15 -75.5q0 -55 -27 -81t-103 -26q-52 0 -80 10.5zM243.5 69q7.5 7 7.5 26t-7.5 26t-27.5 7t-27.5 -7t-7.5 -26t7.5 -26t27.5 -7t27.5 7z" />
    <glyph glyph-name="uni0E44" unicode="&#xe44;" horiz-adv-x="332" 
d="M91 -4.5q-28 10.5 -39 35t-11 68.5v364q0 51 9 81.5t32 61.5l25 33h-162v118h402v-83l-73 -72q-29 -29 -37 -58t-8 -87v-262q42 -4 57 -27.5t15 -75.5q0 -55 -27 -81t-103 -26q-52 0 -80 10.5zM202.5 69q7.5 7 7.5 26t-7.5 26t-27.5 7t-27.5 -7t-7.5 -26t7.5 -26t27.5 -7
t27.5 7z" />
    <glyph glyph-name="uni0E45" unicode="&#xe45;" horiz-adv-x="441" 
d="M218 343q0 41 -18.5 59t-54.5 18q-48 0 -87 -39l-68 96q40 34 86.5 50.5t107.5 16.5q125 0 173.5 -54t48.5 -150v-541h-188v544z" />
    <glyph glyph-name="uni0E46" unicode="&#xe46;" horiz-adv-x="576" 
d="M353 381q0 27 -5 36.5t-21 9.5q-14 0 -20 -8t-6 -24v-11h-86v11q0 15 -6.5 23.5t-18.5 8.5q-15 0 -21 -9t-6 -31v-10q50 0 73.5 -24.5t23.5 -78.5t-29.5 -80.5t-105.5 -26.5q-68 0 -94 33.5t-26 102.5v93q0 72 41.5 110t109.5 38q83 0 102 -60q12 30 43.5 45t76.5 15
q70 0 116.5 -37.5t46.5 -110.5v-396h-188v381zM156.5 251q7.5 7 7.5 26t-7.5 26t-27.5 7t-27.5 -7t-7.5 -26t7.5 -26t27.5 -7t27.5 7z" />
    <glyph glyph-name="uni0E47" unicode="&#xe47;" 
d="M-276 603l-14 15l-46 -41h-126v154q0 65 36 97.5t97 32.5h263v-95h-229q-24 0 -34 -10.5t-10 -34.5v-32l36 32h32l27 -27q0 31 23.5 46t62.5 15q52 0 74 -19.5t22 -65.5q0 -52 -24 -76.5t-84 -24.5q-73 0 -106 34zM-132 640q6 6 6 22t-6 22t-23 6t-23.5 -6t-6.5 -22
t6.5 -22t23.5 -6t23 6z" />
    <glyph glyph-name="uni0E48" unicode="&#xe48;" 
d="M-222 743h188v-166h-188v166z" />
    <glyph glyph-name="uni0E49" unicode="&#xe49;" 
d="M-311 655h27q15 0 20 14q-44 0 -63.5 19t-19.5 56q0 45 25.5 64.5t82.5 19.5t80 -20t23 -67q0 -38 -15 -66q29 7 39 29.5t10 72.5v22h133v-25q0 -87 -50 -142t-139 -55h-153v78zM-215.5 722q6.5 6 6.5 23t-6.5 23t-24.5 6t-24.5 -6t-6.5 -23t6.5 -23t24.5 -6t24.5 6z" />
    <glyph glyph-name="uni0E4A" unicode="&#xe4a;" 
d="M-457 601.5q-24 24.5 -24 82.5q0 54 25 77.5t86 23.5q49 0 76 -25q12 12 30.5 18.5t38.5 6.5q81 0 81 -69v-17h7q14 0 14 21v63h108v-64q0 -60 -31.5 -89t-77.5 -29h-116v72q0 8 -3 11.5t-10 3.5q-4 0 -13 -3v-16q0 -92 -108 -92q-59 0 -83 24.5zM-348 656q7 6 7 24
t-7 24.5t-26 6.5q-18 0 -25 -6.5t-7 -24.5t7 -24t25 -6q19 0 26 6z" />
    <glyph glyph-name="uni0E4B" unicode="&#xe4b;" 
d="M-263 611h-49v108h49v36h178v-36h50v-108h-50v-34h-178v34z" />
    <glyph glyph-name="uni0E4C" unicode="&#xe4c;" 
d="M-303.5 580q-28.5 13 -40 39.5t-11.5 71.5q0 65 49 96.5t158 31.5h157v-112h-112q0 -64 -26.5 -102t-93.5 -38q-52 0 -80.5 13zM-200.5 656q7.5 7 7.5 26t-7.5 26t-27.5 7t-27.5 -7t-7.5 -26t7.5 -26t27.5 -7t27.5 7z" />
    <glyph glyph-name="uni0E4D" unicode="&#xe4d;" 
d="M-227 606.5q-35 29.5 -35 89.5t35 89.5t96 29.5t96 -29.5t35 -89.5t-35 -89.5t-96 -29.5t-96 29.5zM-97 696q0 31 -34 31t-34 -31t34 -31t34 31z" />
    <glyph glyph-name="uni0E4E" unicode="&#xe4e;" 
d="M-252.5 598.5q-31.5 21.5 -31.5 58.5q0 26 8 41t28 27q-36 20 -36 66q0 35 25 56t69 21h117v-84h-60q-8 0 -11.5 -2.5t-3.5 -8.5q0 -11 14 -11h37v-74h-39q-8 0 -12 -2.5t-4 -8.5q0 -8 8.5 -10.5t22.5 -2.5q20 0 42 15l33 -68q-39 -34 -118 -34q-57 0 -88.5 21.5z" />
    <glyph glyph-name="uni0E4F" unicode="&#xe4f;" horiz-adv-x="548" 
d="M133.5 17q-58.5 32 -88.5 89.5t-30 132.5t30 133t88.5 90.5t140.5 32.5t140.5 -32.5t88.5 -90.5t30 -133t-30 -132.5t-88.5 -89.5t-140.5 -32t-140.5 32zM382.5 125q40.5 39 40.5 114q0 76 -40.5 115.5t-108.5 39.5t-108.5 -39.5t-40.5 -115.5q0 -75 40.5 -114t108.5 -39
t108.5 39zM177.5 144.5q-33.5 35.5 -33.5 94.5q0 60 33.5 96t96.5 36t96.5 -36t33.5 -96q0 -59 -33.5 -94.5t-96.5 -35.5t-96.5 35.5zM306 240q0 16 -8.5 24.5t-23.5 8.5t-23.5 -8.5t-8.5 -24.5q0 -33 32 -33t32 33z" />
    <glyph glyph-name="uni0E50" unicode="&#xe50;" horiz-adv-x="602" 
d="M86 52q-71 67 -71 187q0 121 71 188.5t216 67.5t215 -67.5t70 -188.5t-70 -187.5t-215 -66.5t-216 67zM381 133.5q22 29.5 22 105.5t-22.5 106.5t-78.5 30.5t-78.5 -30.5t-22.5 -106.5t22 -105.5t79 -29.5t79 29.5z" />
    <glyph glyph-name="uni0E51" unicode="&#xe51;" horiz-adv-x="599" 
d="M174 75q122 12 179 53.5t57 119.5q0 61 -30 94.5t-99 33.5q-45 0 -75 -22t-32 -61q18 28 40.5 40.5t60.5 12.5q58 0 81 -26t23 -87q0 -59 -43 -89.5t-126 -30.5q-89 0 -142 39.5t-53 119.5q0 102 71 162.5t204 60.5q162 0 228 -71t66 -176q0 -124 -97.5 -204t-286.5 -95z
M285.5 205q7.5 7 7.5 26q0 20 -7.5 27t-27.5 7t-27.5 -8t-7.5 -26q0 -19 7.5 -26t27.5 -7t27.5 7z" />
    <glyph glyph-name="uni0E52" unicode="&#xe52;" horiz-adv-x="690" 
d="M110.5 53.5q-75.5 68.5 -75.5 195.5v295h159v-290q0 -74 33 -112t116 -38q68 0 104.5 19.5t50 54t13.5 85.5v69q0 26 -5.5 36t-19.5 10t-19.5 -6.5t-5.5 -21.5v-15h-70v15q0 28 -23 28q-15 0 -21 -10t-6 -37v-15q55 0 76 -21.5t21 -70.5t-23 -72t-90 -23
q-58 0 -83.5 33.5t-25.5 101.5v83q0 148 118 148q41 0 61.5 -12.5t30.5 -43.5q12 31 36.5 43.5t68.5 12.5q64 0 94 -36.5t30 -111.5v-84q0 -134 -69 -206t-243 -72q-157 0 -232.5 68.5zM354.5 201q6.5 6 6.5 23t-6.5 23t-24.5 6t-24.5 -6t-6.5 -23t6.5 -23t24.5 -6t24.5 6z
" />
    <glyph glyph-name="uni0E53" unicode="&#xe53;" horiz-adv-x="626" 
d="M86 -3q-28 12 -39.5 38t-11.5 71v241q0 71 46 109.5t115 38.5q43 0 73 -15t39 -45q11 30 47.5 45t82.5 15q69 0 111 -37.5t42 -110.5v-347h-178v332q0 28 -4 37t-21 9q-14 0 -19.5 -8t-5.5 -24v-93h-110v93q0 32 -23 32q-15 0 -21 -10t-6 -37v-136q49 0 70.5 -24.5
t21.5 -78.5q0 -55 -27 -81t-103 -26q-51 0 -79 12zM196.5 69q7.5 7 7.5 26t-7.5 26t-27.5 7t-27.5 -7t-7.5 -26t7.5 -26t27.5 -7t27.5 7z" />
    <glyph glyph-name="uni0E54" unicode="&#xe54;" horiz-adv-x="612" 
d="M69 49q-54 49 -54 134v74q0 104 67 163.5t193 59.5h105q28 0 47.5 3t44.5 17t51 44l94 -86q-43 -59 -96 -80t-141 -21h-80q-54 0 -80.5 -28.5t-26.5 -77.5v-67q0 -36 10.5 -48.5t28.5 -12.5h15v95q0 45 10 70t37 36t78 11q52 0 80.5 -11.5t39 -33.5t10.5 -58
q0 -49 -25 -72t-73 -23v-14h148v-123h-327q-102 0 -156 49zM399.5 203q7.5 7 7.5 26t-7.5 26t-27.5 7t-27.5 -7t-7.5 -26t7.5 -26t27.5 -7t27.5 7z" />
    <glyph glyph-name="uni0E55" unicode="&#xe55;" horiz-adv-x="612" 
d="M69 49q-54 49 -54 134v74q0 91 53 147t156 72q-5 10 -5 32q0 43 24 66t89 23q47 0 71.5 -12t33 -35t8.5 -63q25 7 42.5 19t35.5 38l94 -86q-40 -54 -95.5 -77.5t-141.5 -23.5h-80q-54 0 -80.5 -28.5t-26.5 -77.5v-67q0 -36 10.5 -48.5t28.5 -12.5h15v95q0 45 10 70t37 36
t78 11q52 0 80.5 -11.5t39 -33.5t10.5 -58q0 -49 -25 -72t-73 -23v-14h148v-123h-327q-102 0 -156 49zM364.5 462q7.5 7 7.5 26t-7.5 26t-27.5 7t-27.5 -7t-7.5 -26t7.5 -26t27.5 -7t27.5 7zM399.5 203q7.5 7 7.5 26t-7.5 26t-27.5 7t-27.5 -7t-7.5 -26t7.5 -26t27.5 -7
t27.5 7z" />
    <glyph glyph-name="uni0E56" unicode="&#xe56;" horiz-adv-x="600" 
d="M140.5 30.5q-66.5 45.5 -66.5 122.5q0 50 11.5 79.5t39.5 44t79 14.5q76 0 103 -26t27 -81q0 -31 -3.5 -48.5t-15.5 -31.5q44 0 70 37t26 94q0 65 -25.5 97t-72.5 32q-68 0 -98 -51h-136l-84 200l152 50l44 -110q22 16 63.5 29t77.5 13q133 0 198 -70.5t65 -189.5
q0 -113 -71.5 -181.5t-205.5 -68.5q-111 0 -177.5 45.5zM235.5 155q7.5 7 7.5 26q0 18 -7.5 26t-27.5 8t-27.5 -7t-7.5 -27q0 -19 7.5 -26t27.5 -7t27.5 7z" />
    <glyph glyph-name="uni0E57" unicode="&#xe57;" horiz-adv-x="801" 
d="M78.5 -3q-25.5 12 -34.5 37.5t-9 71.5v241q0 72 41.5 110t109.5 38q88 0 107 -60q11 30 45 45t80 15q137 0 137 -148v-224q22 0 32.5 9.5t10.5 31.5v380h168v-341q0 -96 -50 -149.5t-157 -53.5h-166v332q0 28 -4 37t-21 9q-14 0 -19.5 -8t-5.5 -24v-93h-100v93
q0 32 -23 32q-15 0 -21 -10t-6 -37v-136q50 0 73.5 -24.5t23.5 -78.5t-29.5 -80.5t-105.5 -26.5q-51 0 -76.5 12zM186.5 69q7.5 7 7.5 26t-7.5 26t-27.5 7t-27.5 -7t-7.5 -26t7.5 -26t27.5 -7t27.5 7z" />
    <glyph glyph-name="uni0E58" unicode="&#xe58;" horiz-adv-x="577" 
d="M57 22.5q-42 37.5 -42 110.5v139q0 101 54 154.5t163 53.5h93q59 0 93 13t66 50l98 -75q-73 -111 -206 -111h-83q-55 0 -77.5 -24t-22.5 -83v-98q0 -27 7 -38.5t22 -11.5q14 0 21.5 6.5t7.5 17.5v20h111v-20q0 -15 5.5 -19.5t17.5 -4.5q15 0 21.5 5t6.5 19v21
q-78 0 -78 90q0 52 25.5 76.5t97.5 24.5q48 0 74.5 -11.5t37.5 -36t11 -67.5v-90q0 -48 -24 -81.5t-63 -50t-84 -16.5q-43 0 -73 15t-39 45q-11 -30 -47.5 -45t-82.5 -15q-69 0 -111 37.5zM484.5 211q7.5 7 7.5 26t-7.5 26t-27.5 7t-27.5 -7t-7.5 -26t7.5 -26t27.5 -7
t27.5 7z" />
    <glyph glyph-name="uni0E59" unicode="&#xe59;" horiz-adv-x="662" 
d="M60 12.5q-25 27.5 -25 93.5v227q0 80 37.5 121t117.5 41q51 0 77.5 -11.5t43.5 -37.5q40 49 110 49q80 0 110 -56q11 0 13 11t2 45h121q0 -70 -12 -112.5t-43.5 -64t-90.5 -21.5h-53q0 43 -8 62t-27 19q-27 0 -27 -29q0 -8 1 -12l66 -337h-158l-63 331q-5 25 -12 36
t-21 11q-27 0 -27 -46l-3 -137q49 0 71 -24.5t22 -78.5q0 -55 -27 -81t-103 -26q-67 0 -92 27.5zM183.5 69q7.5 7 7.5 26t-7.5 26t-27.5 7t-27.5 -7t-7.5 -26t7.5 -26t27.5 -7t27.5 7z" />
    <glyph glyph-name="uni0E5A" unicode="&#xe5a;" horiz-adv-x="811" 
d="M340 273q-41 -30 -136 -30q-81 0 -135 42.5t-54 117.5q0 53 11.5 83t39.5 44t79 14q76 0 103 -26t27 -81q0 -33 -7.5 -51.5t-27.5 -28.5q101 0 101 172h187v-167q35 10 48 47t13 120h187v-529h-188v273q-24 -18 -60 -24v-249h-188v273zM175.5 404q7.5 7 7.5 26
q0 18 -7.5 26t-27.5 8t-27.5 -7t-7.5 -27q0 -19 7.5 -26t27.5 -7t27.5 7z" />
    <glyph glyph-name="uni0E5B" unicode="&#xe5b;" horiz-adv-x="1100" 
d="M152 16.5q-66 31.5 -101.5 89.5t-35.5 135q0 111 62.5 181t194.5 70q112 0 170.5 -53.5t58.5 -144.5q0 -84 -48 -130.5t-127 -46.5q-85 0 -120.5 31.5t-35.5 101.5q0 50 22.5 77t73.5 27q49 0 73.5 -22t24.5 -72q0 -38 -29 -56q29 2 39.5 19.5t10.5 47.5q0 58 -29 83.5
t-84 25.5q-65 0 -96.5 -34t-31.5 -105q0 -69 44.5 -107.5t126.5 -38.5q67 0 113.5 25t69.5 66.5t23 91.5q0 81 31 113.5t104 32.5q70 0 97.5 -33t27.5 -89v-62q0 -8 2 -11t8 -3q7 0 9 3t2 11v53q0 54 32 76t86 22q55 0 84 -23t29 -59v-16h72v-116h-175v78v7q0 10 -2 13
t-10 3t-9 -4.5t-1 -23.5v-16q0 -51 -30.5 -86.5t-86.5 -35.5q-64 0 -96.5 29.5t-32.5 94.5v28q0 13 -3 17.5t-12 4.5q-8 0 -10.5 -8t-2.5 -30q0 -75 -40.5 -135t-114.5 -94t-171 -34q-90 0 -156 31.5zM289.5 238.5q6.5 6.5 6.5 21.5q0 16 -6 21.5t-23 5.5q-16 0 -22.5 -5.5
t-6.5 -21.5q0 -15 6.5 -21.5t22.5 -6.5t22.5 6.5z" />
    <glyph glyph-name="uni1E0C" unicode="&#x1e0c;" horiz-adv-x="640" 
d="M15 116h21q41 0 41 40v337q0 37 -41 37h-21v117h324q143 0 214.5 -83t71.5 -243q0 -91 -32 -163.5t-96.5 -115t-157.5 -42.5h-324v116zM311 116q74 0 102.5 50.5t28.5 154.5q0 107 -28.5 158.5t-102.5 51.5h-49v-415h49zM215 -60h129v-137h-129v137z" />
    <glyph glyph-name="uni1E0D" unicode="&#x1e0d;" horiz-adv-x="586" 
d="M74 47q-59 61 -59 179q0 130 57.5 199.5t169.5 69.5q43 0 73 -10t61 -33v53q0 38 -41 38h-11v119h214v-512q0 -22 7 -30t28 -8h8v-112h-162l-8 61q-34 -38 -76 -56.5t-100 -18.5q-102 0 -161 61zM345.5 125.5q19.5 35.5 19.5 91.5v43q0 61 -19 93t-63 32q-48 0 -66 -37.5
t-18 -118.5q0 -53 7 -82.5t25 -43t52 -13.5q43 0 62.5 35.5zM206 -60h129v-137h-129v137z" />
    <glyph glyph-name="uni1E0E" unicode="&#x1e0e;" horiz-adv-x="640" 
d="M15 116h21q41 0 41 40v337q0 37 -41 37h-21v117h324q143 0 214.5 -83t71.5 -243q0 -91 -32 -163.5t-96.5 -115t-157.5 -42.5h-324v116zM311 116q74 0 102.5 50.5t28.5 154.5q0 107 -28.5 158.5t-102.5 51.5h-49v-415h49zM121 -44h317v-105h-317v105z" />
    <glyph glyph-name="uni1E0F" unicode="&#x1e0f;" horiz-adv-x="586" 
d="M74 47q-59 61 -59 179q0 130 57.5 199.5t169.5 69.5q43 0 73 -10t61 -33v53q0 38 -41 38h-11v119h214v-512q0 -22 7 -30t28 -8h8v-112h-162l-8 61q-34 -38 -76 -56.5t-100 -18.5q-102 0 -161 61zM345.5 125.5q19.5 35.5 19.5 91.5v43q0 61 -19 93t-63 32q-48 0 -66 -37.5
t-18 -118.5q0 -53 7 -82.5t25 -43t52 -13.5q43 0 62.5 35.5zM147 -44h317v-105h-317v105z" />
    <glyph glyph-name="uni1E20" unicode="&#x1e20;" horiz-adv-x="640" 
d="M200 822h317v-105h-317v105zM172.5 26.5q-77.5 42.5 -117.5 118t-40 173.5q0 100 37 177.5t113.5 122t188.5 44.5q84 0 141 -15t104 -49v-138h-185v74q-25 11 -60 11q-74 0 -115 -60t-41 -167q0 -105 43.5 -161t127.5 -56q38 0 71 8v139h-116v116h301v-303
q-106 -77 -265 -77q-110 0 -187.5 42.5z" />
    <glyph glyph-name="uni1E21" unicode="&#x1e21;" horiz-adv-x="585" 
d="M152 645h317v-105h-317v105zM193.5 -181.5q-51.5 18.5 -92.5 54.5v77h153v-27q23 -19 63 -19q31 0 45 18t14 48v72q-29 -22 -60 -32t-75 -10q-110 0 -168 61t-58 187q0 118 62.5 182.5t165.5 64.5q61 0 99.5 -19t67.5 -61l8 65h162v-115h-10q-19 0 -26 -10t-7 -32v-318
q0 -94 -56.5 -149.5t-161.5 -55.5q-74 0 -125.5 18.5zM345.5 138.5q18.5 32.5 18.5 92.5v31q0 57 -18.5 93t-62.5 36q-49 0 -66.5 -32t-17.5 -111q0 -53 7 -83.5t25 -44.5t52 -14q44 0 62.5 32.5z" />
    <glyph glyph-name="uni1E24" unicode="&#x1e24;" horiz-adv-x="691" 
d="M15 116h21q21 0 30.5 10t9.5 30v337q0 37 -40 37h-21v117h297v-117h-11q-40 0 -40 -37v-111h168v108q0 20 -9.5 30t-30.5 10h-11v117h298v-117h-21q-41 0 -41 -37v-337q0 -40 41 -40h21v-116h-298v116h11q21 0 30.5 10t9.5 30v110h-168v-110q0 -40 41 -40h10v-116h-297
v116zM281 -60h129v-137h-129v137z" />
    <glyph glyph-name="uni1E25" unicode="&#x1e25;" horiz-adv-x="613" 
d="M15 118h10q42 0 42 38v350q0 18 -10.5 28t-31.5 10h-10v118h214v-218q38 31 74 41t85 10q84 0 122 -43t38 -127v-169q0 -38 41 -38h19v-118h-248v324q0 31 -13 45t-39 14q-28 0 -41 -13.5t-13 -45.5v-168q0 -38 33 -38h14v-118h-286v118zM258 -60h129v-137h-129v137z" />
    <glyph glyph-name="uni1E2A" unicode="&#x1e2a;" horiz-adv-x="691" 
d="M15 116h21q21 0 30.5 10t9.5 30v337q0 37 -40 37h-21v117h297v-117h-11q-40 0 -40 -37v-111h168v108q0 20 -9.5 30t-30.5 10h-11v117h298v-117h-21q-41 0 -41 -37v-337q0 -40 41 -40h21v-116h-298v116h11q21 0 30.5 10t9.5 30v110h-168v-110q0 -40 41 -40h10v-116h-297
v116zM207 -165q-49 44 -49 119h153q0 -27 8 -41.5t27 -14.5q22 0 28.5 13.5t6.5 42.5h153q0 -75 -49 -119t-139 -44t-139 44z" />
    <glyph glyph-name="uni1E2B" unicode="&#x1e2b;" horiz-adv-x="613" 
d="M15 118h10q42 0 42 38v350q0 18 -10.5 28t-31.5 10h-10v118h214v-218q38 31 74 41t85 10q84 0 122 -43t38 -127v-169q0 -38 41 -38h19v-118h-248v324q0 31 -13 45t-39 14q-28 0 -41 -13.5t-13 -45.5v-168q0 -38 33 -38h14v-118h-286v118zM190 -165q-49 44 -49 119h153
q0 -27 8 -41.5t27 -14.5q22 0 28.5 13.5t6.5 42.5h153q0 -75 -49 -119t-139 -44t-139 44z" />
    <glyph glyph-name="uni1E36" unicode="&#x1e36;" horiz-adv-x="518" 
d="M15 116h21q41 0 41 40v337q0 37 -41 37h-21v117h308v-117h-21q-40 0 -40 -37v-377h62q41 0 41 40v43h168v-199h-518v116zM212 -60h129v-137h-129v137z" />
    <glyph glyph-name="uni1E37" unicode="&#x1e37;" horiz-adv-x="332" 
d="M15 118h21q22 0 31.5 10t9.5 30v347q0 38 -41 38h-21v119h250v-506q0 -38 41 -38h21v-118h-312v118zM106 -60h129v-137h-129v137z" />
    <glyph glyph-name="uni1E38" unicode="&#x1e38;" horiz-adv-x="518" 
d="M15 806h317v-105h-317v105zM15 116h21q41 0 41 40v337q0 37 -41 37h-21v117h308v-117h-21q-40 0 -40 -37v-377h62q41 0 41 40v43h168v-199h-518v116zM212 -60h129v-137h-129v137z" />
    <glyph glyph-name="uni1E39" unicode="&#x1e39;" horiz-adv-x="332" 
d="M-11 782h317v-105h-317v105zM15 118h21q22 0 31.5 10t9.5 30v347q0 38 -41 38h-21v119h250v-506q0 -38 41 -38h21v-118h-312v118zM106 -60h129v-137h-129v137z" />
    <glyph glyph-name="uni1E3A" unicode="&#x1e3a;" horiz-adv-x="518" 
d="M15 116h21q41 0 41 40v337q0 37 -41 37h-21v117h308v-117h-21q-40 0 -40 -37v-377h62q41 0 41 40v43h168v-199h-518v116zM111 -44h317v-105h-317v105z" />
    <glyph glyph-name="uni1E3B" unicode="&#x1e3b;" horiz-adv-x="332" 
d="M15 118h21q22 0 31.5 10t9.5 30v347q0 38 -41 38h-21v119h250v-506q0 -38 41 -38h21v-118h-312v118zM15 -44h317v-105h-317v105z" />
    <glyph glyph-name="uni1E42" unicode="&#x1e42;" horiz-adv-x="773" 
d="M15 116h21q41 0 41 40v336q0 39 -41 39h-21v116h241l131 -300l130 300h241v-116h-21q-40 0 -40 -39v-336q0 -20 9.5 -30t30.5 -10h21v-116h-305v116h21q41 0 41 37v218l-75 -174h-107l-75 174v-218q0 -37 41 -37h21v-116h-305v116zM324 -60h129v-137h-129v137z" />
    <glyph glyph-name="uni1E43" unicode="&#x1e43;" horiz-adv-x="878" 
d="M15 118h11q41 0 41 38v167q0 18 -10.5 28t-30.5 10h-11v119h162l8 -67q32 41 78.5 61.5t104.5 20.5q78 0 131 -61q27 33 63 47t82 14q89 0 129 -43t40 -127v-169q0 -38 41 -38h19v-118h-242v324q0 31 -13 45t-39 14q-28 0 -41 -13.5t-13 -44.5v-169q0 -19 7.5 -28.5
t26.5 -9.5h15v-118h-220v324q0 31 -13 45t-39 14q-28 0 -41 -13.5t-13 -45.5v-168q0 -38 33 -38h14v-118h-280v118zM376 -60h129v-137h-129v137z" />
    <glyph glyph-name="uni1E44" unicode="&#x1e44;" horiz-adv-x="698" 
d="M270 854h130v-137h-130v137zM15 117h21q40 0 40 37v339q0 37 -40 37h-21v117h196l227 -354v200q0 37 -41 37h-21v117h307v-117h-21q-41 0 -41 -37v-493h-135l-226 350v-196q0 -17 10.5 -27t30.5 -10h21v-117h-307v117z" />
    <glyph glyph-name="uni1E45" unicode="&#x1e45;" horiz-adv-x="613" 
d="M221 677h130v-137h-130v137zM15 118h10q42 0 42 38v166q0 38 -39 38h-13v120h168l7 -64q65 79 184 79q90 0 132 -43.5t42 -126.5v-169q0 -38 41 -38h19v-118h-248v324q0 31 -13 45t-39 14q-28 0 -41 -13.5t-13 -45.5v-168q0 -19 7.5 -28.5t26.5 -9.5h13v-118h-286v118z
" />
    <glyph glyph-name="uni1E46" unicode="&#x1e46;" horiz-adv-x="698" 
d="M15 117h21q40 0 40 37v339q0 37 -40 37h-21v117h196l227 -354v200q0 37 -41 37h-21v117h307v-117h-21q-41 0 -41 -37v-493h-135l-226 350v-196q0 -17 10.5 -27t30.5 -10h21v-117h-307v117zM282 -60h129v-137h-129v137z" />
    <glyph glyph-name="uni1E47" unicode="&#x1e47;" horiz-adv-x="613" 
d="M15 118h10q42 0 42 38v166q0 38 -39 38h-13v120h168l7 -64q65 79 184 79q90 0 132 -43.5t42 -126.5v-169q0 -38 41 -38h19v-118h-248v324q0 31 -13 45t-39 14q-28 0 -41 -13.5t-13 -45.5v-168q0 -19 7.5 -28.5t26.5 -9.5h13v-118h-286v118zM227 -60h129v-137h-129v137z
" />
    <glyph glyph-name="uni1E48" unicode="&#x1e48;" horiz-adv-x="698" 
d="M15 117h21q40 0 40 37v339q0 37 -40 37h-21v117h196l227 -354v200q0 37 -41 37h-21v117h307v-117h-21q-41 0 -41 -37v-493h-135l-226 350v-196q0 -17 10.5 -27t30.5 -10h21v-117h-307v117zM174 -44h317v-105h-317v105z" />
    <glyph glyph-name="uni1E49" unicode="&#x1e49;" horiz-adv-x="613" 
d="M15 118h10q42 0 42 38v166q0 38 -39 38h-13v120h168l7 -64q65 79 184 79q90 0 132 -43.5t42 -126.5v-169q0 -38 41 -38h19v-118h-248v324q0 31 -13 45t-39 14q-28 0 -41 -13.5t-13 -45.5v-168q0 -19 7.5 -28.5t26.5 -9.5h13v-118h-286v118zM138 -44h317v-105h-317v105z
" />
    <glyph glyph-name="uni1E5A" unicode="&#x1e5a;" horiz-adv-x="642" 
d="M15 116h21q41 0 41 37v340q0 37 -41 37h-21v117h359q115 0 180 -53t65 -157q0 -133 -123 -193l60 -101q8 -15 20.5 -21t34.5 -6h16v-116h-262v116h32l-62 105h-73v-73q0 -18 6.5 -25t23.5 -7h12v-116h-289v116zM348 337q47 0 67.5 24t20.5 76t-20.5 72.5t-67.5 20.5h-86
v-193h86zM250 -60h129v-137h-129v137z" />
    <glyph glyph-name="uni1E5B" unicode="&#x1e5b;" horiz-adv-x="417" 
d="M15 118h11q41 0 41 38v168q0 18 -8.5 28t-29.5 10h-12v118h206l11 -48q17 25 49.5 36.5t63.5 11.5h65v-118h-94q-34 0 -48.5 -16t-14.5 -50v-140q0 -19 8.5 -28.5t28.5 -9.5h10v-118h-287v118zM97 -60h129v-137h-129v137z" />
    <glyph glyph-name="uni1E5C" unicode="&#x1e5c;" horiz-adv-x="642" 
d="M135 822h317v-105h-317v105zM15 116h21q41 0 41 37v340q0 37 -41 37h-21v117h359q115 0 180 -53t65 -157q0 -133 -123 -193l60 -101q8 -15 20.5 -21t34.5 -6h16v-116h-262v116h32l-62 105h-73v-73q0 -18 6.5 -25t23.5 -7h12v-116h-289v116zM348 337q47 0 67.5 24t20.5 76
t-20.5 72.5t-67.5 20.5h-86v-193h86zM250 -60h129v-137h-129v137z" />
    <glyph glyph-name="uni1E5D" unicode="&#x1e5d;" horiz-adv-x="417" 
d="M34 645h317v-105h-317v105zM15 118h11q41 0 41 38v168q0 18 -8.5 28t-29.5 10h-12v118h206l11 -48q17 25 49.5 36.5t63.5 11.5h65v-118h-94q-34 0 -48.5 -16t-14.5 -50v-140q0 -19 8.5 -28.5t28.5 -9.5h10v-118h-287v118zM97 -60h129v-137h-129v137z" />
    <glyph glyph-name="uni1E5E" unicode="&#x1e5e;" horiz-adv-x="642" 
d="M15 116h21q41 0 41 37v340q0 37 -41 37h-21v117h359q115 0 180 -53t65 -157q0 -133 -123 -193l60 -101q8 -15 20.5 -21t34.5 -6h16v-116h-262v116h32l-62 105h-73v-73q0 -18 6.5 -25t23.5 -7h12v-116h-289v116zM348 337q47 0 67.5 24t20.5 76t-20.5 72.5t-67.5 20.5h-86
v-193h86zM132 -44h317v-105h-317v105z" />
    <glyph glyph-name="uni1E5F" unicode="&#x1e5f;" horiz-adv-x="417" 
d="M15 118h11q41 0 41 38v168q0 18 -8.5 28t-29.5 10h-12v118h206l11 -48q17 25 49.5 36.5t63.5 11.5h65v-118h-94q-34 0 -48.5 -16t-14.5 -50v-140q0 -19 8.5 -28.5t28.5 -9.5h10v-118h-287v118zM15 -44h317v-105h-317v105z" />
    <glyph glyph-name="uni1E60" unicode="&#x1e60;" horiz-adv-x="556" 
d="M216 854h130v-137h-130v137zM15 72v125h186v-77q33 -18 84 -18q37 0 55 14.5t18 46.5q0 22 -13.5 37t-36.5 26.5t-79 35.5q-74 32 -118 60.5t-67.5 65.5t-23.5 90q0 90 75 137t190 47q85 0 142 -24t103 -66v-112h-186v68q-29 17 -69 17q-72 0 -72 -60q0 -25 17.5 -43.5
t39 -29t62.5 -27.5q90 -37 132 -60.5t64.5 -58.5t22.5 -93q0 -54 -29.5 -96.5t-87.5 -67t-139 -24.5q-165 0 -270 87z" />
    <glyph glyph-name="uni1E61" unicode="&#x1e61;" horiz-adv-x="488" 
d="M170 677h130v-137h-130v137zM116 0.5q-55 15.5 -101 51.5v89h166v-31q20 -14 50 -14q47 0 47 30q0 17 -11 25.5t-47 23.5q-18 7 -60 26q-49 23 -77 40.5t-46 44t-18 65.5q0 71 58 107.5t158 36.5q67 0 126 -17t103 -51v-83h-161v24q-21 15 -47 15q-42 0 -42 -32
q0 -15 15.5 -27t43.5 -23.5t58 -22.5q76 -29 109 -61.5t33 -90.5q0 -141 -229 -141q-73 0 -128 15.5z" />
    <glyph glyph-name="uni1E62" unicode="&#x1e62;" horiz-adv-x="556" 
d="M15 72v125h186v-77q33 -18 84 -18q37 0 55 14.5t18 46.5q0 22 -13.5 37t-36.5 26.5t-79 35.5q-74 32 -118 60.5t-67.5 65.5t-23.5 90q0 90 75 137t190 47q85 0 142 -24t103 -66v-112h-186v68q-29 17 -69 17q-72 0 -72 -60q0 -25 17.5 -43.5t39 -29t62.5 -27.5
q90 -37 132 -60.5t64.5 -58.5t22.5 -93q0 -54 -29.5 -96.5t-87.5 -67t-139 -24.5q-165 0 -270 87zM208 -60h129v-137h-129v137z" />
    <glyph glyph-name="uni1E63" unicode="&#x1e63;" horiz-adv-x="488" 
d="M116 0.5q-55 15.5 -101 51.5v89h166v-31q20 -14 50 -14q47 0 47 30q0 17 -11 25.5t-47 23.5q-18 7 -60 26q-49 23 -77 40.5t-46 44t-18 65.5q0 71 58 107.5t158 36.5q67 0 126 -17t103 -51v-83h-161v24q-21 15 -47 15q-42 0 -42 -32q0 -15 15.5 -27t43.5 -23.5t58 -22.5
q76 -29 109 -61.5t33 -90.5q0 -141 -229 -141q-73 0 -128 15.5zM190 -60h129v-137h-129v137z" />
    <glyph glyph-name="uni1E6C" unicode="&#x1e6c;" horiz-adv-x="633" 
d="M163 117h21q40 0 40 37v374h-52q-41 0 -41 -39v-44h-126v199h623v-199h-126v44q0 39 -41 39h-52v-374q0 -17 10.5 -27t30.5 -10h21v-117h-308v117zM254 -60h129v-137h-129v137z" />
    <glyph glyph-name="uni1E6D" unicode="&#x1e6d;" horiz-adv-x="488" 
d="M131 30.5q-55 45.5 -55 130.5v207h-71v112h71v94l187 49v-143h125v-112h-125v-224q0 -26 11.5 -37t34.5 -11q28 0 45 17v42h149v-101q-88 -69 -204 -69q-113 0 -168 45.5zM224 -60h129v-137h-129v137z" />
    <glyph glyph-name="uni1E6E" unicode="&#x1e6e;" horiz-adv-x="633" 
d="M163 117h21q40 0 40 37v374h-52q-41 0 -41 -39v-44h-126v199h623v-199h-126v44q0 39 -41 39h-52v-374q0 -17 10.5 -27t30.5 -10h21v-117h-308v117zM164 -44h317v-105h-317v105z" />
    <glyph glyph-name="uni1E6F" unicode="&#x1e6f;" horiz-adv-x="488" 
d="M131 30.5q-55 45.5 -55 130.5v207h-71v112h71v94l187 49v-143h125v-112h-125v-224q0 -26 11.5 -37t34.5 -11q28 0 45 17v42h149v-101q-88 -69 -204 -69q-113 0 -168 45.5zM126 -44h317v-105h-317v105z" />
    <glyph glyph-name="Wgrave" unicode="&#x1e80;" horiz-adv-x="846" 
d="M235 879h196l72 -182h-156zM93 480q-7 31 -21.5 40.5t-49.5 9.5h-7v117h210l66 -319l68 210h128l68 -210l66 319h210v-117h-7q-35 0 -49.5 -9.5t-21.5 -40.5l-106 -480h-147l-77 218l-77 -218h-147z" />
    <glyph glyph-name="wgrave" unicode="&#x1e81;" horiz-adv-x="754" 
d="M187 702h196l72 -182h-156zM76 336q-5 20 -16.5 27.5t-33.5 7.5h-21v109h195l56 -244l60 201h122l60 -201l56 244h195v-109h-21q-21 0 -33 -7.5t-17 -27.5l-81 -336h-153l-67 211l-67 -211h-153z" />
    <glyph glyph-name="Wacute" unicode="&#x1e82;" horiz-adv-x="846" 
d="M410 879h196l-112 -182h-155zM93 480q-7 31 -21.5 40.5t-49.5 9.5h-7v117h210l66 -319l68 210h128l68 -210l66 319h210v-117h-7q-35 0 -49.5 -9.5t-21.5 -40.5l-106 -480h-147l-77 218l-77 -218h-147z" />
    <glyph glyph-name="wacute" unicode="&#x1e83;" horiz-adv-x="754" 
d="M361 702h196l-112 -182h-155zM76 336q-5 20 -16.5 27.5t-33.5 7.5h-21v109h195l56 -244l60 201h122l60 -201l56 244h195v-109h-21q-21 0 -33 -7.5t-17 -27.5l-81 -336h-153l-67 211l-67 -211h-153z" />
    <glyph glyph-name="Wdieresis" unicode="&#x1e84;" horiz-adv-x="846" 
d="M236 846h128v-137h-128v137zM486 846h129v-137h-129v137zM93 480q-7 31 -21.5 40.5t-49.5 9.5h-7v117h210l66 -319l68 210h128l68 -210l66 319h210v-117h-7q-35 0 -49.5 -9.5t-21.5 -40.5l-106 -480h-147l-77 218l-77 -218h-147z" />
    <glyph glyph-name="wdieresis" unicode="&#x1e85;" horiz-adv-x="754" 
d="M188 677h128v-137h-128v137zM438 677h129v-137h-129v137zM76 336q-5 20 -16.5 27.5t-33.5 7.5h-21v109h195l56 -244l60 201h122l60 -201l56 244h195v-109h-21q-21 0 -33 -7.5t-17 -27.5l-81 -336h-153l-67 211l-67 -211h-153z" />
    <glyph glyph-name="uni1E8E" unicode="&#x1e8e;" horiz-adv-x="670" 
d="M272 826h130v-137h-130v137zM181 116h21q41 0 41 40v87l-132 243q-15 27 -29.5 36.5t-44.5 9.5h-22v115h289v-115h-28l61 -142l57 142h-28v115h289v-115h-22q-30 0 -45 -10t-30 -37l-131 -243v-89q0 -37 41 -37h21v-116h-308v116z" />
    <glyph glyph-name="uni1E8F" unicode="&#x1e8f;" horiz-adv-x="592" 
d="M227 677h130v-137h-130v137zM194 -181q-57 19 -94 54v81h153v-26q13 -13 28.5 -18.5t38.5 -5.5q66 0 66 76v45q-26 -9 -55.5 -14.5t-49.5 -5.5q-100 0 -157.5 47t-57.5 131v141q0 18 -10.5 28t-31.5 10h-19v118h248v-305q0 -61 59 -61q30 0 44 13.5t14 44.5v152
q0 20 -6.5 29t-26.5 9h-14v118h234v-451q0 -69 -28.5 -120.5t-81 -80t-124.5 -28.5t-129 19z" />
    <glyph glyph-name="uni1E92" unicode="&#x1e92;" horiz-adv-x="572" 
d="M15 91l312 440h-99q-41 0 -41 -39v-13h-168v168h518v-90l-300 -441h111q41 0 41 40v12h168v-168h-542v91zM212 -60h129v-137h-129v137z" />
    <glyph glyph-name="uni1E93" unicode="&#x1e93;" horiz-adv-x="513" 
d="M15 77l245 285h-93q-41 0 -41 -40v-12h-108v170h470v-80l-242 -282h102q42 0 42 40v11h108v-169h-483v77zM195 -60h129v-137h-129v137z" />
    <glyph glyph-name="uni1E97" unicode="&#x1e97;" horiz-adv-x="488" 
d="M13 800h128v-137h-128v137zM263 800h129v-137h-129v137zM131 30.5q-55 45.5 -55 130.5v207h-71v112h71v94l187 49v-143h125v-112h-125v-224q0 -26 11.5 -37t34.5 -11q28 0 45 17v42h149v-101q-88 -69 -204 -69q-113 0 -168 45.5z" />
    <glyph glyph-name="uni1E9E" unicode="&#x1e9e;" horiz-adv-x="675" 
d="M305 18l57 94q26 -17 59 -17q29 0 42.5 22t13.5 76q0 47 -20 69t-68 22h-101v81l130 165q0 19 -19 31t-51 12q-49 0 -71.5 -26t-22.5 -83v-464h-249v116h25q19 0 26.5 8t7.5 28v304q0 109 69.5 171.5t216.5 62.5q81 0 137.5 -26.5t85 -68t28.5 -88.5l-95 -112
q82 -11 118 -60t36 -140q0 -97 -55 -153.5t-168 -56.5q-76 0 -132 33z" />
    <glyph glyph-name="uni1EA0" unicode="&#x1ea0;" horiz-adv-x="712" 
d="M15 116h24q28 0 38.5 6t18.5 28l171 497h181l168 -497q8 -22 18.5 -28t38.5 -6h24v-116h-292v116h38l-21 73h-130l-22 -73h38v-116h-293v116zM396 280l-37 133l-40 -133h77zM296 -60h129v-137h-129v137z" />
    <glyph glyph-name="uni1EA1" unicode="&#x1ea1;" horiz-adv-x="530" 
d="M49.5 21.5q-44.5 36.5 -44.5 101.5q0 75 50.5 112.5t150.5 44.5l88 6v53q0 44 -46 44q-26 0 -45 -20v-33h-154v106q95 59 209 59q111 0 167 -48t56 -128v-172q0 -35 32 -35h12v-112h-143l-15 67q-38 -45 -78 -63.5t-106 -18.5q-89 0 -133.5 36.5zM294 159v34l-67 -6
q-54 -4 -54 -47q0 -20 13.5 -31.5t38.5 -11.5q69 0 69 62zM199 -60h129v-137h-129v137z" />
    <glyph glyph-name="uni1EA2" unicode="&#x1ea2;" horiz-adv-x="712" 
d="M273 756q47 0 47 32q0 12 -8.5 19.5t-24.5 7.5q-23 0 -43 -9v86q41 13 97 13q137 0 137 -88q0 -30 -13.5 -50t-41.5 -32v-43h-150v64zM15 116h24q28 0 38.5 6t18.5 28l171 497h181l168 -497q8 -22 18.5 -28t38.5 -6h24v-116h-292v116h38l-21 73h-130l-22 -73h38v-116
h-293v116zM396 280l-37 133l-40 -133h77z" />
    <glyph glyph-name="uni1EA3" unicode="&#x1ea3;" horiz-adv-x="530" 
d="M178 584q47 0 47 32q0 12 -8.5 19.5t-24.5 7.5q-24 0 -43 -9v86q41 13 97 13q137 0 137 -88q0 -30 -13.5 -50t-41.5 -32v-43h-150v64zM49.5 21.5q-44.5 36.5 -44.5 101.5q0 75 50.5 112.5t150.5 44.5l88 6v53q0 44 -46 44q-26 0 -45 -20v-33h-154v106q95 59 209 59
q111 0 167 -48t56 -128v-172q0 -35 32 -35h12v-112h-143l-15 67q-38 -45 -78 -63.5t-106 -18.5q-89 0 -133.5 36.5zM294 159v34l-67 -6q-54 -4 -54 -47q0 -20 13.5 -31.5t38.5 -11.5q69 0 69 62z" />
    <glyph glyph-name="uni1EA4" unicode="&#x1ea4;" horiz-adv-x="712" 
d="M541 964h165l-104 -146h-124zM292 849h147l117 -146h-150l-40 64l-45 -64h-147zM15 116h24q28 0 38.5 6t18.5 28l171 497h181l168 -497q8 -22 18.5 -28t38.5 -6h24v-116h-292v116h38l-21 73h-130l-22 -73h38v-116h-293v116zM396 280l-37 133l-40 -133h77z" />
    <glyph glyph-name="uni1EA5" unicode="&#x1ea5;" horiz-adv-x="530" 
d="M435 781h165l-104 -146h-124zM186 666h147l117 -146h-150l-40 64l-45 -64h-147zM49.5 21.5q-44.5 36.5 -44.5 101.5q0 75 50.5 112.5t150.5 44.5l88 6v53q0 44 -46 44q-26 0 -45 -20v-33h-154v106q95 59 209 59q111 0 167 -48t56 -128v-172q0 -35 32 -35h12v-112h-143
l-15 67q-38 -45 -78 -63.5t-106 -18.5q-89 0 -133.5 36.5zM294 159v34l-67 -6q-54 -4 -54 -47q0 -20 13.5 -31.5t38.5 -11.5q69 0 69 62z" />
    <glyph glyph-name="uni1EA6" unicode="&#x1ea6;" horiz-adv-x="712" 
d="M-14 964h165l63 -146h-124zM277 849h147l118 -146h-147l-45 64l-40 -64h-150zM15 116h24q28 0 38.5 6t18.5 28l171 497h181l168 -497q8 -22 18.5 -28t38.5 -6h24v-116h-292v116h38l-21 73h-130l-22 -73h38v-116h-293v116zM396 280l-37 133l-40 -133h77z" />
    <glyph glyph-name="uni1EA7" unicode="&#x1ea7;" horiz-adv-x="530" 
d="M-85 781h165l63 -146h-124zM197 666h147l118 -146h-147l-45 64l-40 -64h-150zM49.5 21.5q-44.5 36.5 -44.5 101.5q0 75 50.5 112.5t150.5 44.5l88 6v53q0 44 -46 44q-26 0 -45 -20v-33h-154v106q95 59 209 59q111 0 167 -48t56 -128v-172q0 -35 32 -35h12v-112h-143
l-15 67q-38 -45 -78 -63.5t-106 -18.5q-89 0 -133.5 36.5zM294 159v34l-67 -6q-54 -4 -54 -47q0 -20 13.5 -31.5t38.5 -11.5q69 0 69 62z" />
    <glyph glyph-name="uni1EA8" unicode="&#x1ea8;" horiz-adv-x="712" 
d="M450 879q36 0 36 24q0 9 -6.5 14.5t-19.5 5.5q-15 0 -31 -7v64q27 10 72 10q102 0 102 -66q0 -44 -41 -60v-23h-112v38zM288 843h147l118 -146h-147l-45 64l-40 -64h-150zM15 116h24q28 0 38.5 6t18.5 28l171 497h181l168 -497q8 -22 18.5 -28t38.5 -6h24v-116h-292v116
h38l-21 73h-130l-22 -73h38v-116h-293v116zM396 280l-37 133l-40 -133h77z" />
    <glyph glyph-name="uni1EA9" unicode="&#x1ea9;" horiz-adv-x="530" 
d="M345 702q36 0 36 24q0 9 -6.5 14.5t-19.5 5.5q-15 0 -31 -7v64q27 10 72 10q102 0 102 -66q0 -44 -41 -60v-23h-112v38zM183 666h147l118 -146h-147l-45 64l-40 -64h-150zM49.5 21.5q-44.5 36.5 -44.5 101.5q0 75 50.5 112.5t150.5 44.5l88 6v53q0 44 -46 44
q-26 0 -45 -20v-33h-154v106q95 59 209 59q111 0 167 -48t56 -128v-172q0 -35 32 -35h12v-112h-143l-15 67q-38 -45 -78 -63.5t-106 -18.5q-89 0 -133.5 36.5zM294 159v34l-67 -6q-54 -4 -54 -47q0 -20 13.5 -31.5t38.5 -11.5q69 0 69 62z" />
    <glyph glyph-name="uni1EAA" unicode="&#x1eaa;" horiz-adv-x="712" 
d="M397 860q-16 5 -40 14q-33 13 -47 13q-16 0 -23.5 -6t-7.5 -21h-77q0 52 22 78t71 26q21 0 36 -5t38 -15q2 -1 15 -6.5t24 -5.5q16 0 23.5 6.5t7.5 20.5h77q0 -52 -19 -78t-67 -26q-17 0 -33 5zM285 843h147l118 -146h-147l-45 64l-40 -64h-150zM15 116h24q28 0 38.5 6
t18.5 28l171 497h181l168 -497q8 -22 18.5 -28t38.5 -6h24v-116h-292v116h38l-21 73h-130l-22 -73h38v-116h-293v116zM396 280l-37 133l-40 -133h77z" />
    <glyph glyph-name="uni1EAB" unicode="&#x1eab;" horiz-adv-x="530" 
d="M295 683q-16 5 -40 14q-33 13 -47 13q-16 0 -23.5 -6t-7.5 -21h-77q0 52 22 78t71 26q21 0 36 -5t38 -15q2 -1 15 -6.5t24 -5.5q16 0 23.5 6.5t7.5 20.5h77q0 -52 -19 -78t-67 -26q-17 0 -33 5zM183 666h147l118 -146h-147l-45 64l-40 -64h-150zM49.5 21.5
q-44.5 36.5 -44.5 101.5q0 75 50.5 112.5t150.5 44.5l88 6v53q0 44 -46 44q-26 0 -45 -20v-33h-154v106q95 59 209 59q111 0 167 -48t56 -128v-172q0 -35 32 -35h12v-112h-143l-15 67q-38 -45 -78 -63.5t-106 -18.5q-89 0 -133.5 36.5zM294 159v34l-67 -6q-54 -4 -54 -47
q0 -20 13.5 -31.5t38.5 -11.5q69 0 69 62z" />
    <glyph glyph-name="uni1EAC" unicode="&#x1eac;" horiz-adv-x="712" 
d="M283 900h154l140 -203h-163l-55 107l-57 -107h-160zM15 116h24q28 0 38.5 6t18.5 28l171 497h181l168 -497q8 -22 18.5 -28t38.5 -6h24v-116h-292v116h38l-21 73h-130l-22 -73h38v-116h-293v116zM396 280l-37 133l-40 -133h77zM295 -60h129v-137h-129v137z" />
    <glyph glyph-name="uni1EAD" unicode="&#x1ead;" horiz-adv-x="530" 
d="M179 723h154l140 -203h-163l-55 107l-57 -107h-160zM49.5 21.5q-44.5 36.5 -44.5 101.5q0 75 50.5 112.5t150.5 44.5l88 6v53q0 44 -46 44q-26 0 -45 -20v-33h-154v106q95 59 209 59q111 0 167 -48t56 -128v-172q0 -35 32 -35h12v-112h-143l-15 67q-38 -45 -78 -63.5
t-106 -18.5q-89 0 -133.5 36.5zM294 159v34l-67 -6q-54 -4 -54 -47q0 -20 13.5 -31.5t38.5 -11.5q69 0 69 62zM191 -60h129v-137h-129v137z" />
    <glyph glyph-name="uni1EAE" unicode="&#x1eae;" horiz-adv-x="712" 
d="M354 1008h155l-95 -139h-114zM258.5 718q-45.5 21 -72 61t-26.5 96h124q0 -38 17.5 -58.5t57.5 -20.5q43 0 59 20t16 59h124q0 -56 -26.5 -96t-72 -61t-100.5 -21t-100.5 21zM15 116h24q28 0 38.5 6t18.5 28l171 497h181l168 -497q8 -22 18.5 -28t38.5 -6h24v-116h-292
v116h38l-21 73h-130l-22 -73h38v-116h-293v116zM396 280l-37 133l-40 -133h77z" />
    <glyph glyph-name="uni1EAF" unicode="&#x1eaf;" horiz-adv-x="530" 
d="M256 831h155l-95 -139h-114zM160.5 541q-45.5 21 -72 61t-26.5 96h124q0 -38 17.5 -58.5t57.5 -20.5q43 0 59 20t16 59h124q0 -56 -26.5 -96t-72 -61t-100.5 -21t-100.5 21zM49.5 21.5q-44.5 36.5 -44.5 101.5q0 75 50.5 112.5t150.5 44.5l88 6v53q0 44 -46 44
q-26 0 -45 -20v-33h-154v106q95 59 209 59q111 0 167 -48t56 -128v-172q0 -35 32 -35h12v-112h-143l-15 67q-38 -45 -78 -63.5t-106 -18.5q-89 0 -133.5 36.5zM294 159v34l-67 -6q-54 -4 -54 -47q0 -20 13.5 -31.5t38.5 -11.5q69 0 69 62z" />
    <glyph glyph-name="uni1EB0" unicode="&#x1eb0;" horiz-adv-x="712" 
d="M209 1008h155l54 -139h-114zM258.5 718q-45.5 21 -72 61t-26.5 96h124q0 -39 16 -59t59 -20q40 0 57.5 20.5t17.5 58.5h124q0 -56 -26.5 -96t-72 -61t-100.5 -21t-100.5 21zM15 116h24q28 0 38.5 6t18.5 28l171 497h181l168 -497q8 -22 18.5 -28t38.5 -6h24v-116h-292
v116h38l-21 73h-130l-22 -73h38v-116h-293v116zM396 280l-37 133l-40 -133h77z" />
    <glyph glyph-name="uni1EB1" unicode="&#x1eb1;" horiz-adv-x="530" 
d="M116 831h155l54 -139h-114zM165.5 541q-45.5 21 -72 61t-26.5 96h124q0 -39 16 -59t59 -20q40 0 57.5 20.5t17.5 58.5h124q0 -56 -26.5 -96t-72 -61t-100.5 -21t-100.5 21zM49.5 21.5q-44.5 36.5 -44.5 101.5q0 75 50.5 112.5t150.5 44.5l88 6v53q0 44 -46 44
q-26 0 -45 -20v-33h-154v106q95 59 209 59q111 0 167 -48t56 -128v-172q0 -35 32 -35h12v-112h-143l-15 67q-38 -45 -78 -63.5t-106 -18.5q-89 0 -133.5 36.5zM294 159v34l-67 -6q-54 -4 -54 -47q0 -20 13.5 -31.5t38.5 -11.5q69 0 69 62z" />
    <glyph glyph-name="uni1EB2" unicode="&#x1eb2;" horiz-adv-x="712" 
d="M303 898q36 0 36 24q0 9 -6.5 14.5t-19.5 5.5q-15 0 -31 -7v64q27 10 72 10q102 0 102 -66q0 -44 -41 -60v-23h-112v38zM258.5 718q-45.5 21 -72 61t-26.5 96h124q0 -38 17.5 -58.5t57.5 -20.5q43 0 59 20t16 59h124q0 -56 -26.5 -96t-72 -61t-100.5 -21t-100.5 21z
M15 116h24q28 0 38.5 6t18.5 28l171 497h181l168 -497q8 -22 18.5 -28t38.5 -6h24v-116h-292v116h38l-21 73h-130l-22 -73h38v-116h-293v116zM396 280l-37 133l-40 -133h77z" />
    <glyph glyph-name="uni1EB3" unicode="&#x1eb3;" horiz-adv-x="530" 
d="M210 721q36 0 36 24q0 9 -6.5 14.5t-19.5 5.5q-15 0 -31 -7v64q27 10 72 10q102 0 102 -66q0 -44 -41 -60v-23h-112v38zM165.5 541q-45.5 21 -72 61t-26.5 96h124q0 -38 17.5 -58.5t57.5 -20.5q43 0 59 20t16 59h124q0 -56 -26.5 -96t-72 -61t-100.5 -21t-100.5 21z
M49.5 21.5q-44.5 36.5 -44.5 101.5q0 75 50.5 112.5t150.5 44.5l88 6v53q0 44 -46 44q-26 0 -45 -20v-33h-154v106q95 59 209 59q111 0 167 -48t56 -128v-172q0 -35 32 -35h12v-112h-143l-15 67q-38 -45 -78 -63.5t-106 -18.5q-89 0 -133.5 36.5zM294 159v34l-67 -6
q-54 -4 -54 -47q0 -20 13.5 -31.5t38.5 -11.5q69 0 69 62z" />
    <glyph glyph-name="uni1EB4" unicode="&#x1eb4;" horiz-adv-x="712" 
d="M399 899q-16 5 -40 14q-33 13 -47 13q-16 0 -23.5 -6t-7.5 -21h-77q0 52 22 78t71 26q21 0 36 -5t38 -15q2 -1 15 -6.5t24 -5.5q16 0 23.5 6.5t7.5 20.5h77q0 -52 -19 -78t-67 -26q-17 0 -33 5zM260.5 718q-45.5 21 -72 61t-26.5 96h124q0 -38 17.5 -58.5t57.5 -20.5
q43 0 59 20t16 59h124q0 -56 -26.5 -96t-72 -61t-100.5 -21t-100.5 21zM15 116h24q28 0 38.5 6t18.5 28l171 497h181l168 -497q8 -22 18.5 -28t38.5 -6h24v-116h-292v116h38l-21 73h-130l-22 -73h38v-116h-293v116zM396 280l-37 133l-40 -133h77z" />
    <glyph glyph-name="uni1EB5" unicode="&#x1eb5;" horiz-adv-x="530" 
d="M310 722q-16 5 -40 14q-33 13 -47 13q-16 0 -23.5 -6t-7.5 -21h-77q0 52 22 78t71 26q21 0 36 -5t38 -15q2 -1 15 -6.5t24 -5.5q16 0 23.5 6.5t7.5 20.5h77q0 -52 -19 -78t-67 -26q-17 0 -33 5zM171.5 541q-45.5 21 -72 61t-26.5 96h124q0 -38 17.5 -58.5t57.5 -20.5
q43 0 59 20t16 59h124q0 -56 -26.5 -96t-72 -61t-100.5 -21t-100.5 21zM49.5 21.5q-44.5 36.5 -44.5 101.5q0 75 50.5 112.5t150.5 44.5l88 6v53q0 44 -46 44q-26 0 -45 -20v-33h-154v106q95 59 209 59q111 0 167 -48t56 -128v-172q0 -35 32 -35h12v-112h-143l-15 67
q-38 -45 -78 -63.5t-106 -18.5q-89 0 -133.5 36.5zM294 159v34l-67 -6q-54 -4 -54 -47q0 -20 13.5 -31.5t38.5 -11.5q69 0 69 62z" />
    <glyph glyph-name="uni1EB6" unicode="&#x1eb6;" horiz-adv-x="712" 
d="M223 741q-49 44 -49 119h153q0 -27 8 -41.5t27 -14.5q22 0 28.5 13.5t6.5 42.5h153q0 -75 -49 -119t-139 -44t-139 44zM15 116h24q28 0 38.5 6t18.5 28l171 497h181l168 -497q8 -22 18.5 -28t38.5 -6h24v-116h-292v116h38l-21 73h-130l-22 -73h38v-116h-293v116zM396 280
l-37 133l-40 -133h77zM295 -60h129v-137h-129v137z" />
    <glyph glyph-name="uni1EB7" unicode="&#x1eb7;" horiz-adv-x="530" 
d="M123 564q-49 44 -49 119h153q0 -27 8 -41.5t27 -14.5q22 0 28.5 13.5t6.5 42.5h153q0 -75 -49 -119t-139 -44t-139 44zM49.5 21.5q-44.5 36.5 -44.5 101.5q0 75 50.5 112.5t150.5 44.5l88 6v53q0 44 -46 44q-26 0 -45 -20v-33h-154v106q95 59 209 59q111 0 167 -48
t56 -128v-172q0 -35 32 -35h12v-112h-143l-15 67q-38 -45 -78 -63.5t-106 -18.5q-89 0 -133.5 36.5zM294 159v34l-67 -6q-54 -4 -54 -47q0 -20 13.5 -31.5t38.5 -11.5q69 0 69 62zM198 -60h129v-137h-129v137z" />
    <glyph glyph-name="uni1EB8" unicode="&#x1eb8;" horiz-adv-x="548" 
d="M15 116h21q41 0 41 40v337q0 37 -41 37h-21v117h518v-168h-168v13q0 39 -41 39h-62v-150h115v-116h-115v-149h62q41 0 41 40v12h168v-168h-518v116zM177 -60h129v-137h-129v137z" />
    <glyph glyph-name="uni1EB9" unicode="&#x1eb9;" horiz-adv-x="546" 
d="M88 48q-73 64 -73 189q0 131 68 194.5t195 63.5q124 0 188.5 -66.5t64.5 -177.5v-48h-331q0 -60 21 -85t74 -25q37 0 66 13v40h153v-89q-39 -36 -92 -54.5t-130 -18.5q-131 0 -204 64zM347 299q0 41 -19.5 63.5t-53.5 22.5q-36 0 -55 -22.5t-19 -63.5h147zM210 -60h129
v-137h-129v137z" />
    <glyph glyph-name="uni1EBA" unicode="&#x1eba;" horiz-adv-x="548" 
d="M209 761q47 0 47 32q0 12 -8.5 19.5t-24.5 7.5q-23 0 -43 -9v86q41 13 97 13q137 0 137 -88q0 -30 -13.5 -50t-41.5 -32v-43h-150v64zM15 116h21q41 0 41 40v337q0 37 -41 37h-21v117h518v-168h-168v13q0 39 -41 39h-62v-150h115v-116h-115v-149h62q41 0 41 40v12h168
v-168h-518v116z" />
    <glyph glyph-name="uni1EBB" unicode="&#x1ebb;" horiz-adv-x="546" 
d="M211 584q47 0 47 32q0 12 -8.5 19.5t-24.5 7.5q-23 0 -43 -9v86q41 13 97 13q137 0 137 -88q0 -30 -13.5 -50t-41.5 -32v-43h-150v64zM88 48q-73 64 -73 189q0 131 68 194.5t195 63.5q124 0 188.5 -66.5t64.5 -177.5v-48h-331q0 -60 21 -85t74 -25q37 0 66 13v40h153v-89
q-39 -36 -92 -54.5t-130 -18.5q-131 0 -204 64zM347 299q0 41 -19.5 63.5t-53.5 22.5q-36 0 -55 -22.5t-19 -63.5h147z" />
    <glyph glyph-name="uni1EBC" unicode="&#x1ebc;" horiz-adv-x="548" 
d="M92.5 837q31.5 45 102.5 45q28 0 48.5 -7.5t45.5 -20.5q3 -2 14.5 -7.5t21 -8t18.5 -2.5q43 0 43 46h125q0 -97 -29.5 -141t-100.5 -44q-30 0 -51.5 7.5t-47.5 20.5q-16 9 -28 13.5t-24 4.5q-21 0 -32.5 -12t-11.5 -34h-125q0 95 31.5 140zM15 116h21q41 0 41 40v337
q0 37 -41 37h-21v117h518v-168h-168v13q0 39 -41 39h-62v-150h115v-116h-115v-149h62q41 0 41 40v12h168v-168h-518v116z" />
    <glyph glyph-name="uni1EBD" unicode="&#x1ebd;" horiz-adv-x="546" 
d="M99.5 660q31.5 45 102.5 45q28 0 48.5 -7.5t45.5 -20.5q3 -2 14.5 -7.5t21 -8t18.5 -2.5q43 0 43 46h125q0 -97 -29.5 -141t-100.5 -44q-30 0 -51.5 7.5t-47.5 20.5q-16 9 -28 13.5t-24 4.5q-21 0 -32.5 -12t-11.5 -34h-125q0 95 31.5 140zM88 48q-73 64 -73 189
q0 131 68 194.5t195 63.5q124 0 188.5 -66.5t64.5 -177.5v-48h-331q0 -60 21 -85t74 -25q37 0 66 13v40h153v-89q-39 -36 -92 -54.5t-130 -18.5q-131 0 -204 64zM347 299q0 41 -19.5 63.5t-53.5 22.5q-36 0 -55 -22.5t-19 -63.5h147z" />
    <glyph glyph-name="uni1EBE" unicode="&#x1ebe;" horiz-adv-x="548" 
d="M435 958h165l-104 -146h-124zM186 843h147l117 -146h-150l-40 64l-45 -64h-147zM15 116h21q41 0 41 40v337q0 37 -41 37h-21v117h518v-168h-168v13q0 39 -41 39h-62v-150h115v-116h-115v-149h62q41 0 41 40v12h168v-168h-518v116z" />
    <glyph glyph-name="uni1EBF" unicode="&#x1ebf;" horiz-adv-x="546" 
d="M456 781h165l-104 -146h-124zM207 666h147l117 -146h-150l-40 64l-45 -64h-147zM88 48q-73 64 -73 189q0 131 68 194.5t195 63.5q124 0 188.5 -66.5t64.5 -177.5v-48h-331q0 -60 21 -85t74 -25q37 0 66 13v40h153v-89q-39 -36 -92 -54.5t-130 -18.5q-131 0 -204 64z
M347 299q0 41 -19.5 63.5t-53.5 22.5q-36 0 -55 -22.5t-19 -63.5h147z" />
    <glyph glyph-name="uni1EC0" unicode="&#x1ec0;" horiz-adv-x="548" 
d="M-95 958h165l63 -146h-124zM196 843h147l118 -146h-147l-45 64l-40 -64h-150zM15 116h21q41 0 41 40v337q0 37 -41 37h-21v117h518v-168h-168v13q0 39 -41 39h-62v-150h115v-116h-115v-149h62q41 0 41 40v12h168v-168h-518v116z" />
    <glyph glyph-name="uni1EC1" unicode="&#x1ec1;" horiz-adv-x="546" 
d="M-85 781h165l63 -146h-124zM201 666h147l118 -146h-147l-45 64l-40 -64h-150zM88 48q-73 64 -73 189q0 131 68 194.5t195 63.5q124 0 188.5 -66.5t64.5 -177.5v-48h-331q0 -60 21 -85t74 -25q37 0 66 13v40h153v-89q-39 -36 -92 -54.5t-130 -18.5q-131 0 -204 64z
M347 299q0 41 -19.5 63.5t-53.5 22.5q-36 0 -55 -22.5t-19 -63.5h147z" />
    <glyph glyph-name="uni1EC2" unicode="&#x1ec2;" horiz-adv-x="548" 
d="M343 879q36 0 36 24q0 9 -6.5 14.5t-19.5 5.5q-15 0 -31 -7v64q27 10 72 10q102 0 102 -66q0 -44 -41 -60v-23h-112v38zM181 843h147l118 -146h-147l-45 64l-40 -64h-150zM15 116h21q41 0 41 40v337q0 37 -41 37h-21v117h518v-168h-168v13q0 39 -41 39h-62v-150h115v-116
h-115v-149h62q41 0 41 40v12h168v-168h-518v116z" />
    <glyph glyph-name="uni1EC3" unicode="&#x1ec3;" horiz-adv-x="546" 
d="M368 702q36 0 36 24q0 9 -6.5 14.5t-19.5 5.5q-15 0 -31 -7v64q27 10 72 10q102 0 102 -66q0 -44 -41 -60v-23h-112v38zM206 666h147l118 -146h-147l-45 64l-40 -64h-150zM88 48q-73 64 -73 189q0 131 68 194.5t195 63.5q124 0 188.5 -66.5t64.5 -177.5v-48h-331
q0 -60 21 -85t74 -25q37 0 66 13v40h153v-89q-39 -36 -92 -54.5t-130 -18.5q-131 0 -204 64zM347 299q0 41 -19.5 63.5t-53.5 22.5q-36 0 -55 -22.5t-19 -63.5h147z" />
    <glyph glyph-name="uni1EC4" unicode="&#x1ec4;" horiz-adv-x="548" 
d="M305 860q-16 5 -40 14q-33 13 -47 13q-16 0 -23.5 -6t-7.5 -21h-77q0 52 22 78t71 26q21 0 36 -5t38 -15q2 -1 15 -6.5t24 -5.5q16 0 23.5 6.5t7.5 20.5h77q0 -52 -19 -78t-67 -26q-17 0 -33 5zM193 843h147l118 -146h-147l-45 64l-40 -64h-150zM15 116h21q41 0 41 40
v337q0 37 -41 37h-21v117h518v-168h-168v13q0 39 -41 39h-62v-150h115v-116h-115v-149h62q41 0 41 40v12h168v-168h-518v116z" />
    <glyph glyph-name="uni1EC5" unicode="&#x1ec5;" horiz-adv-x="546" 
d="M312 683q-16 5 -40 14q-33 13 -47 13q-16 0 -23.5 -6t-7.5 -21h-77q0 52 22 78t71 26q21 0 36 -5t38 -15q2 -1 15 -6.5t24 -5.5q16 0 23.5 6.5t7.5 20.5h77q0 -52 -19 -78t-67 -26q-17 0 -33 5zM200 666h147l118 -146h-147l-45 64l-40 -64h-150zM88 48q-73 64 -73 189
q0 131 68 194.5t195 63.5q124 0 188.5 -66.5t64.5 -177.5v-48h-331q0 -60 21 -85t74 -25q37 0 66 13v40h153v-89q-39 -36 -92 -54.5t-130 -18.5q-131 0 -204 64zM347 299q0 41 -19.5 63.5t-53.5 22.5q-36 0 -55 -22.5t-19 -63.5h147z" />
    <glyph glyph-name="uni1EC6" unicode="&#x1ec6;" horiz-adv-x="548" 
d="M208 900h154l140 -203h-163l-55 107l-57 -107h-160zM15 116h21q41 0 41 40v337q0 37 -41 37h-21v117h518v-168h-168v13q0 39 -41 39h-62v-150h115v-116h-115v-149h62q41 0 41 40v12h168v-168h-518v116zM222 -60h129v-137h-129v137z" />
    <glyph glyph-name="uni1EC7" unicode="&#x1ec7;" horiz-adv-x="546" 
d="M203 723h154l140 -203h-163l-55 107l-57 -107h-160zM88 48q-73 64 -73 189q0 131 68 194.5t195 63.5q124 0 188.5 -66.5t64.5 -177.5v-48h-331q0 -60 21 -85t74 -25q37 0 66 13v40h153v-89q-39 -36 -92 -54.5t-130 -18.5q-131 0 -204 64zM347 299q0 41 -19.5 63.5
t-53.5 22.5q-36 0 -55 -22.5t-19 -63.5h147zM213 -60h129v-137h-129v137z" />
    <glyph glyph-name="uni1EC8" unicode="&#x1ec8;" horiz-adv-x="337" 
d="M86 761q47 0 47 32q0 12 -8.5 19.5t-24.5 7.5q-24 0 -43 -9v86q41 13 97 13q137 0 137 -88q0 -30 -13.5 -50t-41.5 -32v-43h-150v64zM15 116h20q22 0 31.5 10t9.5 30v337q0 37 -41 37h-20v117h307v-117h-20q-41 0 -41 -37v-340q0 -37 41 -37h20v-116h-307v116z" />
    <glyph glyph-name="uni1EC9" unicode="&#x1ec9;" horiz-adv-x="322" 
d="M67 584q47 0 47 32q0 12 -8.5 19.5t-24.5 7.5q-23 0 -43 -9v86q41 13 97 13q137 0 137 -88q0 -30 -13.5 -50t-41.5 -32v-43h-150v64zM5 118h21q22 0 31.5 10t9.5 30v165q0 38 -41 38h-21v119h250v-324q0 -38 41 -38h21v-118h-312v118z" />
    <glyph glyph-name="uni1ECA" unicode="&#x1eca;" horiz-adv-x="337" 
d="M15 116h20q22 0 31.5 10t9.5 30v337q0 37 -41 37h-20v117h307v-117h-20q-41 0 -41 -37v-340q0 -37 41 -37h20v-116h-307v116zM106 -60h129v-137h-129v137z" />
    <glyph glyph-name="uni1ECB" unicode="&#x1ecb;" horiz-adv-x="322" 
d="M67 679h188v-135h-188v135zM5 118h21q22 0 31.5 10t9.5 30v165q0 38 -41 38h-21v119h250v-324q0 -38 41 -38h21v-118h-312v118zM93 -60h129v-137h-129v137z" />
    <glyph glyph-name="uni1ECC" unicode="&#x1ecc;" horiz-adv-x="670" 
d="M94 68.5q-79 83.5 -79 252.5q0 172 77 256.5t243 84.5t243 -84.5t77 -256.5q0 -169 -79 -252.5t-241 -83.5t-241 83.5zM415.5 123.5q29.5 21.5 43 69t13.5 128.5q0 84 -13.5 132.5t-43 70t-80.5 21.5t-80.5 -21.5t-43 -70t-13.5 -132.5q0 -81 13.5 -128.5t43 -69
t80.5 -21.5t80.5 21.5zM272 -60h129v-137h-129v137z" />
    <glyph glyph-name="uni1ECD" unicode="&#x1ecd;" horiz-adv-x="558" 
d="M84.5 50q-69.5 65 -69.5 190q0 126 68 190.5t197 64.5q128 0 195.5 -64.5t67.5 -190.5q0 -125 -69 -190t-194 -65q-126 0 -195.5 65zM341.5 135.5q17.5 31.5 17.5 104.5q0 74 -17.5 105t-61.5 31q-45 0 -62 -30.5t-17 -105.5q0 -74 17 -105t62 -31q44 0 61.5 31.5z
M215 -60h129v-137h-129v137z" />
    <glyph glyph-name="uni1ECE" unicode="&#x1ece;" horiz-adv-x="670" 
d="M248 761q47 0 47 32q0 12 -8.5 19.5t-24.5 7.5q-23 0 -43 -9v86q41 13 97 13q137 0 137 -88q0 -30 -13.5 -50t-41.5 -32v-43h-150v64zM94 68.5q-79 83.5 -79 252.5q0 172 77 256.5t243 84.5t243 -84.5t77 -256.5q0 -169 -79 -252.5t-241 -83.5t-241 83.5zM415.5 123.5
q29.5 21.5 43 69t13.5 128.5q0 84 -13.5 132.5t-43 70t-80.5 21.5t-80.5 -21.5t-43 -70t-13.5 -132.5q0 -81 13.5 -128.5t43 -69t80.5 -21.5t80.5 21.5z" />
    <glyph glyph-name="uni1ECF" unicode="&#x1ecf;" horiz-adv-x="558" 
d="M191 584q47 0 47 32q0 12 -8.5 19.5t-24.5 7.5q-24 0 -43 -9v86q41 13 97 13q137 0 137 -88q0 -30 -13.5 -50t-41.5 -32v-43h-150v64zM84.5 50q-69.5 65 -69.5 190q0 126 68 190.5t197 64.5q128 0 195.5 -64.5t67.5 -190.5q0 -125 -69 -190t-194 -65q-126 0 -195.5 65z
M341.5 135.5q17.5 31.5 17.5 104.5q0 74 -17.5 105t-61.5 31q-45 0 -62 -30.5t-17 -105.5q0 -74 17 -105t62 -31q44 0 61.5 31.5z" />
    <glyph glyph-name="uni1ED0" unicode="&#x1ed0;" horiz-adv-x="670" 
d="M493 958h165l-104 -146h-124zM244 843h147l117 -146h-150l-40 64l-45 -64h-147zM94 68.5q-79 83.5 -79 252.5q0 172 77 256.5t243 84.5t243 -84.5t77 -256.5q0 -169 -79 -252.5t-241 -83.5t-241 83.5zM415.5 123.5q29.5 21.5 43 69t13.5 128.5q0 84 -13.5 132.5t-43 70
t-80.5 21.5t-80.5 -21.5t-43 -70t-13.5 -132.5q0 -81 13.5 -128.5t43 -69t80.5 -21.5t80.5 21.5z" />
    <glyph glyph-name="uni1ED1" unicode="&#x1ed1;" horiz-adv-x="558" 
d="M452 781h165l-104 -146h-124zM203 666h147l117 -146h-150l-40 64l-45 -64h-147zM84.5 50q-69.5 65 -69.5 190q0 126 68 190.5t197 64.5q128 0 195.5 -64.5t67.5 -190.5q0 -125 -69 -190t-194 -65q-126 0 -195.5 65zM341.5 135.5q17.5 31.5 17.5 104.5q0 74 -17.5 105
t-61.5 31q-45 0 -62 -30.5t-17 -105.5q0 -74 17 -105t62 -31q44 0 61.5 31.5z" />
    <glyph glyph-name="uni1ED2" unicode="&#x1ed2;" horiz-adv-x="670" 
d="M-25 958h165l63 -146h-124zM255 843h147l118 -146h-147l-45 64l-40 -64h-150zM94 68.5q-79 83.5 -79 252.5q0 172 77 256.5t243 84.5t243 -84.5t77 -256.5q0 -169 -79 -252.5t-241 -83.5t-241 83.5zM415.5 123.5q29.5 21.5 43 69t13.5 128.5q0 84 -13.5 132.5t-43 70
t-80.5 21.5t-80.5 -21.5t-43 -70t-13.5 -132.5q0 -81 13.5 -128.5t43 -69t80.5 -21.5t80.5 21.5z" />
    <glyph glyph-name="uni1ED3" unicode="&#x1ed3;" horiz-adv-x="558" 
d="M-75 781h165l63 -146h-124zM211 666h147l118 -146h-147l-45 64l-40 -64h-150zM84.5 50q-69.5 65 -69.5 190q0 126 68 190.5t197 64.5q128 0 195.5 -64.5t67.5 -190.5q0 -125 -69 -190t-194 -65q-126 0 -195.5 65zM341.5 135.5q17.5 31.5 17.5 104.5q0 74 -17.5 105
t-61.5 31q-45 0 -62 -30.5t-17 -105.5q0 -74 17 -105t62 -31q44 0 61.5 31.5z" />
    <glyph glyph-name="uni1ED4" unicode="&#x1ed4;" horiz-adv-x="670" 
d="M412 879q36 0 36 24q0 9 -7 14.5t-19 5.5q-15 0 -31 -7v64q27 10 72 10q102 0 102 -66q0 -44 -41 -60v-23h-112v38zM250 843h147l118 -146h-147l-45 64l-40 -64h-150zM94 68.5q-79 83.5 -79 252.5q0 172 77 256.5t243 84.5t243 -84.5t77 -256.5q0 -169 -79 -252.5
t-241 -83.5t-241 83.5zM415.5 123.5q29.5 21.5 43 69t13.5 128.5q0 84 -13.5 132.5t-43 70t-80.5 21.5t-80.5 -21.5t-43 -70t-13.5 -132.5q0 -81 13.5 -128.5t43 -69t80.5 -21.5t80.5 21.5z" />
    <glyph glyph-name="uni1ED5" unicode="&#x1ed5;" horiz-adv-x="558" 
d="M365 702q36 0 36 24q0 9 -6.5 14.5t-19.5 5.5q-15 0 -31 -7v64q27 10 72 10q102 0 102 -66q0 -44 -41 -60v-23h-112v38zM203 666h147l118 -146h-147l-45 64l-40 -64h-150zM84.5 50q-69.5 65 -69.5 190q0 126 68 190.5t197 64.5q128 0 195.5 -64.5t67.5 -190.5
q0 -125 -69 -190t-194 -65q-126 0 -195.5 65zM341.5 135.5q17.5 31.5 17.5 104.5q0 74 -17.5 105t-61.5 31q-45 0 -62 -30.5t-17 -105.5q0 -74 17 -105t62 -31q44 0 61.5 31.5z" />
    <glyph glyph-name="uni1ED6" unicode="&#x1ed6;" horiz-adv-x="670" 
d="M377 899q-16 5 -40 14q-33 13 -47 13q-16 0 -23.5 -6t-7.5 -21h-77q0 52 22 78t71 26q21 0 36 -5t38 -15q2 -1 15 -6.5t24 -5.5q16 0 23.5 6.5t7.5 20.5h77q0 -52 -19 -78t-67 -26q-17 0 -33 5zM238.5 718q-45.5 21 -72 61t-26.5 96h124q0 -38 17.5 -58.5t57.5 -20.5
q43 0 59 20t16 59h124q0 -56 -26.5 -96t-72 -61t-100.5 -21t-100.5 21zM94 68.5q-79 83.5 -79 252.5q0 172 77 256.5t243 84.5t243 -84.5t77 -256.5q0 -169 -79 -252.5t-241 -83.5t-241 83.5zM415.5 123.5q29.5 21.5 43 69t13.5 128.5q0 84 -13.5 132.5t-43 70t-80.5 21.5
t-80.5 -21.5t-43 -70t-13.5 -132.5q0 -81 13.5 -128.5t43 -69t80.5 -21.5t80.5 21.5z" />
    <glyph glyph-name="uni1ED7" unicode="&#x1ed7;" horiz-adv-x="558" 
d="M327 722q-16 5 -40 14q-33 13 -47 13q-16 0 -23.5 -6t-7.5 -21h-77q0 52 22 78t71 26q21 0 36 -5t38 -15q2 -1 15 -6.5t24 -5.5q16 0 23.5 6.5t7.5 20.5h77q0 -52 -19 -78t-67 -26q-17 0 -33 5zM188.5 541q-45.5 21 -72 61t-26.5 96h124q0 -38 17.5 -58.5t57.5 -20.5
q43 0 59 20t16 59h124q0 -56 -26.5 -96t-72 -61t-100.5 -21t-100.5 21zM84.5 50q-69.5 65 -69.5 190q0 126 68 190.5t197 64.5q128 0 195.5 -64.5t67.5 -190.5q0 -125 -69 -190t-194 -65q-126 0 -195.5 65zM341.5 135.5q17.5 31.5 17.5 104.5q0 74 -17.5 105t-61.5 31
q-45 0 -62 -30.5t-17 -105.5q0 -74 17 -105t62 -31q44 0 61.5 31.5z" />
    <glyph glyph-name="uni1ED8" unicode="&#x1ed8;" horiz-adv-x="670" 
d="M262 900h154l140 -203h-163l-55 107l-57 -107h-160zM94 68.5q-79 83.5 -79 252.5q0 172 77 256.5t243 84.5t243 -84.5t77 -256.5q0 -169 -79 -252.5t-241 -83.5t-241 83.5zM415.5 123.5q29.5 21.5 43 69t13.5 128.5q0 84 -13.5 132.5t-43 70t-80.5 21.5t-80.5 -21.5
t-43 -70t-13.5 -132.5q0 -81 13.5 -128.5t43 -69t80.5 -21.5t80.5 21.5zM272 -60h129v-137h-129v137z" />
    <glyph glyph-name="uni1ED9" unicode="&#x1ed9;" horiz-adv-x="558" 
d="M206 723h154l140 -203h-163l-55 107l-57 -107h-160zM84.5 50q-69.5 65 -69.5 190q0 126 68 190.5t197 64.5q128 0 195.5 -64.5t67.5 -190.5q0 -125 -69 -190t-194 -65q-126 0 -195.5 65zM341.5 135.5q17.5 31.5 17.5 104.5q0 74 -17.5 105t-61.5 31q-45 0 -62 -30.5
t-17 -105.5q0 -74 17 -105t62 -31q44 0 61.5 31.5zM218 -60h129v-137h-129v137z" />
    </font>
</defs>
</svg>
