<?xml version="1.0" standalone="no"?>
<!DOCTYPE svg PUBLIC "-//W3C//DTD SVG 1.1//EN" "http://www.w3.org/Graphics/SVG/1.1/DTD/svg11.dtd" >
<svg xmlns="http://www.w3.org/2000/svg" xmlns:xlink="http://www.w3.org/1999/xlink" version="1.1">
<metadata>
Created by FontForge 20170731 at Fri May  5 14:18:55 2017
 By Aleksey,,,
Copyright (c) 2015, Cadson Demak (info@cadsondemak.com)
</metadata>
<defs>
<font id="Pridi-Light" horiz-adv-x="0" >
  <font-face 
    font-family="Pridi Light"
    font-weight="300"
    font-stretch="normal"
    units-per-em="1000"
    panose-1="0 0 4 0 0 0 0 0 0 0"
    ascent="750"
    descent="-250"
    x-height="480"
    cap-height="647"
    bbox="-582 -422 1154 1042"
    underline-thickness="50"
    underline-position="-150"
    unicode-range="U+000D-FB02"
  />
<missing-glyph horiz-adv-x="600" 
d="M94 714h411v-714h-411v714zM454 51v612h-309v-612h309z" />
    <glyph glyph-name="fi" unicode="fi" horiz-adv-x="559" 
d="M43 59h30q20 0 28 8.5t8 28.5v325h-80v59h80v34q0 75 49.5 119t131.5 44q59 0 99 -13t73 -43v-68h-75v42q-32 23 -95 23q-104 0 -104 -99v-39h274v-384q0 -20 8 -28.5t27 -8.5h33v-59h-147v421h-195v-325q0 -20 8 -28.5t27 -8.5h30v-59h-210v59z" />
    <glyph glyph-name="fl" unicode="fl" horiz-adv-x="559" 
d="M43 59h30q20 0 28 8.5t8 28.5v325h-80v59h80v34q0 76 47 119.5t129 43.5q59 0 101.5 -13t75.5 -43v-525q0 -20 8 -28.5t27 -8.5h33v-59h-147v421h-195v-325q0 -20 8 -28.5t27 -8.5h30v-59h-210v59zM384 480v118q-31 20 -97 20q-51 0 -75 -24.5t-24 -74.5v-39h196z" />
    <glyph glyph-name="ru_lakkhangyaothai" unicode="&#xe24;&#xe45;" horiz-adv-x="862" 
d="M416 362q0 62 -37 92.5t-107 30.5q-48 0 -89.5 -13.5t-70.5 -39.5v-13l86 -54v-41q-32 -13 -43.5 -34.5t-11.5 -64.5v-65q12 4 29 4q40 0 62 -22t22 -66q0 -48 -23 -69.5t-74 -21.5q-54 0 -75.5 22t-21.5 75v145q0 40 13.5 69.5t45.5 46.5l-82 49v64q46 42 105.5 65
t127.5 23q117 0 177 -57q67 57 167 57q103 0 145 -48.5t42 -138.5v-558h-81v559q0 66 -24 96.5t-87 30.5q-77 0 -131 -48q8 -15 12.5 -35.5t4.5 -39.5v-563h-81v563zM196.5 41q9.5 9 9.5 35q0 24 -9.5 33.5t-35.5 9.5t-36 -10t-10 -33q0 -25 10 -34.5t36 -9.5t35.5 9z" />
    <glyph glyph-name="lu_lakkhangyaothai" unicode="&#xe26;&#xe45;" horiz-adv-x="913" 
d="M467 362q0 123 -143 123q-48 0 -91 -14t-72 -39v-13l105 -63v-41q-22 -18 -27.5 -35.5t-5.5 -56.5v-141q0 -53 -21 -75t-76 -22q-52 0 -74.5 21.5t-22.5 69.5q0 44 21.5 66t62.5 22q15 0 29 -3v64q0 39 6 61.5t29 44.5l-100 61v64q47 42 107.5 65t129.5 23q117 0 176 -57
q67 57 167 57q103 0 145 -48.5t42 -138.5v-558h-81v559q0 66 -24 96.5t-87 30.5q-74 0 -130 -50q16 -29 16 -73v-563h-81v563zM170.5 42q9.5 9 9.5 34q0 24 -10 33.5t-36 9.5t-35.5 -9.5t-9.5 -33.5q0 -25 9.5 -34t35.5 -9q27 0 36.5 9z" />
    <glyph glyph-name=".notdef" horiz-adv-x="600" 
d="M94 714h411v-714h-411v714zM454 51v612h-309v-612h309z" />
    <glyph glyph-name=".null" 
 />
    <glyph glyph-name="nonmarkingreturn" unicode="&#xd;" horiz-adv-x="375" 
 />
    <glyph glyph-name="space" unicode=" " horiz-adv-x="375" 
 />
    <glyph glyph-name="exclam" unicode="!" horiz-adv-x="188" 
d="M50 647h88l-7 -483h-75zM49 77h90v-77h-90v77z" />
    <glyph glyph-name="quotedbl" unicode="&#x22;" horiz-adv-x="316" 
d="M49 721h83l-11 -187h-61zM184 721h83l-11 -187h-60z" />
    <glyph glyph-name="numbersign" unicode="#" horiz-adv-x="747" 
d="M166 178h-117v59h130l42 188h-143v60h156l35 162h73l-35 -162h207l35 162h74l-36 -162h111v-60h-124l-42 -188h136v-59h-149l-38 -178h-73l38 178h-207l-38 -178h-74zM459 237l42 188h-207l-42 -188h207z" />
    <glyph glyph-name="dollar" unicode="$" horiz-adv-x="547" 
d="M235 -13q-53 6 -102.5 24t-83.5 44v87h79v-59q27 -17 70 -27.5t85 -10.5q68 0 103 28.5t35 81.5q0 36 -17.5 60.5t-48.5 41.5t-85 38q-75 28 -120.5 53.5t-70 60.5t-24.5 85q0 73 49.5 114.5t130.5 50.5v108h75v-107q51 -4 97 -20.5t78 -39.5v-85h-79v58
q-24 14 -59.5 21.5t-73.5 7.5q-65 0 -103 -26t-38 -81q0 -37 22 -61.5t50.5 -38t91.5 -38.5q71 -28 111.5 -51t65.5 -58.5t25 -90.5q0 -70 -49 -116.5t-139 -53.5v-107h-75v107z" />
    <glyph glyph-name="percent" unicode="%" horiz-adv-x="773" 
d="M125.5 374.5q-35.5 20.5 -56 56t-20.5 77.5t20.5 77.5t56 56t77.5 20.5t77.5 -20.5t56 -56t20.5 -77.5t-20.5 -77.5t-56 -56t-77.5 -20.5t-77.5 20.5zM536 647h79l-377 -647h-79zM269 441.5q27 27.5 27 66.5t-27 66t-66 27t-66.5 -27t-27.5 -66t27.5 -66.5t66.5 -27.5
t66 27.5zM492.5 5.5q-35.5 20.5 -56 56t-20.5 77.5t20.5 77.5t56 56t77.5 20.5t77.5 -20.5t56 -56t20.5 -77.5t-20.5 -77.5t-56 -56t-77.5 -20.5t-77.5 20.5zM636.5 72.5q27.5 27.5 27.5 66.5t-27.5 66t-66.5 27t-66 -27t-27 -66t27 -66.5t66 -27.5t66.5 27.5z" />
    <glyph glyph-name="ampersand" unicode="&#x26;" horiz-adv-x="682" 
d="M109.5 30.5q-60.5 45.5 -60.5 126.5q0 71 33 115.5t106 86.5q-45 45 -68.5 81t-23.5 77q0 70 42 107.5t118 37.5q79 0 119.5 -41t40.5 -107v-36h-79v40q0 41 -20.5 62.5t-59.5 21.5q-43 0 -63.5 -19.5t-20.5 -65.5q0 -31 15.5 -54t59.5 -70l17 -17l207 -219q23 49 23 128
v80h138v-58h-36q-17 0 -24.5 -7t-7.5 -26q0 -111 -40 -175l94 -99h-92l-50 53q-44 -38 -91.5 -53t-114.5 -15q-101 0 -161.5 45.5zM362.5 56.5q37.5 12.5 71.5 42.5l-199 211q-58 -28 -83.5 -63t-25.5 -90q0 -56 43 -84.5t102 -28.5q54 0 91.5 12.5z" />
    <glyph glyph-name="quotesingle" unicode="'" horiz-adv-x="185" 
d="M49 721h87l-11 -187h-65z" />
    <glyph glyph-name="parenleft" unicode="(" horiz-adv-x="335" 
d="M49 316q0 254 140 391h97q-81 -65 -120.5 -165.5t-39.5 -225.5q0 -126 39.5 -226t120.5 -165h-97q-140 137 -140 391z" />
    <glyph glyph-name="parenright" unicode=")" horiz-adv-x="335" 
d="M169 90.5q40 100.5 40 225.5q0 126 -39.5 226t-120.5 165h96q71 -70 106 -169t35 -222q0 -253 -141 -391h-96q80 65 120 165.5z" />
    <glyph glyph-name="asterisk" unicode="*" horiz-adv-x="406" 
d="M82 458l77 97l-110 30l22 67l100 -41l-5 110h75l-6 -110l100 41l22 -67l-110 -30l77 -97l-60 -39l-61 97l-62 -97z" />
    <glyph glyph-name="plus" unicode="+" horiz-adv-x="411" 
d="M169 276h-120v59h120v108h71v-108h122v-59h-122v-108h-71v108z" />
    <glyph glyph-name="comma" unicode="," horiz-adv-x="215" 
d="M79 78h87l-59 -195h-58z" />
    <glyph glyph-name="hyphen" unicode="-" horiz-adv-x="378" 
d="M49 335h280v-59h-280v59z" />
    <glyph glyph-name="period" unicode="." horiz-adv-x="179" 
d="M49 78h81v-78h-81v78z" />
    <glyph glyph-name="slash" unicode="/" horiz-adv-x="428" 
d="M300 676h79l-250 -676h-80z" />
    <glyph glyph-name="zero" unicode="0" horiz-adv-x="616" 
d="M105 69.5q-66 84.5 -66 254.5q0 169 66 253.5t203 84.5t203 -84.5t66 -253.5q0 -170 -66 -254.5t-203 -84.5t-203 84.5zM450.5 110.5q49.5 65.5 49.5 213.5q0 147 -49.5 212.5t-142.5 65.5t-142.5 -65.5t-49.5 -212.5q0 -148 49.5 -213.5t142.5 -65.5t142.5 65.5z" />
    <glyph glyph-name="one" unicode="1" horiz-adv-x="394" 
d="M77 59h61q23 0 31 8.5t8 28.5v474l-107 -65l-31 52l144 90h73v-551q0 -20 8 -28.5t31 -8.5h60v-59h-278v59z" />
    <glyph glyph-name="two" unicode="2" horiz-adv-x="529" 
d="M49 49q0 91 53.5 154t157.5 114q54 26 84.5 49.5t44.5 53.5t14 73q0 56 -38 82.5t-104 26.5q-37 0 -72.5 -7.5t-59.5 -20.5v-57h-78v86q38 26 95 42.5t114 16.5q99 0 159.5 -42.5t60.5 -126.5q0 -54 -19.5 -93t-62 -72t-115.5 -68q-79 -38 -116.5 -85.5t-37.5 -115.5h344
v-59h-424v49z" />
    <glyph glyph-name="three" unicode="3" horiz-adv-x="547" 
d="M147 3.5q-55 18.5 -98 51.5v86h79v-58q59 -38 142 -38q80 0 115.5 33t35.5 111q0 119 -140 119h-76v60h80q129 0 129 126q0 56 -37.5 82t-103.5 26q-38 0 -72.5 -7.5t-59.5 -20.5v-57h-79v85q37 27 94.5 43.5t115.5 16.5q98 0 158.5 -42t60.5 -124q0 -110 -89 -157
q96 -41 96 -149q0 -106 -56.5 -155.5t-175.5 -49.5q-64 0 -119 18.5z" />
    <glyph glyph-name="four" unicode="4" horiz-adv-x="559" 
d="M241 59h57q23 0 31 8.5t8 28.5v75h-308v57l306 419h80v-416h115v-60h-115v-75q0 -20 8 -28.5t31 -8.5h56v-59h-269v59zM340 231v317l-232 -317h232z" />
    <glyph glyph-name="five" unicode="5" horiz-adv-x="550" 
d="M148.5 3q-54.5 18 -99.5 52v86h79v-58q55 -38 149 -38q77 0 112 43t35 126q0 85 -39.5 117.5t-126.5 32.5h-186v48l20 235h387v-60h-316l-14 -162h121q231 0 231 -211q0 -110 -56.5 -169.5t-171.5 -59.5q-70 0 -124.5 18z" />
    <glyph glyph-name="six" unicode="6" horiz-adv-x="558" 
d="M112 55q-63 70 -63 222q0 209 76 297t190 88q54 0 92.5 -11.5t74.5 -37.5l-32 -51q-30 21 -60 30t-72 9q-82 0 -129 -57t-63 -169q34 43 76 62t103 19q107 0 165.5 -58.5t58.5 -166.5q0 -246 -243 -246q-111 0 -174 70zM413 88.5q39 43.5 39 142.5q0 85 -39 125t-122 40
q-42 0 -79.5 -18t-61.5 -53t-24 -85q0 -195 160 -195q88 0 127 43.5z" />
    <glyph glyph-name="seven" unicode="7" horiz-adv-x="504" 
d="M390 587h-282v-71h-79v131h446v-44l-242 -603h-79z" />
    <glyph glyph-name="eight" unicode="8" horiz-adv-x="575" 
d="M109.5 33.5q-60.5 48.5 -60.5 147.5q0 58 27 97t72 59q-47 25 -68 62.5t-21 89.5q0 84 62.5 128.5t165.5 44.5q104 0 166.5 -44.5t62.5 -128.5q0 -51 -21 -89t-68 -63q45 -20 72 -59t27 -97q0 -196 -239 -196q-117 0 -177.5 48.5zM297 366q73 0 107.5 29t34.5 94
q0 57 -39.5 85t-112.5 28q-72 0 -111.5 -28t-39.5 -85q0 -64 35 -93.5t107 -29.5h19zM410 78q39 33 39 105q0 61 -38.5 94t-114.5 33h-17q-75 0 -114 -33t-39 -94q0 -72 39 -105t122 -33q84 0 123 33z" />
    <glyph glyph-name="nine" unicode="9" horiz-adv-x="578" 
d="M177 -4q-40 11 -75 36l33 53q32 -22 61 -31t70 -9q81 0 125.5 56.5t60.5 170.5q-33 -42 -74.5 -61t-102.5 -19q-108 0 -167 58.5t-59 166.5q0 121 63 183t184 62q111 0 172 -70t61 -223q0 -209 -73 -296.5t-185 -87.5q-54 0 -94 11zM368.5 269q37.5 18 60.5 53.5t23 85.5
q0 194 -156 194q-89 0 -129.5 -43.5t-40.5 -142.5q0 -85 39 -125t123 -40q43 0 80.5 18z" />
    <glyph glyph-name="colon" unicode=":" horiz-adv-x="182" 
d="M49 492h84v-86h-84v86zM49 86h84v-86h-84v86z" />
    <glyph glyph-name="semicolon" unicode=";" horiz-adv-x="215" 
d="M76 492h88v-86h-88v86zM78 78h86l-59 -195h-56z" />
    <glyph glyph-name="less" unicode="&#x3c;" horiz-adv-x="626" 
d="M49 296v55l528 230v-74l-437 -183l437 -184v-74z" />
    <glyph glyph-name="equal" unicode="=" horiz-adv-x="400" 
d="M49 405h302v-59h-302v59zM49 260h302v-60h-302v60z" />
    <glyph glyph-name="greater" unicode="&#x3e;" horiz-adv-x="626" 
d="M49 140l437 184l-437 183v74l528 -230v-55l-528 -230v74z" />
    <glyph glyph-name="question" unicode="?" horiz-adv-x="528" 
d="M182 183q0 67 27 111t93 75q57 27 78.5 53t21.5 76q0 104 -143 104q-39 0 -74.5 -9.5t-61.5 -24.5v-56h-74v87q37 28 94 45.5t117 17.5q100 0 159.5 -41t59.5 -123q0 -46 -14 -76.5t-44 -54t-86 -52.5q-45 -23 -59.5 -53t-14.5 -81v-29h-79v31zM174 82h95v-82h-95v82z
" />
    <glyph glyph-name="at" unicode="@" horiz-adv-x="858" 
d="M219.5 -61.5q-85.5 48.5 -128 135.5t-42.5 204q0 114 45.5 198.5t131.5 130t205 45.5q378 0 378 -367q0 -101 -36.5 -162.5t-118.5 -61.5q-38 0 -65.5 20.5t-34.5 49.5q-51 -72 -159 -72q-65 0 -100.5 28.5t-35.5 79.5q0 109 134 118l130 9v35q0 44 -17 62t-61 18
q-28 0 -47 -4t-37 -12v-29h-73v61q31 20 72 30t84 10q79 0 116.5 -35t37.5 -104v-140q0 -65 53 -65q42 0 63.5 39.5t21.5 125.5q0 102 -29 167.5t-95.5 99t-180.5 33.5q-150 0 -230 -81t-80 -227q0 -160 81 -242t229 -82q128 0 224 40v-64q-104 -40 -224 -40
q-126 0 -211.5 48.5zM489.5 138.5q33.5 23.5 33.5 69.5v32l-119 -8q-40 -3 -57 -17t-17 -47q0 -28 18 -40.5t55 -12.5q53 0 86.5 23.5z" />
    <glyph glyph-name="A" unicode="A" horiz-adv-x="721" 
d="M39 59h33q21 0 34 8t20 28l198 552h75l196 -552q7 -20 20 -28t35 -8h32v-59h-207v59h54l-51 146h-234l-52 -146h54v-59h-207v59zM460 259l-99 281l-99 -281h198z" />
    <glyph glyph-name="B" unicode="B" horiz-adv-x="583" 
d="M39 59h32q19 0 27 8.5t8 28.5v456q0 20 -8 28t-27 8h-32v59h318q86 0 130.5 -45t44.5 -125q0 -51 -22.5 -90t-66.5 -58q50 -15 75.5 -55t25.5 -97q0 -76 -44 -126.5t-124 -50.5h-337v59zM332 356q59 0 91 31t32 87q0 60 -26.5 87t-88.5 27h-154v-232h146zM360 59
q51 0 79 30.5t28 89.5q0 61 -30 89.5t-97 28.5h-154v-238h174z" />
    <glyph glyph-name="C" unicode="C" horiz-adv-x="597" 
d="M186.5 27.5q-72.5 42.5 -110 118.5t-37.5 174q0 99 34.5 176.5t105 121.5t173.5 44q133 0 206 -54v-90h-79v60q-49 24 -127 24q-111 0 -173.5 -75t-62.5 -207q0 -85 30.5 -147t86.5 -95t130 -33q49 0 86.5 8.5t70.5 28.5l32 -50q-40 -26 -85.5 -36.5t-105.5 -10.5
q-102 0 -174.5 42.5z" />
    <glyph glyph-name="D" unicode="D" horiz-adv-x="624" 
d="M39 59h24q19 0 27 8.5t8 28.5v456q0 20 -8 28t-27 8h-24v59h276q137 0 203.5 -86t66.5 -240q0 -148 -68.5 -234.5t-201.5 -86.5h-276v59zM305 59q106 0 154.5 65.5t48.5 196.5q0 135 -48 201t-155 66h-127v-529h127z" />
    <glyph glyph-name="E" unicode="E" horiz-adv-x="544" 
d="M39 59h32q19 0 27 8.5t8 28.5v456q0 20 -8 28t-27 8h-32v59h466v-116h-72v22q0 19 -8.5 27t-28.5 8h-210v-234h192v-59h-192v-236h210q20 0 28.5 8t8.5 27v23h72v-117h-466v59z" />
    <glyph glyph-name="F" unicode="F" horiz-adv-x="544" 
d="M39 59h32q19 0 27 8.5t8 28.5v456q0 20 -8 28t-27 8h-32v59h466v-116h-72v22q0 19 -8.5 27t-28.5 8h-210v-234h192v-59h-192v-200q0 -20 8 -28t27 -8h32v-59h-214v59z" />
    <glyph glyph-name="G" unicode="G" horiz-adv-x="611" 
d="M180.5 27.5q-70.5 42.5 -106 118.5t-35.5 174q0 154 76.5 248t229.5 94q132 0 207 -54v-90h-80v59q-47 25 -127 25q-110 0 -169.5 -74.5t-59.5 -207.5q0 -129 63 -202t174 -73q82 0 140 25v203h-146v60h225v-289q-47 -31 -100.5 -45t-120.5 -14q-100 0 -170.5 42.5z" />
    <glyph glyph-name="H" unicode="H" horiz-adv-x="679" 
d="M39 59h32q19 0 27 8.5t8 28.5v456q0 20 -8 28t-27 8h-32v59h212v-59h-30q-19 0 -27 -8t-8 -28v-198h307v198q0 20 -8 28t-27 8h-31v59h213v-59h-31q-19 0 -27.5 -8t-8.5 -28v-456q0 -20 8 -28.5t28 -8.5h31v-59h-213v59h31q19 0 27 8.5t8 28.5v199h-307v-199
q0 -20 8 -28.5t27 -8.5h30v-59h-212v59z" />
    <glyph glyph-name="I" unicode="I" horiz-adv-x="292" 
d="M39 59h32q19 0 27 8.5t8 28.5v456q0 20 -8 28t-27 8h-32v59h214v-59h-32q-19 0 -27 -8t-8 -28v-457q0 -20 8 -28t27 -8h32v-59h-214v59z" />
    <glyph glyph-name="J" unicode="J" horiz-adv-x="489" 
d="M9 56v73h74v-48q33 -36 106 -36q60 0 87 30.5t27 92.5v384q0 20 -8 28t-28 8h-31v59h214v-59h-32q-19 0 -27 -8.5t-8 -27.5v-375q0 -90 -48.5 -141t-139.5 -51q-118 0 -186 71z" />
    <glyph glyph-name="K" unicode="K" horiz-adv-x="641" 
d="M39 59h30q21 0 29 8.5t8 27.5v457q0 20 -8 28t-27 8h-24v59h194v-59h-20q-19 0 -27 -8t-8 -28v-241l256 277h-54v59h203v-59h-39q-18 0 -29 -7t-27 -25l-171 -183l186 -281q11 -17 24.5 -25t32.5 -8h34v-59h-210v59h57l-173 262l-90 -97v-129q0 -19 7.5 -27.5t28.5 -8.5
h27v-59h-210v59z" />
    <glyph glyph-name="L" unicode="L" horiz-adv-x="506" 
d="M39 59h21q22 0 30 8.5t8 28.5v456q0 20 -8 28t-27 8h-24v59h198v-59h-24q-19 0 -27 -8t-8 -28v-493h210q20 0 28.5 8t8.5 28v26h72v-121h-458v59z" />
    <glyph glyph-name="M" unicode="M" horiz-adv-x="775" 
d="M39 59h32q19 0 27 8.5t8 28.5v455q0 20 -8 28.5t-27 8.5h-32v59h158l191 -447l190 447h158v-59h-32q-19 0 -27 -8.5t-8 -28.5v-455q0 -20 8 -28.5t27 -8.5h32v-59h-214v59h33q19 0 27 8.5t8 27.5v423l-170 -399h-65l-170 399v-423q0 -19 8 -27.5t27 -8.5h33v-59h-214v59z
" />
    <glyph glyph-name="N" unicode="N" horiz-adv-x="688" 
d="M39 59h32q19 0 27 8t8 28v457q0 20 -8 28t-27 8h-32v59h133l331 -513v418q0 20 -8 28t-28 8h-32v59h214v-59h-32q-19 0 -27 -8t-8 -28v-552h-66l-331 512v-417q0 -19 8.5 -27.5t27.5 -8.5h32v-59h-214v59z" />
    <glyph glyph-name="O" unicode="O" horiz-adv-x="655" 
d="M110 68.5q-71 83.5 -71 252.5q0 171 69.5 256t219.5 85t219 -85t69 -256q0 -169 -71 -252.5t-217 -83.5q-147 0 -218 83.5zM486.5 109.5q52.5 64.5 52.5 211.5q0 150 -52 215.5t-159 65.5q-108 0 -160 -65.5t-52 -215.5q0 -147 52.5 -211.5t159.5 -64.5q106 0 158.5 64.5
z" />
    <glyph glyph-name="P" unicode="P" horiz-adv-x="618" 
d="M39 59h29q22 0 30 8.5t8 27.5v457q0 19 -8 27.5t-30 8.5h-29v59h337q95 0 149 -51.5t54 -144.5t-55 -148t-149 -55h-189v-153q0 -19 8 -27.5t30 -8.5h29v-59h-214v59zM365 307q137 0 137 144q0 76 -32.5 106.5t-104.5 30.5h-179v-281h179z" />
    <glyph glyph-name="Q" unicode="Q" horiz-adv-x="655" 
d="M339 -107q-38 38 -44 93q-127 9 -191.5 98.5t-64.5 236.5q0 158 71 249t218 91q146 0 217 -91t71 -249q0 -146 -63.5 -235t-188.5 -100q9 -72 82 -72q28 0 44.5 6t27.5 18v34h67v-57q-42 -60 -139 -60q-69 0 -107 38zM484.5 116.5q54.5 71.5 54.5 204.5q0 136 -53.5 208
t-157.5 72t-158 -72t-54 -208q0 -133 54.5 -204.5t157.5 -71.5q102 0 156.5 71.5z" />
    <glyph glyph-name="R" unicode="R" horiz-adv-x="615" 
d="M39 59h29q22 0 30 8.5t8 27.5v457q0 19 -8 27.5t-30 8.5h-29v59h316q96 0 149.5 -48.5t53.5 -135.5q0 -77 -44.5 -127t-124.5 -59l98 -185q9 -18 23 -25.5t35 -7.5h31v-59h-204v59h53l-113 213h-126v-178q0 -19 7.5 -27t28.5 -8h31v-59h-214v59zM343 331q68 0 103 34.5
t35 97.5q0 66 -33 95.5t-105 29.5h-157v-257h157z" />
    <glyph glyph-name="S" unicode="S" horiz-adv-x="527" 
d="M144 4q-62 19 -105 51v89h81v-61q27 -17 69 -27.5t84 -10.5q68 0 103 28.5t35 81.5q0 52 -35.5 81t-115.5 59q-76 29 -121 54t-69.5 60t-24.5 85q0 83 61.5 125.5t159.5 42.5q61 0 116.5 -17.5t92.5 -44.5v-87h-81v60q-23 14 -58 21.5t-73 7.5q-65 0 -103 -26t-38 -81
q0 -37 22 -61.5t50.5 -38t91.5 -38.5q71 -28 111.5 -51t65.5 -58.5t25 -90.5q0 -76 -57.5 -124t-160.5 -48q-64 0 -126 19z" />
    <glyph glyph-name="T" unicode="T" horiz-adv-x="548" 
d="M167 59h29q22 0 30 8.5t8 27.5v493h-105q-20 0 -28.5 -8t-8.5 -27v-29h-63v122h490v-122h-64v29q0 19 -8 27t-29 8h-104v-493q0 -19 8 -27.5t30 -8.5h29v-59h-214v59z" />
    <glyph glyph-name="U" unicode="U" horiz-adv-x="653" 
d="M148 37q-60 52 -60 142v373q0 20 -8 28t-27 8h-24v59h196v-59h-22q-19 0 -27 -8.5t-8 -28.5v-378q0 -65 39.5 -96.5t118.5 -31.5q159 0 159 128v378q0 20 -8 28.5t-28 8.5h-22v59h197v-59h-23q-19 0 -27.5 -8t-8.5 -28v-373q0 -90 -60.5 -142t-178.5 -52t-178 52z" />
    <glyph glyph-name="V" unicode="V" horiz-adv-x="705" 
d="M119 551q-8 23 -18.5 30t-36.5 7h-25v59h129l185 -540l184 540h129v-59h-25q-26 0 -36.5 -6.5t-18.5 -30.5l-195 -551h-75z" />
    <glyph glyph-name="W" unicode="W" horiz-adv-x="879" 
d="M118 549q-5 22 -16 30.5t-37 8.5h-26v59h135l109 -512l121 403h70l122 -403l110 512h134v-59h-27q-26 0 -37 -8.5t-16 -30.5l-124 -549h-67l-130 418l-128 -418h-68z" />
    <glyph glyph-name="X" unicode="X" horiz-adv-x="668" 
d="M39 59h33q25 0 38.5 7t26.5 27l155 233l-151 227q-14 21 -27 28t-38 7h-31v59h206v-59h-52l135 -208l135 208h-52v59h206v-59h-31q-26 0 -38.5 -7t-26.5 -28l-152 -227l156 -233q13 -20 26 -27t39 -7h33v-59h-208v59h52l-139 213l-139 -213h52v-59h-208v59z" />
    <glyph glyph-name="Y" unicode="Y" horiz-adv-x="665" 
d="M234 59h24q19 0 27 8.5t8 28.5v139l-172 316q-11 21 -24 29t-34 8h-24v59h194v-59h-19q-22 0 -22 -13q0 -8 8 -22l133 -251l132 251q8 14 8 22q0 13 -22 13h-20v59h195v-59h-24q-22 0 -35 -8t-24 -29l-171 -316v-139q0 -20 8 -28.5t28 -8.5h24v-59h-198v59z" />
    <glyph glyph-name="Z" unicode="Z" horiz-adv-x="558" 
d="M39 54l378 534h-255q-20 0 -28.5 -8t-8.5 -27v-21h-72v115h453v-54l-376 -534h280q20 0 28.5 8t8.5 28v20h72v-115h-480v54z" />
    <glyph glyph-name="bracketleft" unicode="[" horiz-adv-x="284" 
d="M59 750h176v-59h-96v-715h96v-59h-176v833z" />
    <glyph glyph-name="backslash" unicode="\" horiz-adv-x="428" 
d="M49 676h79l251 -676h-80z" />
    <glyph glyph-name="bracketright" unicode="]" horiz-adv-x="284" 
d="M49 -24h96v715h-96v59h176v-833h-176v59z" />
    <glyph glyph-name="asciicircum" unicode="^" horiz-adv-x="581" 
d="M256 719h69l207 -352h-84l-158 274l-158 -274h-83z" />
    <glyph glyph-name="underscore" unicode="_" horiz-adv-x="459" 
d="M49 0h361v-60h-361v60z" />
    <glyph glyph-name="grave" unicode="`" horiz-adv-x="285" 
d="M49 717h102l85 -183h-69z" />
    <glyph glyph-name="a" unicode="a" horiz-adv-x="520" 
d="M69.5 19.5q-40.5 34.5 -40.5 98.5q0 70 44 102.5t125 38.5l157 11v62q0 55 -22.5 79t-79.5 24q-38 0 -62 -5t-48 -17v-38h-73v70q80 50 183 50q182 0 182 -168v-229q0 -21 7.5 -30t24.5 -9h24v-59h-105l-12 62q-30 -40 -74.5 -58.5t-112.5 -18.5q-77 0 -117.5 34.5z
M314 74.5q41 29.5 41 88.5v53l-154 -11q-55 -4 -75 -23t-20 -63q0 -37 22.5 -55.5t76.5 -18.5q68 0 109 29.5z" />
    <glyph glyph-name="b" unicode="b" horiz-adv-x="585" 
d="M159 74l-8 -74h-66v560q0 25 -7.5 34t-30.5 9h-18v59h136v-249q57 82 175 82q100 0 153 -66.5t53 -191.5q0 -119 -58.5 -185.5t-158.5 -66.5q-118 0 -170 89zM431.5 91.5q37.5 46.5 37.5 147.5q0 103 -36 149.5t-116 46.5q-41 0 -75.5 -19.5t-55.5 -57t-21 -88.5v-59
q0 -46 19.5 -84t54.5 -60t78 -22q77 0 114.5 46.5z" />
    <glyph glyph-name="c" unicode="c" horiz-adv-x="512" 
d="M162 14.5q-57 29.5 -90 86t-33 136.5q0 124 65.5 191t180.5 67q63 0 105.5 -13.5t81.5 -41.5v-87h-73v55q-25 14 -49.5 20.5t-64.5 6.5q-74 0 -121.5 -48.5t-47.5 -149.5q0 -97 52.5 -144.5t129.5 -47.5q47 0 79.5 8.5t64.5 28.5l31 -50q-40 -26 -82 -36.5t-101 -10.5
q-71 0 -128 29.5z" />
    <glyph glyph-name="d" unicode="d" horiz-adv-x="583" 
d="M94.5 49.5q-55.5 64.5 -55.5 184.5q0 123 55.5 192t156.5 69q63 0 103 -18t66 -60v140q0 26 -7.5 36t-31.5 10h-19v59h138v-564q0 -22 7 -30.5t25 -8.5h22v-59h-119l-10 73q-29 -46 -73 -67t-104 -21q-98 0 -153.5 64.5zM377 92.5q43 47.5 43 123.5v53q0 78 -41 122
t-110 44q-78 0 -115.5 -49t-37.5 -152q0 -97 36 -143t112 -46q70 0 113 47.5z" />
    <glyph glyph-name="e" unicode="e" horiz-adv-x="536" 
d="M106 48.5q-67 63.5 -67 184.5q0 130 62 196t176 66q109 0 164.5 -63t55.5 -172v-45h-378q0 -89 45 -129.5t118 -40.5q45 0 73.5 6.5t51.5 20.5v31h73v-63q-42 -28 -89 -41.5t-110 -13.5q-108 0 -175 63.5zM422 270q0 83 -35.5 124t-110.5 41q-77 0 -117 -44t-40 -121h303
z" />
    <glyph glyph-name="f" unicode="f" horiz-adv-x="406" 
d="M43 59h30q20 0 28 8.5t8 28.5v325h-80v59h80v27q0 78 42.5 124t120.5 46q50 0 87 -12.5t66 -38.5v-68h-70v40q-28 20 -77 20q-45 0 -67.5 -27.5t-22.5 -77.5v-33h151v-59h-151v-325q0 -20 8 -28.5t27 -8.5h30v-59h-210v59z" />
    <glyph glyph-name="g" unicode="g" horiz-adv-x="583" 
d="M205.5 -184q-43.5 16 -79.5 48v67h72v-39q19 -17 44 -24.5t61 -7.5q61 0 89 32.5t28 94.5v83q-28 -43 -68.5 -62t-101.5 -19q-100 0 -155.5 67t-55.5 189q0 120 58 185t158 65q58 0 99 -21t71 -67l10 73h119v-53h-24q-18 0 -25 -9.5t-7 -31.5v-389q0 -89 -51.5 -143
t-137.5 -54q-60 0 -103.5 16zM379 92q41 43 41 121v51q0 77 -41 124t-111 47q-76 0 -114 -46.5t-38 -143.5q0 -102 37 -149t116 -47q69 0 110 43z" />
    <glyph glyph-name="h" unicode="h" horiz-adv-x="603" 
d="M39 59h32q19 0 27 8.5t8 28.5v471q0 20 -8 28t-27 8h-32v59h142v-237q35 37 75 53.5t97 16.5q75 0 114.5 -43t39.5 -122v-234q0 -20 8 -28.5t27 -8.5h32v-59h-148v329q0 56 -24.5 81t-76.5 25q-59 0 -99 -33.5t-40 -92.5v-213q0 -20 7.5 -28.5t26.5 -8.5h33v-59h-214v59z
" />
    <glyph glyph-name="i" unicode="i" horiz-adv-x="273" 
d="M92 637h88v-77h-88v77zM29 59h32q19 0 27 8.5t8 28.5v289q0 20 -8 28t-27 8h-32v59h147v-385q0 -20 8 -28t27 -8h32v-59h-214v59z" />
    <glyph glyph-name="j" unicode="j" horiz-adv-x="362" 
d="M211 637h88v-77h-88v77zM48 -155q-37 14 -69 44v74h71v-44q16 -16 34.5 -22t46.5 -6q45 0 66.5 23.5t21.5 80.5v390q0 20 -8 28t-27 8h-32v59h147v-477q0 -86 -42 -129t-121 -43q-51 0 -88 14z" />
    <glyph glyph-name="k" unicode="k" horiz-adv-x="575" 
d="M39 59h29q21 0 26.5 7.5t5.5 27.5v477q0 20 -7 27.5t-26 7.5h-20v56h193v-56h-27q-18 0 -25.5 -8t-7.5 -27v-321l193 171h-54v59h207v-59h-39q-18 0 -27 -4t-24 -17l-110 -98l128 -214q11 -18 21.5 -23.5t32.5 -5.5h38v-59h-118l-157 256l-91 -82v-80q0 -19 7.5 -27
t29.5 -8h32v-59h-210v59z" />
    <glyph glyph-name="l" unicode="l" horiz-adv-x="288" 
d="M39 59h32q19 0 27 8.5t8 28.5v471q0 20 -8 28t-27 8h-32v59h147v-566q0 -20 8 -28.5t27 -8.5h32v-59h-214v59z" />
    <glyph glyph-name="m" unicode="m" horiz-adv-x="851" 
d="M39 59h32q19 0 27 8.5t8 28.5v289q0 20 -8 28t-27 8h-32v59h121l7 -68q26 42 64 62.5t96 20.5q46 0 76 -21.5t44 -61.5q24 42 61.5 62.5t95.5 20.5q80 0 115.5 -40.5t35.5 -121.5v-237q0 -20 8 -28.5t27 -8.5h32v-59h-147v333q0 56 -21 79t-72 23q-52 0 -83 -30t-31 -86
v-223q0 -21 7.5 -29t26.5 -8h31v-59h-140v329q0 54 -20.5 80t-67.5 26q-56 0 -88 -32.5t-32 -93.5v-213q0 -20 7.5 -28.5t26.5 -8.5h31v-59h-211v59z" />
    <glyph glyph-name="n" unicode="n" horiz-adv-x="603" 
d="M39 59h32q19 0 27 8.5t8 28.5v288q0 20 -8 28.5t-27 8.5h-32v59h123l6 -68q34 44 77 63.5t105 19.5q79 0 118 -42.5t39 -122.5v-234q0 -20 8 -28.5t27 -8.5h32v-59h-148v329q0 56 -23.5 81t-77.5 25q-59 0 -99 -33.5t-40 -92.5v-213q0 -20 7.5 -28.5t26.5 -8.5h33v-59
h-214v59z" />
    <glyph glyph-name="o" unicode="o" horiz-adv-x="558" 
d="M98.5 52.5q-59.5 67.5 -59.5 186.5q0 120 59 188t181 68t181 -68t59 -188q0 -119 -59.5 -186.5t-180.5 -67.5t-180.5 67.5zM442 239q0 98 -41 147t-122 49q-163 0 -163 -196q0 -194 163 -194t163 194z" />
    <glyph glyph-name="p" unicode="p" horiz-adv-x="585" 
d="M29 -149h17q24 0 31.5 10.5t7.5 36.5v484q0 21 -8 30t-26 9h-22v59h121l10 -74q60 89 175 89q99 0 155 -65.5t56 -185.5q0 -122 -55.5 -190.5t-155.5 -68.5q-56 0 -96.5 18.5t-73.5 62.5v-168q0 -26 8 -36.5t32 -10.5h19v-59h-195v59zM431.5 93.5q37.5 48.5 37.5 150.5
q0 98 -36 144.5t-112 46.5q-70 0 -113 -47t-43 -123v-56q0 -77 43 -120.5t108 -43.5q78 0 115.5 48.5z" />
    <glyph glyph-name="q" unicode="q" horiz-adv-x="585" 
d="M420 66q-33 -44 -74.5 -62.5t-97.5 -18.5q-101 0 -155 64t-54 187q0 80 27 138.5t76.5 89.5t114.5 31q58 0 98.5 -22t70.5 -70l8 77h122v-59h-22q-18 0 -26 -9t-8 -30v-484q0 -27 8 -37t31 -10h17v-59h-136v274zM376.5 88.5q43.5 43.5 43.5 120.5v56q0 73 -41.5 121.5
t-107.5 48.5q-155 0 -155 -200q0 -102 36 -146t116 -44q65 0 108.5 43.5z" />
    <glyph glyph-name="r" unicode="r" horiz-adv-x="376" 
d="M37 59h32q19 0 27 8.5t8 28.5v289q0 20 -7.5 28t-26.5 8h-33v59h123l16 -58q20 33 51.5 45.5t79.5 12.5h40v-59h-44q-64 0 -91.5 -28.5t-27.5 -88.5v-208q0 -20 8 -28.5t27 -8.5h32v-59h-214v59z" />
    <glyph glyph-name="s" unicode="s" horiz-adv-x="453" 
d="M39 40v74h75v-43q45 -26 117 -26q54 0 80 16t26 53q0 23 -12.5 38.5t-36.5 27.5t-74 32q-65 25 -97.5 42t-52.5 43.5t-20 68.5q0 63 48.5 96t132.5 33q52 0 98 -14t80 -38v-73h-75v42q-38 23 -99 23q-54 0 -81 -15.5t-27 -53.5q0 -24 13 -39.5t32.5 -24.5t54.5 -22
q30 -11 35 -13q56 -22 85.5 -37.5t51 -43.5t21.5 -72q0 -63 -45.5 -96t-137.5 -33q-114 0 -192 55z" />
    <glyph glyph-name="t" unicode="t" horiz-adv-x="417" 
d="M147 25q-38 40 -38 116v280h-80v59h80v112l80 30v-142h150v-59h-150v-284q0 -49 17.5 -70.5t55.5 -21.5q26 0 43 4t31 15v43h72v-68q-31 -27 -66 -40.5t-85 -13.5q-72 0 -110 40z" />
    <glyph glyph-name="u" unicode="u" horiz-adv-x="593" 
d="M137.5 28q-41.5 43 -41.5 122v235q0 19 -8 27.5t-27 8.5h-32v59h148v-329q0 -55 25.5 -80.5t81.5 -25.5q59 0 96 33.5t37 97.5v209q0 20 -7.5 28t-26.5 8h-33v59h147v-385q0 -19 8.5 -27.5t27.5 -8.5h31v-59h-123l-6 66q-33 -42 -74 -61.5t-102 -19.5q-80 0 -121.5 43z
" />
    <glyph glyph-name="v" unicode="v" horiz-adv-x="574" 
d="M97 399q-5 14 -12 18t-26 4h-30v59h119l138 -406l140 406h119v-59h-32q-19 0 -26 -4t-12 -18l-143 -399h-91z" />
    <glyph glyph-name="w" unicode="w" horiz-adv-x="771" 
d="M97 399q-3 13 -10 17.5t-24 4.5h-34v59h120l93 -399l111 356h64l110 -356l96 399h119v-59h-34q-17 0 -24 -4.5t-10 -17.5l-96 -399h-87l-105 336l-106 -336h-87z" />
    <glyph glyph-name="x" unicode="x" horiz-adv-x="570" 
d="M29 59h32q25 0 36.5 4.5t24.5 21.5l120 158l-115 151q-13 18 -24.5 22.5t-36.5 4.5h-30v59h195v-59h-49l103 -135l103 135h-49v59h195v-59h-31q-24 0 -35.5 -5t-24.5 -22l-116 -151l120 -158q13 -17 25 -21.5t37 -4.5h32v-59h-197v59h47l-106 140l-106 -140h46v-59h-196
v59z" />
    <glyph glyph-name="y" unicode="y" horiz-adv-x="557" 
d="M201.5 -182.5q-44.5 17.5 -78.5 50.5v68h72v-39q18 -21 44.5 -29t63.5 -8q118 0 118 129v80q-30 -34 -65.5 -49t-88.5 -15q-82 0 -126.5 43.5t-44.5 123.5v213q0 19 -8 27.5t-27 8.5h-32v59h148v-309q0 -54 27 -80t81 -26q60 0 96 33t36 97v190q0 20 -7.5 28t-26.5 8h-33
v59h147v-478q0 -93 -50 -147.5t-140 -54.5q-61 0 -105.5 17.5z" />
    <glyph glyph-name="z" unicode="z" horiz-adv-x="490" 
d="M39 54l309 367h-186q-20 0 -28.5 -7.5t-8.5 -26.5v-22h-72v115h388v-51l-309 -370h210q20 0 28.5 8t8.5 26v22h72v-115h-412v54z" />
    <glyph glyph-name="braceleft" unicode="{" horiz-adv-x="340" 
d="M144 -47.5q-30 35.5 -30 108.5v168q0 44 -21.5 59t-63.5 15v61q42 0 63.5 15t21.5 59v168q0 73 30 108.5t109 35.5h38v-59h-33q-35 0 -49.5 -18.5t-14.5 -60.5v-174q0 -36 -17 -63t-47 -41q30 -14 47 -41t17 -64v-174q0 -42 14.5 -60.5t49.5 -18.5h33v-59h-38
q-79 0 -109 35.5z" />
    <glyph glyph-name="bar" unicode="|" horiz-adv-x="178" 
d="M49 767h80v-887h-80v887z" />
    <glyph glyph-name="braceright" unicode="}" horiz-adv-x="340" 
d="M49 -24h33q35 0 49.5 18.5t14.5 60.5v174q0 37 17 64t47 41q-30 14 -47 41t-17 63v174q0 42 -14.5 60.5t-49.5 18.5h-33v59h38q79 0 109 -35.5t30 -108.5v-168q0 -44 21.5 -59t63.5 -15v-61q-42 0 -63.5 -15t-21.5 -59v-168q0 -73 -30 -108.5t-109 -35.5h-38v59z" />
    <glyph glyph-name="asciitilde" unicode="~" horiz-adv-x="566" 
d="M80 341q31 36 94 36q32 0 57.5 -10t57.5 -29q31 -17 51 -25.5t44 -8.5q39 0 53 18t14 55h66q0 -66 -30.5 -101.5t-94.5 -35.5q-33 0 -60 10t-63 30q-27 16 -46.5 24t-40.5 8q-39 0 -53.5 -17.5t-14.5 -54.5h-65q0 65 31 101z" />
    <glyph glyph-name="uni00A0" unicode="&#xa0;" horiz-adv-x="375" 
 />
    <glyph glyph-name="exclamdown" unicode="&#xa1;" horiz-adv-x="188" 
d="M49 495h90v-77h-90v77zM56 331h75l7 -483h-88z" />
    <glyph glyph-name="cent" unicode="&#xa2;" horiz-adv-x="519" 
d="M248 -12q-93 12 -151 77t-58 172q0 113 55 179t154 77v77h76v-77q47 -4 81 -16.5t67 -36.5v-87h-73v55q-25 14 -49.5 20.5t-64.5 6.5q-74 0 -121.5 -48.5t-47.5 -149.5q0 -97 52.5 -144.5t129.5 -47.5q47 0 79.5 8.5t64.5 28.5l31 -50q-34 -22 -68.5 -32.5t-80.5 -13.5
v-76h-76v78z" />
    <glyph glyph-name="sterling" unicode="&#xa3;" horiz-adv-x="495" 
d="M51 59h23q55 0 55 85v213h-80v59h80v83q0 75 48 119t129 44q93 0 152 -53v-69h-70v41q-29 22 -76 22q-48 0 -76 -26t-28 -74v-87h166v-59h-166v-211q0 -31 -5.5 -51.5t-22.5 -35.5h286v-59h-415v59z" />
    <glyph glyph-name="currency" unicode="&#xa4;" horiz-adv-x="612" 
d="M59 114l81 75q-51 61 -51 140q0 73 42 129l-82 75l46 48l82 -77q59 44 130 44q68 0 128 -43l82 76l46 -48l-82 -75q21 -26 32.5 -59.5t11.5 -69.5q0 -40 -14 -76t-39 -65l82 -74l-47 -48l-85 78q-52 -33 -115 -33t-116 34l-86 -79zM382.5 197.5q33.5 20.5 53 55
t19.5 76.5t-19.5 77t-53 55.5t-75.5 20.5t-76 -20.5t-53.5 -55.5t-19.5 -77t19.5 -76.5t53.5 -55t76 -20.5t75.5 20.5z" />
    <glyph glyph-name="yen" unicode="&#xa5;" horiz-adv-x="665" 
d="M234 59h24q19 0 27 8.5t8 28.5v37h-140v57h140v46h-140v57h108l-140 258q-11 21 -24 29t-34 8h-24v59h194v-59h-19q-22 0 -22 -13q0 -8 8 -22l133 -254l132 254q8 14 8 22q0 13 -22 13h-20v59h195v-59h-24q-22 0 -35 -8t-24 -29l-139 -258h108v-57h-140v-46h140v-57h-140
v-37q0 -20 8 -28.5t28 -8.5h24v-59h-198v59z" />
    <glyph glyph-name="brokenbar" unicode="&#xa6;" horiz-adv-x="177" 
d="M49 767h80v-341h-80v341zM49 220h80v-340h-80v340z" />
    <glyph glyph-name="section" unicode="&#xa7;" horiz-adv-x="507" 
d="M134 -137q-62 19 -105 51v87h79v-59q27 -17 70 -27.5t85 -10.5q66 0 102 28.5t36 81.5q0 38 -18 62.5t-46.5 39.5t-86.5 38q-76 30 -120.5 55t-69.5 59.5t-25 84.5q0 58 32 96q-32 36 -32 95q0 83 61.5 125.5t159.5 42.5q61 0 116.5 -17.5t92.5 -44.5v-85h-79v58
q-24 14 -59.5 21.5t-73.5 7.5q-65 0 -103 -26t-38 -81q0 -35 18.5 -58t47 -38t79.5 -35q15 -5 19 -7q71 -28 111.5 -51t65.5 -58.5t25 -90.5q0 -54 -30 -95q30 -39 30 -96q0 -76 -57.5 -124t-160.5 -48q-64 0 -126 19zM402.5 181q2.5 12 2.5 29q0 41 -30.5 67.5t-87.5 51.5
q-28 12 -42 17q-44 18 -70.5 30t-48.5 27q-17 -18 -17 -51q0 -43 34 -70.5t101 -55.5l33 -14q78 -31 116 -55q7 12 9.5 24z" />
    <glyph glyph-name="dieresis" unicode="&#xa8;" horiz-adv-x="382" 
d="M49 658h79v-82h-79v82zM254 658h79v-82h-79v82z" />
    <glyph glyph-name="copyright" unicode="&#xa9;" horiz-adv-x="815" 
d="M227 33q-82 48 -130 130t-48 179q0 98 48 180t130.5 130t180.5 48t180 -48t130 -130t48 -180q0 -97 -48 -179t-130.5 -130t-180.5 -48t-180 48zM559.5 80.5q67.5 39.5 105.5 108t38 153.5t-38 154t-105.5 108.5t-152.5 39.5t-152.5 -39.5t-105 -108.5t-37.5 -154
t37.5 -153.5t105 -108t152.5 -39.5t152.5 39.5zM284.5 119q-54.5 29 -86 85t-31.5 133q0 119 64 185.5t174 66.5q62 0 103.5 -13t78.5 -40v-82h-67v52q-25 14 -50.5 20t-64.5 6q-73 0 -120.5 -48t-47.5 -147q0 -95 51 -142.5t124 -47.5q46 0 78 9t62 29l28 -46
q-36 -25 -77.5 -37t-96.5 -12q-67 0 -121.5 29z" />
    <glyph glyph-name="ordfeminine" unicode="&#xaa;" horiz-adv-x="396" 
d="M74 357.5q-25 22.5 -25 63.5q0 45 29 67.5t80 25.5l93 7v37q0 32 -12.5 44.5t-46.5 12.5q-22 0 -35 -3t-30 -11v-25h-53v53q53 33 118 33q62 0 90.5 -28.5t28.5 -79.5v-143q0 -14 4.5 -20t15.5 -6h16v-40h-69l-11 38q-21 -25 -49 -36.5t-71 -11.5q-48 0 -73 22.5z
M251 454v27l-88 -7q-30 -2 -43 -14t-13 -37q0 -42 57 -42q87 0 87 73z" />
    <glyph glyph-name="guillemotleft" unicode="&#xab;" horiz-adv-x="578" 
d="M49 298v51l267 228v-82l-196 -172l196 -171v-82zM262 298v51l267 228v-82l-196 -172l196 -171v-82z" />
    <glyph glyph-name="logicalnot" unicode="&#xac;" horiz-adv-x="508" 
d="M388 275h-339v60h410v-196h-71v136z" />
    <glyph glyph-name="uni00AD" unicode="&#xad;" horiz-adv-x="378" 
d="M49 335h280v-59h-280v59z" />
    <glyph glyph-name="registered" unicode="&#xae;" horiz-adv-x="815" 
d="M227 33q-82 48 -130 130t-48 179q0 98 48 180t130.5 130t180.5 48t180 -48t130 -130t48 -180q0 -97 -48 -179t-130.5 -130t-180.5 -48t-180 48zM559.5 80.5q67.5 39.5 105.5 108t38 153.5t-38 154t-105.5 108.5t-152.5 39.5t-152.5 -39.5t-105 -108.5t-37.5 -154
t37.5 -153.5t105 -108t152.5 -39.5t152.5 39.5zM223 174h17q15 0 20.5 6t5.5 21v287q0 15 -5.5 21t-20.5 6h-17v49h216q68 0 106 -32.5t38 -89.5q0 -53 -31.5 -88t-87.5 -39l53 -101q12 -22 25 -31t34 -9h25v-47h-29q-43 0 -67.5 15.5t-41.5 49.5l-61 120h-77v-111
q0 -15 5.5 -21t20.5 -6h18v-47h-146v47zM432 360q45 0 68 21t23 61t-22 56.5t-69 16.5h-103v-155h103z" />
    <glyph glyph-name="macron" unicode="&#xaf;" horiz-adv-x="429" 
d="M49 637h331v-57h-331v57z" />
    <glyph glyph-name="degree" unicode="&#xb0;" horiz-adv-x="351" 
d="M111.5 429q-28.5 17 -45.5 46t-17 63q0 53 36.5 90t88.5 37q53 0 90.5 -37t37.5 -90q0 -34 -17 -63t-46.5 -46t-64.5 -17q-34 0 -62.5 17zM225.5 488q20.5 20 20.5 50q0 31 -20.5 51.5t-51.5 20.5q-29 0 -49.5 -20.5t-20.5 -51.5q0 -30 20.5 -50t49.5 -20q31 0 51.5 20z
" />
    <glyph glyph-name="plusminus" unicode="&#xb1;" horiz-adv-x="411" 
d="M169 276h-120v59h120v108h71v-108h122v-59h-122v-108h-71v108zM49 93h313v-59h-313v59z" />
    <glyph glyph-name="uni00B2" unicode="&#xb2;" horiz-adv-x="332" 
d="M49 377q0 38 25.5 63.5t78.5 56.5q42 24 56 37.5t14 37.5t-15 34.5t-46 10.5q-37 0 -59 -13v-26h-54v51q19 14 52.5 23.5t62.5 9.5q55 0 86 -23.5t31 -65.5q0 -34 -19.5 -55t-75.5 -55q-40 -25 -56.5 -39t-16.5 -33h170v-46h-234v32z" />
    <glyph glyph-name="uni00B3" unicode="&#xb3;" horiz-adv-x="343" 
d="M99 346q-31 11 -50 31v47h53v-27q23 -18 63 -18q35 0 54 12.5t19 41.5q0 27 -15 37.5t-50 10.5h-38v43h40q31 0 44 11.5t13 40.5q0 41 -60 41q-39 0 -64 -15v-28h-53v52q19 15 50.5 25.5t63.5 10.5q58 0 88.5 -22.5t30.5 -62.5q0 -24 -10.5 -43.5t-31.5 -30.5
q24 -9 36 -25.5t12 -44.5q0 -49 -33.5 -73.5t-94.5 -24.5q-36 0 -67 11z" />
    <glyph glyph-name="acute" unicode="&#xb4;" horiz-adv-x="285" 
d="M134 717h102l-118 -183h-69z" />
    <glyph glyph-name="paragraph" unicode="&#xb6;" horiz-adv-x="640" 
d="M174 -97h29q22 0 30.5 8.5t8.5 28.5v372q-94 0 -143.5 43.5t-49.5 117.5q0 87 52 130.5t158 43.5h332v-59h-29q-22 0 -30 -8.5t-8 -28.5v-611q0 -20 8 -28.5t30 -8.5h29v-59h-147v744h-122v-744h-148v59z" />
    <glyph glyph-name="periodcentered" unicode="&#xb7;" horiz-adv-x="179" 
d="M49 346h81v-79h-81v79z" />
    <glyph glyph-name="cedilla" unicode="&#xb8;" horiz-adv-x="288" 
d="M49 -217v50q30 -10 59 -10q65 0 65 41q0 29 -18 40.5t-73 11.5l12 84h70l-7 -50q44 -6 63 -27.5t19 -58.5q0 -45 -32 -68.5t-94 -23.5q-33 0 -64 11z" />
    <glyph glyph-name="uni00B9" unicode="&#xb9;" horiz-adv-x="286" 
d="M63 390h34q20 0 25 5.5t5 22.5v182l-62 -41l-26 40l90 58h54v-239q0 -17 5 -22.5t25 -5.5h34v-45h-184v45z" />
    <glyph glyph-name="ordmasculine" unicode="&#xba;" horiz-adv-x="406" 
d="M88 378.5q-39 43.5 -39 119.5t39 120t115 44t115 -44t39 -120t-39.5 -119.5t-114.5 -43.5q-76 0 -115 43.5zM274 411q23 28 23 87q0 116 -94 116q-95 0 -95 -116q0 -59 23.5 -87t71.5 -28t71 28z" />
    <glyph glyph-name="guillemotright" unicode="&#xbb;" horiz-adv-x="578" 
d="M49 152l196 171l-196 172v82l267 -228v-51l-267 -228v82zM262 152l196 171l-196 172v82l267 -228v-51l-267 -228v82z" />
    <glyph glyph-name="onequarter" unicode="&#xbc;" horiz-adv-x="620" 
d="M73 390h34q20 0 25 5.5t5 22.5v182l-62 -41l-26 40l90 58h54v-239q0 -17 5 -22.5t25 -5.5h34v-45h-184v45zM491 647h75l-404 -647h-76zM415 41h27q11 0 14.5 4t3.5 14v25h-150v41l145 187h60v-185h56v-43h-56v-25q0 -10 4 -14t16 -4h26v-41h-146v41zM464 127v124
l-96 -124h96z" />
    <glyph glyph-name="onehalf" unicode="&#xbd;" horiz-adv-x="659" 
d="M73 390h34q20 0 25 5.5t5 22.5v182l-62 -41l-26 40l90 58h54v-239q0 -17 5 -22.5t25 -5.5h34v-45h-184v45zM491 647h75l-404 -647h-76zM375 32q0 38 25.5 63.5t78.5 56.5q42 24 56 37.5t14 37.5t-15 34.5t-46 10.5q-37 0 -59 -13v-26h-54v51q20 14 53 23.5t62 9.5
q56 0 86.5 -23.5t30.5 -65.5q0 -34 -19.5 -55t-75.5 -55q-40 -25 -56.5 -39t-16.5 -33h171v-46h-235v32z" />
    <glyph glyph-name="threequarters" unicode="&#xbe;" horiz-adv-x="629" 
d="M99 346q-31 11 -50 31v47h53v-27q23 -18 63 -18q35 0 54 12.5t19 41.5q0 27 -15 37.5t-50 10.5h-38v43h40q31 0 44 11.5t13 40.5q0 41 -60 41q-36 0 -64 -15v-28h-53v52q19 15 50 25.5t62 10.5q58 0 89.5 -22.5t31.5 -62.5q0 -24 -10.5 -43.5t-31.5 -30.5q24 -9 36 -25.5
t12 -44.5q0 -49 -33.5 -73.5t-94.5 -24.5q-36 0 -67 11zM499 647h76l-405 -647h-75zM423 41h27q11 0 15 4t4 14v25h-151v41l146 187h60v-185h56v-43h-56v-25q0 -10 3.5 -14t15.5 -4h26v-41h-146v41zM472 127v124l-96 -124h96z" />
    <glyph glyph-name="questiondown" unicode="&#xbf;" horiz-adv-x="528" 
d="M259 495h95v-82h-95v82zM108 -126.5q-59 40.5 -59 122.5q0 46 14 76.5t44 54.5t86 53q46 23 60 52.5t14 81.5v29h79v-31q0 -67 -27 -111.5t-93 -75.5q-39 -19 -59.5 -34.5t-30.5 -37.5t-10 -57q0 -103 143 -103q38 0 74 9t61 24v57h75v-87q-38 -28 -94.5 -45.5
t-116.5 -17.5q-101 0 -160 40.5z" />
    <glyph glyph-name="Agrave" unicode="&#xc0;" horiz-adv-x="721" 
d="M212 880h102l83 -179h-70zM39 59h33q21 0 34 8t20 28l198 552h75l196 -552q7 -20 20 -28t35 -8h32v-59h-207v59h54l-51 146h-234l-52 -146h54v-59h-207v59zM460 259l-99 281l-99 -281h198z" />
    <glyph glyph-name="Aacute" unicode="&#xc1;" horiz-adv-x="721" 
d="M406 880h102l-115 -179h-70zM39 59h33q21 0 34 8t20 28l198 552h75l196 -552q7 -20 20 -28t35 -8h32v-59h-207v59h54l-51 146h-234l-52 -146h54v-59h-207v59zM460 259l-99 281l-99 -281h198z" />
    <glyph glyph-name="Acircumflex" unicode="&#xc2;" horiz-adv-x="721" 
d="M318 885h86l120 -183h-79l-84 132l-84 -132h-79zM39 59h33q21 0 34 8t20 28l198 552h75l196 -552q7 -20 20 -28t35 -8h32v-59h-207v59h54l-51 146h-234l-52 -146h54v-59h-207v59zM460 259l-99 281l-99 -281h198z" />
    <glyph glyph-name="Atilde" unicode="&#xc3;" horiz-adv-x="721" 
d="M201.5 793.5q25.5 29.5 75.5 29.5q25 0 46 -8t49 -24q22 -12 37.5 -18.5t30.5 -6.5q23 0 33.5 12.5t10.5 44.5h63q0 -63 -25 -92t-75 -29q-24 0 -43.5 7.5t-46.5 22.5q-26 14 -40.5 20t-32.5 6q-23 0 -34 -12t-11 -44h-63q0 62 25.5 91.5zM39 59h33q21 0 34 8t20 28
l198 552h75l196 -552q7 -20 20 -28t35 -8h32v-59h-207v59h54l-51 146h-234l-52 -146h54v-59h-207v59zM460 259l-99 281l-99 -281h198z" />
    <glyph glyph-name="Adieresis" unicode="&#xc4;" horiz-adv-x="721" 
d="M221 803h80v-82h-80v82zM422 803h80v-82h-80v82zM39 59h33q21 0 34 8t20 28l198 552h75l196 -552q7 -20 20 -28t35 -8h32v-59h-207v59h54l-51 146h-234l-52 -146h54v-59h-207v59zM460 259l-99 281l-99 -281h198z" />
    <glyph glyph-name="Aring" unicode="&#xc5;" horiz-adv-x="721" 
d="M682 59v-59h-207v59h54l-51 146h-234l-52 -146h54v-59h-207v59h33q21 0 34 8t20 28l186 518q-28 14 -44.5 40.5t-16.5 58.5q0 47 32 79t78 32t78.5 -32.5t32.5 -78.5q0 -32 -16.5 -58t-44.5 -40l184 -519q7 -20 20 -28t35 -8h32zM319 755q-17 -17 -17 -43q0 -25 17 -41.5
t42 -16.5t42 16.5t17 41.5t-17 42.5t-42 17.5t-42 -17zM460 259l-99 281l-99 -281h198z" />
    <glyph glyph-name="AE" unicode="&#xc6;" horiz-adv-x="844" 
d="M39 59h33q21 0 34 8t20 28l214 552h465v-116h-72v21q0 23 -13.5 29.5t-47.5 6.5h-178v-234h184v-59h-184v-236h202q20 0 28.5 8t8.5 27v23h72v-117h-456v59h30q25 0 31 12.5t6 45.5v88h-168l-56 -146h54v-59h-207v59zM416 264v324h-23l-125 -324h148z" />
    <glyph glyph-name="Ccedilla" unicode="&#xc7;" horiz-adv-x="597" 
d="M270 -217v50q30 -10 59 -10q66 0 66 41q0 29 -18.5 40.5t-73.5 11.5l11 72q-88 9 -149.5 53.5t-93.5 116.5t-32 162q0 99 34.5 176.5t105 121.5t173.5 44q133 0 206 -54v-90h-79v60q-49 24 -127 24q-111 0 -173.5 -75t-62.5 -207q0 -85 30.5 -147t86.5 -95t130 -33
q49 0 86.5 8.5t70.5 28.5l32 -50q-37 -23 -77.5 -33.5t-91.5 -12.5l-5 -36q45 -6 64 -28t19 -58q0 -45 -32 -68.5t-94 -23.5q-34 0 -65 11z" />
    <glyph glyph-name="Egrave" unicode="&#xc8;" horiz-adv-x="544" 
d="M141 880h102l83 -179h-70zM39 59h32q19 0 27 8.5t8 28.5v456q0 20 -8 28t-27 8h-32v59h466v-116h-72v22q0 19 -8.5 27t-28.5 8h-210v-234h192v-59h-192v-236h210q20 0 28.5 8t8.5 27v23h72v-117h-466v59z" />
    <glyph glyph-name="Eacute" unicode="&#xc9;" horiz-adv-x="544" 
d="M307 880h102l-115 -179h-70zM39 59h32q19 0 27 8.5t8 28.5v456q0 20 -8 28t-27 8h-32v59h466v-116h-72v22q0 19 -8.5 27t-28.5 8h-210v-234h192v-59h-192v-236h210q20 0 28.5 8t8.5 27v23h72v-117h-466v59z" />
    <glyph glyph-name="Ecircumflex" unicode="&#xca;" horiz-adv-x="544" 
d="M227 885h86l120 -183h-79l-84 132l-84 -132h-79zM39 59h32q19 0 27 8.5t8 28.5v456q0 20 -8 28t-27 8h-32v59h466v-116h-72v22q0 19 -8.5 27t-28.5 8h-210v-234h192v-59h-192v-236h210q20 0 28.5 8t8.5 27v23h72v-117h-466v59z" />
    <glyph glyph-name="Edieresis" unicode="&#xcb;" horiz-adv-x="544" 
d="M131 803h80v-82h-80v82zM332 803h80v-82h-80v82zM39 59h32q19 0 27 8.5t8 28.5v456q0 20 -8 28t-27 8h-32v59h466v-116h-72v22q0 19 -8.5 27t-28.5 8h-210v-234h192v-59h-192v-236h210q20 0 28.5 8t8.5 27v23h72v-117h-466v59z" />
    <glyph glyph-name="Igrave" unicode="&#xcc;" horiz-adv-x="292" 
d="M-3 880h102l83 -179h-70zM39 59h32q19 0 27 8.5t8 28.5v456q0 20 -8 28t-27 8h-32v59h214v-59h-32q-19 0 -27 -8t-8 -28v-457q0 -20 8 -28t27 -8h32v-59h-214v59z" />
    <glyph glyph-name="Iacute" unicode="&#xcd;" horiz-adv-x="292" 
d="M181 880h102l-115 -179h-70zM39 59h32q19 0 27 8.5t8 28.5v456q0 20 -8 28t-27 8h-32v59h214v-59h-32q-19 0 -27 -8t-8 -28v-457q0 -20 8 -28t27 -8h32v-59h-214v59z" />
    <glyph glyph-name="Icircumflex" unicode="&#xce;" horiz-adv-x="292" 
d="M103 884h86l120 -183h-79l-84 132l-84 -132h-79zM39 59h32q19 0 27 8.5t8 28.5v456q0 20 -8 28t-27 8h-32v59h214v-59h-32q-19 0 -27 -8t-8 -28v-457q0 -20 8 -28t27 -8h32v-59h-214v59z" />
    <glyph glyph-name="Idieresis" unicode="&#xcf;" horiz-adv-x="292" 
d="M6 808h80v-82h-80v82zM207 808h80v-82h-80v82zM39 59h32q19 0 27 8.5t8 28.5v456q0 20 -8 28t-27 8h-32v59h214v-59h-32q-19 0 -27 -8t-8 -28v-457q0 -20 8 -28t27 -8h32v-59h-214v59z" />
    <glyph glyph-name="Eth" unicode="&#xd0;" horiz-adv-x="624" 
d="M39 59h24q19 0 27 8.5t8 28.5v198h-59v59h59v199q0 20 -8 28t-27 8h-24v59h276q137 0 203.5 -86t66.5 -240q0 -148 -68.5 -234.5t-201.5 -86.5h-276v59zM305 59q106 0 154.5 65.5t48.5 196.5q0 135 -48 201t-155 66h-127v-235h148v-59h-148v-235h127z" />
    <glyph glyph-name="Ntilde" unicode="&#xd1;" horiz-adv-x="688" 
d="M184.5 793.5q25.5 29.5 75.5 29.5q25 0 46 -8t49 -24q22 -12 37.5 -18.5t30.5 -6.5q23 0 33.5 12.5t10.5 44.5h63q0 -63 -25 -92t-75 -29q-24 0 -43.5 7.5t-46.5 22.5q-26 14 -40.5 20t-32.5 6q-23 0 -34 -12t-11 -44h-63q0 62 25.5 91.5zM39 59h32q19 0 27 8t8 28v457
q0 20 -8 28t-27 8h-32v59h133l331 -513v418q0 20 -8 28t-28 8h-32v59h214v-59h-32q-19 0 -27 -8t-8 -28v-552h-66l-331 512v-417q0 -19 8.5 -27.5t27.5 -8.5h32v-59h-214v59z" />
    <glyph glyph-name="Ograve" unicode="&#xd2;" horiz-adv-x="655" 
d="M177 880h102l83 -179h-70zM110 68.5q-71 83.5 -71 252.5q0 171 69.5 256t219.5 85t219 -85t69 -256q0 -169 -71 -252.5t-217 -83.5q-147 0 -218 83.5zM486.5 109.5q52.5 64.5 52.5 211.5q0 150 -52 215.5t-159 65.5q-108 0 -160 -65.5t-52 -215.5q0 -147 52.5 -211.5
t159.5 -64.5q106 0 158.5 64.5z" />
    <glyph glyph-name="Oacute" unicode="&#xd3;" horiz-adv-x="655" 
d="M356 880h102l-115 -179h-70zM110 68.5q-71 83.5 -71 252.5q0 171 69.5 256t219.5 85t219 -85t69 -256q0 -169 -71 -252.5t-217 -83.5q-147 0 -218 83.5zM486.5 109.5q52.5 64.5 52.5 211.5q0 150 -52 215.5t-159 65.5q-108 0 -160 -65.5t-52 -215.5q0 -147 52.5 -211.5
t159.5 -64.5q106 0 158.5 64.5z" />
    <glyph glyph-name="Ocircumflex" unicode="&#xd4;" horiz-adv-x="655" 
d="M284 885h86l120 -183h-79l-84 132l-84 -132h-79zM110 68.5q-71 83.5 -71 252.5q0 171 69.5 256t219.5 85t219 -85t69 -256q0 -169 -71 -252.5t-217 -83.5q-147 0 -218 83.5zM486.5 109.5q52.5 64.5 52.5 211.5q0 150 -52 215.5t-159 65.5q-108 0 -160 -65.5t-52 -215.5
q0 -147 52.5 -211.5t159.5 -64.5q106 0 158.5 64.5z" />
    <glyph glyph-name="Otilde" unicode="&#xd5;" horiz-adv-x="655" 
d="M166.5 793.5q25.5 29.5 75.5 29.5q25 0 46 -8t49 -24q22 -12 37.5 -18.5t30.5 -6.5q23 0 33.5 12.5t10.5 44.5h63q0 -63 -25 -92t-75 -29q-24 0 -43.5 7.5t-46.5 22.5q-26 14 -40.5 20t-32.5 6q-23 0 -34 -12t-11 -44h-63q0 62 25.5 91.5zM110 68.5q-71 83.5 -71 252.5
q0 171 69.5 256t219.5 85t219 -85t69 -256q0 -169 -71 -252.5t-217 -83.5q-147 0 -218 83.5zM486.5 109.5q52.5 64.5 52.5 211.5q0 150 -52 215.5t-159 65.5q-108 0 -160 -65.5t-52 -215.5q0 -147 52.5 -211.5t159.5 -64.5q106 0 158.5 64.5z" />
    <glyph glyph-name="Odieresis" unicode="&#xd6;" horiz-adv-x="655" 
d="M187 803h80v-82h-80v82zM388 803h80v-82h-80v82zM110 68.5q-71 83.5 -71 252.5q0 171 69.5 256t219.5 85t219 -85t69 -256q0 -169 -71 -252.5t-217 -83.5q-147 0 -218 83.5zM486.5 109.5q52.5 64.5 52.5 211.5q0 150 -52 215.5t-159 65.5q-108 0 -160 -65.5t-52 -215.5
q0 -147 52.5 -211.5t159.5 -64.5q106 0 158.5 64.5z" />
    <glyph glyph-name="multiply" unicode="&#xd7;" horiz-adv-x="358" 
d="M50 224l81 81l-82 82l49 48l81 -82l82 82l48 -48l-81 -82l81 -81l-49 -48l-80 80l-82 -81z" />
    <glyph glyph-name="Oslash" unicode="&#xd8;" horiz-adv-x="655" 
d="M179 15q-140 68 -140 306q0 171 69.5 256t219.5 85q50 0 87 -10l14 37h54l-20 -52q78 -33 115.5 -111.5t37.5 -204.5q0 -169 -71 -252.5t-217 -83.5q-57 0 -102 12l-14 -40h-54zM394 594q-32 8 -66 8q-108 0 -160 -65.5t-52 -215.5q0 -94 22 -153t65 -89zM486.5 109.5
q52.5 64.5 52.5 211.5q0 102 -24.5 164.5t-73.5 90.5l-193 -520q32 -11 80 -11q106 0 158.5 64.5z" />
    <glyph glyph-name="Ugrave" unicode="&#xd9;" horiz-adv-x="653" 
d="M177 880h102l83 -179h-70zM148 37q-60 52 -60 142v373q0 20 -8 28t-27 8h-24v59h196v-59h-22q-19 0 -27 -8.5t-8 -28.5v-378q0 -65 39.5 -96.5t118.5 -31.5q159 0 159 128v378q0 20 -8 28.5t-28 8.5h-22v59h197v-59h-23q-19 0 -27.5 -8t-8.5 -28v-373q0 -90 -60.5 -142
t-178.5 -52t-178 52z" />
    <glyph glyph-name="Uacute" unicode="&#xda;" horiz-adv-x="653" 
d="M354 880h102l-115 -179h-70zM148 37q-60 52 -60 142v373q0 20 -8 28t-27 8h-24v59h196v-59h-22q-19 0 -27 -8.5t-8 -28.5v-378q0 -65 39.5 -96.5t118.5 -31.5q159 0 159 128v378q0 20 -8 28.5t-28 8.5h-22v59h197v-59h-23q-19 0 -27.5 -8t-8.5 -28v-373q0 -90 -60.5 -142
t-178.5 -52t-178 52z" />
    <glyph glyph-name="Ucircumflex" unicode="&#xdb;" horiz-adv-x="653" 
d="M283 885h86l120 -183h-79l-84 132l-84 -132h-79zM148 37q-60 52 -60 142v373q0 20 -8 28t-27 8h-24v59h196v-59h-22q-19 0 -27 -8.5t-8 -28.5v-378q0 -65 39.5 -96.5t118.5 -31.5q159 0 159 128v378q0 20 -8 28.5t-28 8.5h-22v59h197v-59h-23q-19 0 -27.5 -8t-8.5 -28
v-373q0 -90 -60.5 -142t-178.5 -52t-178 52z" />
    <glyph glyph-name="Udieresis" unicode="&#xdc;" horiz-adv-x="653" 
d="M186 803h80v-82h-80v82zM387 803h80v-82h-80v82zM148 37q-60 52 -60 142v373q0 20 -8 28t-27 8h-24v59h196v-59h-22q-19 0 -27 -8.5t-8 -28.5v-378q0 -65 39.5 -96.5t118.5 -31.5q159 0 159 128v378q0 20 -8 28.5t-28 8.5h-22v59h197v-59h-23q-19 0 -27.5 -8t-8.5 -28
v-373q0 -90 -60.5 -142t-178.5 -52t-178 52z" />
    <glyph glyph-name="Yacute" unicode="&#xdd;" horiz-adv-x="665" 
d="M368 880h102l-115 -179h-70zM234 59h24q19 0 27 8.5t8 28.5v139l-172 316q-11 21 -24 29t-34 8h-24v59h194v-59h-19q-22 0 -22 -13q0 -8 8 -22l133 -251l132 251q8 14 8 22q0 13 -22 13h-20v59h195v-59h-24q-22 0 -35 -8t-24 -29l-171 -316v-139q0 -20 8 -28.5t28 -8.5
h24v-59h-198v59z" />
    <glyph glyph-name="Thorn" unicode="&#xde;" horiz-adv-x="618" 
d="M39 59h29q25 0 31.5 11.5t6.5 39.5v441q0 20 -8 28.5t-30 8.5h-29v59h147v-117h183q102 0 156 -49.5t54 -145.5q0 -93 -54 -147.5t-150 -54.5h-189v-38q0 -19 8 -27.5t30 -8.5h29v-59h-214v59zM365 192q68 0 102.5 35t34.5 108q0 75 -32.5 105.5t-104.5 30.5h-179v-279
h179z" />
    <glyph glyph-name="germandbls" unicode="&#xdf;" horiz-adv-x="630" 
d="M249 20l28 51q28 -15 56.5 -20.5t61.5 -5.5q119 0 119 141q0 70 -31 103.5t-105 33.5h-61v59h53q67 0 98 38t31 101q0 66 -37.5 98.5t-115.5 32.5q-160 0 -160 -147v-505h-147v59h32q19 0 27 8.5t8 28.5v404q0 96 61 154t179 58q115 0 172.5 -52t57.5 -139
q0 -54 -24 -101t-70 -65q58 -18 83.5 -61.5t25.5 -108.5q0 -92 -49 -146t-144 -54q-91 0 -149 35z" />
    <glyph glyph-name="agrave" unicode="&#xe0;" horiz-adv-x="520" 
d="M111 706h102l83 -179h-70zM69.5 19.5q-40.5 34.5 -40.5 98.5q0 70 44 102.5t125 38.5l157 11v62q0 55 -22.5 79t-79.5 24q-38 0 -62 -5t-48 -17v-38h-73v70q80 50 183 50q182 0 182 -168v-229q0 -21 7.5 -30t24.5 -9h24v-59h-105l-12 62q-30 -40 -74.5 -58.5
t-112.5 -18.5q-77 0 -117.5 34.5zM314 74.5q41 29.5 41 88.5v53l-154 -11q-55 -4 -75 -23t-20 -63q0 -37 22.5 -55.5t76.5 -18.5q68 0 109 29.5z" />
    <glyph glyph-name="aacute" unicode="&#xe1;" horiz-adv-x="520" 
d="M292 706h102l-115 -179h-70zM69.5 19.5q-40.5 34.5 -40.5 98.5q0 70 44 102.5t125 38.5l157 11v62q0 55 -22.5 79t-79.5 24q-38 0 -62 -5t-48 -17v-38h-73v70q80 50 183 50q182 0 182 -168v-229q0 -21 7.5 -30t24.5 -9h24v-59h-105l-12 62q-30 -40 -74.5 -58.5
t-112.5 -18.5q-77 0 -117.5 34.5zM314 74.5q41 29.5 41 88.5v53l-154 -11q-55 -4 -75 -23t-20 -63q0 -37 22.5 -55.5t76.5 -18.5q68 0 109 29.5z" />
    <glyph glyph-name="acircumflex" unicode="&#xe2;" horiz-adv-x="520" 
d="M207 710h86l120 -183h-79l-84 132l-84 -132h-79zM69.5 19.5q-40.5 34.5 -40.5 98.5q0 70 44 102.5t125 38.5l157 11v62q0 55 -22.5 79t-79.5 24q-38 0 -62 -5t-48 -17v-38h-73v70q80 50 183 50q182 0 182 -168v-229q0 -21 7.5 -30t24.5 -9h24v-59h-105l-12 62
q-30 -40 -74.5 -58.5t-112.5 -18.5q-77 0 -117.5 34.5zM314 74.5q41 29.5 41 88.5v53l-154 -11q-55 -4 -75 -23t-20 -63q0 -37 22.5 -55.5t76.5 -18.5q68 0 109 29.5z" />
    <glyph glyph-name="atilde" unicode="&#xe3;" horiz-adv-x="520" 
d="M101.5 618.5q25.5 29.5 75.5 29.5q25 0 46 -8t49 -24q22 -12 37.5 -18.5t30.5 -6.5q23 0 33.5 12.5t10.5 44.5h63q0 -63 -25 -92t-75 -29q-24 0 -43.5 7.5t-46.5 22.5q-26 14 -40.5 20t-32.5 6q-23 0 -34 -12t-11 -44h-63q0 62 25.5 91.5zM69.5 19.5
q-40.5 34.5 -40.5 98.5q0 70 44 102.5t125 38.5l157 11v62q0 55 -22.5 79t-79.5 24q-38 0 -62 -5t-48 -17v-38h-73v70q80 50 183 50q182 0 182 -168v-229q0 -21 7.5 -30t24.5 -9h24v-59h-105l-12 62q-30 -40 -74.5 -58.5t-112.5 -18.5q-77 0 -117.5 34.5zM314 74.5
q41 29.5 41 88.5v53l-154 -11q-55 -4 -75 -23t-20 -63q0 -37 22.5 -55.5t76.5 -18.5q68 0 109 29.5z" />
    <glyph glyph-name="adieresis" unicode="&#xe4;" horiz-adv-x="520" 
d="M111 628h80v-82h-80v82zM312 628h80v-82h-80v82zM69.5 19.5q-40.5 34.5 -40.5 98.5q0 70 44 102.5t125 38.5l157 11v62q0 55 -22.5 79t-79.5 24q-38 0 -62 -5t-48 -17v-38h-73v70q80 50 183 50q182 0 182 -168v-229q0 -21 7.5 -30t24.5 -9h24v-59h-105l-12 62
q-30 -40 -74.5 -58.5t-112.5 -18.5q-77 0 -117.5 34.5zM314 74.5q41 29.5 41 88.5v53l-154 -11q-55 -4 -75 -23t-20 -63q0 -37 22.5 -55.5t76.5 -18.5q68 0 109 29.5z" />
    <glyph glyph-name="aring" unicode="&#xe5;" horiz-adv-x="520" 
d="M178 558q-32 32 -32 78q0 47 32 79t78 32t78.5 -32.5t32.5 -78.5t-32.5 -78t-78.5 -32t-78 32zM298 594.5q17 16.5 17 41.5t-17 42.5t-42 17.5t-42 -17t-17 -43q0 -25 17 -41.5t42 -16.5t42 16.5zM69.5 19.5q-40.5 34.5 -40.5 98.5q0 70 44 102.5t125 38.5l157 11v62
q0 55 -22.5 79t-79.5 24q-38 0 -62 -5t-48 -17v-38h-73v70q80 50 183 50q182 0 182 -168v-229q0 -21 7.5 -30t24.5 -9h24v-59h-105l-12 62q-30 -40 -74.5 -58.5t-112.5 -18.5q-77 0 -117.5 34.5zM314 74.5q41 29.5 41 88.5v53l-154 -11q-55 -4 -75 -23t-20 -63
q0 -37 22.5 -55.5t76.5 -18.5q68 0 109 29.5z" />
    <glyph glyph-name="ae" unicode="&#xe6;" horiz-adv-x="852" 
d="M69 19q-40 34 -40 99q0 70 44 102t125 38l157 11v63q0 56 -22.5 80t-79.5 24q-36 0 -61.5 -6t-48.5 -18v-37h-73v70q80 50 182 50q65 0 101 -21t56 -65q29 43 76.5 64.5t108.5 21.5q110 0 164.5 -61.5t54.5 -173.5v-45h-377q0 -58 23 -97t60.5 -58t79.5 -19
q44 0 73.5 6.5t52.5 20.5v36h71v-64q-41 -28 -87.5 -41.5t-109.5 -13.5q-65 0 -115.5 27t-79.5 78q-27 -53 -85.5 -79t-131.5 -26q-78 0 -118 34zM739 270q0 88 -35 127t-110 39q-76 0 -117 -42.5t-41 -123.5h303zM314 74q41 30 41 90v53l-154 -11q-55 -4 -76.5 -23
t-21.5 -63q0 -38 24 -57t78 -19q68 0 109 30z" />
    <glyph glyph-name="ccedilla" unicode="&#xe7;" horiz-adv-x="512" 
d="M210 -217v50q30 -10 59 -10q66 0 66 41q0 29 -18.5 40.5t-73.5 11.5l11 71q-95 11 -155 76t-60 174q0 124 65.5 191t180.5 67q63 0 105.5 -13.5t81.5 -41.5v-87h-73v55q-25 14 -49.5 20.5t-64.5 6.5q-74 0 -121.5 -48.5t-47.5 -149.5q0 -97 52.5 -144.5t129.5 -47.5
q47 0 79.5 8.5t64.5 28.5l31 -50q-34 -22 -69 -32.5t-81 -13.5l-5 -36q45 -6 64 -28t19 -58q0 -45 -32 -68.5t-94 -23.5q-34 0 -65 11z" />
    <glyph glyph-name="egrave" unicode="&#xe8;" horiz-adv-x="536" 
d="M149 706h102l83 -179h-70zM106 48.5q-67 63.5 -67 184.5q0 130 62 196t176 66q109 0 164.5 -63t55.5 -172v-45h-378q0 -89 45 -129.5t118 -40.5q45 0 73.5 6.5t51.5 20.5v31h73v-63q-42 -28 -89 -41.5t-110 -13.5q-108 0 -175 63.5zM422 270q0 83 -35.5 124t-110.5 41
q-77 0 -117 -44t-40 -121h303z" />
    <glyph glyph-name="eacute" unicode="&#xe9;" horiz-adv-x="536" 
d="M310 706h102l-115 -179h-70zM106 48.5q-67 63.5 -67 184.5q0 130 62 196t176 66q109 0 164.5 -63t55.5 -172v-45h-378q0 -89 45 -129.5t118 -40.5q45 0 73.5 6.5t51.5 20.5v31h73v-63q-42 -28 -89 -41.5t-110 -13.5q-108 0 -175 63.5zM422 270q0 83 -35.5 124t-110.5 41
q-77 0 -117 -44t-40 -121h303z" />
    <glyph glyph-name="ecircumflex" unicode="&#xea;" horiz-adv-x="536" 
d="M238 710h86l120 -183h-79l-84 132l-84 -132h-79zM106 48.5q-67 63.5 -67 184.5q0 130 62 196t176 66q109 0 164.5 -63t55.5 -172v-45h-378q0 -89 45 -129.5t118 -40.5q45 0 73.5 6.5t51.5 20.5v31h73v-63q-42 -28 -89 -41.5t-110 -13.5q-108 0 -175 63.5zM422 270
q0 83 -35.5 124t-110.5 41q-77 0 -117 -44t-40 -121h303z" />
    <glyph glyph-name="edieresis" unicode="&#xeb;" horiz-adv-x="536" 
d="M140 624h80v-82h-80v82zM341 624h80v-82h-80v82zM106 48.5q-67 63.5 -67 184.5q0 130 62 196t176 66q109 0 164.5 -63t55.5 -172v-45h-378q0 -89 45 -129.5t118 -40.5q45 0 73.5 6.5t51.5 20.5v31h73v-63q-42 -28 -89 -41.5t-110 -13.5q-108 0 -175 63.5zM422 270
q0 83 -35.5 124t-110.5 41q-77 0 -117 -44t-40 -121h303z" />
    <glyph glyph-name="igrave" unicode="&#xec;" horiz-adv-x="273" 
d="M-13 706h102l83 -179h-70zM29 59h32q19 0 27 8.5t8 28.5v289q0 20 -8 28t-27 8h-32v59h147v-385q0 -20 8 -28t27 -8h32v-59h-214v59z" />
    <glyph glyph-name="iacute" unicode="&#xed;" horiz-adv-x="273" 
d="M173 706h102l-115 -179h-70zM29 59h32q19 0 27 8.5t8 28.5v289q0 20 -8 28t-27 8h-32v59h147v-385q0 -20 8 -28t27 -8h32v-59h-214v59z" />
    <glyph glyph-name="icircumflex" unicode="&#xee;" horiz-adv-x="273" 
d="M73 710h86l120 -183h-79l-84 132l-84 -132h-79zM29 59h32q19 0 27 8.5t8 28.5v289q0 20 -8 28t-27 8h-32v59h147v-385q0 -20 8 -28t27 -8h32v-59h-214v59z" />
    <glyph glyph-name="idieresis" unicode="&#xef;" horiz-adv-x="273" 
d="M-28 628h80v-82h-80v82zM173 628h80v-82h-80v82zM29 59h32q19 0 27 8.5t8 28.5v289q0 20 -8 28t-27 8h-32v59h147v-385q0 -20 8 -28t27 -8h32v-59h-214v59z" />
    <glyph glyph-name="eth" unicode="&#xf0;" horiz-adv-x="572" 
d="M97 36.5q-58 51.5 -58 155.5q0 12 2 36q9 110 78.5 173t181.5 63q52 0 89.5 -20t64.5 -61q2 124 -40 175l-107 -60v52l69 39q-25 13 -67 13t-72.5 -7.5t-65.5 -25.5l-26 54q64 39 173 39q74 0 124 -36l74 42l4 -50l-45 -25q56 -74 56 -219q0 -21 -4 -79
q-13 -156 -81.5 -233t-187.5 -77q-104 0 -162 51.5zM388 94.5q47 49.5 56 153.5q1 6 1 18q0 66 -40.5 102t-99.5 36q-88 0 -133.5 -45.5t-53.5 -134.5q-2 -28 -2 -39q0 -73 35 -106.5t113 -33.5q77 0 124 49.5z" />
    <glyph glyph-name="ntilde" unicode="&#xf1;" horiz-adv-x="603" 
d="M141.5 618.5q25.5 29.5 75.5 29.5q25 0 46 -8t49 -24q22 -12 37.5 -18.5t30.5 -6.5q23 0 33.5 12.5t10.5 44.5h63q0 -63 -25 -92t-75 -29q-24 0 -43.5 7.5t-46.5 22.5q-26 14 -40.5 20t-32.5 6q-23 0 -34 -12t-11 -44h-63q0 62 25.5 91.5zM39 59h32q19 0 27 8.5t8 28.5
v288q0 20 -8 28.5t-27 8.5h-32v59h123l6 -68q34 44 77 63.5t105 19.5q79 0 118 -42.5t39 -122.5v-234q0 -20 8 -28.5t27 -8.5h32v-59h-148v329q0 56 -23.5 81t-77.5 25q-59 0 -99 -33.5t-40 -92.5v-213q0 -20 7.5 -28.5t26.5 -8.5h33v-59h-214v59z" />
    <glyph glyph-name="ograve" unicode="&#xf2;" horiz-adv-x="558" 
d="M142 706h102l83 -179h-70zM98.5 52.5q-59.5 67.5 -59.5 186.5q0 120 59 188t181 68t181 -68t59 -188q0 -119 -59.5 -186.5t-180.5 -67.5t-180.5 67.5zM442 239q0 98 -41 147t-122 49q-163 0 -163 -196q0 -194 163 -194t163 194z" />
    <glyph glyph-name="oacute" unicode="&#xf3;" horiz-adv-x="558" 
d="M320 706h102l-115 -179h-70zM98.5 52.5q-59.5 67.5 -59.5 186.5q0 120 59 188t181 68t181 -68t59 -188q0 -119 -59.5 -186.5t-180.5 -67.5t-180.5 67.5zM442 239q0 98 -41 147t-122 49q-163 0 -163 -196q0 -194 163 -194t163 194z" />
    <glyph glyph-name="ocircumflex" unicode="&#xf4;" horiz-adv-x="558" 
d="M236 710h86l120 -183h-79l-84 132l-84 -132h-79zM98.5 52.5q-59.5 67.5 -59.5 186.5q0 120 59 188t181 68t181 -68t59 -188q0 -119 -59.5 -186.5t-180.5 -67.5t-180.5 67.5zM442 239q0 98 -41 147t-122 49q-163 0 -163 -196q0 -194 163 -194t163 194z" />
    <glyph glyph-name="otilde" unicode="&#xf5;" horiz-adv-x="558" 
d="M119.5 618.5q25.5 29.5 75.5 29.5q25 0 46 -8t49 -24q22 -12 37.5 -18.5t30.5 -6.5q23 0 33.5 12.5t10.5 44.5h63q0 -63 -25 -92t-75 -29q-24 0 -43.5 7.5t-46.5 22.5q-26 14 -40.5 20t-32.5 6q-23 0 -34 -12t-11 -44h-63q0 62 25.5 91.5zM98.5 52.5
q-59.5 67.5 -59.5 186.5q0 120 59 188t181 68t181 -68t59 -188q0 -119 -59.5 -186.5t-180.5 -67.5t-180.5 67.5zM442 239q0 98 -41 147t-122 49q-163 0 -163 -196q0 -194 163 -194t163 194z" />
    <glyph glyph-name="odieresis" unicode="&#xf6;" horiz-adv-x="558" 
d="M139 628h80v-82h-80v82zM340 628h80v-82h-80v82zM98.5 52.5q-59.5 67.5 -59.5 186.5q0 120 59 188t181 68t181 -68t59 -188q0 -119 -59.5 -186.5t-180.5 -67.5t-180.5 67.5zM442 239q0 98 -41 147t-122 49q-163 0 -163 -196q0 -194 163 -194t163 194z" />
    <glyph glyph-name="divide" unicode="&#xf7;" horiz-adv-x="411" 
d="M170 455h69v-67h-69v67zM49 335h313v-59h-313v59zM170 223h69v-68h-69v68z" />
    <glyph glyph-name="oslash" unicode="&#xf8;" horiz-adv-x="558" 
d="M168 4q-65 26 -97 87t-32 148q0 120 59 188t181 68q30 0 65 -7l17 47h54l-23 -61q64 -27 95.5 -87.5t31.5 -147.5q0 -119 -59.5 -186.5t-180.5 -67.5q-30 0 -63 5l-15 -42h-54zM323 430q-28 4 -44 4q-162 0 -162 -195q0 -128 73 -172zM441 239q0 125 -72 171l-132 -361
q17 -4 42 -4q162 0 162 194z" />
    <glyph glyph-name="ugrave" unicode="&#xf9;" horiz-adv-x="593" 
d="M133 706h102l83 -179h-70zM137.5 28q-41.5 43 -41.5 122v235q0 19 -8 27.5t-27 8.5h-32v59h148v-329q0 -55 25.5 -80.5t81.5 -25.5q59 0 96 33.5t37 97.5v209q0 20 -7.5 28t-26.5 8h-33v59h147v-385q0 -19 8.5 -27.5t27.5 -8.5h31v-59h-123l-6 66q-33 -42 -74 -61.5
t-102 -19.5q-80 0 -121.5 43z" />
    <glyph glyph-name="uacute" unicode="&#xfa;" horiz-adv-x="593" 
d="M314 706h102l-115 -179h-70zM137.5 28q-41.5 43 -41.5 122v235q0 19 -8 27.5t-27 8.5h-32v59h148v-329q0 -55 25.5 -80.5t81.5 -25.5q59 0 96 33.5t37 97.5v209q0 20 -7.5 28t-26.5 8h-33v59h147v-385q0 -19 8.5 -27.5t27.5 -8.5h31v-59h-123l-6 66q-33 -42 -74 -61.5
t-102 -19.5q-80 0 -121.5 43z" />
    <glyph glyph-name="ucircumflex" unicode="&#xfb;" horiz-adv-x="593" 
d="M231 710h86l120 -183h-79l-84 132l-84 -132h-79zM137.5 28q-41.5 43 -41.5 122v235q0 19 -8 27.5t-27 8.5h-32v59h148v-329q0 -55 25.5 -80.5t81.5 -25.5q59 0 96 33.5t37 97.5v209q0 20 -7.5 28t-26.5 8h-33v59h147v-385q0 -19 8.5 -27.5t27.5 -8.5h31v-59h-123l-6 66
q-33 -42 -74 -61.5t-102 -19.5q-80 0 -121.5 43z" />
    <glyph glyph-name="udieresis" unicode="&#xfc;" horiz-adv-x="593" 
d="M131 628h80v-82h-80v82zM332 628h80v-82h-80v82zM137.5 28q-41.5 43 -41.5 122v235q0 19 -8 27.5t-27 8.5h-32v59h148v-329q0 -55 25.5 -80.5t81.5 -25.5q59 0 96 33.5t37 97.5v209q0 20 -7.5 28t-26.5 8h-33v59h147v-385q0 -19 8.5 -27.5t27.5 -8.5h31v-59h-123l-6 66
q-33 -42 -74 -61.5t-102 -19.5q-80 0 -121.5 43z" />
    <glyph glyph-name="yacute" unicode="&#xfd;" horiz-adv-x="557" 
d="M308 706h102l-115 -179h-70zM201.5 -182.5q-44.5 17.5 -78.5 50.5v68h72v-39q18 -21 44.5 -29t63.5 -8q118 0 118 129v80q-30 -34 -65.5 -49t-88.5 -15q-82 0 -126.5 43.5t-44.5 123.5v213q0 19 -8 27.5t-27 8.5h-32v59h148v-309q0 -54 27 -80t81 -26q60 0 96 33t36 97
v190q0 20 -7.5 28t-26.5 8h-33v59h147v-478q0 -93 -50 -147.5t-140 -54.5q-61 0 -105.5 17.5z" />
    <glyph glyph-name="thorn" unicode="&#xfe;" horiz-adv-x="595" 
d="M39 -149h17q24 0 31.5 10.5t7.5 36.5v666q0 21 -8 30t-26 9h-22v59h136v-246q60 79 170 79q99 0 155 -65.5t56 -185.5q0 -122 -55.5 -190.5t-155.5 -68.5q-56 0 -96.5 18.5t-73.5 62.5v-168q0 -26 8 -36.5t32 -10.5h19v-59h-195v59zM441.5 93.5q37.5 48.5 37.5 150.5
q0 98 -36 144.5t-112 46.5q-70 0 -113 -47t-43 -123v-56q0 -77 43 -120.5t108 -43.5q78 0 115.5 48.5z" />
    <glyph glyph-name="ydieresis" unicode="&#xff;" horiz-adv-x="557" 
d="M134 628h80v-82h-80v82zM335 628h80v-82h-80v82zM201.5 -182.5q-44.5 17.5 -78.5 50.5v68h72v-39q18 -21 44.5 -29t63.5 -8q118 0 118 129v80q-30 -34 -65.5 -49t-88.5 -15q-82 0 -126.5 43.5t-44.5 123.5v213q0 19 -8 27.5t-27 8.5h-32v59h148v-309q0 -54 27 -80t81 -26
q60 0 96 33t36 97v190q0 20 -7.5 28t-26.5 8h-33v59h147v-478q0 -93 -50 -147.5t-140 -54.5q-61 0 -105.5 17.5z" />
    <glyph glyph-name="Amacron" unicode="&#x100;" horiz-adv-x="721" 
d="M221 779h280v-57h-280v57zM39 59h33q21 0 34 8t20 28l198 552h75l196 -552q7 -20 20 -28t35 -8h32v-59h-207v59h54l-51 146h-234l-52 -146h54v-59h-207v59zM460 259l-99 281l-99 -281h198z" />
    <glyph glyph-name="amacron" unicode="&#x101;" horiz-adv-x="520" 
d="M106 604h280v-57h-280v57zM69.5 19.5q-40.5 34.5 -40.5 98.5q0 70 44 102.5t125 38.5l157 11v62q0 55 -22.5 79t-79.5 24q-38 0 -62 -5t-48 -17v-38h-73v70q80 50 183 50q182 0 182 -168v-229q0 -21 7.5 -30t24.5 -9h24v-59h-105l-12 62q-30 -40 -74.5 -58.5
t-112.5 -18.5q-77 0 -117.5 34.5zM314 74.5q41 29.5 41 88.5v53l-154 -11q-55 -4 -75 -23t-20 -63q0 -37 22.5 -55.5t76.5 -18.5q68 0 109 29.5z" />
    <glyph glyph-name="Abreve" unicode="&#x102;" horiz-adv-x="721" 
d="M252.5 738q-41.5 37 -41.5 100h65q0 -39 23 -60t62 -21q40 0 62 21t22 60h65q0 -62 -41 -99.5t-108 -37.5t-108.5 37zM39 59h33q21 0 34 8t20 28l198 552h75l196 -552q7 -20 20 -28t35 -8h32v-59h-207v59h54l-51 146h-234l-52 -146h54v-59h-207v59zM460 259l-99 281
l-99 -281h198z" />
    <glyph glyph-name="abreve" unicode="&#x103;" horiz-adv-x="520" 
d="M146.5 564q-41.5 37 -41.5 100h65q0 -39 23 -60t62 -21q40 0 62 21t22 60h65q0 -62 -41 -99.5t-108 -37.5t-108.5 37zM69.5 19.5q-40.5 34.5 -40.5 98.5q0 70 44 102.5t125 38.5l157 11v62q0 55 -22.5 79t-79.5 24q-38 0 -62 -5t-48 -17v-38h-73v70q80 50 183 50
q182 0 182 -168v-229q0 -21 7.5 -30t24.5 -9h24v-59h-105l-12 62q-30 -40 -74.5 -58.5t-112.5 -18.5q-77 0 -117.5 34.5zM314 74.5q41 29.5 41 88.5v53l-154 -11q-55 -4 -75 -23t-20 -63q0 -37 22.5 -55.5t76.5 -18.5q68 0 109 29.5z" />
    <glyph glyph-name="Aogonek" unicode="&#x104;" horiz-adv-x="721" 
d="M563 -99q0 -26 10 -38t30 -12q24 0 45 7v-49q-22 -14 -57 -14q-43 0 -68.5 24t-25.5 72q0 62 50 109h-72v59h54l-51 146h-234l-52 -146h54v-59h-207v59h33q21 0 34 8t20 28l198 552h75l196 -552q7 -20 20 -28t35 -8h32v-59h-69q-50 -44 -50 -99zM460 259l-99 281
l-99 -281h198z" />
    <glyph glyph-name="aogonek" unicode="&#x105;" horiz-adv-x="520" 
d="M402 -99q0 -26 10 -38t30 -12q24 0 45 7v-49q-22 -14 -57 -14q-43 0 -68.5 24t-25.5 72q0 62 50 109l-12 62q-30 -40 -74.5 -58.5t-112.5 -18.5q-77 0 -117.5 34.5t-40.5 98.5q0 70 44 102.5t125 38.5l157 11v62q0 55 -22.5 79t-79.5 24q-38 0 -62 -5t-48 -17v-38h-73v70
q80 50 183 50q182 0 182 -168v-229q0 -21 7.5 -30t24.5 -9h24v-59h-39q-50 -44 -50 -99zM355 216l-154 -11q-55 -4 -75 -23t-20 -63q0 -37 22.5 -55.5t76.5 -18.5q68 0 109 29.5t41 88.5v53z" />
    <glyph glyph-name="Cacute" unicode="&#x106;" horiz-adv-x="597" 
d="M389 880h102l-115 -179h-70zM186.5 27.5q-72.5 42.5 -110 118.5t-37.5 174q0 99 34.5 176.5t105 121.5t173.5 44q133 0 206 -54v-90h-79v60q-49 24 -127 24q-111 0 -173.5 -75t-62.5 -207q0 -85 30.5 -147t86.5 -95t130 -33q49 0 86.5 8.5t70.5 28.5l32 -50
q-40 -26 -85.5 -36.5t-105.5 -10.5q-102 0 -174.5 42.5z" />
    <glyph glyph-name="cacute" unicode="&#x107;" horiz-adv-x="512" 
d="M317 706h102l-115 -179h-70zM162 14.5q-57 29.5 -90 86t-33 136.5q0 124 65.5 191t180.5 67q63 0 105.5 -13.5t81.5 -41.5v-87h-73v55q-25 14 -49.5 20.5t-64.5 6.5q-74 0 -121.5 -48.5t-47.5 -149.5q0 -97 52.5 -144.5t129.5 -47.5q47 0 79.5 8.5t64.5 28.5l31 -50
q-40 -26 -82 -36.5t-101 -10.5q-71 0 -128 29.5z" />
    <glyph glyph-name="Ccircumflex" unicode="&#x108;" horiz-adv-x="597" 
d="M314 885h86l120 -183h-79l-84 132l-84 -132h-79zM186.5 27.5q-72.5 42.5 -110 118.5t-37.5 174q0 99 34.5 176.5t105 121.5t173.5 44q133 0 206 -54v-90h-79v60q-49 24 -127 24q-111 0 -173.5 -75t-62.5 -207q0 -85 30.5 -147t86.5 -95t130 -33q49 0 86.5 8.5t70.5 28.5
l32 -50q-40 -26 -85.5 -36.5t-105.5 -10.5q-102 0 -174.5 42.5z" />
    <glyph glyph-name="ccircumflex" unicode="&#x109;" horiz-adv-x="512" 
d="M247 710h86l120 -183h-79l-84 132l-84 -132h-79zM162 14.5q-57 29.5 -90 86t-33 136.5q0 124 65.5 191t180.5 67q63 0 105.5 -13.5t81.5 -41.5v-87h-73v55q-25 14 -49.5 20.5t-64.5 6.5q-74 0 -121.5 -48.5t-47.5 -149.5q0 -97 52.5 -144.5t129.5 -47.5q47 0 79.5 8.5
t64.5 28.5l31 -50q-40 -26 -82 -36.5t-101 -10.5q-71 0 -128 29.5z" />
    <glyph glyph-name="Cdotaccent" unicode="&#x10a;" horiz-adv-x="597" 
d="M323 803h80v-82h-80v82zM186.5 27.5q-72.5 42.5 -110 118.5t-37.5 174q0 99 34.5 176.5t105 121.5t173.5 44q133 0 206 -54v-90h-79v60q-49 24 -127 24q-111 0 -173.5 -75t-62.5 -207q0 -85 30.5 -147t86.5 -95t130 -33q49 0 86.5 8.5t70.5 28.5l32 -50
q-40 -26 -85.5 -36.5t-105.5 -10.5q-102 0 -174.5 42.5z" />
    <glyph glyph-name="cdotaccent" unicode="&#x10b;" horiz-adv-x="512" 
d="M256 644h80v-82h-80v82zM162 14.5q-57 29.5 -90 86t-33 136.5q0 124 65.5 191t180.5 67q63 0 105.5 -13.5t81.5 -41.5v-87h-73v55q-25 14 -49.5 20.5t-64.5 6.5q-74 0 -121.5 -48.5t-47.5 -149.5q0 -97 52.5 -144.5t129.5 -47.5q47 0 79.5 8.5t64.5 28.5l31 -50
q-40 -26 -82 -36.5t-101 -10.5q-71 0 -128 29.5z" />
    <glyph glyph-name="Ccaron" unicode="&#x10c;" horiz-adv-x="597" 
d="M191 885h79l84 -133l84 133h79l-120 -183h-86zM186.5 27.5q-72.5 42.5 -110 118.5t-37.5 174q0 99 34.5 176.5t105 121.5t173.5 44q133 0 206 -54v-90h-79v60q-49 24 -127 24q-111 0 -173.5 -75t-62.5 -207q0 -85 30.5 -147t86.5 -95t130 -33q49 0 86.5 8.5t70.5 28.5
l32 -50q-40 -26 -85.5 -36.5t-105.5 -10.5q-102 0 -174.5 42.5z" />
    <glyph glyph-name="ccaron" unicode="&#x10d;" horiz-adv-x="512" 
d="M133 710h79l84 -133l84 133h79l-120 -183h-86zM162 14.5q-57 29.5 -90 86t-33 136.5q0 124 65.5 191t180.5 67q63 0 105.5 -13.5t81.5 -41.5v-87h-73v55q-25 14 -49.5 20.5t-64.5 6.5q-74 0 -121.5 -48.5t-47.5 -149.5q0 -97 52.5 -144.5t129.5 -47.5q47 0 79.5 8.5
t64.5 28.5l31 -50q-40 -26 -82 -36.5t-101 -10.5q-71 0 -128 29.5z" />
    <glyph glyph-name="Dcaron" unicode="&#x10e;" horiz-adv-x="624" 
d="M109 885h79l84 -133l84 133h79l-120 -183h-86zM39 59h24q19 0 27 8.5t8 28.5v456q0 20 -8 28t-27 8h-24v59h276q137 0 203.5 -86t66.5 -240q0 -148 -68.5 -234.5t-201.5 -86.5h-276v59zM305 59q106 0 154.5 65.5t48.5 196.5q0 135 -48 201t-155 66h-127v-529h127z" />
    <glyph glyph-name="dcaron" unicode="&#x10f;" horiz-adv-x="716" 
d="M596 721h101l-83 -189h-69zM94.5 49.5q-55.5 64.5 -55.5 184.5q0 123 55.5 192t156.5 69q63 0 103 -18t66 -60v140q0 26 -7.5 36t-31.5 10h-19v59h138v-564q0 -22 7 -30.5t25 -8.5h22v-59h-119l-10 73q-29 -46 -73 -67t-104 -21q-98 0 -153.5 64.5zM377 92.5
q43 47.5 43 123.5v53q0 78 -41 122t-110 44q-78 0 -115.5 -49t-37.5 -152q0 -97 36 -143t112 -46q70 0 113 47.5z" />
    <glyph glyph-name="Dcroat" unicode="&#x110;" horiz-adv-x="624" 
d="M39 59h24q19 0 27 8.5t8 28.5v198h-59v59h59v199q0 20 -8 28t-27 8h-24v59h276q137 0 203.5 -86t66.5 -240q0 -148 -68.5 -234.5t-201.5 -86.5h-276v59zM305 59q106 0 154.5 65.5t48.5 196.5q0 135 -48 201t-155 66h-127v-235h148v-59h-148v-235h127z" />
    <glyph glyph-name="dcroat" unicode="&#x111;" horiz-adv-x="584" 
d="M94.5 49.5q-55.5 64.5 -55.5 184.5q0 123 55.5 192t156.5 69q63 0 103 -18t66 -60v106h-151v52h149q-2 15 -10 22t-27 7h-19v58h136v-87h53v-52h-53v-431q0 -22 7 -30.5t25 -8.5h24v-53h-119l-10 73q-29 -46 -73 -67t-104 -21q-98 0 -153.5 64.5zM377 92.5
q43 47.5 43 123.5v53q0 78 -41 122t-110 44q-78 0 -115.5 -49t-37.5 -152q0 -97 36 -143t112 -46q70 0 113 47.5z" />
    <glyph glyph-name="Emacron" unicode="&#x112;" horiz-adv-x="544" 
d="M137 779h280v-57h-280v57zM39 59h32q19 0 27 8.5t8 28.5v456q0 20 -8 28t-27 8h-32v59h466v-116h-72v22q0 19 -8.5 27t-28.5 8h-210v-234h192v-59h-192v-236h210q20 0 28.5 8t8.5 27v23h72v-117h-466v59z" />
    <glyph glyph-name="emacron" unicode="&#x113;" horiz-adv-x="536" 
d="M146 604h280v-57h-280v57zM106 48.5q-67 63.5 -67 184.5q0 130 62 196t176 66q109 0 164.5 -63t55.5 -172v-45h-378q0 -89 45 -129.5t118 -40.5q45 0 73.5 6.5t51.5 20.5v31h73v-63q-42 -28 -89 -41.5t-110 -13.5q-108 0 -175 63.5zM422 270q0 83 -35.5 124t-110.5 41
q-77 0 -117 -44t-40 -121h303z" />
    <glyph glyph-name="Ebreve" unicode="&#x114;" horiz-adv-x="544" 
d="M181.5 738q-41.5 37 -41.5 100h65q0 -39 23 -60t62 -21q40 0 62 21t22 60h65q0 -62 -41 -99.5t-108 -37.5t-108.5 37zM39 59h32q19 0 27 8.5t8 28.5v456q0 20 -8 28t-27 8h-32v59h466v-116h-72v22q0 19 -8.5 27t-28.5 8h-210v-234h192v-59h-192v-236h210q20 0 28.5 8
t8.5 27v23h72v-117h-466v59z" />
    <glyph glyph-name="ebreve" unicode="&#x115;" horiz-adv-x="536" 
d="M175.5 564q-41.5 37 -41.5 100h65q0 -39 23 -60t62 -21q40 0 62 21t22 60h65q0 -62 -41 -99.5t-108 -37.5t-108.5 37zM106 48.5q-67 63.5 -67 184.5q0 130 62 196t176 66q109 0 164.5 -63t55.5 -172v-45h-378q0 -89 45 -129.5t118 -40.5q45 0 73.5 6.5t51.5 20.5v31h73
v-63q-42 -28 -89 -41.5t-110 -13.5q-108 0 -175 63.5zM422 270q0 83 -35.5 124t-110.5 41q-77 0 -117 -44t-40 -121h303z" />
    <glyph glyph-name="Edotaccent" unicode="&#x116;" horiz-adv-x="544" 
d="M250 803h80v-82h-80v82zM39 59h32q19 0 27 8.5t8 28.5v456q0 20 -8 28t-27 8h-32v59h466v-116h-72v22q0 19 -8.5 27t-28.5 8h-210v-234h192v-59h-192v-236h210q20 0 28.5 8t8.5 27v23h72v-117h-466v59z" />
    <glyph glyph-name="edotaccent" unicode="&#x117;" horiz-adv-x="536" 
d="M245 628h80v-82h-80v82zM106 48.5q-67 63.5 -67 184.5q0 130 62 196t176 66q109 0 164.5 -63t55.5 -172v-45h-378q0 -89 45 -129.5t118 -40.5q45 0 73.5 6.5t51.5 20.5v31h73v-63q-42 -28 -89 -41.5t-110 -13.5q-108 0 -175 63.5zM422 270q0 83 -35.5 124t-110.5 41
q-77 0 -117 -44t-40 -121h303z" />
    <glyph glyph-name="Eogonek" unicode="&#x118;" horiz-adv-x="544" 
d="M433 531v22q0 19 -8.5 27t-28.5 8h-210v-234h192v-59h-192v-236h210q20 0 28.5 8t8.5 27v23h72v-117h-35q-50 -44 -50 -99q0 -26 10 -38t30 -12q24 0 45 7v-49q-22 -14 -57 -14q-43 0 -68.5 24t-25.5 72q0 62 50 109h-365v59h32q19 0 27 8.5t8 28.5v456q0 20 -8 28t-27 8
h-32v59h466v-116h-72z" />
    <glyph glyph-name="eogonek" unicode="&#x119;" horiz-adv-x="536" 
d="M307.5 -181.5q-26.5 23.5 -26.5 72.5q0 54 36 95q-11 -1 -36 -1q-108 0 -175 63.5t-67 184.5q0 130 62 196t176 66q109 0 164.5 -63t55.5 -172v-45h-378q0 -89 45 -129.5t118 -40.5q45 0 73.5 6.5t51.5 20.5v31h73v-63q-38 -27 -83 -40q-50 -44 -50 -99q0 -26 10 -38
t30 -12q25 0 46 7v-49q-22 -13 -55 -14q-44 0 -70.5 23.5zM422 270q0 83 -35.5 124t-110.5 41q-77 0 -117 -44t-40 -121h303z" />
    <glyph glyph-name="Ecaron" unicode="&#x11a;" horiz-adv-x="544" 
d="M119 885h79l84 -133l84 133h79l-120 -183h-86zM39 59h32q19 0 27 8.5t8 28.5v456q0 20 -8 28t-27 8h-32v59h466v-116h-72v22q0 19 -8.5 27t-28.5 8h-210v-234h192v-59h-192v-236h210q20 0 28.5 8t8.5 27v23h72v-117h-466v59z" />
    <glyph glyph-name="ecaron" unicode="&#x11b;" horiz-adv-x="536" 
d="M122 710h79l84 -133l84 133h79l-120 -183h-86zM106 48.5q-67 63.5 -67 184.5q0 130 62 196t176 66q109 0 164.5 -63t55.5 -172v-45h-378q0 -89 45 -129.5t118 -40.5q45 0 73.5 6.5t51.5 20.5v31h73v-63q-42 -28 -89 -41.5t-110 -13.5q-108 0 -175 63.5zM422 270
q0 83 -35.5 124t-110.5 41q-77 0 -117 -44t-40 -121h303z" />
    <glyph glyph-name="Gcircumflex" unicode="&#x11c;" horiz-adv-x="611" 
d="M304 885h86l120 -183h-79l-84 132l-84 -132h-79zM180.5 27.5q-70.5 42.5 -106 118.5t-35.5 174q0 154 76.5 248t229.5 94q132 0 207 -54v-90h-80v59q-47 25 -127 25q-110 0 -169.5 -74.5t-59.5 -207.5q0 -129 63 -202t174 -73q82 0 140 25v203h-146v60h225v-289
q-47 -31 -100.5 -45t-120.5 -14q-100 0 -170.5 42.5z" />
    <glyph glyph-name="gcircumflex" unicode="&#x11d;" horiz-adv-x="583" 
d="M248 710h86l120 -183h-79l-84 132l-84 -132h-79zM205.5 -184q-43.5 16 -79.5 48v67h72v-39q19 -17 44 -24.5t61 -7.5q61 0 89 32.5t28 94.5v83q-28 -43 -68.5 -62t-101.5 -19q-100 0 -155.5 67t-55.5 189q0 120 58 185t158 65q58 0 99 -21t71 -67l10 73h119v-53h-24
q-18 0 -25 -9.5t-7 -31.5v-389q0 -89 -51.5 -143t-137.5 -54q-60 0 -103.5 16zM379 92q41 43 41 121v51q0 77 -41 124t-111 47q-76 0 -114 -46.5t-38 -143.5q0 -102 37 -149t116 -47q69 0 110 43z" />
    <glyph glyph-name="Gbreve" unicode="&#x11e;" horiz-adv-x="611" 
d="M239.5 738q-41.5 37 -41.5 100h65q0 -39 23 -60t62 -21q40 0 62 21t22 60h65q0 -62 -41 -99.5t-108 -37.5t-108.5 37zM180.5 27.5q-70.5 42.5 -106 118.5t-35.5 174q0 154 76.5 248t229.5 94q132 0 207 -54v-90h-80v59q-47 25 -127 25q-110 0 -169.5 -74.5t-59.5 -207.5
q0 -129 63 -202t174 -73q82 0 140 25v203h-146v60h225v-289q-47 -31 -100.5 -45t-120.5 -14q-100 0 -170.5 42.5z" />
    <glyph glyph-name="gbreve" unicode="&#x11f;" horiz-adv-x="583" 
d="M173.5 564q-41.5 37 -41.5 100h65q0 -39 23 -60t62 -21q40 0 62 21t22 60h65q0 -62 -41 -99.5t-108 -37.5t-108.5 37zM205.5 -184q-43.5 16 -79.5 48v67h72v-39q19 -17 44 -24.5t61 -7.5q61 0 89 32.5t28 94.5v83q-28 -43 -68.5 -62t-101.5 -19q-100 0 -155.5 67
t-55.5 189q0 120 58 185t158 65q58 0 99 -21t71 -67l10 73h119v-53h-24q-18 0 -25 -9.5t-7 -31.5v-389q0 -89 -51.5 -143t-137.5 -54q-60 0 -103.5 16zM379 92q41 43 41 121v51q0 77 -41 124t-111 47q-76 0 -114 -46.5t-38 -143.5q0 -102 37 -149t116 -47q69 0 110 43z" />
    <glyph glyph-name="Gdotaccent" unicode="&#x120;" horiz-adv-x="611" 
d="M314 787h80v-82h-80v82zM180.5 27.5q-70.5 42.5 -106 118.5t-35.5 174q0 154 76.5 248t229.5 94q132 0 207 -54v-90h-80v59q-47 25 -127 25q-110 0 -169.5 -74.5t-59.5 -207.5q0 -129 63 -202t174 -73q82 0 140 25v203h-146v60h225v-289q-47 -31 -100.5 -45t-120.5 -14
q-100 0 -170.5 42.5z" />
    <glyph glyph-name="gdotaccent" unicode="&#x121;" horiz-adv-x="583" 
d="M246 624h80v-82h-80v82zM205.5 -184q-43.5 16 -79.5 48v67h72v-39q19 -17 44 -24.5t61 -7.5q61 0 89 32.5t28 94.5v83q-28 -43 -68.5 -62t-101.5 -19q-100 0 -155.5 67t-55.5 189q0 120 58 185t158 65q58 0 99 -21t71 -67l10 73h119v-53h-24q-18 0 -25 -9.5t-7 -31.5
v-389q0 -89 -51.5 -143t-137.5 -54q-60 0 -103.5 16zM379 92q41 43 41 121v51q0 77 -41 124t-111 47q-76 0 -114 -46.5t-38 -143.5q0 -102 37 -149t116 -47q69 0 110 43z" />
    <glyph glyph-name="Gcommaaccent" unicode="&#x122;" horiz-adv-x="611" 
d="M180.5 27.5q-70.5 42.5 -106 118.5t-35.5 174q0 154 76.5 248t229.5 94q132 0 207 -54v-90h-80v59q-47 25 -127 25q-110 0 -169.5 -74.5t-59.5 -207.5q0 -129 63 -202t174 -73q82 0 140 25v203h-146v60h225v-289q-47 -31 -100.5 -45t-120.5 -14q-100 0 -170.5 42.5z
M324 -49h92l-59 -195h-62z" />
    <glyph glyph-name="gcommaaccent" unicode="&#x123;" horiz-adv-x="583" 
d="M297 764h62l-29 -195h-92zM205.5 -184q-43.5 16 -79.5 48v67h72v-39q19 -17 44 -24.5t61 -7.5q61 0 89 32.5t28 94.5v83q-28 -43 -68.5 -62t-101.5 -19q-100 0 -155.5 67t-55.5 189q0 120 58 185t158 65q58 0 99 -21t71 -67l10 73h119v-53h-24q-18 0 -25 -9.5t-7 -31.5
v-389q0 -89 -51.5 -143t-137.5 -54q-60 0 -103.5 16zM379 92q41 43 41 121v51q0 77 -41 124t-111 47q-76 0 -114 -46.5t-38 -143.5q0 -102 37 -149t116 -47q69 0 110 43z" />
    <glyph glyph-name="Hcircumflex" unicode="&#x124;" horiz-adv-x="679" 
d="M296 885h86l120 -183h-79l-84 132l-84 -132h-79zM39 59h32q19 0 27 8.5t8 28.5v456q0 20 -8 28t-27 8h-32v59h212v-59h-30q-19 0 -27 -8t-8 -28v-198h307v198q0 20 -8 28t-27 8h-31v59h213v-59h-31q-19 0 -27.5 -8t-8.5 -28v-456q0 -20 8 -28.5t28 -8.5h31v-59h-213v59
h31q19 0 27 8.5t8 28.5v199h-307v-199q0 -20 8 -28.5t27 -8.5h30v-59h-212v59z" />
    <glyph glyph-name="hcircumflex" unicode="&#x125;" horiz-adv-x="601" 
d="M165 885h86l120 -183h-79l-84 132l-84 -132h-79zM39 59h32q19 0 27 8.5t8 28.5v471q0 20 -8 28t-27 8h-32v59h142v-237q35 37 75 53.5t97 16.5q75 0 114.5 -43t39.5 -122v-234q0 -20 8 -28.5t27 -8.5h32v-59h-148v329q0 56 -24.5 81t-76.5 25q-59 0 -99 -33.5t-40 -92.5
v-213q0 -20 7.5 -28.5t26.5 -8.5h33v-59h-214v59z" />
    <glyph glyph-name="Hbar" unicode="&#x126;" horiz-adv-x="679" 
d="M39 59h32q19 0 27 8.5t8 28.5v331h-67v59h67v66q0 20 -8 28t-27 8h-32v59h212v-59h-30q-19 0 -27 -8t-8 -28v-66h307v66q0 20 -8 28t-27 8h-31v59h213v-59h-31q-19 0 -27.5 -8t-8.5 -28v-66h67v-59h-67v-331q0 -20 8 -28.5t28 -8.5h31v-59h-213v59h31q19 0 27 8.5t8 28.5
v199h-307v-199q0 -20 8 -28.5t27 -8.5h30v-59h-212v59zM493 354v73h-307v-73h307z" />
    <glyph glyph-name="hbar" unicode="&#x127;" horiz-adv-x="601" 
d="M39 59h32q19 0 27 8.5t8 28.5v421h-67v59h66q-2 14 -10 20.5t-24 6.5h-32v59h142v-86h168v-59h-168v-92q35 37 75 53.5t97 16.5q75 0 114.5 -43t39.5 -122v-234q0 -20 8 -28.5t27 -8.5h32v-59h-148v329q0 56 -24.5 81t-76.5 25q-59 0 -99 -33.5t-40 -92.5v-213
q0 -20 7.5 -28.5t26.5 -8.5h33v-59h-214v59z" />
    <glyph glyph-name="Itilde" unicode="&#x128;" horiz-adv-x="292" 
d="M-15.5 793.5q25.5 29.5 75.5 29.5q25 0 46 -8t49 -24q22 -12 37.5 -18.5t30.5 -6.5q23 0 33.5 12.5t10.5 44.5h63q0 -63 -25 -92t-75 -29q-24 0 -43.5 7.5t-46.5 22.5q-26 14 -40.5 20t-32.5 6q-23 0 -34 -12t-11 -44h-63q0 62 25.5 91.5zM39 59h32q19 0 27 8.5t8 28.5
v456q0 20 -8 28t-27 8h-32v59h214v-59h-32q-19 0 -27 -8t-8 -28v-457q0 -20 8 -28t27 -8h32v-59h-214v59z" />
    <glyph glyph-name="itilde" unicode="&#x129;" horiz-adv-x="273" 
d="M-38.5 621.5q25.5 29.5 75.5 29.5q25 0 46 -8t49 -24q22 -12 37.5 -18.5t30.5 -6.5q23 0 33.5 12.5t10.5 44.5h63q0 -63 -25 -92t-75 -29q-24 0 -43.5 7.5t-46.5 22.5q-26 14 -40.5 20t-32.5 6q-23 0 -34 -12t-11 -44h-63q0 62 25.5 91.5zM29 59h32q19 0 27 8.5t8 28.5
v289q0 20 -8 28t-27 8h-32v59h147v-385q0 -20 8 -28t27 -8h32v-59h-214v59z" />
    <glyph glyph-name="Imacron" unicode="&#x12a;" horiz-adv-x="292" 
d="M5 779h281v-57h-281v57zM39 59h32q19 0 27 8.5t8 28.5v456q0 20 -8 28t-27 8h-32v59h214v-59h-32q-19 0 -27 -8t-8 -28v-457q0 -20 8 -28t27 -8h32v-59h-214v59z" />
    <glyph glyph-name="imacron" unicode="&#x12b;" horiz-adv-x="271" 
d="M-19 604h281v-57h-281v57zM31 59h32q19 0 27 8.5t8 28.5v289q0 20 -8 28t-27 8h-32v59h147v-385q0 -20 8 -28t27 -8h32v-59h-214v59z" />
    <glyph glyph-name="Ibreve" unicode="&#x12c;" horiz-adv-x="292" 
d="M36.5 738q-41.5 37 -41.5 100h65q0 -39 23 -60t62 -21q40 0 62 21t22 60h65q0 -62 -41 -99.5t-108 -37.5t-108.5 37zM39 59h32q19 0 27 8.5t8 28.5v456q0 20 -8 28t-27 8h-32v59h214v-59h-32q-19 0 -27 -8t-8 -28v-457q0 -20 8 -28t27 -8h32v-59h-214v59z" />
    <glyph glyph-name="ibreve" unicode="&#x12d;" horiz-adv-x="273" 
d="M20.5 564q-41.5 37 -41.5 100h65q0 -39 23 -60t62 -21q40 0 62 21t22 60h65q0 -62 -41 -99.5t-108 -37.5t-108.5 37zM29 59h32q19 0 27 8.5t8 28.5v289q0 20 -8 28t-27 8h-32v59h147v-385q0 -20 8 -28t27 -8h32v-59h-214v59z" />
    <glyph glyph-name="Iogonek" unicode="&#x12e;" horiz-adv-x="292" 
d="M194 580q-8 -8 -8 -28v-457q0 -20 8 -28t27 -8h32v-59h-66q-50 -44 -50 -99q0 -26 10 -38t30 -12q24 0 45 7v-49q-22 -14 -57 -14q-43 0 -68.5 24t-25.5 72q0 62 50 109h-82v59h32q19 0 27 8.5t8 28.5v456q0 20 -8 28t-27 8h-32v59h214v-59h-32q-19 0 -27 -8z" />
    <glyph glyph-name="iogonek" unicode="&#x12f;" horiz-adv-x="273" 
d="M180 560h-88v77h88v-77zM129 -99q0 -26 10 -38t30 -12q24 0 45 7v-49q-22 -14 -57 -14q-43 0 -68.5 24t-25.5 72q0 62 50 109h-84v59h32q19 0 27 8.5t8 28.5v289q0 20 -8 28t-27 8h-32v59h147v-385q0 -20 8 -28t27 -8h32v-59h-64q-50 -44 -50 -99z" />
    <glyph glyph-name="Idotaccent" unicode="&#x130;" horiz-adv-x="292" 
d="M105 803h80v-82h-80v82zM39 59h32q19 0 27 8.5t8 28.5v456q0 20 -8 28t-27 8h-32v59h214v-59h-32q-19 0 -27 -8t-8 -28v-457q0 -20 8 -28t27 -8h32v-59h-214v59z" />
    <glyph glyph-name="dotlessi" unicode="&#x131;" horiz-adv-x="273" 
d="M29 59h32q19 0 27 8.5t8 28.5v289q0 20 -8 28t-27 8h-32v59h147v-385q0 -20 8 -28t27 -8h32v-59h-214v59z" />
    <glyph glyph-name="IJ" unicode="&#x132;" horiz-adv-x="745" 
d="M39 59h32q19 0 27 8.5t8 28.5v456q0 20 -8 28t-27 8h-32v59h214v-59h-32q-19 0 -27 -8t-8 -28v-457q0 -20 8 -28t27 -8h32v-59h-214v59zM275 56v73h74v-48q33 -36 106 -36q60 0 87 30.5t27 92.5v384q0 20 -8 28t-28 8h-31v59h214v-59h-32q-19 0 -27 -8.5t-8 -27.5v-375
q0 -90 -48.5 -141t-139.5 -51q-118 0 -186 71z" />
    <glyph glyph-name="ij" unicode="&#x133;" horiz-adv-x="522" 
d="M92 637h88v-77h-88v77zM371 637h88v-77h-88v77zM29 59h32q19 0 27 8.5t8 28.5v289q0 20 -8 28t-27 8h-32v59h147v-385q0 -20 8 -28t27 -8h32v-59h-214v59zM208 -155q-37 14 -69 44v74h71v-44q16 -16 34.5 -22t46.5 -6q45 0 66.5 23.5t21.5 80.5v390q0 20 -8 28t-27 8h-32
v59h147v-477q0 -86 -42 -129t-121 -43q-51 0 -88 14z" />
    <glyph glyph-name="Jcircumflex" unicode="&#x134;" horiz-adv-x="507" 
d="M291 885h86l120 -183h-79l-84 132l-84 -132h-79zM9 56v73h74v-48q33 -36 106 -36q60 0 87 30.5t27 92.5v384q0 20 -8 28t-28 8h-31v59h214v-59h-32q-19 0 -27 -8.5t-8 -27.5v-375q0 -90 -48.5 -141t-139.5 -51q-118 0 -186 71z" />
    <glyph glyph-name="jcircumflex" unicode="&#x135;" horiz-adv-x="362" 
d="M192 714h86l120 -183h-79l-84 132l-84 -132h-79zM48 -155q-37 14 -69 44v74h71v-44q16 -16 34.5 -22t46.5 -6q45 0 66.5 23.5t21.5 80.5v390q0 20 -8 28t-27 8h-32v59h147v-477q0 -86 -42 -129t-121 -43q-51 0 -88 14z" />
    <glyph glyph-name="Kcommaaccent" unicode="&#x136;" horiz-adv-x="641" 
d="M39 59h30q21 0 29 8.5t8 27.5v457q0 20 -8 28t-27 8h-24v59h194v-59h-20q-19 0 -27 -8t-8 -28v-241l256 277h-54v59h203v-59h-39q-18 0 -29 -7t-27 -25l-171 -183l186 -281q11 -17 24.5 -25t32.5 -8h34v-59h-210v59h57l-173 262l-90 -97v-129q0 -19 7.5 -27.5t28.5 -8.5
h27v-59h-210v59zM276 -49h92l-59 -195h-62z" />
    <glyph glyph-name="kcommaaccent" unicode="&#x137;" horiz-adv-x="575" 
d="M39 59h29q21 0 26.5 7.5t5.5 27.5v477q0 20 -7 27.5t-26 7.5h-20v56h193v-56h-27q-18 0 -25.5 -8t-7.5 -27v-321l193 171h-54v59h207v-59h-39q-18 0 -27 -4t-24 -17l-110 -98l128 -214q11 -18 21.5 -23.5t32.5 -5.5h38v-59h-118l-157 256l-91 -82v-80q0 -19 7.5 -27
t29.5 -8h32v-59h-210v59zM257 -49h92l-59 -195h-62z" />
    <glyph glyph-name="kgreenlandic" unicode="&#x138;" horiz-adv-x="576" 
d="M39 58h29q23 0 29.5 10t6.5 36v283q0 20 -7 27.5t-26 7.5h-24v58h189v-58h-23q-20 0 -26.5 -9.5t-6.5 -35.5v-142l189 187h-50v58h204v-58h-33q-22 0 -35.5 -7.5t-34.5 -28.5l-102 -101l126 -196q11 -18 22.5 -24.5t31.5 -6.5h39v-58h-189v58h39l-118 180l-89 -84v-61
q0 -19 7.5 -27t29.5 -8h31v-58h-209v58z" />
    <glyph glyph-name="Lacute" unicode="&#x139;" horiz-adv-x="506" 
d="M171 880h102l-115 -179h-70zM39 59h21q22 0 30 8.5t8 28.5v456q0 20 -8 28t-27 8h-24v59h198v-59h-24q-19 0 -27 -8t-8 -28v-493h210q20 0 28.5 8t8.5 28v26h72v-121h-458v59z" />
    <glyph glyph-name="lacute" unicode="&#x13a;" horiz-adv-x="288" 
d="M158 880h102l-115 -179h-70zM39 59h32q19 0 27 8.5t8 28.5v471q0 20 -8 28t-27 8h-32v59h147v-566q0 -20 8 -28.5t27 -8.5h32v-59h-214v59z" />
    <glyph glyph-name="Lcommaaccent" unicode="&#x13b;" horiz-adv-x="506" 
d="M39 59h21q22 0 30 8.5t8 28.5v456q0 20 -8 28t-27 8h-24v59h198v-59h-24q-19 0 -27 -8t-8 -28v-493h210q20 0 28.5 8t8.5 28v26h72v-121h-458v59zM236 -49h92l-59 -195h-62z" />
    <glyph glyph-name="lcommaaccent" unicode="&#x13c;" horiz-adv-x="288" 
d="M39 59h32q19 0 27 8.5t8 28.5v471q0 20 -8 28t-27 8h-32v59h147v-566q0 -20 8 -28.5t27 -8.5h32v-59h-214v59zM108 -49h92l-59 -195h-62z" />
    <glyph glyph-name="Lcaron" unicode="&#x13d;" horiz-adv-x="506" 
d="M365 714h92l-59 -195h-62zM39 59h21q22 0 30 8.5t8 28.5v456q0 20 -8 28t-27 8h-24v59h198v-59h-24q-19 0 -27 -8t-8 -28v-493h210q20 0 28.5 8t8.5 28v26h72v-121h-458v59z" />
    <glyph glyph-name="lcaron" unicode="&#x13e;" horiz-adv-x="382" 
d="M297 760h92l-59 -195h-62zM39 59h32q19 0 27 8.5t8 28.5v471q0 20 -8 28t-27 8h-32v59h147v-566q0 -20 8 -28.5t27 -8.5h32v-59h-214v59z" />
    <glyph glyph-name="Ldot" unicode="&#x13f;" horiz-adv-x="506" 
d="M39 59h21q22 0 30 8.5t8 28.5v456q0 20 -8 28t-27 8h-24v59h198v-59h-24q-19 0 -27 -8t-8 -28v-493h210q20 0 28.5 8t8.5 28v26h72v-121h-458v59zM297 361h80v-82h-80v82z" />
    <glyph glyph-name="ldot" unicode="&#x140;" horiz-adv-x="359" 
d="M39 59h32q19 0 27 8.5t8 28.5v471q0 20 -8 28t-27 8h-32v59h147v-566q0 -20 8 -28.5t27 -8.5h32v-59h-214v59zM280 364h80v-82h-80v82z" />
    <glyph glyph-name="Lslash" unicode="&#x141;" horiz-adv-x="507" 
d="M40 59h21q22 0 30 8.5t8 28.5v140l-60 -34v66l60 34v250q0 20 -8 28t-27 8h-24v59h198v-59h-24q-19 0 -27 -8t-8 -28v-204l120 70v-66l-120 -70v-223h210q20 0 28.5 8t8.5 28v26h72v-121h-458v59z" />
    <glyph glyph-name="lslash" unicode="&#x142;" horiz-adv-x="324" 
d="M57 59h32q19 0 27 8.5t8 28.5v172l-85 -48v66l85 48v233q0 20 -8 28t-27 8h-32v59h147v-282l81 47v-66l-81 -47v-218q0 -20 8 -28.5t27 -8.5h32v-59h-214v59z" />
    <glyph glyph-name="Nacute" unicode="&#x143;" horiz-adv-x="688" 
d="M370 880h102l-115 -179h-70zM39 59h32q19 0 27 8t8 28v457q0 20 -8 28t-27 8h-32v59h133l331 -513v418q0 20 -8 28t-28 8h-32v59h214v-59h-32q-19 0 -27 -8t-8 -28v-552h-66l-331 512v-417q0 -19 8.5 -27.5t27.5 -8.5h32v-59h-214v59z" />
    <glyph glyph-name="nacute" unicode="&#x144;" horiz-adv-x="603" 
d="M324 706h102l-115 -179h-70zM39 59h32q19 0 27 8.5t8 28.5v288q0 20 -8 28.5t-27 8.5h-32v59h123l6 -68q34 44 77 63.5t105 19.5q79 0 118 -42.5t39 -122.5v-234q0 -20 8 -28.5t27 -8.5h32v-59h-148v329q0 56 -23.5 81t-77.5 25q-59 0 -99 -33.5t-40 -92.5v-213
q0 -20 7.5 -28.5t26.5 -8.5h33v-59h-214v59z" />
    <glyph glyph-name="Ncommaaccent" unicode="&#x145;" horiz-adv-x="688" 
d="M39 59h32q19 0 27 8t8 28v457q0 20 -8 28t-27 8h-32v59h133l331 -513v418q0 20 -8 28t-28 8h-32v59h214v-59h-32q-19 0 -27 -8t-8 -28v-552h-66l-331 512v-417q0 -19 8.5 -27.5t27.5 -8.5h32v-59h-214v59zM307 -49h92l-59 -195h-62z" />
    <glyph glyph-name="ncommaaccent" unicode="&#x146;" horiz-adv-x="603" 
d="M39 59h32q19 0 27 8.5t8 28.5v288q0 20 -8 28.5t-27 8.5h-32v59h123l6 -68q34 44 77 63.5t105 19.5q79 0 118 -42.5t39 -122.5v-234q0 -20 8 -28.5t27 -8.5h32v-59h-148v329q0 56 -23.5 81t-77.5 25q-59 0 -99 -33.5t-40 -92.5v-213q0 -20 7.5 -28.5t26.5 -8.5h33v-59
h-214v59zM283 -49h92l-59 -195h-62z" />
    <glyph glyph-name="Ncaron" unicode="&#x147;" horiz-adv-x="688" 
d="M172 885h79l84 -133l84 133h79l-120 -183h-86zM39 59h32q19 0 27 8t8 28v457q0 20 -8 28t-27 8h-32v59h133l331 -513v418q0 20 -8 28t-28 8h-32v59h214v-59h-32q-19 0 -27 -8t-8 -28v-552h-66l-331 512v-417q0 -19 8.5 -27.5t27.5 -8.5h32v-59h-214v59z" />
    <glyph glyph-name="ncaron" unicode="&#x148;" horiz-adv-x="603" 
d="M136 710h79l84 -133l84 133h79l-120 -183h-86zM39 59h32q19 0 27 8.5t8 28.5v288q0 20 -8 28.5t-27 8.5h-32v59h123l6 -68q34 44 77 63.5t105 19.5q79 0 118 -42.5t39 -122.5v-234q0 -20 8 -28.5t27 -8.5h32v-59h-148v329q0 56 -23.5 81t-77.5 25q-59 0 -99 -33.5
t-40 -92.5v-213q0 -20 7.5 -28.5t26.5 -8.5h33v-59h-214v59z" />
    <glyph glyph-name="napostrophe" unicode="&#x149;" horiz-adv-x="698" 
d="M74 714h92l-59 -195h-62zM134 59h32q19 0 27 8.5t8 28.5v288q0 20 -8 28.5t-27 8.5h-32v59h123l6 -68q34 44 77 63.5t105 19.5q79 0 118 -42.5t39 -122.5v-234q0 -20 8 -28.5t27 -8.5h32v-59h-148v329q0 56 -23.5 81t-77.5 25q-59 0 -99 -33.5t-40 -92.5v-213
q0 -20 7.5 -28.5t26.5 -8.5h33v-59h-214v59z" />
    <glyph glyph-name="Eng" unicode="&#x14a;" horiz-adv-x="688" 
d="M331 -271q-37 14 -69 44v74h71v-44q16 -16 34.5 -22t46.5 -6q45 0 66.5 23.5t21.5 80.5v142l-317 491v-417q0 -19 8.5 -27.5t27.5 -8.5h32v-59h-214v59h32q19 0 27 8t8 28v457q0 20 -8 28t-27 8h-32v59h133l331 -513v418q0 20 -8 28t-28 8h-32v59h214v-59h-32
q-19 0 -27 -8t-8 -28v-665q0 -86 -42 -129t-121 -43q-51 0 -88 14z" />
    <glyph glyph-name="eng" unicode="&#x14b;" horiz-adv-x="567" 
d="M255 -246q-37 14 -69 44v74h71v-44q16 -16 34.5 -22t46.5 -6q45 0 66.5 23.5t21.5 80.5v425q0 56 -23.5 81t-77.5 25q-59 0 -99 -33.5t-40 -92.5v-213q0 -20 7.5 -28.5t26.5 -8.5h33v-59h-214v59h32q19 0 27 8.5t8 28.5v288q0 20 -8 28.5t-27 8.5h-32v59h123l6 -68
q34 44 77 63.5t105 19.5q79 0 118 -42.5t39 -122.5v-418q0 -86 -42.5 -129t-121.5 -43q-51 0 -88 14z" />
    <glyph glyph-name="Omacron" unicode="&#x14c;" horiz-adv-x="655" 
d="M187 779h280v-57h-280v57zM110 68.5q-71 83.5 -71 252.5q0 171 69.5 256t219.5 85t219 -85t69 -256q0 -169 -71 -252.5t-217 -83.5q-147 0 -218 83.5zM486.5 109.5q52.5 64.5 52.5 211.5q0 150 -52 215.5t-159 65.5q-108 0 -160 -65.5t-52 -215.5q0 -147 52.5 -211.5
t159.5 -64.5q106 0 158.5 64.5z" />
    <glyph glyph-name="omacron" unicode="&#x14d;" horiz-adv-x="558" 
d="M139 604h280v-57h-280v57zM98.5 52.5q-59.5 67.5 -59.5 186.5q0 120 59 188t181 68t181 -68t59 -188q0 -119 -59.5 -186.5t-180.5 -67.5t-180.5 67.5zM442 239q0 98 -41 147t-122 49q-163 0 -163 -196q0 -194 163 -194t163 194z" />
    <glyph glyph-name="Obreve" unicode="&#x14e;" horiz-adv-x="655" 
d="M218.5 738q-41.5 37 -41.5 100h65q0 -39 23 -60t62 -21q40 0 62 21t22 60h65q0 -62 -41 -99.5t-108 -37.5t-108.5 37zM110 68.5q-71 83.5 -71 252.5q0 171 69.5 256t219.5 85t219 -85t69 -256q0 -169 -71 -252.5t-217 -83.5q-147 0 -218 83.5zM486.5 109.5
q52.5 64.5 52.5 211.5q0 150 -52 215.5t-159 65.5q-108 0 -160 -65.5t-52 -215.5q0 -147 52.5 -211.5t159.5 -64.5q106 0 158.5 64.5z" />
    <glyph glyph-name="obreve" unicode="&#x14f;" horiz-adv-x="558" 
d="M171.5 564q-41.5 37 -41.5 100h65q0 -39 23 -60t62 -21q40 0 62 21t22 60h65q0 -62 -41 -99.5t-108 -37.5t-108.5 37zM98.5 52.5q-59.5 67.5 -59.5 186.5q0 120 59 188t181 68t181 -68t59 -188q0 -119 -59.5 -186.5t-180.5 -67.5t-180.5 67.5zM442 239q0 98 -41 147
t-122 49q-163 0 -163 -196q0 -194 163 -194t163 194z" />
    <glyph glyph-name="Ohungarumlaut" unicode="&#x150;" horiz-adv-x="655" 
d="M261 884h104l-118 -183h-72zM444 884h104l-119 -183h-71zM110 68.5q-71 83.5 -71 252.5q0 171 69.5 256t219.5 85t219 -85t69 -256q0 -169 -71 -252.5t-217 -83.5q-147 0 -218 83.5zM486.5 109.5q52.5 64.5 52.5 211.5q0 150 -52 215.5t-159 65.5q-108 0 -160 -65.5
t-52 -215.5q0 -147 52.5 -211.5t159.5 -64.5q106 0 158.5 64.5z" />
    <glyph glyph-name="ohungarumlaut" unicode="&#x151;" horiz-adv-x="558" 
d="M214 710h104l-118 -183h-72zM397 710h104l-119 -183h-71zM98.5 52.5q-59.5 67.5 -59.5 186.5q0 120 59 188t181 68t181 -68t59 -188q0 -119 -59.5 -186.5t-180.5 -67.5t-180.5 67.5zM442 239q0 98 -41 147t-122 49q-163 0 -163 -196q0 -194 163 -194t163 194z" />
    <glyph glyph-name="OE" unicode="&#x152;" horiz-adv-x="811" 
d="M114.5 77.5q-75.5 77.5 -75.5 243.5q0 167 74 246.5t228 79.5h431v-116h-72v22q0 19 -8.5 27t-28.5 8h-192v-234h173v-59h-173v-236h192q20 0 28.5 8t8.5 27v23h72v-117h-431q-151 0 -226.5 77.5zM391 59v529h-59q-104 0 -160 -62.5t-56 -204.5q0 -140 56 -201t160 -61
h59z" />
    <glyph glyph-name="oe" unicode="&#x153;" horiz-adv-x="938" 
d="M98.5 52.5q-59.5 67.5 -59.5 186.5q0 120 59 188t181 68q145 0 201 -110q29 54 80 82t119 28q110 0 165 -61.5t55 -173.5v-45h-378q0 -58 23 -97t60 -58t80 -19q45 0 73.5 6.5t51.5 20.5v35h73v-63q-42 -28 -89 -41.5t-110 -13.5q-68 0 -119 27.5t-82 81.5
q-29 -51 -80 -80t-123 -29q-121 0 -180.5 67.5zM824 270q0 87 -35.5 126.5t-110.5 39.5t-116 -42.5t-41 -123.5h303zM442 239q0 98 -41.5 147t-121.5 49q-162 0 -162 -196q0 -98 40.5 -146t121.5 -48q163 0 163 194z" />
    <glyph glyph-name="Racute" unicode="&#x154;" horiz-adv-x="615" 
d="M319 880h102l-115 -179h-70zM39 59h29q22 0 30 8.5t8 27.5v457q0 19 -8 27.5t-30 8.5h-29v59h316q96 0 149.5 -48.5t53.5 -135.5q0 -77 -44.5 -127t-124.5 -59l98 -185q9 -18 23 -25.5t35 -7.5h31v-59h-204v59h53l-113 213h-126v-178q0 -19 7.5 -27t28.5 -8h31v-59h-214
v59zM343 331q68 0 103 34.5t35 97.5q0 66 -33 95.5t-105 29.5h-157v-257h157z" />
    <glyph glyph-name="racute" unicode="&#x155;" horiz-adv-x="376" 
d="M225 706h102l-115 -179h-70zM37 59h32q19 0 27 8.5t8 28.5v289q0 20 -7.5 28t-26.5 8h-33v59h123l16 -58q20 33 51.5 45.5t79.5 12.5h40v-59h-44q-64 0 -91.5 -28.5t-27.5 -88.5v-208q0 -20 8 -28.5t27 -8.5h32v-59h-214v59z" />
    <glyph glyph-name="Rcommaaccent" unicode="&#x156;" horiz-adv-x="615" 
d="M39 59h29q22 0 30 8.5t8 27.5v457q0 19 -8 27.5t-30 8.5h-29v59h316q96 0 149.5 -48.5t53.5 -135.5q0 -77 -44.5 -127t-124.5 -59l98 -185q9 -18 23 -25.5t35 -7.5h31v-59h-204v59h53l-113 213h-126v-178q0 -19 7.5 -27t28.5 -8h31v-59h-214v59zM343 331q68 0 103 34.5
t35 97.5q0 66 -33 95.5t-105 29.5h-157v-257h157zM274 -49h92l-59 -195h-62z" />
    <glyph glyph-name="rcommaaccent" unicode="&#x157;" horiz-adv-x="376" 
d="M37 59h32q19 0 27 8.5t8 28.5v289q0 20 -7.5 28t-26.5 8h-33v59h123l16 -58q20 33 51.5 45.5t79.5 12.5h40v-59h-44q-64 0 -91.5 -28.5t-27.5 -88.5v-208q0 -20 8 -28.5t27 -8.5h32v-59h-214v59zM113 -49h92l-59 -195h-62z" />
    <glyph glyph-name="Rcaron" unicode="&#x158;" horiz-adv-x="615" 
d="M140 885h79l84 -133l84 133h79l-120 -183h-86zM39 59h29q22 0 30 8.5t8 27.5v457q0 19 -8 27.5t-30 8.5h-29v59h316q96 0 149.5 -48.5t53.5 -135.5q0 -77 -44.5 -127t-124.5 -59l98 -185q9 -18 23 -25.5t35 -7.5h31v-59h-204v59h53l-113 213h-126v-178q0 -19 7.5 -27
t28.5 -8h31v-59h-214v59zM343 331q68 0 103 34.5t35 97.5q0 66 -33 95.5t-105 29.5h-157v-257h157z" />
    <glyph glyph-name="rcaron" unicode="&#x159;" horiz-adv-x="376" 
d="M38 710h79l84 -133l84 133h79l-120 -183h-86zM37 59h32q19 0 27 8.5t8 28.5v289q0 20 -7.5 28t-26.5 8h-33v59h123l16 -58q20 33 51.5 45.5t79.5 12.5h40v-59h-44q-64 0 -91.5 -28.5t-27.5 -88.5v-208q0 -20 8 -28.5t27 -8.5h32v-59h-214v59z" />
    <glyph glyph-name="Sacute" unicode="&#x15a;" horiz-adv-x="527" 
d="M310 880h102l-115 -179h-70zM144 4q-62 19 -105 51v89h81v-61q27 -17 69 -27.5t84 -10.5q68 0 103 28.5t35 81.5q0 52 -35.5 81t-115.5 59q-76 29 -121 54t-69.5 60t-24.5 85q0 83 61.5 125.5t159.5 42.5q61 0 116.5 -17.5t92.5 -44.5v-87h-81v60q-23 14 -58 21.5
t-73 7.5q-65 0 -103 -26t-38 -81q0 -37 22 -61.5t50.5 -38t91.5 -38.5q71 -28 111.5 -51t65.5 -58.5t25 -90.5q0 -76 -57.5 -124t-160.5 -48q-64 0 -126 19z" />
    <glyph glyph-name="sacute" unicode="&#x15b;" horiz-adv-x="453" 
d="M269 706h102l-115 -179h-70zM39 40v74h75v-43q45 -26 117 -26q54 0 80 16t26 53q0 23 -12.5 38.5t-36.5 27.5t-74 32q-65 25 -97.5 42t-52.5 43.5t-20 68.5q0 63 48.5 96t132.5 33q52 0 98 -14t80 -38v-73h-75v42q-38 23 -99 23q-54 0 -81 -15.5t-27 -53.5
q0 -24 13 -39.5t32.5 -24.5t54.5 -22q30 -11 35 -13q56 -22 85.5 -37.5t51 -43.5t21.5 -72q0 -63 -45.5 -96t-137.5 -33q-114 0 -192 55z" />
    <glyph glyph-name="Scircumflex" unicode="&#x15c;" horiz-adv-x="527" 
d="M234 885h86l120 -183h-79l-84 132l-84 -132h-79zM144 4q-62 19 -105 51v89h81v-61q27 -17 69 -27.5t84 -10.5q68 0 103 28.5t35 81.5q0 52 -35.5 81t-115.5 59q-76 29 -121 54t-69.5 60t-24.5 85q0 83 61.5 125.5t159.5 42.5q61 0 116.5 -17.5t92.5 -44.5v-87h-81v60
q-23 14 -58 21.5t-73 7.5q-65 0 -103 -26t-38 -81q0 -37 22 -61.5t50.5 -38t91.5 -38.5q71 -28 111.5 -51t65.5 -58.5t25 -90.5q0 -76 -57.5 -124t-160.5 -48q-64 0 -126 19z" />
    <glyph glyph-name="scircumflex" unicode="&#x15d;" horiz-adv-x="453" 
d="M190 710h86l120 -183h-79l-84 132l-84 -132h-79zM39 40v74h75v-43q45 -26 117 -26q54 0 80 16t26 53q0 23 -12.5 38.5t-36.5 27.5t-74 32q-65 25 -97.5 42t-52.5 43.5t-20 68.5q0 63 48.5 96t132.5 33q52 0 98 -14t80 -38v-73h-75v42q-38 23 -99 23q-54 0 -81 -15.5
t-27 -53.5q0 -24 13 -39.5t32.5 -24.5t54.5 -22q30 -11 35 -13q56 -22 85.5 -37.5t51 -43.5t21.5 -72q0 -63 -45.5 -96t-137.5 -33q-114 0 -192 55z" />
    <glyph glyph-name="Scedilla" unicode="&#x15e;" horiz-adv-x="527" 
d="M188 -217v50q30 -10 60 -10q65 0 65 41q0 20 -7 31t-27 16t-58 5l11 71q-56 5 -106.5 23t-86.5 45v89h81v-61q27 -17 69 -27.5t84 -10.5q68 0 103 28.5t35 81.5q0 52 -35.5 81t-115.5 59q-76 29 -121 54t-69.5 60t-24.5 85q0 83 61.5 125.5t159.5 42.5q61 0 116.5 -17.5
t92.5 -44.5v-87h-81v60q-23 14 -58 21.5t-73 7.5q-65 0 -103 -26t-38 -81q0 -37 22 -61.5t50.5 -38t91.5 -38.5q71 -28 111.5 -51t65.5 -58.5t25 -90.5q0 -70 -48.5 -116.5t-137.5 -54.5l-6 -36q45 -6 64 -28t19 -58q0 -45 -32 -68.5t-94 -23.5q-34 0 -65 11z" />
    <glyph glyph-name="scedilla" unicode="&#x15f;" horiz-adv-x="453" 
d="M151 -217v50q30 -10 59 -10q65 0 65 41q0 29 -18 40.5t-73 11.5l10 71q-92 8 -155 53v74h75v-43q45 -26 117 -26q54 0 80 16t26 53q0 23 -12.5 38.5t-36.5 27.5t-74 32q-65 25 -97.5 42t-52.5 43.5t-20 68.5q0 63 48.5 96t132.5 33q52 0 98 -14t80 -38v-73h-75v42
q-38 23 -99 23q-54 0 -81 -15.5t-27 -53.5q0 -24 13 -39.5t32.5 -24.5t54.5 -22q30 -11 35 -13q56 -22 85.5 -37.5t51 -43.5t21.5 -72q0 -115 -150 -127l-5 -37q44 -6 63 -27.5t19 -58.5q0 -45 -32 -68.5t-94 -23.5q-33 0 -64 11z" />
    <glyph glyph-name="Scaron" unicode="&#x160;" horiz-adv-x="527" 
d="M108 885h79l84 -133l84 133h79l-120 -183h-86zM144 4q-62 19 -105 51v89h81v-61q27 -17 69 -27.5t84 -10.5q68 0 103 28.5t35 81.5q0 52 -35.5 81t-115.5 59q-76 29 -121 54t-69.5 60t-24.5 85q0 83 61.5 125.5t159.5 42.5q61 0 116.5 -17.5t92.5 -44.5v-87h-81v60
q-23 14 -58 21.5t-73 7.5q-65 0 -103 -26t-38 -81q0 -37 22 -61.5t50.5 -38t91.5 -38.5q71 -28 111.5 -51t65.5 -58.5t25 -90.5q0 -76 -57.5 -124t-160.5 -48q-64 0 -126 19z" />
    <glyph glyph-name="scaron" unicode="&#x161;" horiz-adv-x="453" 
d="M67 710h79l84 -133l84 133h79l-120 -183h-86zM39 40v74h75v-43q45 -26 117 -26q54 0 80 16t26 53q0 23 -12.5 38.5t-36.5 27.5t-74 32q-65 25 -97.5 42t-52.5 43.5t-20 68.5q0 63 48.5 96t132.5 33q52 0 98 -14t80 -38v-73h-75v42q-38 23 -99 23q-54 0 -81 -15.5
t-27 -53.5q0 -24 13 -39.5t32.5 -24.5t54.5 -22q30 -11 35 -13q56 -22 85.5 -37.5t51 -43.5t21.5 -72q0 -63 -45.5 -96t-137.5 -33q-114 0 -192 55z" />
    <glyph glyph-name="uni0162" unicode="&#x162;" horiz-adv-x="548" 
d="M519 646v-122h-64v29q0 19 -8 27t-29 8h-104v-493q0 -19 8 -27.5t30 -8.5h29v-59h-72l-7 -50q45 -6 64 -28t19 -58q0 -45 -32 -68.5t-94 -23.5q-34 0 -65 11v50q30 -10 59 -10q66 0 66 41q0 29 -18.5 40.5t-73.5 11.5l12 84h-72v59h29q22 0 30 8.5t8 27.5v493h-105
q-20 0 -28.5 -8t-8.5 -27v-29h-63v122h490z" />
    <glyph glyph-name="uni0163" unicode="&#x163;" horiz-adv-x="417" 
d="M173 -217v50q30 -10 59 -10q66 0 66 41q0 29 -18.5 40.5t-73.5 11.5l10 73q-53 10 -80 48.5t-27 103.5v280h-80v59h80v112l80 30v-142h150v-59h-150v-284q0 -49 17.5 -70.5t55.5 -21.5q26 0 43 4t31 15v43h72v-68q-26 -23 -55 -36t-67 -17l-5 -36q45 -6 64 -28t19 -58
q0 -45 -32 -68.5t-94 -23.5q-34 0 -65 11z" />
    <glyph glyph-name="Tcaron" unicode="&#x164;" horiz-adv-x="548" 
d="M110 885h79l84 -133l84 133h79l-120 -183h-86zM167 59h29q22 0 30 8.5t8 27.5v493h-105q-20 0 -28.5 -8t-8.5 -27v-29h-63v122h490v-122h-64v29q0 19 -8 27t-29 8h-104v-493q0 -19 8 -27.5t30 -8.5h29v-59h-214v59z" />
    <glyph glyph-name="tcaron" unicode="&#x165;" horiz-adv-x="417" 
d="M319 760h92l-59 -195h-62zM147 25q-38 40 -38 116v280h-80v59h80v112l80 30v-142h150v-59h-150v-284q0 -49 17.5 -70.5t55.5 -21.5q26 0 43 4t31 15v43h72v-68q-31 -27 -66 -40.5t-85 -13.5q-72 0 -110 40z" />
    <glyph glyph-name="Tbar" unicode="&#x166;" horiz-adv-x="548" 
d="M167 59h29q22 0 30 8.5t8 27.5v212h-122v57h122v224h-105q-20 0 -28.5 -8t-8.5 -27v-29h-63v122h490v-122h-64v29q0 19 -8 27t-29 8h-104v-224h129v-57h-129v-212q0 -19 8 -27.5t30 -8.5h29v-59h-214v59z" />
    <glyph glyph-name="tbar" unicode="&#x167;" horiz-adv-x="418" 
d="M148 25q-38 40 -38 116v92h-80v59h80v129h-80v59h80v112l80 30v-142h150v-59h-150v-129h150v-59h-150v-96q0 -49 17.5 -70.5t55.5 -21.5q26 0 43 4t31 15v43h72v-68q-31 -27 -66 -40.5t-85 -13.5q-72 0 -110 40z" />
    <glyph glyph-name="Utilde" unicode="&#x168;" horiz-adv-x="653" 
d="M157.5 793.5q25.5 29.5 75.5 29.5q25 0 46 -8t49 -24q22 -12 37.5 -18.5t30.5 -6.5q23 0 33.5 12.5t10.5 44.5h63q0 -63 -25 -92t-75 -29q-24 0 -43.5 7.5t-46.5 22.5q-26 14 -40.5 20t-32.5 6q-23 0 -34 -12t-11 -44h-63q0 62 25.5 91.5zM148 37q-60 52 -60 142v373
q0 20 -8 28t-27 8h-24v59h196v-59h-22q-19 0 -27 -8.5t-8 -28.5v-378q0 -65 39.5 -96.5t118.5 -31.5q159 0 159 128v378q0 20 -8 28.5t-28 8.5h-22v59h197v-59h-23q-19 0 -27.5 -8t-8.5 -28v-373q0 -90 -60.5 -142t-178.5 -52t-178 52z" />
    <glyph glyph-name="utilde" unicode="&#x169;" horiz-adv-x="583" 
d="M125.5 618.5q25.5 29.5 75.5 29.5q25 0 46 -8t49 -24q22 -12 37.5 -18.5t30.5 -6.5q23 0 33.5 12.5t10.5 44.5h63q0 -63 -25 -92t-75 -29q-24 0 -43.5 7.5t-46.5 22.5q-26 14 -40.5 20t-32.5 6q-23 0 -34 -12t-11 -44h-63q0 62 25.5 91.5zM137.5 28q-41.5 43 -41.5 122
v235q0 19 -8 27.5t-27 8.5h-32v59h148v-329q0 -55 25.5 -80.5t81.5 -25.5q59 0 96 33.5t37 97.5v209q0 20 -7.5 28t-26.5 8h-33v59h147v-385q0 -19 8.5 -27.5t27.5 -8.5h31v-59h-123l-6 66q-33 -42 -74 -61.5t-102 -19.5q-80 0 -121.5 43z" />
    <glyph glyph-name="Umacron" unicode="&#x16a;" horiz-adv-x="653" 
d="M176 779h280v-57h-280v57zM148 37q-60 52 -60 142v373q0 20 -8 28t-27 8h-24v59h196v-59h-22q-19 0 -27 -8.5t-8 -28.5v-378q0 -65 39.5 -96.5t118.5 -31.5q159 0 159 128v378q0 20 -8 28.5t-28 8.5h-22v59h197v-59h-23q-19 0 -27.5 -8t-8.5 -28v-373q0 -90 -60.5 -142
t-178.5 -52t-178 52z" />
    <glyph glyph-name="umacron" unicode="&#x16b;" horiz-adv-x="583" 
d="M133 604h280v-57h-280v57zM137.5 28q-41.5 43 -41.5 122v235q0 19 -8 27.5t-27 8.5h-32v59h148v-329q0 -55 25.5 -80.5t81.5 -25.5q59 0 96 33.5t37 97.5v209q0 20 -7.5 28t-26.5 8h-33v59h147v-385q0 -19 8.5 -27.5t27.5 -8.5h31v-59h-123l-6 66q-33 -42 -74 -61.5
t-102 -19.5q-80 0 -121.5 43z" />
    <glyph glyph-name="Ubreve" unicode="&#x16c;" horiz-adv-x="653" 
d="M216.5 738q-41.5 37 -41.5 100h65q0 -39 23 -60t62 -21q40 0 62 21t22 60h65q0 -62 -41 -99.5t-108 -37.5t-108.5 37zM148 37q-60 52 -60 142v373q0 20 -8 28t-27 8h-24v59h196v-59h-22q-19 0 -27 -8.5t-8 -28.5v-378q0 -65 39.5 -96.5t118.5 -31.5q159 0 159 128v378
q0 20 -8 28.5t-28 8.5h-22v59h197v-59h-23q-19 0 -27.5 -8t-8.5 -28v-373q0 -90 -60.5 -142t-178.5 -52t-178 52z" />
    <glyph glyph-name="ubreve" unicode="&#x16d;" horiz-adv-x="593" 
d="M171.5 568q-41.5 37 -41.5 100h65q0 -39 23 -60t62 -21q40 0 62 21t22 60h65q0 -62 -41 -99.5t-108 -37.5t-108.5 37zM137.5 28q-41.5 43 -41.5 122v235q0 19 -8 27.5t-27 8.5h-32v59h148v-329q0 -55 25.5 -80.5t81.5 -25.5q59 0 96 33.5t37 97.5v209q0 20 -7.5 28
t-26.5 8h-33v59h147v-385q0 -19 8.5 -27.5t27.5 -8.5h31v-59h-123l-6 66q-33 -42 -74 -61.5t-102 -19.5q-80 0 -121.5 43z" />
    <glyph glyph-name="Uring" unicode="&#x16e;" horiz-adv-x="653" 
d="M249 733q-32 32 -32 78q0 47 32 79t78 32t78.5 -32.5t32.5 -78.5t-32.5 -78t-78.5 -32t-78 32zM369 769.5q17 16.5 17 41.5t-17 42.5t-42 17.5t-42 -17t-17 -43q0 -25 17 -41.5t42 -16.5t42 16.5zM148 37q-60 52 -60 142v373q0 20 -8 28t-27 8h-24v59h196v-59h-22
q-19 0 -27 -8.5t-8 -28.5v-378q0 -65 39.5 -96.5t118.5 -31.5q159 0 159 128v378q0 20 -8 28.5t-28 8.5h-22v59h197v-59h-23q-19 0 -27.5 -8t-8.5 -28v-373q0 -90 -60.5 -142t-178.5 -52t-178 52z" />
    <glyph glyph-name="uring" unicode="&#x16f;" horiz-adv-x="583" 
d="M193 558q-32 32 -32 78q0 47 32 79t78 32t78.5 -32.5t32.5 -78.5t-32.5 -78t-78.5 -32t-78 32zM313 594.5q17 16.5 17 41.5t-17 42.5t-42 17.5t-42 -17t-17 -43q0 -25 17 -41.5t42 -16.5t42 16.5zM137.5 28q-41.5 43 -41.5 122v235q0 19 -8 27.5t-27 8.5h-32v59h148v-329
q0 -55 25.5 -80.5t81.5 -25.5q59 0 96 33.5t37 97.5v209q0 20 -7.5 28t-26.5 8h-33v59h147v-385q0 -19 8.5 -27.5t27.5 -8.5h31v-59h-123l-6 66q-33 -42 -74 -61.5t-102 -19.5q-80 0 -121.5 43z" />
    <glyph glyph-name="Uhungarumlaut" unicode="&#x170;" horiz-adv-x="653" 
d="M264 884h104l-118 -183h-72zM447 884h104l-119 -183h-71zM148 37q-60 52 -60 142v373q0 20 -8 28t-27 8h-24v59h196v-59h-22q-19 0 -27 -8.5t-8 -28.5v-378q0 -65 39.5 -96.5t118.5 -31.5q159 0 159 128v378q0 20 -8 28.5t-28 8.5h-22v59h197v-59h-23q-19 0 -27.5 -8
t-8.5 -28v-373q0 -90 -60.5 -142t-178.5 -52t-178 52z" />
    <glyph glyph-name="uhungarumlaut" unicode="&#x171;" horiz-adv-x="583" 
d="M211 710h104l-118 -183h-72zM394 710h104l-119 -183h-71zM137.5 28q-41.5 43 -41.5 122v235q0 19 -8 27.5t-27 8.5h-32v59h148v-329q0 -55 25.5 -80.5t81.5 -25.5q59 0 96 33.5t37 97.5v209q0 20 -7.5 28t-26.5 8h-33v59h147v-385q0 -19 8.5 -27.5t27.5 -8.5h31v-59h-123
l-6 66q-33 -42 -74 -61.5t-102 -19.5q-80 0 -121.5 43z" />
    <glyph glyph-name="Uogonek" unicode="&#x172;" horiz-adv-x="653" 
d="M291 -181.5q-27 23.5 -27 72.5q0 53 36 95q-106 6 -159 57t-53 136v373q0 20 -8 28t-27 8h-24v59h196v-59h-22q-19 0 -27 -8.5t-8 -28.5v-378q0 -65 39.5 -96.5t118.5 -31.5q159 0 159 128v378q0 20 -8 28.5t-28 8.5h-22v59h197v-59h-23q-19 0 -27.5 -8t-8.5 -28v-373
q0 -81 -49.5 -132t-148.5 -60q-37 -39 -37 -86q0 -26 10 -38t30 -12q25 0 46 7v-49q-25 -14 -54 -14q-44 0 -71 23.5z" />
    <glyph glyph-name="uogonek" unicode="&#x173;" horiz-adv-x="583" 
d="M457 -99q0 -26 10 -38t30 -12q24 0 45 7v-49q-22 -14 -57 -14q-43 0 -68.5 24t-25.5 72q0 62 50 109l-6 66q-33 -42 -74 -61.5t-102 -19.5q-80 0 -121.5 43t-41.5 122v235q0 19 -8 27.5t-27 8.5h-32v59h148v-329q0 -55 25.5 -80.5t81.5 -25.5q59 0 96 33.5t37 97.5v209
q0 20 -7.5 28t-26.5 8h-33v59h147v-385q0 -19 8.5 -27.5t27.5 -8.5h31v-59h-57q-50 -44 -50 -99z" />
    <glyph glyph-name="Wcircumflex" unicode="&#x174;" horiz-adv-x="879" 
d="M396 885h86l120 -183h-79l-84 132l-84 -132h-79zM118 549q-5 22 -16 30.5t-37 8.5h-26v59h135l109 -512l121 403h70l122 -403l110 512h134v-59h-27q-26 0 -37 -8.5t-16 -30.5l-124 -549h-67l-130 418l-128 -418h-68z" />
    <glyph glyph-name="wcircumflex" unicode="&#x175;" horiz-adv-x="771" 
d="M343 710h86l120 -183h-79l-84 132l-84 -132h-79zM97 399q-3 13 -10 17.5t-24 4.5h-34v59h120l93 -399l111 356h64l110 -356l96 399h119v-59h-34q-17 0 -24 -4.5t-10 -17.5l-96 -399h-87l-105 336l-106 -336h-87z" />
    <glyph glyph-name="Ycircumflex" unicode="&#x176;" horiz-adv-x="665" 
d="M290 885h86l120 -183h-79l-84 132l-84 -132h-79zM234 59h24q19 0 27 8.5t8 28.5v139l-172 316q-11 21 -24 29t-34 8h-24v59h194v-59h-19q-22 0 -22 -13q0 -8 8 -22l133 -251l132 251q8 14 8 22q0 13 -22 13h-20v59h195v-59h-24q-22 0 -35 -8t-24 -29l-171 -316v-139
q0 -20 8 -28.5t28 -8.5h24v-59h-198v59z" />
    <glyph glyph-name="ycircumflex" unicode="&#x177;" horiz-adv-x="557" 
d="M236 710h86l120 -183h-79l-84 132l-84 -132h-79zM201.5 -182.5q-44.5 17.5 -78.5 50.5v68h72v-39q18 -21 44.5 -29t63.5 -8q118 0 118 129v80q-30 -34 -65.5 -49t-88.5 -15q-82 0 -126.5 43.5t-44.5 123.5v213q0 19 -8 27.5t-27 8.5h-32v59h148v-309q0 -54 27 -80t81 -26
q60 0 96 33t36 97v190q0 20 -7.5 28t-26.5 8h-33v59h147v-478q0 -93 -50 -147.5t-140 -54.5q-61 0 -105.5 17.5z" />
    <glyph glyph-name="Ydieresis" unicode="&#x178;" horiz-adv-x="665" 
d="M193 803h80v-82h-80v82zM394 803h80v-82h-80v82zM234 59h24q19 0 27 8.5t8 28.5v139l-172 316q-11 21 -24 29t-34 8h-24v59h194v-59h-19q-22 0 -22 -13q0 -8 8 -22l133 -251l132 251q8 14 8 22q0 13 -22 13h-20v59h195v-59h-24q-22 0 -35 -8t-24 -29l-171 -316v-139
q0 -20 8 -28.5t28 -8.5h24v-59h-198v59z" />
    <glyph glyph-name="Zacute" unicode="&#x179;" horiz-adv-x="558" 
d="M307 880h102l-115 -179h-70zM39 54l378 534h-255q-20 0 -28.5 -8t-8.5 -27v-21h-72v115h453v-54l-376 -534h280q20 0 28.5 8t8.5 28v20h72v-115h-480v54z" />
    <glyph glyph-name="zacute" unicode="&#x17a;" horiz-adv-x="490" 
d="M275 706h102l-115 -179h-70zM39 54l309 367h-186q-20 0 -28.5 -7.5t-8.5 -26.5v-22h-72v115h388v-51l-309 -370h210q20 0 28.5 8t8.5 26v22h72v-115h-412v54z" />
    <glyph glyph-name="Zdotaccent" unicode="&#x17b;" horiz-adv-x="558" 
d="M240 799h80v-82h-80v82zM39 54l378 534h-255q-20 0 -28.5 -8t-8.5 -27v-21h-72v115h453v-54l-376 -534h280q20 0 28.5 8t8.5 28v20h72v-115h-480v54z" />
    <glyph glyph-name="zdotaccent" unicode="&#x17c;" horiz-adv-x="490" 
d="M208 628h80v-82h-80v82zM39 54l309 367h-186q-20 0 -28.5 -7.5t-8.5 -26.5v-22h-72v115h388v-51l-309 -370h210q20 0 28.5 8t8.5 26v22h72v-115h-412v54z" />
    <glyph glyph-name="Zcaron" unicode="&#x17d;" horiz-adv-x="558" 
d="M116 885h79l84 -133l84 133h79l-120 -183h-86zM39 54l378 534h-255q-20 0 -28.5 -8t-8.5 -27v-21h-72v115h453v-54l-376 -534h280q20 0 28.5 8t8.5 28v20h72v-115h-480v54z" />
    <glyph glyph-name="zcaron" unicode="&#x17e;" horiz-adv-x="490" 
d="M87 710h79l84 -133l84 133h79l-120 -183h-86zM39 54l309 367h-186q-20 0 -28.5 -7.5t-8.5 -26.5v-22h-72v115h388v-51l-309 -370h210q20 0 28.5 8t8.5 26v22h72v-115h-412v54z" />
    <glyph glyph-name="uni018F" unicode="&#x18f;" horiz-adv-x="672" 
d="M112.5 70q-73.5 85 -73.5 229v57h517q0 120 -63 183t-167 63q-125 0 -185 -36v-60h-80v83q97 73 265 73q90 0 159 -35.5t108.5 -109t39.5 -182.5q0 -172 -77 -261t-226 -89q-144 0 -217.5 85zM500 115q56 70 56 181h-439q0 -122 53.5 -186.5t159.5 -64.5q114 0 170 70z
" />
    <glyph glyph-name="florin" unicode="&#x192;" horiz-adv-x="570" 
d="M-155 -108l15 69h70l-9 -43q14 -10 27.5 -14t36.5 -4q44 0 66.5 23.5t33.5 74.5l90 423h-80l13 59h79l7 34q16 80 63 121.5t130 41.5q86 0 134 -53l-14 -67h-70l9 42q-11 11 -25.5 15t-39.5 4q-45 0 -71 -24.5t-36 -74.5l-7 -39h151l-13 -59h-151l-88 -417
q-17 -80 -60.5 -121.5t-125.5 -41.5q-89 0 -135 51z" />
    <glyph glyph-name="Ohorn" unicode="&#x1a0;" horiz-adv-x="700" 
d="M110 68.5q-71 83.5 -71 252.5q0 171 69.5 256t219.5 85t221 -89q39 1 54 21t15 60v35h78v-35q0 -119 -114 -136q34 -75 34 -197q0 -169 -71 -252.5t-217 -83.5q-147 0 -218 83.5zM486.5 109.5q52.5 64.5 52.5 211.5q0 150 -52 215.5t-159 65.5q-108 0 -160 -65.5
t-52 -215.5q0 -147 52.5 -211.5t159.5 -64.5q106 0 158.5 64.5z" />
    <glyph glyph-name="ohorn" unicode="&#x1a1;" horiz-adv-x="613" 
d="M98.5 52.5q-59.5 67.5 -59.5 186.5q0 120 59 188t181 68q121 0 184 -73q39 2 54 21.5t15 59.5v35h77v-35q0 -120 -113 -135q23 -53 23 -129q0 -119 -59.5 -186.5t-180.5 -67.5t-180.5 67.5zM442 239q0 98 -41 147t-122 49q-163 0 -163 -196q0 -194 163 -194t163 194z" />
    <glyph glyph-name="Uhorn" unicode="&#x1af;" horiz-adv-x="711" 
d="M148 37q-60 52 -60 142v373q0 20 -8 28t-27 8h-24v59h196v-59h-22q-19 0 -27 -8.5t-8 -28.5v-378q0 -65 39.5 -96.5t118.5 -31.5q159 0 159 128v378q0 20 -8 28.5t-28 8.5h-22v59h138v-73q37 1 50.5 20.5t13.5 59.5v35h78v-35q0 -65 -33.5 -100.5t-108.5 -38.5v-336
q0 -90 -60.5 -142t-178.5 -52t-178 52z" />
    <glyph glyph-name="uhorn" unicode="&#x1b0;" horiz-adv-x="641" 
d="M137.5 28q-41.5 43 -41.5 122v235q0 19 -8 27.5t-27 8.5h-32v59h147v-329q0 -55 26.5 -80.5t81.5 -25.5q59 0 95.5 33.5t36.5 97.5v209q0 20 -7.5 28t-26.5 8h-31v59h144v-57q38 2 50 20.5t12 59.5v35h80v-35q0 -65 -33.5 -100.5t-107.5 -38.5v-268q0 -19 8.5 -27.5
t27.5 -8.5h22v-60h-113l-6 66q-33 -43 -74 -62t-102 -19q-80 0 -121.5 43z" />
    <glyph glyph-name="uni01CD" unicode="&#x1cd;" horiz-adv-x="721" 
d="M199 884h79l84 -133l84 133h79l-120 -183h-86zM39 59h33q21 0 34 8t20 28l198 552h75l196 -552q7 -20 20 -28t35 -8h32v-59h-207v59h54l-51 146h-234l-52 -146h54v-59h-207v59zM460 259l-99 281l-99 -281h198z" />
    <glyph glyph-name="uni01CE" unicode="&#x1ce;" horiz-adv-x="520" 
d="M88 710h79l84 -133l84 133h79l-120 -183h-86zM69.5 19.5q-40.5 34.5 -40.5 98.5q0 70 44 102.5t125 38.5l157 11v62q0 55 -22.5 79t-79.5 24q-38 0 -62 -5t-48 -17v-38h-73v70q80 50 183 50q182 0 182 -168v-229q0 -21 7.5 -30t24.5 -9h24v-59h-105l-12 62
q-30 -40 -74.5 -58.5t-112.5 -18.5q-77 0 -117.5 34.5zM314 74.5q41 29.5 41 88.5v53l-154 -11q-55 -4 -75 -23t-20 -63q0 -37 22.5 -55.5t76.5 -18.5q68 0 109 29.5z" />
    <glyph glyph-name="uni01CF" unicode="&#x1cf;" horiz-adv-x="292" 
d="M-17 884h79l84 -133l84 133h79l-120 -183h-86zM39 59h32q19 0 27 8.5t8 28.5v456q0 20 -8 28t-27 8h-32v59h214v-59h-32q-19 0 -27 -8t-8 -28v-457q0 -20 8 -28t27 -8h32v-59h-214v59z" />
    <glyph glyph-name="uni01D0" unicode="&#x1d0;" horiz-adv-x="273" 
d="M-41 710h79l84 -133l84 133h79l-120 -183h-86zM29 59h32q19 0 27 8.5t8 28.5v289q0 20 -8 28t-27 8h-32v59h147v-385q0 -20 8 -28t27 -8h32v-59h-214v59z" />
    <glyph glyph-name="uni01D1" unicode="&#x1d1;" horiz-adv-x="655" 
d="M164 885h79l84 -133l84 133h79l-120 -183h-86zM110 68.5q-71 83.5 -71 252.5q0 171 69.5 256t219.5 85t219 -85t69 -256q0 -169 -71 -252.5t-217 -83.5q-147 0 -218 83.5zM486.5 109.5q52.5 64.5 52.5 211.5q0 150 -52 215.5t-159 65.5q-108 0 -160 -65.5t-52 -215.5
q0 -147 52.5 -211.5t159.5 -64.5q106 0 158.5 64.5z" />
    <glyph glyph-name="uni01D2" unicode="&#x1d2;" horiz-adv-x="558" 
d="M116 710h79l84 -133l84 133h79l-120 -183h-86zM98.5 52.5q-59.5 67.5 -59.5 186.5q0 120 59 188t181 68t181 -68t59 -188q0 -119 -59.5 -186.5t-180.5 -67.5t-180.5 67.5zM442 239q0 98 -41 147t-122 49q-163 0 -163 -196q0 -194 163 -194t163 194z" />
    <glyph glyph-name="uni01D3" unicode="&#x1d3;" horiz-adv-x="653" 
d="M163 885h79l84 -133l84 133h79l-120 -183h-86zM148 37q-60 52 -60 142v373q0 20 -8 28t-27 8h-24v59h196v-59h-22q-19 0 -27 -8.5t-8 -28.5v-378q0 -65 39.5 -96.5t118.5 -31.5q159 0 159 128v378q0 20 -8 28.5t-28 8.5h-22v59h197v-59h-23q-19 0 -27.5 -8t-8.5 -28v-373
q0 -90 -60.5 -142t-178.5 -52t-178 52z" />
    <glyph glyph-name="uni01D4" unicode="&#x1d4;" horiz-adv-x="593" 
d="M119 710h79l84 -133l84 133h79l-120 -183h-86zM137.5 28q-41.5 43 -41.5 122v235q0 19 -8 27.5t-27 8.5h-32v59h148v-329q0 -55 25.5 -80.5t81.5 -25.5q59 0 96 33.5t37 97.5v209q0 20 -7.5 28t-26.5 8h-33v59h147v-385q0 -19 8.5 -27.5t27.5 -8.5h31v-59h-123l-6 66
q-33 -42 -74 -61.5t-102 -19.5q-80 0 -121.5 43z" />
    <glyph glyph-name="uni01D5" unicode="&#x1d5;" horiz-adv-x="653" 
d="M186 941h280v-57h-280v57zM185 799h80v-82h-80v82zM386 799h80v-82h-80v82zM148 37q-60 52 -60 142v373q0 20 -8 28t-27 8h-24v59h196v-59h-22q-19 0 -27 -8.5t-8 -28.5v-378q0 -65 39.5 -96.5t118.5 -31.5q159 0 159 128v378q0 20 -8 28.5t-28 8.5h-22v59h197v-59h-23
q-19 0 -27.5 -8t-8.5 -28v-373q0 -90 -60.5 -142t-178.5 -52t-178 52z" />
    <glyph glyph-name="uni01D6" unicode="&#x1d6;" horiz-adv-x="593" 
d="M135 745h280v-57h-280v57zM134 608h80v-82h-80v82zM335 608h80v-82h-80v82zM137.5 28q-41.5 43 -41.5 122v235q0 19 -8 27.5t-27 8.5h-32v59h148v-329q0 -55 25.5 -80.5t81.5 -25.5q59 0 96 33.5t37 97.5v209q0 20 -7.5 28t-26.5 8h-33v59h147v-385q0 -19 8.5 -27.5
t27.5 -8.5h31v-59h-123l-6 66q-33 -42 -74 -61.5t-102 -19.5q-80 0 -121.5 43z" />
    <glyph glyph-name="uni01D7" unicode="&#x1d7;" horiz-adv-x="653" 
d="M362 974h96l-102 -138h-63zM187 805h80v-82h-80v82zM388 805h80v-82h-80v82zM148 37q-60 52 -60 142v373q0 20 -8 28t-27 8h-24v59h196v-59h-22q-19 0 -27 -8.5t-8 -28.5v-378q0 -65 39.5 -96.5t118.5 -31.5q159 0 159 128v378q0 20 -8 28.5t-28 8.5h-22v59h197v-59h-23
q-19 0 -27.5 -8t-8.5 -28v-373q0 -90 -60.5 -142t-178.5 -52t-178 52z" />
    <glyph glyph-name="uni01D8" unicode="&#x1d8;" horiz-adv-x="593" 
d="M304 799h96l-102 -138h-63zM129 630h80v-82h-80v82zM330 630h80v-82h-80v82zM137.5 28q-41.5 43 -41.5 122v235q0 19 -8 27.5t-27 8.5h-32v59h148v-329q0 -55 25.5 -80.5t81.5 -25.5q59 0 96 33.5t37 97.5v209q0 20 -7.5 28t-26.5 8h-33v59h147v-385q0 -19 8.5 -27.5
t27.5 -8.5h31v-59h-123l-6 66q-33 -42 -74 -61.5t-102 -19.5q-80 0 -121.5 43z" />
    <glyph glyph-name="uni01D9" unicode="&#x1d9;" horiz-adv-x="653" 
d="M183 967h76l67 -92l68 92h76l-101 -132h-85zM185 805h81v-82h-81v82zM387 805h80v-82h-80v82zM148 37q-60 52 -60 142v373q0 20 -8 28t-27 8h-24v59h196v-59h-22q-19 0 -27 -8.5t-8 -28.5v-378q0 -65 39.5 -96.5t118.5 -31.5q159 0 159 128v378q0 20 -8 28.5t-28 8.5h-22
v59h197v-59h-23q-19 0 -27.5 -8t-8.5 -28v-373q0 -90 -60.5 -142t-178.5 -52t-178 52z" />
    <glyph glyph-name="uni01DA" unicode="&#x1da;" horiz-adv-x="593" 
d="M132 792h76l67 -92l68 92h76l-101 -132h-85zM134 630h81v-82h-81v82zM336 630h80v-82h-80v82zM137.5 28q-41.5 43 -41.5 122v235q0 19 -8 27.5t-27 8.5h-32v59h148v-329q0 -55 25.5 -80.5t81.5 -25.5q59 0 96 33.5t37 97.5v209q0 20 -7.5 28t-26.5 8h-33v59h147v-385
q0 -19 8.5 -27.5t27.5 -8.5h31v-59h-123l-6 66q-33 -42 -74 -61.5t-102 -19.5q-80 0 -121.5 43z" />
    <glyph glyph-name="uni01DB" unicode="&#x1db;" horiz-adv-x="653" 
d="M195 974h96l69 -138h-63zM185 805h81v-82h-81v82zM387 805h80v-82h-80v82zM148 37q-60 52 -60 142v373q0 20 -8 28t-27 8h-24v59h196v-59h-22q-19 0 -27 -8.5t-8 -28.5v-378q0 -65 39.5 -96.5t118.5 -31.5q159 0 159 128v378q0 20 -8 28.5t-28 8.5h-22v59h197v-59h-23
q-19 0 -27.5 -8t-8.5 -28v-373q0 -90 -60.5 -142t-178.5 -52t-178 52z" />
    <glyph glyph-name="uni01DC" unicode="&#x1dc;" horiz-adv-x="593" 
d="M140 799h96l69 -138h-63zM130 630h81v-82h-81v82zM332 630h80v-82h-80v82zM137.5 28q-41.5 43 -41.5 122v235q0 19 -8 27.5t-27 8.5h-32v59h148v-329q0 -55 25.5 -80.5t81.5 -25.5q59 0 96 33.5t37 97.5v209q0 20 -7.5 28t-26.5 8h-33v59h147v-385q0 -19 8.5 -27.5
t27.5 -8.5h31v-59h-123l-6 66q-33 -42 -74 -61.5t-102 -19.5q-80 0 -121.5 43z" />
    <glyph glyph-name="Gcaron" unicode="&#x1e6;" horiz-adv-x="611" 
d="M186 885h79l84 -133l84 133h79l-120 -183h-86zM180.5 27.5q-70.5 42.5 -106 118.5t-35.5 174q0 154 76.5 248t229.5 94q132 0 207 -54v-90h-80v59q-47 25 -127 25q-110 0 -169.5 -74.5t-59.5 -207.5q0 -129 63 -202t174 -73q82 0 140 25v203h-146v60h225v-289
q-47 -31 -100.5 -45t-120.5 -14q-100 0 -170.5 42.5z" />
    <glyph glyph-name="gcaron" unicode="&#x1e7;" horiz-adv-x="583" 
d="M133 710h79l84 -133l84 133h79l-120 -183h-86zM205.5 -184q-43.5 16 -79.5 48v67h72v-39q19 -17 44 -24.5t61 -7.5q61 0 89 32.5t28 94.5v83q-28 -43 -68.5 -62t-101.5 -19q-100 0 -155.5 67t-55.5 189q0 120 58 185t158 65q58 0 99 -21t71 -67l10 73h119v-53h-24
q-18 0 -25 -9.5t-7 -31.5v-389q0 -89 -51.5 -143t-137.5 -54q-60 0 -103.5 16zM379 92q41 43 41 121v51q0 77 -41 124t-111 47q-76 0 -114 -46.5t-38 -143.5q0 -102 37 -149t116 -47q69 0 110 43z" />
    <glyph glyph-name="Aringacute" unicode="&#x1fa;" horiz-adv-x="721" 
d="M386 850h-70l83 179h102zM682 59v-59h-207v59h54l-51 146h-234l-52 -146h54v-59h-207v59h33q21 0 34 8t20 28l186 519q-28 14 -44.5 40.5t-16.5 58.5q0 47 32 79t78 32t78.5 -32.5t32.5 -78.5q0 -32 -16.5 -58t-44.5 -40l184 -520q7 -20 20 -28t35 -8h32zM319 756
q-17 -17 -17 -43q0 -25 17 -41.5t42 -16.5t42 16.5t17 41.5t-17 42.5t-42 17.5t-42 -17zM460 259l-99 281l-99 -281h198z" />
    <glyph glyph-name="aringacute" unicode="&#x1fb;" horiz-adv-x="520" 
d="M285 916h102l-115 -143h-70zM174 554q-32 32 -32 78q0 47 32 79t78 32t78.5 -32.5t32.5 -78.5t-32.5 -78t-78.5 -32t-78 32zM294 590.5q17 16.5 17 41.5t-17 42.5t-42 17.5t-42 -17t-17 -43q0 -25 17 -41.5t42 -16.5t42 16.5zM69.5 19.5q-40.5 34.5 -40.5 98.5
q0 70 44 102.5t125 38.5l157 11v62q0 55 -22.5 79t-79.5 24q-38 0 -62 -5t-48 -17v-38h-73v70q80 50 183 50q182 0 182 -168v-229q0 -21 7.5 -30t24.5 -9h24v-59h-105l-12 62q-30 -40 -74.5 -58.5t-112.5 -18.5q-77 0 -117.5 34.5zM314 74.5q41 29.5 41 88.5v53l-154 -11
q-55 -4 -75 -23t-20 -63q0 -37 22.5 -55.5t76.5 -18.5q68 0 109 29.5z" />
    <glyph glyph-name="AEacute" unicode="&#x1fc;" horiz-adv-x="844" 
d="M544 880h102l-115 -179h-70zM39 59h33q21 0 34 8t20 28l214 552h465v-116h-72v21q0 23 -13.5 29.5t-47.5 6.5h-178v-234h184v-59h-184v-236h202q20 0 28.5 8t8.5 27v23h72v-117h-456v59h30q25 0 31 12.5t6 45.5v88h-168l-56 -146h54v-59h-207v59zM416 264v324h-23
l-125 -324h148z" />
    <glyph glyph-name="aeacute" unicode="&#x1fd;" horiz-adv-x="852" 
d="M452 706h102l-115 -179h-70zM69 19q-40 34 -40 99q0 70 44 102t125 38l157 11v63q0 56 -22.5 80t-79.5 24q-36 0 -61.5 -6t-48.5 -18v-37h-73v70q80 50 182 50q65 0 101 -21t56 -65q29 43 76.5 64.5t108.5 21.5q110 0 164.5 -61.5t54.5 -173.5v-45h-377q0 -58 23 -97
t60.5 -58t79.5 -19q44 0 73.5 6.5t52.5 20.5v36h71v-64q-41 -28 -87.5 -41.5t-109.5 -13.5q-65 0 -115.5 27t-79.5 78q-27 -53 -85.5 -79t-131.5 -26q-78 0 -118 34zM739 270q0 88 -35 127t-110 39q-76 0 -117 -42.5t-41 -123.5h303zM314 74q41 30 41 90v53l-154 -11
q-55 -4 -76.5 -23t-21.5 -63q0 -38 24 -57t78 -19q68 0 109 30z" />
    <glyph glyph-name="Oslashacute" unicode="&#x1fe;" horiz-adv-x="655" 
d="M366 876h103l-116 -179h-69zM179 15q-140 68 -140 306q0 171 69.5 256t219.5 85q50 0 87 -10l14 37h54l-20 -52q78 -33 115.5 -111.5t37.5 -204.5q0 -169 -71 -252.5t-217 -83.5q-57 0 -102 12l-14 -40h-54zM394 594q-32 8 -66 8q-108 0 -160 -65.5t-52 -215.5
q0 -94 22 -153t65 -89zM486.5 109.5q52.5 64.5 52.5 211.5q0 102 -24.5 164.5t-73.5 90.5l-193 -520q32 -11 80 -11q106 0 158.5 64.5z" />
    <glyph glyph-name="oslashacute" unicode="&#x1ff;" horiz-adv-x="558" 
d="M306 701h103l-115 -179h-70zM168 4q-65 26 -97 87t-32 148q0 120 59 188t181 68q30 0 65 -7l17 47h54l-23 -61q64 -27 95.5 -87.5t31.5 -147.5q0 -119 -59.5 -186.5t-180.5 -67.5q-30 0 -63 5l-15 -42h-54zM323 430q-28 4 -44 4q-162 0 -162 -195q0 -128 73 -172z
M441 239q0 125 -72 171l-132 -361q17 -4 42 -4q162 0 162 194z" />
    <glyph glyph-name="Scommaaccent" unicode="&#x218;" horiz-adv-x="527" 
d="M144 4q-62 19 -105 51v89h81v-61q27 -17 69 -27.5t84 -10.5q68 0 103 28.5t35 81.5q0 52 -35.5 81t-115.5 59q-76 29 -121 54t-69.5 60t-24.5 85q0 83 61.5 125.5t159.5 42.5q61 0 116.5 -17.5t92.5 -44.5v-87h-81v60q-23 14 -58 21.5t-73 7.5q-65 0 -103 -26t-38 -81
q0 -37 22 -61.5t50.5 -38t91.5 -38.5q71 -28 111.5 -51t65.5 -58.5t25 -90.5q0 -76 -57.5 -124t-160.5 -48q-64 0 -126 19zM224 -49h106l-91 -187h-73z" />
    <glyph glyph-name="scommaaccent" unicode="&#x219;" horiz-adv-x="453" 
d="M39 40v74h75v-43q45 -26 117 -26q54 0 80 16t26 53q0 23 -12.5 38.5t-36.5 27.5t-74 32q-65 25 -97.5 42t-52.5 43.5t-20 68.5q0 63 48.5 96t132.5 33q52 0 98 -14t80 -38v-73h-75v42q-38 23 -99 23q-54 0 -81 -15.5t-27 -53.5q0 -24 13 -39.5t32.5 -24.5t54.5 -22
q30 -11 35 -13q56 -22 85.5 -37.5t51 -43.5t21.5 -72q0 -63 -45.5 -96t-137.5 -33q-114 0 -192 55zM185 -49h106l-91 -187h-73z" />
    <glyph glyph-name="uni021A" unicode="&#x21a;" horiz-adv-x="548" 
d="M167 59h29q22 0 30 8.5t8 27.5v493h-105q-20 0 -28.5 -8t-8.5 -27v-29h-63v122h490v-122h-64v29q0 19 -8 27t-29 8h-104v-493q0 -19 8 -27.5t30 -8.5h29v-59h-214v59zM243 -49h92l-59 -195h-62z" />
    <glyph glyph-name="uni021B" unicode="&#x21b;" horiz-adv-x="417" 
d="M147 25q-38 40 -38 116v280h-80v59h80v112l80 30v-142h150v-59h-150v-284q0 -49 17.5 -70.5t55.5 -21.5q26 0 43 4t31 15v43h72v-68q-31 -27 -66 -40.5t-85 -13.5q-72 0 -110 40zM218 -49h92l-59 -195h-62z" />
    <glyph glyph-name="uni0237" unicode="&#x237;" horiz-adv-x="362" 
d="M48 -155q-37 14 -69 44v74h71v-44q16 -16 34.5 -22t46.5 -6q45 0 66.5 23.5t21.5 80.5v390q0 20 -8 28t-27 8h-32v59h147v-477q0 -86 -42 -129t-121 -43q-51 0 -88 14z" />
    <glyph glyph-name="uni0251" unicode="&#x251;" horiz-adv-x="585" 
d="M95.5 49q-56.5 64 -56.5 183q0 122 57.5 192.5t157.5 70.5q65 0 107 -20t70 -66l5 71h64v-388q0 -22 7 -30.5t25 -8.5h24v-53h-117l-10 72q-56 -87 -178 -87q-99 0 -155.5 64zM378 92.5q42 47.5 42 123.5v53q0 79 -39.5 122.5t-108.5 43.5q-78 0 -117 -50t-39 -152
q0 -97 37 -142.5t113 -45.5q70 0 112 47.5z" />
    <glyph glyph-name="uni0259" unicode="&#x259;" horiz-adv-x="536" 
d="M94.5 48q-55.5 63 -55.5 172v45h378q0 89 -45 129.5t-118 40.5q-45 0 -73.5 -6.5t-51.5 -20.5v-31h-73v63q42 28 89 41.5t110 13.5q108 0 175 -63.5t67 -184.5q0 -130 -62 -196t-176 -66q-109 0 -164.5 63zM377 89q40 44 40 121h-303q0 -83 35.5 -124t110.5 -41
q77 0 117 44z" />
    <glyph glyph-name="uni02BB" unicode="&#x2bb;" horiz-adv-x="271" 
d="M148 660h74l-67 -209h-106z" />
    <glyph glyph-name="uni02BC" unicode="&#x2bc;" horiz-adv-x="271" 
d="M115 660h107l-99 -209h-74z" />
    <glyph glyph-name="uni02BE" unicode="&#x2be;" 
d="M-78 538q41 0 58.5 15.5t17.5 52.5t-17.5 52.5t-58.5 15.5v54q69 0 103.5 -32t34.5 -90t-34.5 -90t-103.5 -32v54z" />
    <glyph glyph-name="uni02BF" unicode="&#x2bf;" 
d="M-43.5 516q-34.5 32 -34.5 90t34.5 90t103.5 32v-54q-41 0 -59 -15.5t-18 -52.5t18 -52.5t59 -15.5v-54q-69 0 -103.5 32z" />
    <glyph glyph-name="circumflex" unicode="&#x2c6;" horiz-adv-x="433" 
d="M172 725h89l123 -188h-87l-81 127l-81 -127h-86z" />
    <glyph glyph-name="caron" unicode="&#x2c7;" horiz-adv-x="424" 
d="M49 719h78l84 -133l85 133h79l-120 -183h-86z" />
    <glyph glyph-name="uni02C8" unicode="&#x2c8;" 
d="M-44 709h87v-174h-87v174z" />
    <glyph glyph-name="uni02C9" unicode="&#x2c9;" horiz-adv-x="589" 
d="M154 621h281v-57h-281v57z" />
    <glyph glyph-name="uni02CA" unicode="&#x2ca;" 
d="M31 701h103l-115 -179h-70z" />
    <glyph glyph-name="uni02CB" unicode="&#x2cb;" 
d="M-93 701h102l82 -179h-69z" />
    <glyph glyph-name="uni02CC" unicode="&#x2cc;" 
d="M-44 -40h87v-174h-87v174z" />
    <glyph glyph-name="breve" unicode="&#x2d8;" horiz-adv-x="397" 
d="M90 593.5q-41 37.5 -41 99.5h65q0 -39 22.5 -60t61.5 -21q40 0 62.5 21t22.5 60h65q0 -63 -41.5 -100t-108.5 -37t-108 37.5z" />
    <glyph glyph-name="dotaccent" unicode="&#x2d9;" horiz-adv-x="178" 
d="M49 658h80v-82h-80v82z" />
    <glyph glyph-name="ring" unicode="&#x2da;" horiz-adv-x="319" 
d="M81 555q-32 32 -32 78q0 47 32 79t78 32t78.5 -32.5t32.5 -78.5t-32.5 -78t-78.5 -32t-78 32zM201 591.5q17 16.5 17 41.5t-17 42.5t-42 17.5t-42 -17t-17 -43q0 -25 17 -41.5t42 -16.5t42 16.5z" />
    <glyph glyph-name="ogonek" unicode="&#x2db;" horiz-adv-x="249" 
d="M74.5 -181q-25.5 24 -25.5 72q0 62 50 109h66q-50 -44 -50 -99q0 -26 10 -38t30 -12q24 0 45 7v-49q-22 -14 -57 -14q-43 0 -68.5 24z" />
    <glyph glyph-name="tilde" unicode="&#x2dc;" horiz-adv-x="469" 
d="M149 686q26 0 47 -8t49 -24q23 -13 37.5 -19t29.5 -6q24 0 34.5 12.5t10.5 44.5h63q0 -63 -25 -92t-75 -29q-23 0 -43.5 8t-45.5 22q-27 14 -42 20t-33 6q-23 0 -34 -12t-11 -44h-62q0 121 100 121z" />
    <glyph glyph-name="hungarumlaut" unicode="&#x2dd;" horiz-adv-x="470" 
d="M135 721h103l-118 -183h-71zM317 721h104l-118 -183h-71z" />
    <glyph glyph-name="gravecomb" unicode="&#x300;" 
d="M-419 701h102l83 -179h-70z" />
    <glyph glyph-name="acutecomb" unicode="&#x301;" 
d="M-291 701h102l-115 -179h-70z" />
    <glyph glyph-name="uni0302" unicode="&#x302;" 
d="M-43 701h86l120 -183h-79l-84 132l-84 -132h-79z" />
    <glyph glyph-name="tildecomb" unicode="&#x303;" 
d="M-470.5 640.5q25.5 29.5 75.5 29.5q25 0 46 -8t49 -24q22 -12 37.5 -18.5t30.5 -6.5q23 0 33.5 12.5t10.5 44.5h63q0 -63 -25 -92t-75 -29q-24 0 -43.5 7.5t-46.5 22.5q-26 14 -40.5 20t-32.5 6q-23 0 -34 -12t-11 -44h-63q0 62 25.5 91.5z" />
    <glyph glyph-name="uni0304" unicode="&#x304;" 
d="M-139 621h280v-57h-280v57z" />
    <glyph glyph-name="uni0306" unicode="&#x306;" 
d="M-108.5 577q-41.5 37 -41.5 100h65q0 -39 23 -60t62 -21q40 0 62 21t22 60h65q0 -62 -41 -99.5t-108 -37.5t-108.5 37z" />
    <glyph glyph-name="uni0307" unicode="&#x307;" 
d="M-40 642h80v-82h-80v82z" />
    <glyph glyph-name="uni0308" unicode="&#x308;" 
d="M-140 646h80v-82h-80v82zM61 646h80v-82h-80v82z" />
    <glyph glyph-name="hookabovecomb" unicode="&#x309;" 
d="M-349 575q37 0 52 12t15 35q0 21 -13 29t-44 8q-23 0 -49 -8v50q30 10 64 10q52 0 80 -19.5t28 -63.5q0 -62 -68 -79v-39h-65v65z" />
    <glyph glyph-name="uni030A" unicode="&#x30a;" 
d="M-78 543q-32 32 -32 78q0 47 32 79t78 32t78.5 -32.5t32.5 -78.5t-32.5 -78t-78.5 -32t-78 32zM42 579.5q17 16.5 17 41.5t-17 42.5t-42 17.5t-42 -17t-17 -43q0 -25 17 -41.5t42 -16.5t42 16.5z" />
    <glyph glyph-name="uni030B" unicode="&#x30b;" 
d="M-130 705h104l-118 -183h-72zM53 705h104l-119 -183h-71z" />
    <glyph glyph-name="uni030C" unicode="&#x30c;" 
d="M-163 703h79l84 -133l84 133h79l-120 -183h-86z" />
    <glyph glyph-name="uni031B" unicode="&#x31b;" 
d="M-113 554q47 0 64 20t17 64v35h79v-35q0 -68 -38 -103.5t-122 -35.5v55z" />
    <glyph glyph-name="dotbelowcomb" unicode="&#x323;" 
d="M-341 -63h80v-82h-80v82z" />
    <glyph glyph-name="uni0324" unicode="&#x324;" 
d="M-139 -63h80v-82h-80v82zM60 -63h80v-82h-80v82z" />
    <glyph glyph-name="uni0326" unicode="&#x326;" 
d="M-25 -49h106l-91 -187h-73z" />
    <glyph glyph-name="uni0327" unicode="&#x327;" 
d="M-105 -217v50q30 -10 59 -10q66 0 66 41q0 29 -18.5 40.5t-73.5 11.5l12 84h70l-7 -50q45 -6 64 -28t19 -58q0 -45 -32 -68.5t-94 -23.5q-34 0 -65 11z" />
    <glyph glyph-name="uni0328" unicode="&#x328;" 
d="M-50.5 -181q-25.5 24 -25.5 72q0 62 50 109h66q-50 -44 -50 -99q0 -26 10 -38t30 -12q24 0 45 7v-49q-22 -14 -57 -14q-43 0 -68.5 24z" />
    <glyph glyph-name="uni032E" unicode="&#x32e;" 
d="M-108.5 -149q-41.5 37 -41.5 100h65q0 -39 23 -60t62 -21q40 0 62 21t22 60h65q0 -62 -41 -99.5t-108 -37.5t-108.5 37z" />
    <glyph glyph-name="uni0331" unicode="&#x331;" 
d="M-139 -70h280v-57h-280v57z" />
    <glyph glyph-name="uni0394" unicode="&#x394;" horiz-adv-x="728" 
d="M49 64l276 609h78l276 -609v-64h-630v64zM592 65l-228 513l-229 -513h457z" />
    <glyph glyph-name="uni03A9" unicode="&#x3a9;" horiz-adv-x="785" 
d="M49 114h63v-21q0 -19 8 -26.5t28 -7.5h111q-83 65 -128 136.5t-45 168.5q0 95 32.5 169.5t101 118t173.5 43.5q104 0 172.5 -43.5t101 -118t32.5 -169.5q0 -97 -45 -168.5t-128 -136.5h111q20 0 28 7.5t8 26.5v21h63v-114h-285v76q87 59 128.5 127.5t41.5 160.5
q0 127 -56 199t-172 72q-115 0 -172 -72.5t-57 -198.5q0 -92 41.5 -160.5t128.5 -127.5v-76h-285v114z" />
    <glyph glyph-name="uni03BC" unicode="&#x3bc;" horiz-adv-x="593" 
d="M96 385q0 19 -8 27.5t-27 8.5h-32v59h148v-329q0 -55 25.5 -80.5t81.5 -25.5q59 0 96 33.5t37 97.5v209q0 20 -7.5 28t-26.5 8h-33v59h147v-385q0 -19 8.5 -27.5t27.5 -8.5h31v-59h-123l-6 66q-33 -42 -74 -61.5t-102 -19.5q-47 0 -82 16v-209h-81v593z" />
    <glyph glyph-name="pi" unicode="&#x3c0;" horiz-adv-x="685" 
d="M403 119v302h-193v-325q0 -20 8.5 -28.5t30.5 -8.5h27v-59h-214v59h30q22 0 30 8.5t8 28.5v325h-101v59h561v-59h-107v-305q0 -40 11.5 -55.5t42.5 -15.5q34 0 48 22v43h71v-67q-26 -30 -54 -44t-68 -14q-131 0 -131 134z" />
    <glyph glyph-name="uni0E01" unicode="&#xe01;" horiz-adv-x="556" 
d="M62 227q0 40 13.5 69.5t45.5 46.5l-82 49v64q46 42 105.5 65t127.5 23q110 0 167.5 -48.5t57.5 -133.5v-362h-81v362q0 62 -37 92.5t-107 30.5q-48 0 -89.5 -13.5t-70.5 -39.5v-13l86 -54v-41q-32 -13 -43.5 -34.5t-11.5 -64.5v-225h-81v227z" />
    <glyph glyph-name="uni0E02" unicode="&#xe02;" horiz-adv-x="512" 
d="M130.5 11q-43.5 26 -58.5 69.5t-15 105.5v37q0 43 18 79t48 63q-47 1 -65.5 22t-18.5 67q0 48 22.5 69t74.5 21q53 0 74.5 -20t21.5 -69v-31q0 -19 -9.5 -35.5t-29.5 -38.5q-26 -31 -40.5 -58.5t-14.5 -64.5v-53q0 -50 10 -77.5t35 -40t72 -12.5t72 12.5t35 40t10 77.5
v355h81v-341q0 -64 -15.5 -107.5t-59 -69.5t-123.5 -26q-81 0 -124.5 26zM170 419.5q10 9.5 10 33.5q0 25 -9.5 34t-36.5 9q-26 0 -35.5 -9t-9.5 -34q0 -24 9.5 -33.5t35.5 -9.5t36 9.5z" />
    <glyph glyph-name="uni0E03" unicode="&#xe03;" horiz-adv-x="551" 
d="M139 34q-43 49 -43 130v25q0 44 22 78t63 76q30 31 44.5 51.5t14.5 41.5v26l-33 -19q0 -79 -89 -79q-50 0 -69.5 21.5t-19.5 70.5q0 47 21 67.5t71 20.5q35 0 54 -9.5t27 -33.5l46 28h66v-80q0 -40 -18.5 -70.5t-54.5 -70.5q-32 -35 -48 -60.5t-16 -55.5v-18
q0 -50 10 -77.5t35 -40t72 -12.5t72 12.5t35 40t10 77.5v355h81v-341q0 -64 -15.5 -107.5t-59 -69.5t-123.5 -26q-112 0 -155 49zM157 420.5q10 9.5 10 33.5q0 25 -10 34.5t-36 9.5q-25 0 -35 -10t-10 -34q0 -25 9.5 -34t35.5 -9t36 9.5z" />
    <glyph glyph-name="uni0E04" unicode="&#xe04;" horiz-adv-x="571" 
d="M59 334q0 97 51 153.5t175 56.5t175.5 -56.5t51.5 -153.5v-334h-81v339q0 73 -31.5 109.5t-114.5 36.5q-82 0 -113.5 -36.5t-31.5 -109.5v-102l37 32q16 13 17 14q32 28 51.5 39t50.5 11q49 0 68.5 -20t19.5 -70q0 -90 -96 -90q-38 0 -61.5 15t-24.5 40l-62 -54v-154h-81
v334zM323.5 209q9.5 10 9.5 34q0 25 -9.5 34t-35.5 9t-35.5 -9t-9.5 -34q0 -24 10 -34t35 -10q26 0 35.5 10z" />
    <glyph glyph-name="uni0E05" unicode="&#xe05;" horiz-adv-x="571" 
d="M59 396q0 74 32 111t92 37q83 0 102 -63q23 63 104 63q62 0 92.5 -36t30.5 -112v-396h-81v391q0 55 -10 74.5t-45 19.5q-58 0 -58 -65v-13h-67v13q0 33 -12 49t-41 16q-34 0 -46 -20.5t-12 -73.5v-154l37 32q16 13 17 14q32 28 51.5 39t50.5 11q49 0 68.5 -20t19.5 -70
q0 -90 -96 -90q-38 0 -61.5 15t-24.5 40l-62 -54v-154h-81v396zM323.5 209q9.5 10 9.5 34q0 25 -9.5 34t-35.5 9t-35.5 -9t-9.5 -34q0 -24 10 -34t35 -10q26 0 35.5 10z" />
    <glyph glyph-name="uni0E06" unicode="&#xe06;" horiz-adv-x="575" 
d="M66 7q-23 22 -23 68q0 39 23 62.5t64 23.5q8 0 20 -2v44q0 40 15.5 71t44.5 71q22 29 32.5 49t10.5 42v26l-35 -19q0 -79 -89 -79q-50 0 -70 21.5t-20 70.5q0 47 21 67.5t71 20.5q36 0 54.5 -9.5t27.5 -33.5l48 28h66v-74q0 -38 -12.5 -66t-38.5 -67q-23 -36 -34.5 -60.5
t-11.5 -55.5v-54l205 -81v458h81v-529h-62l-218 87q1 -6 1 -19q0 -42 -24 -62.5t-75 -20.5q-49 0 -72 22zM167.5 420.5q9.5 9.5 9.5 33.5q0 25 -9.5 34.5t-35.5 9.5t-36 -10t-10 -34q0 -25 10 -34t36 -9t35.5 9.5zM175 41q10 10 10 34q0 25 -9.5 34t-35.5 9t-35.5 -9
t-9.5 -34q0 -24 9.5 -34t35.5 -10q25 0 35 10z" />
    <glyph glyph-name="uni0E07" unicode="&#xe07;" horiz-adv-x="491" 
d="M19 359h82l110 -300h68q36 0 54 14.5t18 47.5v247q-15 -3 -30 -3q-41 0 -62.5 22t-21.5 66q0 48 22.5 69.5t74.5 21.5q55 0 76.5 -22t21.5 -75v-302q0 -59 -29 -102t-110 -43h-142zM368 419.5q10 9.5 10 33.5q0 25 -9.5 34t-35.5 9q-27 0 -36.5 -9t-9.5 -34
q0 -24 10 -33.5t36 -9.5q25 0 35 9.5z" />
    <glyph glyph-name="uni0E08" unicode="&#xe08;" horiz-adv-x="519" 
d="M184 181q-19 -10 -50 -10q-82 3 -82 88q0 48 22 69t73 21q37 0 55 -9t27 -28t17 -60l40 -193h24q35 0 52 16t17 49v235q0 66 -35.5 96t-110.5 30q-97 0 -165 -61l-39 47q83 73 210 73q119 0 170 -48t51 -138v-217q0 -56 -31 -98.5t-111 -42.5h-94zM182 224.5
q10 9.5 10 33.5q0 25 -9.5 34t-35.5 9q-27 0 -36.5 -9t-9.5 -34q0 -24 10 -33.5t36 -9.5q25 0 35 9.5z" />
    <glyph glyph-name="uni0E09" unicode="&#xe09;" horiz-adv-x="565" 
d="M352 4q-24 19 -24 58q0 17 4 26l-102 -88h-78v158q-14 -3 -29 -3q-41 0 -62.5 22t-21.5 66q0 48 22.5 69.5t74.5 21.5q54 0 75.5 -22t21.5 -75v-160l168 143q13 10 18 19.5t5 25.5v95q0 61 -43.5 93t-114.5 32q-50 0 -96 -14.5t-83 -46.5l-39 47q42 38 99.5 55.5
t120.5 17.5q114 0 175.5 -49.5t61.5 -134.5v-82q0 -38 -15 -61t-56 -51q48 -2 68.5 -24t20.5 -65q0 -50 -22.5 -71t-76.5 -21q-48 0 -72 19zM170 209.5q10 9.5 10 33.5q0 25 -9.5 34t-36.5 9q-26 0 -35.5 -9t-9.5 -34q0 -24 9.5 -33.5t35.5 -9.5t36 9.5zM461.5 43
q9.5 9 9.5 34q0 24 -10 34t-36 10q-25 0 -35 -9.5t-10 -34.5t9.5 -34t35.5 -9q27 0 36.5 9z" />
    <glyph glyph-name="uni0E0A" unicode="&#xe0a;" horiz-adv-x="513" 
d="M130.5 11q-43.5 26 -58.5 69.5t-15 105.5v37q0 43 18 79t48 63q-47 1 -65.5 22t-18.5 67q0 48 22.5 69t74.5 21q53 0 74.5 -20t21.5 -69v-31q0 -19 -9.5 -35.5t-29.5 -38.5q-26 -31 -40.5 -58.5t-14.5 -64.5v-53q0 -50 10 -77.5t35 -40t72 -12.5t72 12.5t35 40t10 77.5
v80q0 45 -16 66t-56 21h-18v60h19q31 0 46.5 9t20.5 27t5 51v56h81v-54q0 -45 -13 -74.5t-46 -45.5q32 -17 45 -46.5t13 -72.5v-63q0 -64 -15.5 -108t-58.5 -69.5t-124 -25.5t-124.5 26zM170 419.5q10 9.5 10 33.5q0 25 -9.5 34t-36.5 9q-26 0 -35.5 -9t-9.5 -34
q0 -24 9.5 -33.5t35.5 -9.5t36 9.5z" />
    <glyph glyph-name="uni0E0B" unicode="&#xe0b;" horiz-adv-x="552" 
d="M169 8.5q-43 23.5 -58 62t-15 95.5v23q0 44 21.5 77.5t62.5 76.5q29 30 43.5 50.5t14.5 42.5v26l-31 -19q0 -79 -89 -79q-50 0 -69.5 21.5t-19.5 70.5q0 46 21 67t71 21q36 0 54.5 -9.5t26.5 -33.5l44 28h65v-87q0 -34 -17.5 -62t-51.5 -66q-34 -39 -50 -65t-16 -57v-28
q0 -41 8 -66t33.5 -39.5t76.5 -14.5q47 0 72 12.5t35 40t10 77.5v67q0 54 -13 77t-55 23h-12v60h13q42 0 55 18t13 67v58h81v-54q0 -45 -13 -74.5t-46 -45.5q32 -17 45 -46.5t13 -72.5v-63q0 -64 -15.5 -108t-58.5 -69.5t-124 -25.5q-82 0 -125 23.5zM157 420.5
q10 9.5 10 33.5q0 25 -10 34.5t-36 9.5q-25 0 -35 -10t-10 -34q0 -25 9.5 -34t35.5 -9t36 9.5z" />
    <glyph glyph-name="uni0E0C" unicode="&#xe0c;" horiz-adv-x="812" 
d="M83.5 7q-21.5 22 -21.5 75v113q0 39 3 63.5t15.5 47.5t40.5 37l-82 49v64q96 88 224 88q109 0 161.5 -48t52.5 -134v-205l195 -81v453h81v-529h-64l-205 87q2 -6 2 -19q0 -42 -24 -62.5t-75 -20.5q-49 0 -72 22t-23 68q0 39 23 62.5t64 23.5q13 0 19 -1v202
q0 64 -32 93.5t-103 29.5q-87 0 -151 -53v-13l86 -54v-41q-32 -13 -44 -33.5t-12 -61.5v-69q12 4 30 4q40 0 62 -22t22 -66q0 -48 -23 -69.5t-74 -21.5q-54 0 -75.5 22zM196.5 41q9.5 9 9.5 35q0 24 -9.5 33.5t-35.5 9.5t-36 -10t-10 -33q0 -25 10 -34.5t36 -9.5t35.5 9z
M424 41q10 10 10 33q0 25 -9.5 34.5t-35.5 9.5t-35.5 -9t-9.5 -35q0 -24 9.5 -33.5t35.5 -9.5q25 0 35 10z" />
    <glyph glyph-name="uni0E0D" unicode="&#xe0d;" horiz-adv-x="869" 
d="M83.5 7q-21.5 22 -21.5 75v133q0 47 12 78.5t47 49.5l-82 49v64q96 88 224 88q109 0 161.5 -48t52.5 -134v-131q0 -73 26 -107.5t100 -34.5q53 0 80.5 17.5t36.5 49t9 84.5v289h81v-295q0 -95 -45.5 -149.5t-160.5 -54.5t-160.5 53.5t-45.5 150.5v128q0 64 -32 93.5
t-103 29.5q-87 0 -151 -53v-13l86 -54v-41q-32 -13 -44 -33.5t-12 -61.5v-69q12 4 30 4q40 0 62 -22t22 -66q0 -48 -23 -69.5t-74 -21.5q-54 0 -75.5 22zM196.5 41q9.5 9 9.5 35q0 24 -9.5 33.5t-35.5 9.5t-36 -10t-10 -33q0 -25 10 -34.5t36 -9.5t35.5 9zM462.5 -179
q-70.5 34 -70.5 102q0 49 22 71t73 22q50 0 73.5 -20.5t23.5 -68.5q0 -28 -10 -43t-30 -22q28 -11 91 -11q49 0 88.5 21t66.5 60l41 -55q-32 -44 -82 -67t-116 -23q-100 0 -170.5 34zM521.5 -107.5q9.5 9.5 9.5 33.5q0 25 -9.5 34t-35.5 9q-25 0 -35 -9.5t-10 -33.5
q0 -23 10 -33t35 -10q26 0 35.5 9.5z" />
    <glyph glyph-name="uni0E0E" unicode="&#xe0e;" horiz-adv-x="607" 
d="M180 -206q17 61 59 85t102 24q81 0 126 -42v501q0 123 -143 123q-48 0 -91 -14t-72 -39v-13l105 -63v-41q-22 -18 -27.5 -35.5t-5.5 -56.5v-141q0 -53 -21 -75t-76 -22q-52 0 -74.5 21.5t-22.5 69.5q0 44 21.5 66t62.5 22q15 0 29 -3v64q0 39 6 61.5t29 44.5l-100 61v64
q47 42 107.5 65t129.5 23q109 0 166.5 -48.5t57.5 -133.5v-583h-78q-15 28 -46.5 46.5t-72.5 18.5q-43 0 -67.5 -13.5t-40.5 -51.5zM170.5 42q9.5 9 9.5 34q0 24 -10 33.5t-36 9.5t-35.5 -9.5t-9.5 -33.5q0 -25 9.5 -34t35.5 -9q27 0 36.5 9z" />
    <glyph glyph-name="uni0E0F" unicode="&#xe0f;" horiz-adv-x="607" 
d="M352 -170q-16 -23 -40.5 -36t-56.5 -13q-48 0 -80 27t-45 81l63 15q10 -34 26 -48.5t44 -14.5q46 0 76 56l128 -57v522q0 123 -143 123q-48 0 -91 -14t-72 -39v-13l105 -63v-41q-22 -18 -27.5 -35.5t-5.5 -56.5v-141q0 -53 -21 -75t-76 -22q-52 0 -74.5 21.5t-22.5 69.5
q0 44 21.5 66t62.5 22q15 0 29 -3v64q0 39 6 61.5t29 44.5l-100 61v64q47 42 107.5 65t129.5 23q109 0 166.5 -48.5t57.5 -133.5v-583h-81zM170.5 42q9.5 9 9.5 34q0 24 -10 33.5t-36 9.5t-35.5 -9.5t-9.5 -33.5q0 -25 9.5 -34t35.5 -9q27 0 36.5 9z" />
    <glyph glyph-name="uni0E10" unicode="&#xe10;" horiz-adv-x="533" 
d="M189 181q-19 -10 -50 -10q-82 3 -82 88q0 48 22 69t73 21q37 0 55 -9t27 -28t17 -60l40 -193h24q35 0 52 16t17 49v235q0 66 -35.5 96t-110.5 30q-97 0 -165 -61l-39 47q83 73 210 73q86 0 138 -27q30 17 36 57l69 -15q-2 -26 -16.5 -50.5t-39.5 -37.5q34 -38 34 -113
v-217q0 -56 -31 -98.5t-111 -42.5h-94zM187 224.5q10 9.5 10 33.5q0 25 -9.5 34t-35.5 9q-27 0 -36.5 -9t-9.5 -34q0 -24 10 -33.5t36 -9.5q25 0 35 9.5zM71 -171l63 15q10 -34 25.5 -48.5t43.5 -14.5q49 0 75 46l130 -42v45q-11 -5 -34 -5q-84 0 -84 77q0 43 21.5 61.5
t70.5 18.5q47 0 67 -20.5t20 -66.5v-168h-61l-118 38q-34 -41 -95 -41q-100 0 -124 105zM413 -127q10 9 10 28q0 21 -9.5 29.5t-33.5 8.5q-25 0 -34.5 -8.5t-9.5 -29.5q0 -20 10 -28.5t34 -8.5q23 0 33 9z" />
    <glyph glyph-name="uni0E11" unicode="&#xe11;" horiz-adv-x="597" 
d="M141 187q0 40 15 72.5t43 75.5q22 33 33 55t11 45v27l-34 -18q0 -40 -23.5 -60t-67.5 -20q-50 0 -69.5 21.5t-19.5 70.5q0 47 21 67.5t71 20.5q36 0 54.5 -9.5t26.5 -33.5l49 28h66v-55q38 40 65.5 55t68.5 15q53 0 70 -28t17 -86v-430h-81v452q0 14 -6.5 20t-20.5 6
q-18 0 -35 -13t-37.5 -37t-40.5 -51q-6 -7 -16 -21q-42 -53 -60.5 -87.5t-18.5 -79.5v-189h-81v187zM157 420.5q10 9.5 10 33.5q0 25 -10 34.5t-36 9.5q-25 0 -35 -10t-10 -34q0 -25 9.5 -34t35.5 -9t36 9.5z" />
    <glyph glyph-name="uni0E12" unicode="&#xe12;" horiz-adv-x="849" 
d="M352 7q-23 22 -23 68q0 39 23 62.5t64 23.5q13 0 19 -1v231q0 53 -11 73.5t-47 20.5q-61 0 -61 -65v-13h-62v13q0 33 -13 49t-43 16q-35 0 -48 -21.5t-13 -73.5v-325l114 106q-29 6 -44 24.5t-15 55.5q0 48 23 69t70 21q52 0 73.5 -20.5t21.5 -67.5q0 -25 -8.5 -43
t-27.5 -36l-183 -174h-97v396q0 74 30.5 111t89.5 37q82 0 101 -63q12 32 37 47.5t66 15.5q126 0 126 -148v-239l195 -81v453h81v-529h-64l-205 87q2 -6 2 -19q0 -42 -24 -62.5t-75 -20.5q-49 0 -72 22zM320.5 218q10.5 10 10.5 34q0 25 -10 34t-36 9t-35.5 -9t-9.5 -34
q0 -24 9.5 -34t35.5 -10q25 0 35.5 10zM461 41q10 10 10 33q0 25 -9.5 34.5t-35.5 9.5t-35.5 -9t-9.5 -35q0 -24 9.5 -33.5t35.5 -9.5q25 0 35 10z" />
    <glyph glyph-name="uni0E13" unicode="&#xe13;" horiz-adv-x="834" 
d="M83.5 7q-21.5 22 -21.5 75v113q0 39 3 63.5t15.5 47.5t40.5 37l-82 49v64q96 88 224 88q109 0 161.5 -48t52.5 -134v-286l193 139q14 10 18.5 18t4.5 24v272h80v-272q0 -27 -14 -45.5t-55 -46.5q48 -2 68 -23.5t20 -64.5q0 -49 -22.5 -70.5t-75.5 -21.5q-99 0 -99 83
q0 17 4 25l-125 -93h-76v362q0 64 -32 93.5t-103 29.5q-87 0 -151 -53v-13l86 -54v-41q-32 -13 -43.5 -33.5t-11.5 -61.5v-69q12 4 29 4q40 0 62 -22t22 -66q0 -48 -23 -69.5t-74 -21.5q-54 0 -75.5 22zM730.5 43q9.5 9 9.5 34q0 24 -10 34t-36 10q-25 0 -35 -9.5t-10 -34.5
t9.5 -34t35.5 -9q27 0 36.5 9zM196.5 41q9.5 9 9.5 35q0 24 -9.5 33.5t-35.5 9.5t-36 -10t-10 -33q0 -25 10 -34.5t36 -9.5t35.5 9z" />
    <glyph glyph-name="uni0E14" unicode="&#xe14;" horiz-adv-x="574" 
d="M59 343q0 95 52 148t176 53t176 -53t52 -148v-343h-81v346q0 48 -12.5 78t-44.5 45.5t-90 15.5t-90 -15.5t-44.5 -45.5t-12.5 -78v-281l114 106q-29 6 -44 24.5t-15 55.5q0 48 23 69t70 21q52 0 73.5 -20.5t21.5 -67.5q0 -29 -11.5 -49.5t-37.5 -44.5l-170 -159h-105v343
zM323.5 218q10.5 10 10.5 34q0 25 -10 34t-36 9t-35.5 -9t-9.5 -34q0 -24 9.5 -34t35.5 -10q25 0 35.5 10z" />
    <glyph glyph-name="uni0E15" unicode="&#xe15;" horiz-adv-x="574" 
d="M59 396q0 74 32.5 111t92.5 37q84 0 103 -63q23 63 104 63q62 0 93 -36t31 -112v-396h-81v391q0 54 -10.5 74t-45.5 20q-58 0 -58 -65v-13h-67v13q0 33 -12.5 49t-41.5 16q-34 0 -46.5 -21t-12.5 -73v-326l114 106q-29 6 -44 24.5t-15 55.5q0 48 23 69t70 21
q52 0 73.5 -20.5t21.5 -67.5q0 -29 -11.5 -49.5t-37.5 -44.5l-170 -159h-105v396zM323.5 218q10.5 10 10.5 34q0 25 -10 34t-36 9t-35.5 -9t-9.5 -34q0 -24 9.5 -34t35.5 -10q25 0 35.5 10z" />
    <glyph glyph-name="uni0E16" unicode="&#xe16;" horiz-adv-x="556" 
d="M83.5 7q-21.5 22 -21.5 75v145q0 40 13.5 69.5t45.5 46.5l-82 49v64q46 42 105.5 65t127.5 23q110 0 167.5 -48.5t57.5 -133.5v-362h-81v362q0 62 -37 92.5t-107 30.5q-48 0 -89.5 -13.5t-70.5 -39.5v-13l86 -54v-41q-32 -13 -43.5 -34.5t-11.5 -64.5v-65q12 4 29 4
q40 0 62 -22t22 -66q0 -48 -23 -69.5t-74 -21.5q-54 0 -75.5 22zM196.5 41q9.5 9 9.5 35q0 24 -9.5 33.5t-35.5 9.5t-36 -10t-10 -33q0 -25 10 -34.5t36 -9.5t35.5 9z" />
    <glyph glyph-name="uni0E17" unicode="&#xe17;" horiz-adv-x="597" 
d="M142 368q-14 -3 -29 -3q-41 0 -62.5 22t-21.5 66q0 48 22.5 69.5t74.5 21.5q55 0 76 -22t21 -75v-185l123 214q21 38 43.5 53t62.5 15q86 0 86 -80v-464h-81v462q0 23 -20 23q-11 0 -17.5 -8.5t-23.5 -37.5l-173 -301v-138h-81v368zM160 419.5q10 9.5 10 33.5
q0 25 -9.5 34t-36.5 9q-26 0 -35.5 -9t-9.5 -34q0 -24 9.5 -33.5t35.5 -9.5t36 9.5z" />
    <glyph glyph-name="uni0E18" unicode="&#xe18;" horiz-adv-x="501" 
d="M93 38q-43 53 -43 147v47h81v-48q0 -50 10 -80t37.5 -45t77.5 -15q61 0 93 20.5t32 69.5v58q0 35 -15 50.5t-55 23.5l-272 60v71q0 43 26 76.5t74.5 52t113.5 18.5q125 0 195 -56l-37 -45q-55 42 -156 42q-63 0 -99 -23t-36 -63v-30l227 -50q62 -14 88.5 -43.5
t26.5 -83.5v-58q0 -72 -54.5 -110.5t-151.5 -38.5q-120 0 -163 53z" />
    <glyph glyph-name="uni0E19" unicode="&#xe19;" horiz-adv-x="589" 
d="M350 68q0 17 4 26l-134 -94h-78v368q-14 -3 -29 -3q-41 0 -62.5 22t-21.5 66q0 48 22.5 69.5t74.5 21.5q54 0 75.5 -22t21.5 -75v-370l202 138q14 9 18.5 17.5t4.5 24.5v272h81v-272q0 -27 -14.5 -46t-55.5 -46q48 -2 68 -23.5t20 -64.5q0 -49 -22.5 -70.5t-75.5 -21.5
q-99 0 -99 83zM160 419.5q10 9.5 10 33.5q0 25 -9.5 34t-36.5 9q-26 0 -35.5 -9t-9.5 -34q0 -24 9.5 -33.5t35.5 -9.5t36 9.5zM485.5 43q9.5 9 9.5 34q0 24 -10 34t-36 10q-25 0 -35 -9.5t-10 -34.5t9.5 -34t35.5 -9q27 0 36.5 9z" />
    <glyph glyph-name="uni0E1A" unicode="&#xe1a;" horiz-adv-x="633" 
d="M190 38q-48 53 -48 150v180q-14 -3 -29 -3q-41 0 -62.5 22t-21.5 66q0 48 22.5 69.5t74.5 21.5q55 0 76 -22t21 -75v-261q0 -48 11 -78.5t40 -47t84 -16.5q57 0 86.5 17.5t39 49.5t9.5 87v331h81v-341q0 -97 -47 -150t-168 -53t-169 53zM160 419.5q10 9.5 10 33.5
q0 25 -9.5 34t-36.5 9q-26 0 -35.5 -9t-9.5 -34q0 -24 9.5 -33.5t35.5 -9.5t36 9.5z" />
    <glyph glyph-name="uni0E1B" unicode="&#xe1b;" horiz-adv-x="633" 
d="M190 38q-48 53 -48 150v180q-14 -3 -29 -3q-41 0 -62.5 22t-21.5 66q0 48 22.5 69.5t74.5 21.5q55 0 76 -22t21 -75v-261q0 -48 11 -78.5t40 -47t84 -16.5q57 0 86.5 17.5t39 49.5t9.5 87v516h81v-526q0 -97 -47 -150t-168 -53t-169 53zM160 419.5q10 9.5 10 33.5
q0 25 -9.5 34t-36.5 9q-26 0 -35.5 -9t-9.5 -34q0 -24 9.5 -33.5t35.5 -9.5t36 9.5z" />
    <glyph glyph-name="uni0E1C" unicode="&#xe1c;" horiz-adv-x="569" 
d="M59 447q0 53 21 75t76 22q52 0 74.5 -21.5t22.5 -69.5q0 -44 -21.5 -66t-62.5 -22q-16 0 -29 3v-269l119 157h50l120 -157v430h81v-529h-84l-142 190l-141 -190h-84v447zM193.5 419.5q9.5 9.5 9.5 33.5q0 25 -9.5 34t-35.5 9q-27 0 -36.5 -9t-9.5 -34q0 -24 10 -33.5
t36 -9.5t35.5 9.5z" />
    <glyph glyph-name="uni0E1D" unicode="&#xe1d;" horiz-adv-x="569" 
d="M59 447q0 53 21 75t76 22q52 0 74.5 -21.5t22.5 -69.5q0 -44 -21.5 -66t-62.5 -22q-16 0 -29 3v-269l119 157h50l120 -157v615h81v-714h-84l-142 190l-141 -190h-84v447zM193.5 419.5q9.5 9.5 9.5 33.5q0 25 -9.5 34t-35.5 9q-27 0 -36.5 -9t-9.5 -34q0 -24 10 -33.5
t36 -9.5t35.5 9.5z" />
    <glyph glyph-name="uni0E1E" unicode="&#xe1e;" horiz-adv-x="637" 
d="M142 368q-14 -3 -29 -3q-41 0 -62.5 22t-21.5 66q0 48 22.5 69.5t74.5 21.5q55 0 76 -22t21 -75v-308l112 261h49l113 -261v390h81v-529h-82l-136 313l-136 -313h-82v368zM160 419.5q10 9.5 10 33.5q0 25 -9.5 34t-36.5 9q-26 0 -35.5 -9t-9.5 -34q0 -24 9.5 -33.5
t35.5 -9.5t36 9.5z" />
    <glyph glyph-name="uni0E1F" unicode="&#xe1f;" horiz-adv-x="637" 
d="M142 368q-14 -3 -29 -3q-41 0 -62.5 22t-21.5 66q0 48 22.5 69.5t74.5 21.5q55 0 76 -22t21 -75v-308l112 261h49l113 -261v575h81v-714h-82l-136 313l-136 -313h-82v368zM160 419.5q10 9.5 10 33.5q0 25 -9.5 34t-36.5 9q-26 0 -35.5 -9t-9.5 -34q0 -24 9.5 -33.5
t35.5 -9.5t36 9.5z" />
    <glyph glyph-name="uni0E20" unicode="&#xe20;" horiz-adv-x="607" 
d="M61.5 6.5q-22.5 21.5 -22.5 69.5q0 44 21.5 66t62.5 22q15 0 29 -3v64q0 39 6 61.5t29 44.5l-100 61v64q47 42 107.5 65t129.5 23q109 0 166.5 -48.5t57.5 -133.5v-362h-81v362q0 123 -143 123q-48 0 -91 -14t-72 -39v-13l105 -63v-41q-22 -18 -27.5 -35.5t-5.5 -56.5
v-141q0 -53 -21 -75t-76 -22q-52 0 -74.5 21.5zM170.5 42q9.5 9 9.5 34q0 24 -10 33.5t-36 9.5t-35.5 -9.5t-9.5 -33.5q0 -25 9.5 -34t35.5 -9q27 0 36.5 9z" />
    <glyph glyph-name="uni0E21" unicode="&#xe21;" horiz-adv-x="578" 
d="M69 7q-23 22 -23 68q0 39 23 62.5t64 23.5q13 0 19 -1v208q-14 -3 -29 -3q-41 0 -62.5 22t-21.5 66q0 48 22.5 69.5t74.5 21.5q54 0 75.5 -22t21.5 -75v-295l205 -81v458h81v-529h-62l-218 87q1 -6 1 -19q0 -42 -24 -62.5t-75 -20.5q-49 0 -72 22zM170 419.5
q10 9.5 10 33.5q0 25 -9.5 34t-36.5 9q-26 0 -35.5 -9t-9.5 -34q0 -24 9.5 -33.5t35.5 -9.5t36 9.5zM178 41q10 10 10 34q0 25 -9.5 34t-35.5 9t-35.5 -9t-9.5 -34q0 -24 9.5 -34t35.5 -10q25 0 35 10z" />
    <glyph glyph-name="uni0E22" unicode="&#xe22;" horiz-adv-x="531" 
d="M93.5 25q-54.5 40 -54.5 116q0 85 59 117q-30 19 -43.5 49t-13.5 75v62q0 52 23.5 76t76.5 24q52 0 75 -21t23 -69q0 -42 -22 -65.5t-61 -23.5q-20 0 -36 6q0 -42 17.5 -62t57.5 -20h42v-59h-41q-79 0 -79 -88q0 -98 139 -98q68 0 101.5 29.5t33.5 93.5v362h81v-348
q0 -196 -215 -196q-109 0 -163.5 40zM176.5 419.5q9.5 9.5 9.5 33.5q0 25 -9.5 34t-35.5 9t-35.5 -9t-9.5 -34q0 -24 10 -33.5t35 -9.5q26 0 35.5 9.5z" />
    <glyph glyph-name="uni0E23" unicode="&#xe23;" horiz-adv-x="463" 
d="M175 6.5q-23 21.5 -23 69.5q0 44 22 66t62 22q17 0 29 -4v65q0 26 -4.5 37.5t-17.5 18t-47 15.5l-157 42v58q0 72 53 110t145 38q65 0 109 -13t78 -41l-36 -45q-29 21 -64.5 30.5t-81.5 9.5q-61 0 -91.5 -22.5t-30.5 -62.5v-22l158 -42q41 -11 54.5 -36t13.5 -74v-144
q0 -53 -21.5 -75t-75.5 -22q-51 0 -74 21.5zM283 41.5q10 9.5 10 34.5q0 23 -10 33t-36 10t-35.5 -9.5t-9.5 -33.5q0 -26 9.5 -35t35.5 -9t36 9.5z" />
    <glyph glyph-name="uni0E24" unicode="&#xe24;" horiz-adv-x="556" 
d="M416 362q0 62 -37 92.5t-107 30.5q-48 0 -89.5 -13.5t-70.5 -39.5v-13l86 -54v-41q-32 -13 -43.5 -34.5t-11.5 -64.5v-65q12 4 29 4q40 0 62 -22t22 -66q0 -48 -23 -69.5t-74 -21.5q-54 0 -75.5 22t-21.5 75v145q0 40 13.5 69.5t45.5 46.5l-82 49v64q46 42 105.5 65
t127.5 23q110 0 167.5 -48.5t57.5 -133.5v-563h-81v563zM196.5 41q9.5 9 9.5 35q0 24 -9.5 33.5t-35.5 9.5t-36 -10t-10 -33q0 -25 10 -34.5t36 -9.5t35.5 9z" />
    <glyph glyph-name="uni0E25" unicode="&#xe25;" horiz-adv-x="525" 
d="M62 15q-23 30 -23 90q0 112 49 163.5t142 51.5q54 0 94.5 -20t60.5 -58v119q0 124 -135 124q-50 0 -91.5 -14.5t-77.5 -47.5l-40 48q84 73 210 73q106 0 160.5 -49t54.5 -135v-360h-81q0 137 -35 199t-123 62q-52 0 -79.5 -24.5t-31.5 -75.5q15 3 31 3q7 0 19 -2
q67 -9 67 -87q0 -47 -22.5 -68.5t-74.5 -21.5q-51 0 -74 30zM173.5 41q9.5 9 9.5 35q0 24 -9.5 33.5t-35.5 9.5q-25 0 -35.5 -10t-10.5 -33t10.5 -33.5t35.5 -10.5q26 0 35.5 9z" />
    <glyph glyph-name="uni0E26" unicode="&#xe26;" horiz-adv-x="607" 
d="M467 362q0 123 -143 123q-48 0 -91 -14t-72 -39v-13l105 -63v-41q-22 -18 -27.5 -35.5t-5.5 -56.5v-141q0 -53 -21 -75t-76 -22q-52 0 -74.5 21.5t-22.5 69.5q0 44 21.5 66t62.5 22q15 0 29 -3v64q0 39 6 61.5t29 44.5l-100 61v64q47 42 107.5 65t129.5 23
q109 0 166.5 -48.5t57.5 -133.5v-563h-81v563zM170.5 42q9.5 9 9.5 34q0 24 -10 33.5t-36 9.5t-35.5 -9.5t-9.5 -33.5q0 -25 9.5 -34t35.5 -9q27 0 36.5 9z" />
    <glyph glyph-name="uni0E27" unicode="&#xe27;" horiz-adv-x="465" 
d="M233.5 6.5q-22.5 21.5 -22.5 69.5q0 44 22 66t62 22q17 0 30 -4v202q0 64 -28 93.5t-93 29.5q-41 0 -75.5 -14.5t-70.5 -46.5l-39 47q46 40 88.5 56.5t100.5 16.5q109 0 153.5 -48t44.5 -139v-275q0 -53 -21.5 -75t-76.5 -22q-52 0 -74.5 21.5zM342.5 41.5
q9.5 9.5 9.5 34.5q0 23 -10 33t-35 10q-26 0 -36 -9.5t-10 -33.5q0 -25 10 -34.5t36 -9.5t35.5 9.5z" />
    <glyph glyph-name="uni0E28" unicode="&#xe28;" horiz-adv-x="579" 
d="M59 334q0 97 51 153.5t175 56.5q80 0 130 -25q30 19 36 55l69 -15q-2 -23 -15 -46t-34 -38q41 -52 41 -141v-334h-81v339q0 73 -31.5 109.5t-114.5 36.5q-82 0 -113.5 -36.5t-31.5 -109.5v-102l37 32q16 13 17 14q32 28 51.5 39t50.5 11q49 0 68.5 -20t19.5 -70
q0 -90 -96 -90q-38 0 -61.5 15t-24.5 40l-62 -54v-154h-81v334zM323.5 209q9.5 10 9.5 34q0 25 -9.5 34t-35.5 9t-35.5 -9t-9.5 -34q0 -24 10 -34t35 -10q26 0 35.5 10z" />
    <glyph glyph-name="uni0E29" unicode="&#xe29;" horiz-adv-x="633" 
d="M190 38q-48 53 -48 150v180q-14 -3 -29 -3q-41 0 -62.5 22t-21.5 66q0 47 22.5 69t74.5 22q54 0 75.5 -22t21.5 -75v-261q0 -48 11 -78.5t40 -47t84 -16.5q59 0 88 17.5t38 50.5t9 92q-10 -1 -48 -1q-71 0 -124.5 24t-53.5 89q0 46 23 66.5t69 20.5q49 0 69.5 -20.5
t20.5 -64.5q0 -19 -5.5 -32.5t-20.5 -25.5q20 -2 32 -2q20 0 38 3v268h81v-341q0 -97 -47 -150t-168 -53t-169 53zM160 419.5q10 9.5 10 33.5q0 25 -9.5 34t-36.5 9q-26 0 -35.5 -9t-9.5 -34q0 -24 9.5 -33.5t35.5 -9.5t36 9.5zM393.5 283q9.5 10 9.5 33q0 24 -9.5 33
t-34.5 9q-26 0 -35.5 -8.5t-9.5 -33.5q0 -24 9.5 -33.5t35.5 -9.5q25 0 34.5 10z" />
    <glyph glyph-name="uni0E2A" unicode="&#xe2a;" horiz-adv-x="526" 
d="M62 15q-23 30 -23 90q0 112 49 163.5t142 51.5q54 0 94.5 -20t60.5 -58v119q0 124 -135 124q-50 0 -91.5 -14.5t-77.5 -47.5l-40 48q84 73 210 73q77 0 126 -27q13 8 22 23.5t12 33.5l69 -15q-1 -22 -15.5 -45.5t-36.5 -39.5q38 -47 38 -114v-360h-81q0 137 -35 199
t-123 62q-52 0 -79.5 -24.5t-31.5 -75.5q15 3 31 3q7 0 19 -2q67 -9 67 -87q0 -47 -22.5 -68.5t-74.5 -21.5q-51 0 -74 30zM173.5 41q9.5 9 9.5 35q0 24 -9.5 33.5t-35.5 9.5q-25 0 -35.5 -10t-10.5 -33t10.5 -33.5t35.5 -10.5q26 0 35.5 9z" />
    <glyph glyph-name="uni0E2B" unicode="&#xe2b;" horiz-adv-x="582" 
d="M142 368q-14 -3 -29 -3q-41 0 -62.5 22t-21.5 66q0 48 22.5 69.5t74.5 21.5q55 0 76 -22t21 -75v-335l146 221q11 18 18.5 26t21.5 13q-58 13 -58 77q0 49 22 72t73 23q52 0 74.5 -23t22.5 -74q0 -28 -14.5 -48.5t-41.5 -27.5q20 -7 28 -23.5t8 -42.5v-305h-81v285
q0 13 -2 18t-8 5t-10.5 -4.5t-12.5 -16.5l-192 -287h-75v368zM160 419.5q10 9.5 10 33.5q0 25 -9.5 34t-36.5 9q-26 0 -35.5 -9t-9.5 -34q0 -24 9.5 -33.5t35.5 -9.5t36 9.5zM483 419.5q10 9.5 10 33.5q0 25 -9.5 34t-36.5 9q-26 0 -35.5 -9t-9.5 -34q0 -24 9.5 -33.5
t35.5 -9.5t36 9.5z" />
    <glyph glyph-name="uni0E2C" unicode="&#xe2c;" horiz-adv-x="637" 
d="M142 368q-14 -3 -29 -3q-41 0 -62.5 22t-21.5 66q0 48 22.5 69.5t74.5 21.5q55 0 76 -22t21 -75v-308l112 251h49l113 -251v287q0 46 -16 67.5t-58 21.5h-18v59h17q32 0 48 9t21.5 28t5.5 53v50h81v-52q0 -44 -12.5 -74t-44.5 -45q31 -17 44 -46.5t13 -70.5v-426h-82
l-136 303l-136 -303h-82v368zM160 419.5q10 9.5 10 33.5q0 25 -9.5 34t-36.5 9q-26 0 -35.5 -9t-9.5 -34q0 -24 9.5 -33.5t35.5 -9.5t36 9.5z" />
    <glyph glyph-name="uni0E2D" unicode="&#xe2d;" horiz-adv-x="527" 
d="M93.5 31.5q-44.5 46.5 -44.5 122.5v83q0 52 22.5 75t77.5 23q52 0 74.5 -21t22.5 -69q0 -42 -22 -65.5t-60 -23.5q-19 0 -34 4v-32q0 -84 124 -84q61 0 97 22t36 65v231q0 64 -34 93.5t-110 29.5q-50 0 -90 -14.5t-75 -46.5l-39 47q42 37 96 55t114 18q117 0 168 -48.5
t51 -137.5v-217q0 -38 -20 -73.5t-68 -59t-126 -23.5q-116 0 -160.5 46.5zM184.5 210.5q9.5 9.5 9.5 33.5q0 25 -9.5 34t-35.5 9q-27 0 -36.5 -9t-9.5 -34q0 -24 10 -33.5t36 -9.5t35.5 9.5z" />
    <glyph glyph-name="uni0E2E" unicode="&#xe2e;" horiz-adv-x="542" 
d="M93.5 31.5q-44.5 46.5 -44.5 122.5v83q0 52 22.5 75t77.5 23q52 0 74.5 -21t22.5 -69q0 -42 -22 -65.5t-60 -23.5q-19 0 -34 4v-32q0 -84 124 -84q61 0 97 22t36 65v231q0 64 -34 93.5t-110 29.5q-50 0 -90 -14.5t-75 -46.5l-39 47q42 37 96 55t114 18q85 0 135 -26
q29 18 35 56l69 -15q-2 -23 -17 -47.5t-37 -38.5q34 -44 34 -115v-217q0 -38 -20 -73.5t-68 -59t-126 -23.5q-116 0 -160.5 46.5zM184.5 210.5q9.5 9.5 9.5 33.5q0 25 -9.5 34t-35.5 9q-27 0 -36.5 -9t-9.5 -34q0 -24 10 -33.5t36 -9.5t35.5 9.5z" />
    <glyph glyph-name="uni0E2F" unicode="&#xe2f;" horiz-adv-x="490" 
d="M351 341q-42 -55 -135 -55q-76 0 -126.5 37.5t-50.5 111.5q0 56 22.5 82.5t74.5 26.5q51 0 74 -22.5t23 -71.5q0 -36 -20 -57t-53 -21q-16 0 -28 3q9 -15 33 -22.5t53 -7.5q68 0 101 43.5t33 140.5h79v-529h-80v341zM173 419.5q10 9.5 10 33.5q0 25 -10 34.5t-36 9.5
q-24 0 -34.5 -10.5t-10.5 -33.5q0 -24 10 -33.5t35 -9.5q26 0 36 9.5z" />
    <glyph glyph-name="uni0E30" unicode="&#xe30;" horiz-adv-x="403" 
d="M92 333.5q-53 26.5 -53 86.5q0 47 24 70.5t73 23.5q51 0 72 -21.5t22 -65.5q0 -18 -8.5 -34.5t-22.5 -23.5q11 -2 25.5 -2h18.5q51 3 87 37l34 -43q-44 -54 -150 -54q-69 0 -122 26.5zM180 422q0 25 -9.5 34t-35.5 9t-35.5 -9t-9.5 -34q0 -23 10.5 -33t34.5 -10
q45 0 45 43zM92 54.5q-53 26.5 -53 86.5q0 47 24 70.5t73 23.5q51 0 72 -21t22 -65q0 -19 -8 -35t-23 -23q18 -4 44 -2q51 1 87 37l34 -44q-44 -54 -150 -54q-69 0 -122 26.5zM180 143q0 25 -9.5 34.5t-35.5 9.5t-35.5 -9t-9.5 -35q0 -23 10.5 -33t34.5 -10q45 0 45 43z" />
    <glyph glyph-name="uni0E31" unicode="&#xe31;" 
d="M-316 725q0 47 24 70t74 23q51 0 73 -21.5t22 -66.5q0 -20 -7 -34.5t-23 -26.5q18 -3 48 -3q40 0 79.5 14t66.5 40l35 -46q-70 -67 -196 -67q-196 0 -196 118zM-184 692.5q10 9.5 10 33.5q0 25 -9.5 34t-35.5 9t-35.5 -9t-9.5 -34q0 -24 9.5 -33.5t35.5 -9.5q25 0 35 9.5
z" />
    <glyph glyph-name="uni0E32" unicode="&#xe32;" horiz-adv-x="442" 
d="M302 358q0 66 -24 96.5t-87 30.5q-75 0 -133 -55l-39 48q37 34 80.5 50t96.5 16q103 0 145 -48.5t42 -138.5v-357h-81v358z" />
    <glyph glyph-name="uni0E33" unicode="&#xe33;" horiz-adv-x="442" 
d="M-176 630.5q-27 23.5 -27 69.5t27 70t73 24t72.5 -24t26.5 -70t-26.5 -69.5t-72.5 -23.5t-73 23.5zM-69 669q11 10 11 31q0 22 -11 32t-34 10q-24 0 -35 -10t-11 -32q0 -41 46 -41q23 0 34 10zM302 358q0 66 -24 96.5t-87 30.5q-75 0 -133 -55l-39 48q37 34 80.5 50
t96.5 16q103 0 145 -48.5t42 -138.5v-357h-81v358z" />
    <glyph glyph-name="uni0E34" unicode="&#xe34;" 
d="M-437 729.5q62 42.5 154 42.5q93 0 154.5 -42.5t68.5 -122.5h-446q7 80 69 122.5zM-143 656q-9 30 -48 47t-92 17t-91.5 -17t-47.5 -47h279z" />
    <glyph glyph-name="uni0E35" unicode="&#xe35;" 
d="M-436.5 729.5q61.5 42.5 153.5 42.5q44 0 84 -13t65 -37v93h75v-208h-446q7 80 68.5 122.5zM-140 656q-17 31 -54.5 47.5t-88.5 16.5q-53 0 -91 -17t-47 -47h281z" />
    <glyph glyph-name="uni0E36" unicode="&#xe36;" 
d="M-435.5 729.5q61.5 42.5 154.5 42.5q43 0 75 -11q2 34 22 50.5t59 16.5q48 0 66.5 -18.5t18.5 -62.5q0 -29 -10.5 -45.5t-33.5 -23.5q23 -28 26 -71h-446q7 80 68.5 122.5zM-95 721q9 9 9 28q0 21 -8.5 28.5t-30.5 7.5q-21 0 -29.5 -7.5t-8.5 -28.5q0 -16 10.5 -26.5
t27.5 -10.5q21 0 30 9zM-142 656q-13 26 -50.5 45t-88.5 19q-53 0 -92 -17t-48 -47h279z" />
    <glyph glyph-name="uni0E37" unicode="&#xe37;" 
d="M-435.5 727.5q61.5 42.5 151.5 42.5q22 0 44 -5v50h70v-67q26 -12 41 -27v94h70v-208h-446q8 78 69.5 120.5zM-139 656q-39 64 -144 64q-53 0 -91 -17t-47 -47h282z" />
    <glyph glyph-name="uni0E38" unicode="&#xe38;" 
d="M-140 -234q-12 -4 -29 -4q-41 0 -62.5 22t-21.5 66q0 48 22.5 69.5t74.5 21.5q55 0 76 -22t21 -75v-177h-81v99zM-122 -183.5q10 9.5 10 33.5q0 25 -9.5 34t-36.5 9q-26 0 -35.5 -9t-9.5 -34q0 -24 9.5 -33.5t35.5 -9.5t36 9.5z" />
    <glyph glyph-name="uni0E39" unicode="&#xe39;" 
d="M-275 -236v9q-15 -5 -33 -5q-86 0 -86 87q0 47 22.5 66.5t73.5 19.5q53 0 73.5 -21.5t20.5 -73.5v-67q0 -23 7.5 -31t27.5 -8q23 0 30 8t7 31v156h72v-158q0 -46 -25.5 -69.5t-83.5 -23.5q-106 0 -106 80zM-265 -177.5q10 9.5 10 32.5q0 24 -9.5 33t-34.5 9t-35 -9
t-10 -33q0 -23 10 -32.5t35 -9.5q24 0 34 9.5z" />
    <glyph glyph-name="uni0E3A" unicode="&#xe3a;" 
d="M-138.5 -159q-10.5 10 -10.5 36q0 27 10.5 37t38.5 10q27 0 38 -10t11 -37q0 -25 -11 -35.5t-38 -10.5q-28 0 -38.5 10z" />
    <glyph glyph-name="uni0E3F" unicode="&#xe3f;" horiz-adv-x="573" 
d="M240 0h-211v59h32q19 0 27 8.5t8 28.5v456q0 20 -8 28t-27 8h-32v59h211v120h75v-120h32q86 0 130.5 -45t44.5 -125q0 -51 -22.5 -90t-66.5 -58q50 -15 75.5 -55t25.5 -97q0 -76 -44 -126.5t-124 -50.5h-51v-120h-75v120zM322 356q59 0 91 31t32 87q0 60 -26.5 87
t-88.5 27h-154v-232h146zM350 59q51 0 79 30.5t28 89.5q0 61 -30 89.5t-97 28.5h-154v-238h174z" />
    <glyph glyph-name="uni0E40" unicode="&#xe40;" horiz-adv-x="272" 
d="M80 7q-21 22 -21 75v447h81v-369q18 4 29 4q40 0 62 -22t22 -66q0 -48 -22.5 -69.5t-74.5 -21.5q-55 0 -76 22zM193 41.5q10 9.5 10 34.5q0 24 -10 33.5t-36 9.5q-25 0 -35 -10t-10 -33q0 -25 9.5 -34.5t35.5 -9.5t36 9.5z" />
    <glyph glyph-name="uni0E41" unicode="&#xe41;" horiz-adv-x="523" 
d="M80 7q-21 22 -21 75v447h81v-369q18 4 29 4q40 0 62 -22t22 -66q0 -48 -22.5 -69.5t-74.5 -21.5q-55 0 -76 22zM331 7q-21 22 -21 75v447h81v-369q18 4 29 4q40 0 62 -22t22 -66q0 -48 -22.5 -69.5t-74.5 -21.5q-55 0 -76 22zM193 41.5q10 9.5 10 34.5q0 24 -10 33.5
t-36 9.5q-25 0 -35 -10t-10 -33q0 -25 9.5 -34.5t35.5 -9.5t36 9.5zM444 41.5q10 9.5 10 34.5q0 24 -10 33.5t-36 9.5q-25 0 -35 -10t-10 -33q0 -25 9.5 -34.5t35.5 -9.5t36 9.5z" />
    <glyph glyph-name="uni0E42" unicode="&#xe42;" horiz-adv-x="325" 
d="M118 7q-21 22 -21 75v413q0 32 -2.5 46.5t-10 23t-26.5 18.5l-89 47v73q33 27 80 43t100 16q54 0 93.5 -9.5t73.5 -30.5l-33 -50q-54 31 -134 31q-29 0 -57.5 -7.5t-44.5 -19.5v-18l75 -39q25 -13 37 -27t15.5 -36t3.5 -64v-332q18 4 29 4q40 0 62 -22t22 -66
q0 -48 -22.5 -69.5t-74.5 -21.5q-55 0 -76 22zM231 41.5q10 9.5 10 34.5q0 24 -10 33.5t-36 9.5q-25 0 -35 -10t-10 -33q0 -25 9.5 -34.5t35.5 -9.5t36 9.5z" />
    <glyph glyph-name="uni0E43" unicode="&#xe43;" horiz-adv-x="336" 
d="M140 7q-21 22 -21 75v295q0 31 17 58.5t50 65.5q32 37 47.5 62t15.5 53q0 37 -21.5 56t-69.5 19q-46 0 -72.5 -20t-26.5 -57v-31h-80v30q0 65 51.5 101t127.5 36q86 0 127.5 -36t41.5 -98q0 -35 -17.5 -65t-51.5 -71q-30 -36 -44 -58.5t-14 -47.5v-214q18 4 29 4
q40 0 62 -22t22 -66q0 -48 -22.5 -69.5t-74.5 -21.5q-55 0 -76 22zM253 41.5q10 9.5 10 34.5q0 24 -10 33.5t-36 9.5q-25 0 -35 -10t-10 -33q0 -25 9.5 -34.5t35.5 -9.5t36 9.5z" />
    <glyph glyph-name="uni0E44" unicode="&#xe44;" horiz-adv-x="293" 
d="M95 7q-21 22 -21 75v409q0 55 12 89t43 66l51 52h-211v59h315v-49l-83 -82q-27 -27 -36.5 -55.5t-9.5 -79.5v-331q18 4 29 4q40 0 62 -22t22 -66q0 -48 -22.5 -69.5t-74.5 -21.5q-55 0 -76 22zM208 41.5q10 9.5 10 34.5q0 24 -10 33.5t-36 9.5q-25 0 -35 -10t-10 -33
q0 -25 9.5 -34.5t35.5 -9.5t36 9.5z" />
    <glyph glyph-name="uni0E45" unicode="&#xe45;" horiz-adv-x="442" 
d="M302 358q0 66 -24 96.5t-87 30.5q-75 0 -133 -55l-39 48q37 34 80.5 50t96.5 16q103 0 145 -48.5t42 -138.5v-558h-81v559z" />
    <glyph glyph-name="uni0E46" unicode="&#xe46;" horiz-adv-x="507" 
d="M367 414q0 40 -10 55.5t-37 15.5q-49 0 -49 -57v-9h-70v9q0 28 -10.5 42.5t-35.5 14.5q-29 0 -39.5 -21t-10.5 -67q15 4 37 4q82 -5 82 -89q0 -47 -23.5 -68.5t-75.5 -21.5q-53 0 -74.5 28.5t-21.5 85.5v65q0 69 30 106t86 37q39 0 61 -15t30 -48q19 63 98 63
q58 0 86 -31t28 -104v-409h-81v414zM162.5 279q9.5 9 9.5 34q0 24 -9.5 33.5t-35.5 9.5q-25 0 -35 -9.5t-10 -33.5q0 -25 9.5 -34t35.5 -9t35.5 9z" />
    <glyph glyph-name="uni0E47" unicode="&#xe47;" 
d="M-225.5 607.5q-20.5 7.5 -39.5 26.5l-32 31l-59 -57h-62v118q0 114 118 114h207v-53h-200q-34 0 -49 -14t-15 -49v-52l43 43h35l26 -28q0 38 19.5 54.5t60.5 16.5t61.5 -18t20.5 -57q0 -43 -19.5 -63t-65.5 -20q-29 0 -49.5 7.5zM-142.5 650q8.5 8 8.5 29q0 19 -9 28
t-30 9t-29.5 -8.5t-8.5 -28.5q0 -22 8 -29.5t30 -7.5t30.5 8z" />
    <glyph glyph-name="uni0E48" unicode="&#xe48;" 
d="M-140 775h81v-168h-81v168z" />
    <glyph glyph-name="uni0E49" unicode="&#xe49;" 
d="M-298 654q24 0 36.5 5t17.5 18q-6 -1 -20 -1q-61 3 -61 66q0 38 19.5 55t61.5 17q44 0 62 -17.5t18 -57.5q0 -55 -28 -80q53 1 80.5 32t27.5 86v13h67v-16q0 -45 -19 -83t-56.5 -61.5t-92.5 -23.5h-113v48zM-215 715q8 8 8 27q0 20 -8.5 27.5t-28.5 7.5q-23 0 -30.5 -7
t-7.5 -28q0 -19 8 -27t30 -8q21 0 29 8z" />
    <glyph glyph-name="uni0E4A" unicode="&#xe4a;" 
d="M-354.5 626.5q-21.5 19.5 -21.5 63.5q0 46 20.5 66.5t68.5 20.5q28 0 43.5 -7.5t24.5 -23.5q20 31 61 31q59 0 59 -63v-35h10q19 0 27.5 12t8.5 42v42h56v-43q0 -61 -26.5 -83.5t-74.5 -22.5h-58v71q0 14 -4.5 20.5t-15.5 6.5t-17.5 -8.5t-6.5 -22.5q0 -86 -89 -86
q-44 0 -65.5 19.5zM-255.5 661q9.5 9 9.5 31q0 23 -9 31t-33 8q-23 0 -32 -8t-9 -31q0 -21 9 -30.5t31 -9.5q24 0 33.5 9z" />
    <glyph glyph-name="uni0E4B" unicode="&#xe4b;" 
d="M-209 659h-70v58h70v54h80v-54h70v-58h-70v-52h-80v52z" />
    <glyph glyph-name="uni0E4C" unicode="&#xe4c;" 
d="M-297.5 628.5q-22.5 21.5 -22.5 67.5q0 114 189 114h127v-56h-105q-39 0 -60 -4q32 -22 29 -64q-2 -39 -22.5 -59t-65.5 -20q-47 0 -69.5 21.5zM-195.5 662.5q9.5 8.5 9.5 32.5q0 22 -9.5 31.5t-33.5 9.5t-33.5 -9t-9.5 -32q0 -24 9 -32.5t34 -8.5q24 0 33.5 8.5z" />
    <glyph glyph-name="uni0E4D" unicode="&#xe4d;" 
d="M-176 630.5q-27 23.5 -27 69.5t27 70t73 24t72.5 -24t26.5 -70t-26.5 -69.5t-72.5 -23.5t-73 23.5zM-69 669q11 10 11 31q0 22 -11 32t-34 10q-24 0 -35 -10t-11 -32q0 -41 46 -41q23 0 34 10z" />
    <glyph glyph-name="uni0E4E" unicode="&#xe4e;" 
d="M-228 610.5q-24 19.5 -24 54.5q0 22 9.5 37.5t26.5 24.5q-36 20 -36 61q0 32 23 51t57 19h72v-55h-56q-17 0 -24.5 -6.5t-7.5 -20.5q0 -12 8 -19.5t24 -7.5h37v-46h-36q-20 0 -28.5 -9t-8.5 -25q0 -30 37 -30q27 0 41 16l33 -30q-25 -34 -82 -34q-41 0 -65 19.5z" />
    <glyph glyph-name="uni0E4F" unicode="&#xe4f;" horiz-adv-x="588" 
d="M105 54.5q-66 69.5 -66 184.5t66 185.5t189 70.5t189 -70.5t66 -185.5t-66 -184.5t-189 -69.5t-189 69.5zM433.5 92q52.5 50 52.5 147t-52.5 148t-139.5 51q-88 0 -140 -51t-52 -148t52 -147t140 -50q87 0 139.5 50zM183.5 131q-38.5 41 -38.5 108q0 68 38.5 109.5
t110.5 41.5t110.5 -41.5t38.5 -109.5q0 -67 -38.5 -108t-110.5 -41t-110.5 41zM359.5 170.5q24.5 23.5 24.5 68.5q0 46 -24.5 70t-65.5 24q-42 0 -66.5 -24t-24.5 -70q0 -45 24.5 -68.5t66.5 -23.5q41 0 65.5 23.5z" />
    <glyph glyph-name="uni0E50" unicode="&#xe50;" horiz-adv-x="599" 
d="M105.5 54q-66.5 69 -66.5 185q0 117 66.5 186.5t193.5 69.5t194 -69.5t67 -186.5q0 -116 -66.5 -185t-194.5 -69q-127 0 -193.5 69zM433.5 93.5q48.5 48.5 48.5 145.5t-48.5 146t-134.5 49q-85 0 -133.5 -49.5t-48.5 -145.5q0 -97 48.5 -145.5t133.5 -48.5
q86 0 134.5 48.5z" />
    <glyph glyph-name="uni0E51" unicode="&#xe51;" horiz-adv-x="601" 
d="M227 -1q131 18 194 71t63 159q0 190 -188 190q-88 0 -134.5 -42.5t-46.5 -126.5q0 -56 27 -86.5t69 -30.5q38 0 63 13q-32 5 -52 26.5t-20 60.5q0 47 23 68.5t74 21.5q53 0 75 -24.5t22 -78.5q0 -41 -22 -74.5t-63.5 -53t-98.5 -19.5q-78 0 -125.5 47t-47.5 128
q0 110 67 170.5t192 60.5q138 0 201 -70t63 -180q0 -124 -78 -198t-243 -95zM333.5 199q10.5 10 10.5 33q0 24 -10.5 34t-35.5 10q-26 0 -36 -9.5t-10 -34.5q0 -24 10 -33.5t36 -9.5q25 0 35.5 10z" />
    <glyph glyph-name="uni0E52" unicode="&#xe52;" horiz-adv-x="666" 
d="M129 42q-70 57 -70 163v339h80v-348q0 -74 47 -112.5t138 -38.5q203 0 203 161v151q0 46 -10.5 61.5t-41.5 15.5q-52 0 -52 -62v-18h-65v18q0 32 -11.5 47t-36.5 15q-31 0 -42 -20.5t-11 -72.5v-20q18 5 36 3q80 -3 80 -86q0 -47 -22 -67.5t-71 -20.5q-51 0 -73.5 24.5
t-22.5 77.5v95q0 148 116 148q38 0 60 -15t32 -48q23 63 100 63q64 0 89.5 -33t25.5 -110v-143q0 -101 -69 -162.5t-214 -61.5q-125 0 -195 57zM316.5 204.5q9.5 8.5 9.5 33.5q0 24 -9.5 33.5t-35.5 9.5q-24 0 -34 -10t-10 -33q0 -24 9.5 -33t34.5 -9q26 0 35.5 8.5z" />
    <glyph glyph-name="uni0E53" unicode="&#xe53;" horiz-adv-x="610" 
d="M80.5 7q-21.5 22 -21.5 75v265q0 73 35.5 110.5t98.5 37.5q42 0 72 -16t39 -47q12 31 41.5 47t72.5 16q67 0 100 -36t33 -112v-347h-79v345q0 50 -14 69.5t-51 19.5q-31 0 -49.5 -16.5t-18.5 -47.5v-133h-71v133q0 31 -16.5 47.5t-47.5 16.5q-35 0 -51.5 -20.5
t-16.5 -69.5v-184q18 4 33 4q40 0 62 -22t22 -66q0 -48 -23 -69.5t-74 -21.5q-54 0 -75.5 22zM193.5 41q9.5 9 9.5 35q0 24 -9.5 33.5t-35.5 9.5t-36 -10t-10 -33q0 -25 10 -34.5t36 -9.5t35.5 9z" />
    <glyph glyph-name="uni0E54" unicode="&#xe54;" horiz-adv-x="605" 
d="M83 46q-44 46 -44 125v99q0 94 56 152t165 58h130q56 0 86.5 11.5t63.5 49.5l46 -38q-35 -48 -80 -65t-129 -17h-109q-76 0 -113 -40.5t-37 -112.5v-95q0 -54 23.5 -83.5t69.5 -29.5h104q-31 32 -31 102v67q0 55 20.5 78.5t75.5 23.5q52 0 74.5 -21t22.5 -69
q0 -42 -21 -65t-61 -23q-23 0 -37 5v-11q0 -87 78 -87h99v-60h-328q-80 0 -124 46zM416.5 207q9.5 10 9.5 34q0 25 -9.5 34t-35.5 9q-27 0 -36.5 -9t-9.5 -34q0 -24 10 -34t36 -10t35.5 10z" />
    <glyph glyph-name="uni0E55" unicode="&#xe55;" horiz-adv-x="605" 
d="M83 46q-44 46 -44 125v99q0 93 56 151t165 59q-6 12 -6 31q0 46 22 66.5t72 20.5q48 0 70.5 -19.5t22.5 -63.5q0 -17 -3 -32q32 4 55 16.5t47 41.5l46 -38q-35 -48 -80 -65t-129 -17h-109q-76 0 -113 -40.5t-37 -112.5v-95q0 -54 23.5 -83.5t69.5 -29.5h104
q-31 32 -31 102v67q0 55 20.5 78.5t75.5 23.5q52 0 74.5 -21t22.5 -69q0 -42 -21 -65t-61 -23q-23 0 -37 5v-11q0 -87 78 -87h99v-60h-328q-80 0 -124 46zM385.5 473.5q9.5 9.5 9.5 33.5q0 25 -9.5 34t-35.5 9q-27 0 -36.5 -9t-9.5 -34q0 -24 10 -33.5t36 -9.5t35.5 9.5z
M416.5 207q9.5 10 9.5 34q0 25 -9.5 34t-35.5 9q-27 0 -36.5 -9t-9.5 -34q0 -24 10 -34t36 -10t35.5 10z" />
    <glyph glyph-name="uni0E56" unicode="&#xe56;" horiz-adv-x="589" 
d="M145.5 22q-60.5 37 -60.5 104q0 54 22 78.5t74 24.5q51 0 74 -21.5t23 -68.5q0 -40 -15 -59t-45 -23q20 -7 39.5 -9.5t49.5 -2.5q86 0 130.5 48.5t44.5 137.5q0 95 -42.5 149t-123.5 54q-99 0 -150 -75h-70l-77 175l69 24l56 -130q30 31 74.5 49t101.5 18q120 0 180 -73
t60 -191q0 -112 -65 -179t-188 -67q-101 0 -161.5 37zM218.5 104.5q9.5 9.5 9.5 33.5q0 26 -9.5 35t-35.5 9t-36 -9.5t-10 -34.5q0 -23 10.5 -33t35.5 -10q26 0 35.5 9.5z" />
    <glyph glyph-name="uni0E57" unicode="&#xe57;" horiz-adv-x="777" 
d="M80.5 7q-21.5 22 -21.5 75v265q0 73 34 110.5t94 37.5q42 0 69 -15.5t37 -47.5q23 63 109 63q62 0 95.5 -36.5t33.5 -111.5v-288q46 0 69.5 14t31 41.5t7.5 77.5v352h79v-347q0 -95 -40 -146t-145 -51h-81v341q0 53 -12 73t-49 20q-34 0 -48.5 -17.5t-14.5 -50.5v-129
h-71v129q0 32 -15 50t-44 18q-35 0 -49 -21.5t-14 -72.5v-180q18 4 35 4q40 0 61.5 -22t21.5 -66q0 -48 -23 -69.5t-74 -21.5q-54 0 -75.5 22zM193.5 41q9.5 9 9.5 35q0 24 -9.5 33.5t-35.5 9.5t-36 -10t-10 -33q0 -25 10 -34.5t36 -9.5t35.5 9z" />
    <glyph glyph-name="uni0E58" unicode="&#xe58;" horiz-adv-x="578" 
d="M71.5 21q-32.5 36 -32.5 112v153q0 91 49.5 142.5t146.5 51.5h102q67 0 99.5 11.5t65.5 49.5l46 -38q-32 -44 -74.5 -63t-114.5 -19h-109q-70 0 -102 -32.5t-32 -103.5v-157q0 -43 14.5 -62.5t52.5 -19.5q31 0 48 18t17 47v44h75v-48q0 -61 63 -61q36 0 53 20.5t17 67.5
v30q-13 -4 -35 -4q-39 2 -59.5 23.5t-20.5 62.5q0 47 22.5 68t73.5 21q53 0 75.5 -23t22.5 -74v-105q0 -73 -38 -110.5t-101 -37.5q-43 0 -73.5 15.5t-39.5 47.5q-23 -63 -111 -63q-68 0 -100.5 36zM471 213q10 10 10 33q0 25 -9.5 34.5t-35.5 9.5t-35.5 -9t-9.5 -35
q0 -24 9.5 -33.5t35.5 -9.5q25 0 35 10z" />
    <glyph glyph-name="uni0E59" unicode="&#xe59;" horiz-adv-x="643" 
d="M80.5 7q-21.5 22 -21.5 75v262q0 76 33.5 113.5t105.5 37.5q41 0 64.5 -14t38.5 -41q14 26 41 40.5t61 14.5q50 0 78 -25t28 -67q30 0 42.5 23t12.5 69h60q0 -71 -30.5 -112t-95.5 -41h-44q0 47 -10.5 69.5t-44.5 22.5q-26 0 -41.5 -13.5t-15.5 -37.5q0 -10 1 -15
l71 -368h-74l-69 361q-8 38 -21.5 55.5t-45.5 17.5q-38 0 -53 -21t-15 -72v-181q15 4 33 4q40 0 62 -22t22 -66q0 -48 -23 -69.5t-74 -21.5q-54 0 -75.5 22zM193.5 41q9.5 9 9.5 35q0 24 -9.5 33.5t-35.5 9.5t-36 -10t-10 -33q0 -25 10 -34.5t36 -9.5t35.5 9z" />
    <glyph glyph-name="uni0E5A" unicode="&#xe5a;" horiz-adv-x="725" 
d="M351 341q-42 -55 -135 -55q-76 0 -126.5 37.5t-50.5 111.5q0 56 22.5 82.5t74.5 26.5q51 0 74 -22.5t23 -71.5q0 -36 -20 -57t-53 -21q-16 0 -28 3q9 -15 33 -22.5t53 -7.5q68 0 101 43.5t33 140.5h79v-184q85 0 120 43.5t35 140.5h80v-529h-80l-1 341q-57 -55 -154 -55
v-286h-80v341zM173 419.5q10 9.5 10 33.5q0 25 -10 34.5t-36 9.5q-24 0 -34.5 -10.5t-10.5 -33.5q0 -24 10 -33.5t35 -9.5q26 0 36 9.5z" />
    <glyph glyph-name="uni0E5B" unicode="&#xe5b;" horiz-adv-x="1132" 
d="M165 16.5q-62 31.5 -94 87t-32 127.5q0 114 55.5 182.5t185.5 68.5q111 0 164.5 -52.5t53.5 -145.5q0 -83 -41.5 -130t-114.5 -47q-79 0 -120.5 34.5t-41.5 96.5q0 46 21 68t69 22q46 0 68.5 -20.5t22.5 -66.5q0 -64 -63 -76q21 -7 50 -7q41 0 62.5 31t21.5 91
q0 77 -35 110t-117 33q-98 0 -135 -49t-37 -143q0 -87 55.5 -137t153.5 -50q108 0 169.5 56.5t61.5 162.5q0 80 25 113.5t87 33.5q58 0 80.5 -31.5t22.5 -86.5v-48q0 -34 2.5 -50.5t9.5 -23t23 -6.5q22 0 30 14.5t8 46.5v42q0 62 23.5 86t74.5 24q91 0 91 -104v-15h88v-59
h-151v57q0 35 -5 49t-24 14q-16 0 -23 -6t-8.5 -19.5t-1.5 -43.5v-26q0 -118 -101 -118q-57 0 -79.5 31t-22.5 105v43q0 33 -8 47.5t-32 14.5q-18 0 -27 -8t-12.5 -27.5t-3.5 -57.5q0 -77 -34 -137.5t-101 -96t-163 -35.5q-89 0 -151 31.5zM305.5 207.5q9.5 9.5 9.5 33.5
q0 25 -9 33.5t-35 8.5q-25 0 -35 -9t-10 -33q0 -23 10.5 -33t34.5 -10q25 0 34.5 9.5z" />
    <glyph glyph-name="uni1E0C" unicode="&#x1e0c;" horiz-adv-x="624" 
d="M39 59h24q19 0 27 8.5t8 28.5v456q0 20 -8 28t-27 8h-24v59h276q137 0 203.5 -86t66.5 -240q0 -148 -68.5 -234.5t-201.5 -86.5h-276v59zM305 59q106 0 154.5 65.5t48.5 196.5q0 135 -48 201t-155 66h-127v-529h127zM226 -63h80v-82h-80v82z" />
    <glyph glyph-name="uni1E0D" unicode="&#x1e0d;" horiz-adv-x="583" 
d="M94.5 49.5q-55.5 64.5 -55.5 184.5q0 123 55.5 192t156.5 69q63 0 103 -18t66 -60v140q0 26 -7.5 36t-31.5 10h-19v59h138v-564q0 -22 7 -30.5t25 -8.5h22v-59h-119l-10 73q-29 -46 -73 -67t-104 -21q-98 0 -153.5 64.5zM377 92.5q43 47.5 43 123.5v53q0 78 -41 122
t-110 44q-78 0 -115.5 -49t-37.5 -152q0 -97 36 -143t112 -46q70 0 113 47.5zM248 -63h80v-82h-80v82z" />
    <glyph glyph-name="uni1E0E" unicode="&#x1e0e;" horiz-adv-x="624" 
d="M39 59h24q19 0 27 8.5t8 28.5v456q0 20 -8 28t-27 8h-24v59h276q137 0 203.5 -86t66.5 -240q0 -148 -68.5 -234.5t-201.5 -86.5h-276v59zM305 59q106 0 154.5 65.5t48.5 196.5q0 135 -48 201t-155 66h-127v-529h127zM130 -70h280v-57h-280v57z" />
    <glyph glyph-name="uni1E0F" unicode="&#x1e0f;" horiz-adv-x="583" 
d="M94.5 49.5q-55.5 64.5 -55.5 184.5q0 123 55.5 192t156.5 69q63 0 103 -18t66 -60v140q0 26 -7.5 36t-31.5 10h-19v59h138v-564q0 -22 7 -30.5t25 -8.5h22v-59h-119l-10 73q-29 -46 -73 -67t-104 -21q-98 0 -153.5 64.5zM377 92.5q43 47.5 43 123.5v53q0 78 -41 122
t-110 44q-78 0 -115.5 -49t-37.5 -152q0 -97 36 -143t112 -46q70 0 113 47.5zM171 -70h280v-57h-280v57z" />
    <glyph glyph-name="uni1E20" unicode="&#x1e20;" horiz-adv-x="611" 
d="M197 779h280v-57h-280v57zM180.5 27.5q-70.5 42.5 -106 118.5t-35.5 174q0 154 76.5 248t229.5 94q132 0 207 -54v-90h-80v59q-47 25 -127 25q-110 0 -169.5 -74.5t-59.5 -207.5q0 -129 63 -202t174 -73q82 0 140 25v203h-146v60h225v-289q-47 -31 -100.5 -45t-120.5 -14
q-100 0 -170.5 42.5z" />
    <glyph glyph-name="uni1E21" unicode="&#x1e21;" horiz-adv-x="583" 
d="M139 604h280v-57h-280v57zM205.5 -184q-43.5 16 -79.5 48v67h72v-39q19 -17 44 -24.5t61 -7.5q61 0 89 32.5t28 94.5v83q-28 -43 -68.5 -62t-101.5 -19q-100 0 -155.5 67t-55.5 189q0 120 58 185t158 65q58 0 99 -21t71 -67l10 73h119v-53h-24q-18 0 -25 -9.5t-7 -31.5
v-389q0 -89 -51.5 -143t-137.5 -54q-60 0 -103.5 16zM379 92q41 43 41 121v51q0 77 -41 124t-111 47q-76 0 -114 -46.5t-38 -143.5q0 -102 37 -149t116 -47q69 0 110 43z" />
    <glyph glyph-name="uni1E24" unicode="&#x1e24;" horiz-adv-x="679" 
d="M39 59h32q19 0 27 8.5t8 28.5v456q0 20 -8 28t-27 8h-32v59h212v-59h-30q-19 0 -27 -8t-8 -28v-198h307v198q0 20 -8 28t-27 8h-31v59h213v-59h-31q-19 0 -27.5 -8t-8.5 -28v-456q0 -20 8 -28.5t28 -8.5h31v-59h-213v59h31q19 0 27 8.5t8 28.5v199h-307v-199
q0 -20 8 -28.5t27 -8.5h30v-59h-212v59zM299 -63h80v-82h-80v82z" />
    <glyph glyph-name="uni1E25" unicode="&#x1e25;" horiz-adv-x="601" 
d="M39 59h32q19 0 27 8.5t8 28.5v471q0 20 -8 28t-27 8h-32v59h142v-237q35 37 75 53.5t97 16.5q75 0 114.5 -43t39.5 -122v-234q0 -20 8 -28.5t27 -8.5h32v-59h-148v329q0 56 -24.5 81t-76.5 25q-59 0 -99 -33.5t-40 -92.5v-213q0 -20 7.5 -28.5t26.5 -8.5h33v-59h-214v59z
M273 -63h80v-82h-80v82z" />
    <glyph glyph-name="uni1E2A" unicode="&#x1e2a;" horiz-adv-x="679" 
d="M39 59h32q19 0 27 8.5t8 28.5v456q0 20 -8 28t-27 8h-32v59h212v-59h-30q-19 0 -27 -8t-8 -28v-198h307v198q0 20 -8 28t-27 8h-31v59h213v-59h-31q-19 0 -27.5 -8t-8.5 -28v-456q0 -20 8 -28.5t28 -8.5h31v-59h-213v59h31q19 0 27 8.5t8 28.5v199h-307v-199
q0 -20 8 -28.5t27 -8.5h30v-59h-212v59zM231.5 -149q-41.5 37 -41.5 100h65q0 -39 23 -60t62 -21q40 0 62 21t22 60h65q0 -62 -41 -99.5t-108 -37.5t-108.5 37z" />
    <glyph glyph-name="uni1E2B" unicode="&#x1e2b;" horiz-adv-x="601" 
d="M39 59h32q19 0 27 8.5t8 28.5v471q0 20 -8 28t-27 8h-32v59h142v-237q35 37 75 53.5t97 16.5q75 0 114.5 -43t39.5 -122v-234q0 -20 8 -28.5t27 -8.5h32v-59h-148v329q0 56 -24.5 81t-76.5 25q-59 0 -99 -33.5t-40 -92.5v-213q0 -20 7.5 -28.5t26.5 -8.5h33v-59h-214v59z
M216.5 -149q-41.5 37 -41.5 100h65q0 -39 23 -60t62 -21q40 0 62 21t22 60h65q0 -62 -41 -99.5t-108 -37.5t-108.5 37z" />
    <glyph glyph-name="uni1E36" unicode="&#x1e36;" horiz-adv-x="506" 
d="M39 59h21q22 0 30 8.5t8 28.5v456q0 20 -8 28t-27 8h-24v59h198v-59h-24q-19 0 -27 -8t-8 -28v-493h210q20 0 28.5 8t8.5 28v26h72v-121h-458v59zM219 -63h80v-82h-80v82z" />
    <glyph glyph-name="uni1E37" unicode="&#x1e37;" horiz-adv-x="288" 
d="M39 59h32q19 0 27 8.5t8 28.5v471q0 20 -8 28t-27 8h-32v59h147v-566q0 -20 8 -28.5t27 -8.5h32v-59h-214v59zM106 -63h80v-82h-80v82z" />
    <glyph glyph-name="uni1E38" unicode="&#x1e38;" horiz-adv-x="506" 
d="M20 776h280v-57h-280v57zM39 59h21q22 0 30 8.5t8 28.5v456q0 20 -8 28t-27 8h-24v59h198v-59h-24q-19 0 -27 -8t-8 -28v-493h210q20 0 28.5 8t8.5 28v26h72v-121h-458v59zM215 -63h80v-82h-80v82z" />
    <glyph glyph-name="uni1E39" unicode="&#x1e39;" horiz-adv-x="288" 
d="M-5 771h280v-57h-280v57zM39 59h32q19 0 27 8.5t8 28.5v471q0 20 -8 28t-27 8h-32v59h147v-566q0 -20 8 -28.5t27 -8.5h32v-59h-214v59zM106 -63h80v-82h-80v82z" />
    <glyph glyph-name="uni1E3A" unicode="&#x1e3a;" horiz-adv-x="506" 
d="M39 59h21q22 0 30 8.5t8 28.5v456q0 20 -8 28t-27 8h-24v59h198v-59h-24q-19 0 -27 -8t-8 -28v-493h210q20 0 28.5 8t8.5 28v26h72v-121h-458v59zM121 -70h280v-57h-280v57z" />
    <glyph glyph-name="uni1E3B" unicode="&#x1e3b;" horiz-adv-x="288" 
d="M39 59h32q19 0 27 8.5t8 28.5v471q0 20 -8 28t-27 8h-32v59h147v-566q0 -20 8 -28.5t27 -8.5h32v-59h-214v59zM4 -70h280v-57h-280v57z" />
    <glyph glyph-name="uni1E42" unicode="&#x1e42;" horiz-adv-x="775" 
d="M39 59h32q19 0 27 8.5t8 28.5v455q0 20 -8 28.5t-27 8.5h-32v59h158l191 -447l190 447h158v-59h-32q-19 0 -27 -8.5t-8 -28.5v-455q0 -20 8 -28.5t27 -8.5h32v-59h-214v59h33q19 0 27 8.5t8 27.5v423l-170 -399h-65l-170 399v-423q0 -19 8 -27.5t27 -8.5h33v-59h-214v59z
M348 -63h80v-82h-80v82z" />
    <glyph glyph-name="uni1E43" unicode="&#x1e43;" horiz-adv-x="851" 
d="M39 59h32q19 0 27 8.5t8 28.5v289q0 20 -8 28t-27 8h-32v59h121l7 -68q26 42 64 62.5t96 20.5q46 0 76 -21.5t44 -61.5q24 42 61.5 62.5t95.5 20.5q80 0 115.5 -40.5t35.5 -121.5v-237q0 -20 8 -28.5t27 -8.5h32v-59h-147v333q0 56 -21 79t-72 23q-52 0 -83 -30t-31 -86
v-223q0 -21 7.5 -29t26.5 -8h31v-59h-140v329q0 54 -20.5 80t-67.5 26q-56 0 -88 -32.5t-32 -93.5v-213q0 -20 7.5 -28.5t26.5 -8.5h31v-59h-211v59zM396 -63h80v-82h-80v82z" />
    <glyph glyph-name="uni1E44" unicode="&#x1e44;" horiz-adv-x="688" 
d="M305 803h80v-82h-80v82zM39 59h32q19 0 27 8t8 28v457q0 20 -8 28t-27 8h-32v59h133l331 -513v418q0 20 -8 28t-28 8h-32v59h214v-59h-32q-19 0 -27 -8t-8 -28v-552h-66l-331 512v-417q0 -19 8.5 -27.5t27.5 -8.5h32v-59h-214v59z" />
    <glyph glyph-name="uni1E45" unicode="&#x1e45;" horiz-adv-x="603" 
d="M273 628h80v-82h-80v82zM39 59h32q19 0 27 8.5t8 28.5v288q0 20 -8 28.5t-27 8.5h-32v59h123l6 -68q34 44 77 63.5t105 19.5q79 0 118 -42.5t39 -122.5v-234q0 -20 8 -28.5t27 -8.5h32v-59h-148v329q0 56 -23.5 81t-77.5 25q-59 0 -99 -33.5t-40 -92.5v-213
q0 -20 7.5 -28.5t26.5 -8.5h33v-59h-214v59z" />
    <glyph glyph-name="uni1E46" unicode="&#x1e46;" horiz-adv-x="688" 
d="M39 59h32q19 0 27 8t8 28v457q0 20 -8 28t-27 8h-32v59h133l331 -513v418q0 20 -8 28t-28 8h-32v59h214v-59h-32q-19 0 -27 -8t-8 -28v-552h-66l-331 512v-417q0 -19 8.5 -27.5t27.5 -8.5h32v-59h-214v59zM312 -63h80v-82h-80v82z" />
    <glyph glyph-name="uni1E47" unicode="&#x1e47;" horiz-adv-x="603" 
d="M39 59h32q19 0 27 8.5t8 28.5v288q0 20 -8 28.5t-27 8.5h-32v59h123l6 -68q34 44 77 63.5t105 19.5q79 0 118 -42.5t39 -122.5v-234q0 -20 8 -28.5t27 -8.5h32v-59h-148v329q0 56 -23.5 81t-77.5 25q-59 0 -99 -33.5t-40 -92.5v-213q0 -20 7.5 -28.5t26.5 -8.5h33v-59
h-214v59zM275 -63h80v-82h-80v82z" />
    <glyph glyph-name="uni1E48" unicode="&#x1e48;" horiz-adv-x="688" 
d="M39 59h32q19 0 27 8t8 28v457q0 20 -8 28t-27 8h-32v59h133l331 -513v418q0 20 -8 28t-28 8h-32v59h214v-59h-32q-19 0 -27 -8t-8 -28v-552h-66l-331 512v-417q0 -19 8.5 -27.5t27.5 -8.5h32v-59h-214v59zM201 -70h280v-57h-280v57z" />
    <glyph glyph-name="uni1E49" unicode="&#x1e49;" horiz-adv-x="603" 
d="M39 59h32q19 0 27 8.5t8 28.5v288q0 20 -8 28.5t-27 8.5h-32v59h123l6 -68q34 44 77 63.5t105 19.5q79 0 118 -42.5t39 -122.5v-234q0 -20 8 -28.5t27 -8.5h32v-59h-148v329q0 56 -23.5 81t-77.5 25q-59 0 -99 -33.5t-40 -92.5v-213q0 -20 7.5 -28.5t26.5 -8.5h33v-59
h-214v59zM162 -70h280v-57h-280v57z" />
    <glyph glyph-name="uni1E5A" unicode="&#x1e5a;" horiz-adv-x="615" 
d="M39 59h29q22 0 30 8.5t8 27.5v457q0 19 -8 27.5t-30 8.5h-29v59h316q96 0 149.5 -48.5t53.5 -135.5q0 -77 -44.5 -127t-124.5 -59l98 -185q9 -18 23 -25.5t35 -7.5h31v-59h-204v59h53l-113 213h-126v-178q0 -19 7.5 -27t28.5 -8h31v-59h-214v59zM343 331q68 0 103 34.5
t35 97.5q0 66 -33 95.5t-105 29.5h-157v-257h157zM270 -63h80v-82h-80v82z" />
    <glyph glyph-name="uni1E5B" unicode="&#x1e5b;" horiz-adv-x="376" 
d="M37 59h32q19 0 27 8.5t8 28.5v289q0 20 -7.5 28t-26.5 8h-33v59h123l16 -58q20 33 51.5 45.5t79.5 12.5h40v-59h-44q-64 0 -91.5 -28.5t-27.5 -88.5v-208q0 -20 8 -28.5t27 -8.5h32v-59h-214v59zM105 -63h80v-82h-80v82z" />
    <glyph glyph-name="uni1E5C" unicode="&#x1e5c;" horiz-adv-x="615" 
d="M157 779h280v-57h-280v57zM39 59h29q22 0 30 8.5t8 27.5v457q0 19 -8 27.5t-30 8.5h-29v59h316q96 0 149.5 -48.5t53.5 -135.5q0 -77 -44.5 -127t-124.5 -59l98 -185q9 -18 23 -25.5t35 -7.5h31v-59h-204v59h53l-113 213h-126v-178q0 -19 7.5 -27t28.5 -8h31v-59h-214v59
zM343 331q68 0 103 34.5t35 97.5q0 66 -33 95.5t-105 29.5h-157v-257h157zM266 -63h80v-82h-80v82z" />
    <glyph glyph-name="uni1E5D" unicode="&#x1e5d;" horiz-adv-x="376" 
d="M44 604h280v-57h-280v57zM37 59h32q19 0 27 8.5t8 28.5v289q0 20 -7.5 28t-26.5 8h-33v59h123l16 -58q20 33 51.5 45.5t79.5 12.5h40v-59h-44q-64 0 -91.5 -28.5t-27.5 -88.5v-208q0 -20 8 -28.5t27 -8.5h32v-59h-214v59zM106 -63h80v-82h-80v82z" />
    <glyph glyph-name="uni1E5E" unicode="&#x1e5e;" horiz-adv-x="615" 
d="M39 59h29q22 0 30 8.5t8 27.5v457q0 19 -8 27.5t-30 8.5h-29v59h316q96 0 149.5 -48.5t53.5 -135.5q0 -77 -44.5 -127t-124.5 -59l98 -185q9 -18 23 -25.5t35 -7.5h31v-59h-204v59h53l-113 213h-126v-178q0 -19 7.5 -27t28.5 -8h31v-59h-214v59zM343 331q68 0 103 34.5
t35 97.5q0 66 -33 95.5t-105 29.5h-157v-257h157zM173 -70h280v-57h-280v57z" />
    <glyph glyph-name="uni1E5F" unicode="&#x1e5f;" horiz-adv-x="376" 
d="M37 59h32q19 0 27 8.5t8 28.5v289q0 20 -7.5 28t-26.5 8h-33v59h123l16 -58q20 33 51.5 45.5t79.5 12.5h40v-59h-44q-64 0 -91.5 -28.5t-27.5 -88.5v-208q0 -20 8 -28.5t27 -8.5h32v-59h-214v59zM18 -70h280v-57h-280v57z" />
    <glyph glyph-name="uni1E60" unicode="&#x1e60;" horiz-adv-x="527" 
d="M228 803h80v-82h-80v82zM144 4q-62 19 -105 51v89h81v-61q27 -17 69 -27.5t84 -10.5q68 0 103 28.5t35 81.5q0 52 -35.5 81t-115.5 59q-76 29 -121 54t-69.5 60t-24.5 85q0 83 61.5 125.5t159.5 42.5q61 0 116.5 -17.5t92.5 -44.5v-87h-81v60q-23 14 -58 21.5t-73 7.5
q-65 0 -103 -26t-38 -81q0 -37 22 -61.5t50.5 -38t91.5 -38.5q71 -28 111.5 -51t65.5 -58.5t25 -90.5q0 -76 -57.5 -124t-160.5 -48q-64 0 -126 19z" />
    <glyph glyph-name="uni1E61" unicode="&#x1e61;" horiz-adv-x="453" 
d="M185 628h80v-82h-80v82zM39 40v74h75v-43q45 -26 117 -26q54 0 80 16t26 53q0 23 -12.5 38.5t-36.5 27.5t-74 32q-65 25 -97.5 42t-52.5 43.5t-20 68.5q0 63 48.5 96t132.5 33q52 0 98 -14t80 -38v-73h-75v42q-38 23 -99 23q-54 0 -81 -15.5t-27 -53.5q0 -24 13 -39.5
t32.5 -24.5t54.5 -22q30 -11 35 -13q56 -22 85.5 -37.5t51 -43.5t21.5 -72q0 -63 -45.5 -96t-137.5 -33q-114 0 -192 55z" />
    <glyph glyph-name="uni1E62" unicode="&#x1e62;" horiz-adv-x="527" 
d="M144 4q-62 19 -105 51v89h81v-61q27 -17 69 -27.5t84 -10.5q68 0 103 28.5t35 81.5q0 52 -35.5 81t-115.5 59q-76 29 -121 54t-69.5 60t-24.5 85q0 83 61.5 125.5t159.5 42.5q61 0 116.5 -17.5t92.5 -44.5v-87h-81v60q-23 14 -58 21.5t-73 7.5q-65 0 -103 -26t-38 -81
q0 -37 22 -61.5t50.5 -38t91.5 -38.5q71 -28 111.5 -51t65.5 -58.5t25 -90.5q0 -76 -57.5 -124t-160.5 -48q-64 0 -126 19zM233 -63h80v-82h-80v82z" />
    <glyph glyph-name="uni1E63" unicode="&#x1e63;" horiz-adv-x="453" 
d="M39 40v74h75v-43q45 -26 117 -26q54 0 80 16t26 53q0 23 -12.5 38.5t-36.5 27.5t-74 32q-65 25 -97.5 42t-52.5 43.5t-20 68.5q0 63 48.5 96t132.5 33q52 0 98 -14t80 -38v-73h-75v42q-38 23 -99 23q-54 0 -81 -15.5t-27 -53.5q0 -24 13 -39.5t32.5 -24.5t54.5 -22
q30 -11 35 -13q56 -22 85.5 -37.5t51 -43.5t21.5 -72q0 -63 -45.5 -96t-137.5 -33q-114 0 -192 55zM194 -63h80v-82h-80v82z" />
    <glyph glyph-name="uni1E6C" unicode="&#x1e6c;" horiz-adv-x="548" 
d="M167 59h29q22 0 30 8.5t8 27.5v493h-105q-20 0 -28.5 -8t-8.5 -27v-29h-63v122h490v-122h-64v29q0 19 -8 27t-29 8h-104v-493q0 -19 8 -27.5t30 -8.5h29v-59h-214v59zM234 -63h80v-82h-80v82z" />
    <glyph glyph-name="uni1E6D" unicode="&#x1e6d;" horiz-adv-x="417" 
d="M147 25q-38 40 -38 116v280h-80v59h80v112l80 30v-142h150v-59h-150v-284q0 -49 17.5 -70.5t55.5 -21.5q26 0 43 4t31 15v43h72v-68q-31 -27 -66 -40.5t-85 -13.5q-72 0 -110 40zM219 -63h80v-82h-80v82z" />
    <glyph glyph-name="uni1E6E" unicode="&#x1e6e;" horiz-adv-x="548" 
d="M167 59h29q22 0 30 8.5t8 27.5v493h-105q-20 0 -28.5 -8t-8.5 -27v-29h-63v122h490v-122h-64v29q0 19 -8 27t-29 8h-104v-493q0 -19 8 -27.5t30 -8.5h29v-59h-214v59zM129 -70h280v-57h-280v57z" />
    <glyph glyph-name="uni1E6F" unicode="&#x1e6f;" horiz-adv-x="420" 
d="M147 25q-38 40 -38 116v280h-80v59h80v112l80 30v-142h150v-59h-150v-284q0 -49 17.5 -70.5t55.5 -21.5q26 0 43 4t31 15v43h72v-68q-31 -27 -66 -40.5t-85 -13.5q-72 0 -110 40zM115 -70h280v-57h-280v57z" />
    <glyph glyph-name="Wgrave" unicode="&#x1e80;" horiz-adv-x="879" 
d="M283 880h102l83 -179h-70zM118 549q-5 22 -16 30.5t-37 8.5h-26v59h135l109 -512l121 403h70l122 -403l110 512h134v-59h-27q-26 0 -37 -8.5t-16 -30.5l-124 -549h-67l-130 418l-128 -418h-68z" />
    <glyph glyph-name="wgrave" unicode="&#x1e81;" horiz-adv-x="771" 
d="M238 706h102l83 -179h-70zM97 399q-3 13 -10 17.5t-24 4.5h-34v59h120l93 -399l111 356h64l110 -356l96 399h119v-59h-34q-17 0 -24 -4.5t-10 -17.5l-96 -399h-87l-105 336l-106 -336h-87z" />
    <glyph glyph-name="Wacute" unicode="&#x1e82;" horiz-adv-x="879" 
d="M495 880h102l-115 -179h-70zM118 549q-5 22 -16 30.5t-37 8.5h-26v59h135l109 -512l121 403h70l122 -403l110 512h134v-59h-27q-26 0 -37 -8.5t-16 -30.5l-124 -549h-67l-130 418l-128 -418h-68z" />
    <glyph glyph-name="wacute" unicode="&#x1e83;" horiz-adv-x="771" 
d="M433 706h102l-115 -179h-70zM97 399q-3 13 -10 17.5t-24 4.5h-34v59h120l93 -399l111 356h64l110 -356l96 399h119v-59h-34q-17 0 -24 -4.5t-10 -17.5l-96 -399h-87l-105 336l-106 -336h-87z" />
    <glyph glyph-name="Wdieresis" unicode="&#x1e84;" horiz-adv-x="879" 
d="M299 801h80v-82h-80v82zM500 801h80v-82h-80v82zM118 549q-5 22 -16 30.5t-37 8.5h-26v59h135l109 -512l121 403h70l122 -403l110 512h134v-59h-27q-26 0 -37 -8.5t-16 -30.5l-124 -549h-67l-130 418l-128 -418h-68z" />
    <glyph glyph-name="wdieresis" unicode="&#x1e85;" horiz-adv-x="771" 
d="M245 628h80v-82h-80v82zM446 628h80v-82h-80v82zM97 399q-3 13 -10 17.5t-24 4.5h-34v59h120l93 -399l111 356h64l110 -356l96 399h119v-59h-34q-17 0 -24 -4.5t-10 -17.5l-96 -399h-87l-105 336l-106 -336h-87z" />
    <glyph glyph-name="uni1E8E" unicode="&#x1e8e;" horiz-adv-x="665" 
d="M293 781h80v-82h-80v82zM234 59h24q19 0 27 8.5t8 28.5v139l-172 316q-11 21 -24 29t-34 8h-24v59h194v-59h-19q-22 0 -22 -13q0 -8 8 -22l133 -251l132 251q8 14 8 22q0 13 -22 13h-20v59h195v-59h-24q-22 0 -35 -8t-24 -29l-171 -316v-139q0 -20 8 -28.5t28 -8.5h24
v-59h-198v59z" />
    <glyph glyph-name="uni1E8F" unicode="&#x1e8f;" horiz-adv-x="557" 
d="M238 628h80v-82h-80v82zM201.5 -182.5q-44.5 17.5 -78.5 50.5v68h72v-39q18 -21 44.5 -29t63.5 -8q118 0 118 129v80q-30 -34 -65.5 -49t-88.5 -15q-82 0 -126.5 43.5t-44.5 123.5v213q0 19 -8 27.5t-27 8.5h-32v59h148v-309q0 -54 27 -80t81 -26q60 0 96 33t36 97v190
q0 20 -7.5 28t-26.5 8h-33v59h147v-478q0 -93 -50 -147.5t-140 -54.5q-61 0 -105.5 17.5z" />
    <glyph glyph-name="uni1E92" unicode="&#x1e92;" horiz-adv-x="558" 
d="M39 54l378 534h-255q-20 0 -28.5 -8t-8.5 -27v-21h-72v115h453v-54l-376 -534h280q20 0 28.5 8t8.5 28v20h72v-115h-480v54zM238 -63h80v-82h-80v82z" />
    <glyph glyph-name="uni1E93" unicode="&#x1e93;" horiz-adv-x="490" 
d="M39 54l309 367h-186q-20 0 -28.5 -7.5t-8.5 -26.5v-22h-72v115h388v-51l-309 -370h210q20 0 28.5 8t8.5 26v22h72v-115h-412v54zM201 -63h80v-82h-80v82z" />
    <glyph glyph-name="uni1E97" unicode="&#x1e97;" horiz-adv-x="419" 
d="M32 731h80v-82h-80v82zM233 731h80v-82h-80v82zM149 25q-38 40 -38 116v280h-80v59h80v112l80 30v-142h150v-59h-150v-284q0 -49 17.5 -70.5t55.5 -21.5q26 0 43 4t31 15v43h72v-68q-31 -27 -66 -40.5t-85 -13.5q-72 0 -110 40z" />
    <glyph glyph-name="uni1E9E" unicode="&#x1e9e;" horiz-adv-x="659" 
d="M273 20l28 53q30 -16 58 -22t61 -6q61 0 92 36.5t31 99.5q0 73 -30.5 102.5t-98.5 29.5h-89v46l153 187q0 20 -17 39.5t-49 32t-76 12.5q-88 0 -128 -44t-40 -132v-454h-139v59h24q19 0 27 8t8 28v362q0 106 60 169.5t190 63.5q70 0 120 -22t75.5 -58.5t25.5 -79.5
l-132 -159q102 -2 147.5 -48.5t45.5 -141.5q0 -87 -50 -141.5t-147 -54.5q-90 0 -150 35z" />
    <glyph glyph-name="uni1EA0" unicode="&#x1ea0;" horiz-adv-x="721" 
d="M39 59h33q21 0 34 8t20 28l198 552h75l196 -552q7 -20 20 -28t35 -8h32v-59h-207v59h54l-51 146h-234l-52 -146h54v-59h-207v59zM460 259l-99 281l-99 -281h198zM321 -63h80v-82h-80v82z" />
    <glyph glyph-name="uni1EA1" unicode="&#x1ea1;" horiz-adv-x="520" 
d="M69.5 19.5q-40.5 34.5 -40.5 98.5q0 70 44 102.5t125 38.5l157 11v62q0 55 -22.5 79t-79.5 24q-38 0 -62 -5t-48 -17v-38h-73v70q80 50 183 50q182 0 182 -168v-229q0 -21 7.5 -30t24.5 -9h24v-59h-105l-12 62q-30 -40 -74.5 -58.5t-112.5 -18.5q-77 0 -117.5 34.5z
M314 74.5q41 29.5 41 88.5v53l-154 -11q-55 -4 -75 -23t-20 -63q0 -37 22.5 -55.5t76.5 -18.5q68 0 109 29.5zM203 -63h80v-82h-80v82z" />
    <glyph glyph-name="uni1EA2" unicode="&#x1ea2;" horiz-adv-x="721" 
d="M329 766q37 0 52 12t15 35q0 21 -13 29t-44 8q-23 0 -49 -8v50q30 10 64 10q52 0 80 -19.5t28 -63.5q0 -62 -68 -79v-39h-65v65zM39 59h33q21 0 34 8t20 28l198 552h75l196 -552q7 -20 20 -28t35 -8h32v-59h-207v59h54l-51 146h-234l-52 -146h54v-59h-207v59zM460 259
l-99 281l-99 -281h198z" />
    <glyph glyph-name="uni1EA3" unicode="&#x1ea3;" horiz-adv-x="520" 
d="M217 592q37 0 52 12t15 35q0 21 -13 29t-44 8q-23 0 -49 -8v50q30 10 64 10q52 0 80 -19.5t28 -63.5q0 -62 -68 -79v-39h-65v65zM69.5 19.5q-40.5 34.5 -40.5 98.5q0 70 44 102.5t125 38.5l157 11v62q0 55 -22.5 79t-79.5 24q-38 0 -62 -5t-48 -17v-38h-73v70
q80 50 183 50q182 0 182 -168v-229q0 -21 7.5 -30t24.5 -9h24v-59h-105l-12 62q-30 -40 -74.5 -58.5t-112.5 -18.5q-77 0 -117.5 34.5zM314 74.5q41 29.5 41 88.5v53l-154 -11q-55 -4 -75 -23t-20 -63q0 -37 22.5 -55.5t76.5 -18.5q68 0 109 29.5z" />
    <glyph glyph-name="uni1EA4" unicode="&#x1ea4;" horiz-adv-x="721" 
d="M519 931h96l-96 -121h-63zM320 834h84l104 -131h-77l-69 92l-70 -92h-76zM39 59h33q21 0 34 8t20 28l198 552h75l196 -552q7 -20 20 -28t35 -8h32v-59h-207v59h54l-51 146h-234l-52 -146h54v-59h-207v59zM460 259l-99 281l-99 -281h198z" />
    <glyph glyph-name="uni1EA5" unicode="&#x1ea5;" horiz-adv-x="520" 
d="M402 755h96l-96 -121h-63zM203 658h84l104 -131h-77l-69 92l-70 -92h-76zM69.5 19.5q-40.5 34.5 -40.5 98.5q0 70 44 102.5t125 38.5l157 11v62q0 55 -22.5 79t-79.5 24q-38 0 -62 -5t-48 -17v-38h-73v70q80 50 183 50q182 0 182 -168v-229q0 -21 7.5 -30t24.5 -9h24v-59
h-105l-12 62q-30 -40 -74.5 -58.5t-112.5 -18.5q-77 0 -117.5 34.5zM314 74.5q41 29.5 41 88.5v53l-154 -11q-55 -4 -75 -23t-20 -63q0 -37 22.5 -55.5t76.5 -18.5q68 0 109 29.5z" />
    <glyph glyph-name="uni1EA6" unicode="&#x1ea6;" horiz-adv-x="721" 
d="M107 931h96l63 -121h-63zM318 834h85l103 -131h-75l-70 92l-70 -92h-76zM39 59h33q21 0 34 8t20 28l198 552h75l196 -552q7 -20 20 -28t35 -8h32v-59h-207v59h54l-51 146h-234l-52 -146h54v-59h-207v59zM460 259l-99 281l-99 -281h198z" />
    <glyph glyph-name="uni1EA7" unicode="&#x1ea7;" horiz-adv-x="520" 
d="M-4 755h96l63 -121h-63zM207 658h85l103 -131h-75l-70 92l-70 -92h-76zM69.5 19.5q-40.5 34.5 -40.5 98.5q0 70 44 102.5t125 38.5l157 11v62q0 55 -22.5 79t-79.5 24q-38 0 -62 -5t-48 -17v-38h-73v70q80 50 183 50q182 0 182 -168v-229q0 -21 7.5 -30t24.5 -9h24v-59
h-105l-12 62q-30 -40 -74.5 -58.5t-112.5 -18.5q-77 0 -117.5 34.5zM314 74.5q41 29.5 41 88.5v53l-154 -11q-55 -4 -75 -23t-20 -63q0 -37 22.5 -55.5t76.5 -18.5q68 0 109 29.5z" />
    <glyph glyph-name="uni1EA8" unicode="&#x1ea8;" horiz-adv-x="721" 
d="M435 871q38 0 51 7.5t13 28.5q0 28 -37 28q-20 0 -44 -8v46q23 9 58 9q41 0 61 -18.5t20 -52.5q0 -29 -15.5 -45t-49.5 -21v-23h-57v49zM319 833h85l103 -131h-76l-70 92l-69 -92h-76zM39 59h33q21 0 34 8t20 28l198 552h75l196 -552q7 -20 20 -28t35 -8h32v-59h-207v59
h54l-51 146h-234l-52 -146h54v-59h-207v59zM460 259l-99 281l-99 -281h198z" />
    <glyph glyph-name="uni1EA9" unicode="&#x1ea9;" horiz-adv-x="520" 
d="M325 696q38 0 51 7.5t13 28.5q0 28 -37 28q-20 0 -44 -8v46q23 9 58 9q41 0 61 -18.5t20 -52.5q0 -29 -15.5 -45t-49.5 -21v-23h-57v49zM209 658h85l103 -131h-76l-70 92l-69 -92h-76zM69.5 19.5q-40.5 34.5 -40.5 98.5q0 70 44 102.5t125 38.5l157 11v62q0 55 -22.5 79
t-79.5 24q-38 0 -62 -5t-48 -17v-38h-73v70q80 50 183 50q182 0 182 -168v-229q0 -21 7.5 -30t24.5 -9h24v-59h-105l-12 62q-30 -40 -74.5 -58.5t-112.5 -18.5q-77 0 -117.5 34.5zM314 74.5q41 29.5 41 88.5v53l-154 -11q-55 -4 -75 -23t-20 -63q0 -37 22.5 -55.5
t76.5 -18.5q68 0 109 29.5z" />
    <glyph glyph-name="uni1EAA" unicode="&#x1eaa;" horiz-adv-x="721" 
d="M392.5 860q-17.5 7 -39.5 19q-20 10 -31.5 15t-23.5 5q-17 0 -23.5 -11t-6.5 -34h-53q0 53 19.5 75t60.5 22q19 0 35.5 -6.5t39.5 -19.5q14 -8 28 -14t25 -6q17 0 24 11t7 34h53q0 -52 -19.5 -74.5t-59.5 -22.5q-18 0 -35.5 7zM318 833h85l103 -131h-76l-70 92l-69 -92
h-76zM39 59h33q21 0 34 8t20 28l198 552h75l196 -552q7 -20 20 -28t35 -8h32v-59h-207v59h54l-51 146h-234l-52 -146h54v-59h-207v59zM460 259l-99 281l-99 -281h198z" />
    <glyph glyph-name="uni1EAB" unicode="&#x1eab;" horiz-adv-x="520" 
d="M284.5 685q-17.5 7 -39.5 19q-20 10 -31.5 15t-23.5 5q-17 0 -23.5 -11t-6.5 -34h-53q0 53 19.5 75t60.5 22q19 0 35.5 -6.5t39.5 -19.5q14 -8 28 -14t25 -6q17 0 24 11t7 34h53q0 -52 -19.5 -74.5t-59.5 -22.5q-18 0 -35.5 7zM210 658h85l103 -131h-76l-70 92l-69 -92
h-76zM69.5 19.5q-40.5 34.5 -40.5 98.5q0 70 44 102.5t125 38.5l157 11v62q0 55 -22.5 79t-79.5 24q-38 0 -62 -5t-48 -17v-38h-73v70q80 50 183 50q182 0 182 -168v-229q0 -21 7.5 -30t24.5 -9h24v-59h-105l-12 62q-30 -40 -74.5 -58.5t-112.5 -18.5q-77 0 -117.5 34.5z
M314 74.5q41 29.5 41 88.5v53l-154 -11q-55 -4 -75 -23t-20 -63q0 -37 22.5 -55.5t76.5 -18.5q68 0 109 29.5z" />
    <glyph glyph-name="uni1EAC" unicode="&#x1eac;" horiz-adv-x="721" 
d="M318 885h86l120 -183h-79l-84 132l-84 -132h-79zM39 59h33q21 0 34 8t20 28l198 552h75l196 -552q7 -20 20 -28t35 -8h32v-59h-207v59h54l-51 146h-234l-52 -146h54v-59h-207v59zM460 259l-99 281l-99 -281h198zM321 -63h80v-82h-80v82z" />
    <glyph glyph-name="uni1EAD" unicode="&#x1ead;" horiz-adv-x="520" 
d="M204 710h86l120 -183h-79l-84 132l-84 -132h-79zM69.5 19.5q-40.5 34.5 -40.5 98.5q0 70 44 102.5t125 38.5l157 11v62q0 55 -22.5 79t-79.5 24q-38 0 -62 -5t-48 -17v-38h-73v70q80 50 183 50q182 0 182 -168v-229q0 -21 7.5 -30t24.5 -9h24v-59h-105l-12 62
q-30 -40 -74.5 -58.5t-112.5 -18.5q-77 0 -117.5 34.5zM314 74.5q41 29.5 41 88.5v53l-154 -11q-55 -4 -75 -23t-20 -63q0 -37 22.5 -55.5t76.5 -18.5q68 0 109 29.5zM207 -63h80v-82h-80v82z" />
    <glyph glyph-name="uni1EAE" unicode="&#x1eae;" horiz-adv-x="721" 
d="M386 985h95l-104 -146h-61zM252 739q-43 38 -43 102h59q0 -41 25 -63.5t68 -22.5q44 0 68.5 22.5t24.5 63.5h59q0 -64 -43 -102t-109 -38t-109 38zM39 59h33q21 0 34 8t20 28l198 552h75l196 -552q7 -20 20 -28t35 -8h32v-59h-207v59h54l-51 146h-234l-52 -146h54v-59
h-207v59zM460 259l-99 281l-99 -281h198z" />
    <glyph glyph-name="uni1EAF" unicode="&#x1eaf;" horiz-adv-x="520" 
d="M281 811h95l-104 -146h-61zM147 565q-43 38 -43 102h59q0 -41 25 -63.5t68 -22.5q44 0 68.5 22.5t24.5 63.5h59q0 -64 -43 -102t-109 -38t-109 38zM69.5 19.5q-40.5 34.5 -40.5 98.5q0 70 44 102.5t125 38.5l157 11v62q0 55 -22.5 79t-79.5 24q-38 0 -62 -5t-48 -17v-38
h-73v70q80 50 183 50q182 0 182 -168v-229q0 -21 7.5 -30t24.5 -9h24v-59h-105l-12 62q-30 -40 -74.5 -58.5t-112.5 -18.5q-77 0 -117.5 34.5zM314 74.5q41 29.5 41 88.5v53l-154 -11q-55 -4 -75 -23t-20 -63q0 -37 22.5 -55.5t76.5 -18.5q68 0 109 29.5z" />
    <glyph glyph-name="uni1EB0" unicode="&#x1eb0;" horiz-adv-x="721" 
d="M245 985h94l71 -146h-61zM253 739q-43 38 -43 102h59q0 -41 24.5 -63.5t68.5 -22.5q43 0 68 22.5t25 63.5h59q0 -64 -43 -102t-109 -38t-109 38zM39 59h33q21 0 34 8t20 28l198 552h75l196 -552q7 -20 20 -28t35 -8h32v-59h-207v59h54l-51 146h-234l-52 -146h54v-59h-207
v59zM460 259l-99 281l-99 -281h198z" />
    <glyph glyph-name="uni1EB1" unicode="&#x1eb1;" horiz-adv-x="520" 
d="M128 811h94l71 -146h-61zM136 565q-43 38 -43 102h59q0 -41 24.5 -63.5t68.5 -22.5q43 0 68 22.5t25 63.5h59q0 -64 -43 -102t-109 -38t-109 38zM69.5 19.5q-40.5 34.5 -40.5 98.5q0 70 44 102.5t125 38.5l157 11v62q0 55 -22.5 79t-79.5 24q-38 0 -62 -5t-48 -17v-38
h-73v70q80 50 183 50q182 0 182 -168v-229q0 -21 7.5 -30t24.5 -9h24v-59h-105l-12 62q-30 -40 -74.5 -58.5t-112.5 -18.5q-77 0 -117.5 34.5zM314 74.5q41 29.5 41 88.5v53l-154 -11q-55 -4 -75 -23t-20 -63q0 -37 22.5 -55.5t76.5 -18.5q68 0 109 29.5z" />
    <glyph glyph-name="uni1EB2" unicode="&#x1eb2;" horiz-adv-x="721" 
d="M325 880q38 0 51.5 7.5t13.5 28.5q0 28 -37 28q-21 0 -45 -8v46q25 9 59 9q40 0 60.5 -18.5t20.5 -52.5q0 -29 -15.5 -45t-49.5 -21v-23h-58v49zM253 739q-43 38 -43 102h59q0 -41 25 -63.5t68 -22.5q44 0 68.5 22.5t24.5 63.5h59q0 -64 -43 -102t-109 -38t-109 38z
M39 59h33q21 0 34 8t20 28l198 552h75l196 -552q7 -20 20 -28t35 -8h32v-59h-207v59h54l-51 146h-234l-52 -146h54v-59h-207v59zM460 259l-99 281l-99 -281h198z" />
    <glyph glyph-name="uni1EB3" unicode="&#x1eb3;" horiz-adv-x="520" 
d="M211 706q38 0 51.5 7.5t13.5 28.5q0 28 -37 28q-21 0 -45 -8v46q25 9 59 9q40 0 60.5 -18.5t20.5 -52.5q0 -29 -15.5 -45t-49.5 -21v-23h-58v49zM139 565q-43 38 -43 102h59q0 -41 25 -63.5t68 -22.5q44 0 68.5 22.5t24.5 63.5h59q0 -64 -43 -102t-109 -38t-109 38z
M69.5 19.5q-40.5 34.5 -40.5 98.5q0 70 44 102.5t125 38.5l157 11v62q0 55 -22.5 79t-79.5 24q-38 0 -62 -5t-48 -17v-38h-73v70q80 50 183 50q182 0 182 -168v-229q0 -21 7.5 -30t24.5 -9h24v-59h-105l-12 62q-30 -40 -74.5 -58.5t-112.5 -18.5q-77 0 -117.5 34.5z
M314 74.5q41 29.5 41 88.5v53l-154 -11q-55 -4 -75 -23t-20 -63q0 -37 22.5 -55.5t76.5 -18.5q68 0 109 29.5z" />
    <glyph glyph-name="uni1EB4" unicode="&#x1eb4;" horiz-adv-x="721" 
d="M393 884.5q-17 6.5 -39 19.5q-15 8 -29.5 14t-25.5 6q-17 0 -24 -11t-7 -34h-53q0 53 20 75t61 22q19 0 36 -7t38 -19q20 -10 31.5 -15t22.5 -5q17 0 23.5 11t6.5 34h53q0 -52 -19.5 -74.5t-59.5 -22.5q-18 0 -35 6.5zM253 739q-43 38 -43 102h59q0 -41 25 -63.5
t68 -22.5t68 22.5t25 63.5h59q0 -64 -43 -102t-109 -38t-109 38zM39 59h33q21 0 34 8t20 28l198 552h75l196 -552q7 -20 20 -28t35 -8h32v-59h-207v59h54l-51 146h-234l-52 -146h54v-59h-207v59zM460 259l-99 281l-99 -281h198z" />
    <glyph glyph-name="uni1EB5" unicode="&#x1eb5;" horiz-adv-x="520" 
d="M282 710.5q-17 6.5 -39 19.5q-15 8 -29.5 14t-25.5 6q-17 0 -24 -11t-7 -34h-53q0 53 20 75t61 22q19 0 36 -7t38 -19q20 -10 31.5 -15t22.5 -5q17 0 23.5 11t6.5 34h53q0 -52 -19.5 -74.5t-59.5 -22.5q-18 0 -35 6.5zM142 565q-43 38 -43 102h59q0 -41 25 -63.5
t68 -22.5t68 22.5t25 63.5h59q0 -64 -43 -102t-109 -38t-109 38zM69.5 19.5q-40.5 34.5 -40.5 98.5q0 70 44 102.5t125 38.5l157 11v62q0 55 -22.5 79t-79.5 24q-38 0 -62 -5t-48 -17v-38h-73v70q80 50 183 50q182 0 182 -168v-229q0 -21 7.5 -30t24.5 -9h24v-59h-105
l-12 62q-30 -40 -74.5 -58.5t-112.5 -18.5q-77 0 -117.5 34.5zM314 74.5q41 29.5 41 88.5v53l-154 -11q-55 -4 -75 -23t-20 -63q0 -37 22.5 -55.5t76.5 -18.5q68 0 109 29.5z" />
    <glyph glyph-name="uni1EB6" unicode="&#x1eb6;" horiz-adv-x="721" 
d="M252.5 738q-41.5 37 -41.5 100h65q0 -39 23 -60t62 -21q40 0 62 21t22 60h65q0 -62 -41 -99.5t-108 -37.5t-108.5 37zM39 59h33q21 0 34 8t20 28l198 552h75l196 -552q7 -20 20 -28t35 -8h32v-59h-207v59h54l-51 146h-234l-52 -146h54v-59h-207v59zM460 259l-99 281
l-99 -281h198zM321 -63h80v-82h-80v82z" />
    <glyph glyph-name="uni1EB7" unicode="&#x1eb7;" horiz-adv-x="520" 
d="M146.5 564q-41.5 37 -41.5 100h65q0 -39 23 -60t62 -21q40 0 62 21t22 60h65q0 -62 -41 -99.5t-108 -37.5t-108.5 37zM69.5 19.5q-40.5 34.5 -40.5 98.5q0 70 44 102.5t125 38.5l157 11v62q0 55 -22.5 79t-79.5 24q-38 0 -62 -5t-48 -17v-38h-73v70q80 50 183 50
q182 0 182 -168v-229q0 -21 7.5 -30t24.5 -9h24v-59h-105l-12 62q-30 -40 -74.5 -58.5t-112.5 -18.5q-77 0 -117.5 34.5zM314 74.5q41 29.5 41 88.5v53l-154 -11q-55 -4 -75 -23t-20 -63q0 -37 22.5 -55.5t76.5 -18.5q68 0 109 29.5zM210 -63h80v-82h-80v82z" />
    <glyph glyph-name="uni1EB8" unicode="&#x1eb8;" horiz-adv-x="544" 
d="M39 59h32q19 0 27 8.5t8 28.5v456q0 20 -8 28t-27 8h-32v59h466v-116h-72v22q0 19 -8.5 27t-28.5 8h-210v-234h192v-59h-192v-236h210q20 0 28.5 8t8.5 27v23h72v-117h-466v59zM238 -63h80v-82h-80v82z" />
    <glyph glyph-name="uni1EB9" unicode="&#x1eb9;" horiz-adv-x="536" 
d="M106 48.5q-67 63.5 -67 184.5q0 130 62 196t176 66q109 0 164.5 -63t55.5 -172v-45h-378q0 -89 45 -129.5t118 -40.5q45 0 73.5 6.5t51.5 20.5v31h73v-63q-42 -28 -89 -41.5t-110 -13.5q-108 0 -175 63.5zM422 270q0 83 -35.5 124t-110.5 41q-77 0 -117 -44t-40 -121h303
zM244 -63h80v-82h-80v82z" />
    <glyph glyph-name="uni1EBA" unicode="&#x1eba;" horiz-adv-x="544" 
d="M238 767q37 0 52 12t15 35q0 21 -13 29t-44 8q-23 0 -49 -8v50q30 10 64 10q52 0 80 -19.5t28 -63.5q0 -62 -68 -79v-39h-65v65zM39 59h32q19 0 27 8.5t8 28.5v456q0 20 -8 28t-27 8h-32v59h466v-116h-72v22q0 19 -8.5 27t-28.5 8h-210v-234h192v-59h-192v-236h210
q20 0 28.5 8t8.5 27v23h72v-117h-466v59z" />
    <glyph glyph-name="uni1EBB" unicode="&#x1ebb;" horiz-adv-x="536" 
d="M240 592q37 0 52 12t15 35q0 21 -13 29t-44 8q-23 0 -49 -8v50q30 10 64 10q52 0 80 -19.5t28 -63.5q0 -62 -68 -79v-39h-65v65zM106 48.5q-67 63.5 -67 184.5q0 130 62 196t176 66q109 0 164.5 -63t55.5 -172v-45h-378q0 -89 45 -129.5t118 -40.5q45 0 73.5 6.5
t51.5 20.5v31h73v-63q-42 -28 -89 -41.5t-110 -13.5q-108 0 -175 63.5zM422 270q0 83 -35.5 124t-110.5 41q-77 0 -117 -44t-40 -121h303z" />
    <glyph glyph-name="uni1EBC" unicode="&#x1ebc;" horiz-adv-x="544" 
d="M119.5 793.5q25.5 29.5 75.5 29.5q25 0 46 -8t49 -24q22 -12 37.5 -18.5t30.5 -6.5q23 0 33.5 12.5t10.5 44.5h63q0 -63 -25 -92t-75 -29q-24 0 -43.5 7.5t-46.5 22.5q-26 14 -40.5 20t-32.5 6q-23 0 -34 -12t-11 -44h-63q0 62 25.5 91.5zM39 59h32q19 0 27 8.5t8 28.5
v456q0 20 -8 28t-27 8h-32v59h466v-116h-72v22q0 19 -8.5 27t-28.5 8h-210v-234h192v-59h-192v-236h210q20 0 28.5 8t8.5 27v23h72v-117h-466v59z" />
    <glyph glyph-name="uni1EBD" unicode="&#x1ebd;" horiz-adv-x="536" 
d="M119.5 618.5q25.5 29.5 75.5 29.5q25 0 46 -8t49 -24q22 -12 37.5 -18.5t30.5 -6.5q23 0 33.5 12.5t10.5 44.5h63q0 -63 -25 -92t-75 -29q-24 0 -43.5 7.5t-46.5 22.5q-26 14 -40.5 20t-32.5 6q-23 0 -34 -12t-11 -44h-63q0 62 25.5 91.5zM106 48.5q-67 63.5 -67 184.5
q0 130 62 196t176 66q109 0 164.5 -63t55.5 -172v-45h-378q0 -89 45 -129.5t118 -40.5q45 0 73.5 6.5t51.5 20.5v31h73v-63q-42 -28 -89 -41.5t-110 -13.5q-108 0 -175 63.5zM422 270q0 83 -35.5 124t-110.5 41q-77 0 -117 -44t-40 -121h303z" />
    <glyph glyph-name="uni1EBE" unicode="&#x1ebe;" horiz-adv-x="544" 
d="M435 930h96l-96 -121h-63zM236 833h84l104 -131h-77l-69 92l-70 -92h-76zM39 59h32q19 0 27 8.5t8 28.5v456q0 20 -8 28t-27 8h-32v59h466v-116h-72v22q0 19 -8.5 27t-28.5 8h-210v-234h192v-59h-192v-236h210q20 0 28.5 8t8.5 27v23h72v-117h-466v59z" />
    <glyph glyph-name="uni1EBF" unicode="&#x1ebf;" horiz-adv-x="536" 
d="M432 755h96l-96 -121h-63zM233 658h84l104 -131h-77l-69 92l-70 -92h-76zM106 48.5q-67 63.5 -67 184.5q0 130 62 196t176 66q109 0 164.5 -63t55.5 -172v-45h-378q0 -89 45 -129.5t118 -40.5q45 0 73.5 6.5t51.5 20.5v31h73v-63q-42 -28 -89 -41.5t-110 -13.5
q-108 0 -175 63.5zM422 270q0 83 -35.5 124t-110.5 41q-77 0 -117 -44t-40 -121h303z" />
    <glyph glyph-name="uni1EC0" unicode="&#x1ec0;" horiz-adv-x="550" 
d="M39 930h96l63 -121h-63zM250 833h85l103 -131h-75l-70 92l-70 -92h-76zM45 59h32q19 0 27 8.5t8 28.5v456q0 20 -8 28t-27 8h-32v59h466v-116h-72v22q0 19 -8.5 27t-28.5 8h-210v-234h192v-59h-192v-236h210q20 0 28.5 8t8.5 27v23h72v-117h-466v59z" />
    <glyph glyph-name="uni1EC1" unicode="&#x1ec1;" horiz-adv-x="536" 
d="M13 755h96l63 -121h-63zM224 658h85l103 -131h-75l-70 92l-70 -92h-76zM106 48.5q-67 63.5 -67 184.5q0 130 62 196t176 66q109 0 164.5 -63t55.5 -172v-45h-378q0 -89 45 -129.5t118 -40.5q45 0 73.5 6.5t51.5 20.5v31h73v-63q-42 -28 -89 -41.5t-110 -13.5
q-108 0 -175 63.5zM422 270q0 83 -35.5 124t-110.5 41q-77 0 -117 -44t-40 -121h303z" />
    <glyph glyph-name="uni1EC2" unicode="&#x1ec2;" horiz-adv-x="544" 
d="M343 871q38 0 51 7.5t13 28.5q0 28 -37 28q-20 0 -44 -8v46q23 9 58 9q41 0 61 -18.5t20 -52.5q0 -29 -15.5 -45t-49.5 -21v-23h-57v49zM227 833h85l103 -131h-76l-70 92l-69 -92h-76zM39 59h32q19 0 27 8.5t8 28.5v456q0 20 -8 28t-27 8h-32v59h466v-116h-72v22
q0 19 -8.5 27t-28.5 8h-210v-234h192v-59h-192v-236h210q20 0 28.5 8t8.5 27v23h72v-117h-466v59z" />
    <glyph glyph-name="uni1EC3" unicode="&#x1ec3;" horiz-adv-x="536" 
d="M352 696q38 0 51 7.5t13 28.5q0 28 -37 28q-20 0 -44 -8v46q23 9 58 9q41 0 61 -18.5t20 -52.5q0 -29 -15.5 -45t-49.5 -21v-23h-57v49zM236 658h85l103 -131h-76l-70 92l-69 -92h-76zM106 48.5q-67 63.5 -67 184.5q0 130 62 196t176 66q109 0 164.5 -63t55.5 -172v-45
h-378q0 -89 45 -129.5t118 -40.5q45 0 73.5 6.5t51.5 20.5v31h73v-63q-42 -28 -89 -41.5t-110 -13.5q-108 0 -175 63.5zM422 270q0 83 -35.5 124t-110.5 41q-77 0 -117 -44t-40 -121h303z" />
    <glyph glyph-name="uni1EC4" unicode="&#x1ec4;" horiz-adv-x="544" 
d="M321.5 860q-17.5 7 -39.5 19q-20 10 -31.5 15t-23.5 5q-17 0 -23.5 -11t-6.5 -34h-53q0 53 19.5 75t60.5 22q19 0 35.5 -6.5t39.5 -19.5q14 -8 28 -14t25 -6q17 0 24 11t7 34h53q0 -52 -19.5 -74.5t-59.5 -22.5q-18 0 -35.5 7zM247 833h85l103 -131h-76l-70 92l-69 -92
h-76zM39 59h32q19 0 27 8.5t8 28.5v456q0 20 -8 28t-27 8h-32v59h466v-116h-72v22q0 19 -8.5 27t-28.5 8h-210v-234h192v-59h-192v-236h210q20 0 28.5 8t8.5 27v23h72v-117h-466v59z" />
    <glyph glyph-name="uni1EC5" unicode="&#x1ec5;" horiz-adv-x="536" 
d="M307.5 685q-17.5 7 -39.5 19q-20 10 -31.5 15t-23.5 5q-17 0 -23.5 -11t-6.5 -34h-53q0 53 19.5 75t60.5 22q18 0 35 -6.5t40 -19.5q14 -8 28 -14t25 -6q17 0 24 11t7 34h53q0 -52 -19.5 -74.5t-59.5 -22.5q-18 0 -35.5 7zM233 658h85l103 -131h-76l-70 92l-69 -92h-76z
M106 48.5q-67 63.5 -67 184.5q0 130 62 196t176 66q109 0 164.5 -63t55.5 -172v-45h-378q0 -89 45 -129.5t118 -40.5q45 0 73.5 6.5t51.5 20.5v31h73v-63q-42 -28 -89 -41.5t-110 -13.5q-108 0 -175 63.5zM422 270q0 83 -35.5 124t-110.5 41q-77 0 -117 -44t-40 -121h303z
" />
    <glyph glyph-name="uni1EC6" unicode="&#x1ec6;" horiz-adv-x="544" 
d="M233 885h86l120 -183h-79l-84 132l-84 -132h-79zM39 59h32q19 0 27 8.5t8 28.5v456q0 20 -8 28t-27 8h-32v59h466v-116h-72v22q0 19 -8.5 27t-28.5 8h-210v-234h192v-59h-192v-236h210q20 0 28.5 8t8.5 27v23h72v-117h-466v59zM237 -63h80v-82h-80v82z" />
    <glyph glyph-name="uni1EC7" unicode="&#x1ec7;" horiz-adv-x="536" 
d="M234 710h86l120 -183h-79l-84 132l-84 -132h-79zM106 48.5q-67 63.5 -67 184.5q0 130 62 196t176 66q109 0 164.5 -63t55.5 -172v-45h-378q0 -89 45 -129.5t118 -40.5q45 0 73.5 6.5t51.5 20.5v31h73v-63q-42 -28 -89 -41.5t-110 -13.5q-108 0 -175 63.5zM422 270
q0 83 -35.5 124t-110.5 41q-77 0 -117 -44t-40 -121h303zM241 -63h80v-82h-80v82z" />
    <glyph glyph-name="uni1EC8" unicode="&#x1ec8;" horiz-adv-x="292" 
d="M115 766q37 0 52 12t15 35q0 21 -13 29t-44 8q-23 0 -49 -8v50q30 10 64 10q52 0 80 -19.5t28 -63.5q0 -62 -68 -79v-39h-65v65zM39 59h32q19 0 27 8.5t8 28.5v456q0 20 -8 28t-27 8h-32v59h214v-59h-32q-19 0 -27 -8t-8 -28v-457q0 -20 8 -28t27 -8h32v-59h-214v59z" />
    <glyph glyph-name="uni1EC9" unicode="&#x1ec9;" horiz-adv-x="273" 
d="M88 585q37 0 52 12t15 35q0 21 -13 29t-44 8q-23 0 -49 -8v50q30 10 64 10q52 0 80 -19.5t28 -63.5q0 -62 -68 -79v-39h-65v65zM29 59h32q19 0 27 8.5t8 28.5v289q0 20 -8 28t-27 8h-32v59h147v-385q0 -20 8 -28t27 -8h32v-59h-214v59z" />
    </font>
</defs>
</svg>
