<?xml version="1.0" standalone="no"?>
<!DOCTYPE svg PUBLIC "-//W3C//DTD SVG 1.1//EN" "http://www.w3.org/Graphics/SVG/1.1/DTD/svg11.dtd" >
<svg xmlns="http://www.w3.org/2000/svg" xmlns:xlink="http://www.w3.org/1999/xlink" version="1.1">
<metadata>
Created by FontForge 20170731 at Fri May  5 14:18:55 2017
 By Aleksey,,,
Copyright (c) 2015, Cadson Demak (info@cadsondemak.com)
</metadata>
<defs>
<font id="Pridi-Medium" horiz-adv-x="0" >
  <font-face 
    font-family="Pridi Medium"
    font-weight="500"
    font-stretch="normal"
    units-per-em="1000"
    panose-1="0 0 6 0 0 0 0 0 0 0"
    ascent="750"
    descent="-250"
    x-height="480"
    cap-height="647"
    bbox="-641 -418 1236 1052"
    underline-thickness="50"
    underline-position="-150"
    unicode-range="U+000D-FB02"
  />
<missing-glyph horiz-adv-x="600" 
d="M94 714h411v-714h-411v714zM454 51v612h-309v-612h309z" />
    <glyph glyph-name="fi" unicode="fi" horiz-adv-x="577" 
d="M28 87h26q21 0 30 9.5t9 29.5v267h-76v87h76v28q0 80 54 124.5t155 44.5q123 0 193 -58v-83h-124v38q-22 18 -67 18q-38 0 -59 -17.5t-21 -52.5v-42h271v-354q0 -37 38 -37h27v-89h-199v393h-137v-269q0 -19 8.5 -28t28.5 -9h26v-87h-259v87z" />
    <glyph glyph-name="fl" unicode="fl" horiz-adv-x="577" 
d="M28 87h26q21 0 30 9.5t9 29.5v267h-76v87h76v28q0 80 54 124.5t155 44.5q63 0 112 -15.5t81 -42.5v-493q0 -37 38 -37h27v-89h-199v393h-137v-269q0 -19 8.5 -28t28.5 -9h26v-87h-259v87zM361 480v97q-9 7 -24.5 11t-32.5 4q-41 0 -60.5 -17t-19.5 -53v-42h137z" />
    <glyph glyph-name="ru_lakkhangyaothai" unicode="&#xe24;&#xe45;" horiz-adv-x="887" 
d="M393 358q0 46 -29.5 70.5t-84.5 24.5q-73 0 -124 -37v-13l77 -48v-53q-31 -11 -41 -29t-10 -55v-40q44 0 68.5 -23t24.5 -70q0 -52 -25 -76t-89 -24t-89 26.5t-25 87.5v107q0 44 12.5 72t44.5 47l-76 45v78q48 46 112.5 71t140.5 25q120 0 185 -52q74 52 169 52
q114 0 160 -51t46 -144v-550h-135v551q0 54 -20 78.5t-70 24.5q-27 0 -54 -9t-47 -25q14 -26 14 -67v-553h-135v559zM194.5 55q8.5 8 8.5 31q0 21 -8.5 29t-31.5 8t-31.5 -8t-8.5 -29q0 -23 8.5 -31t31.5 -8t31.5 8z" />
    <glyph glyph-name="lu_lakkhangyaothai" unicode="&#xe26;&#xe45;" horiz-adv-x="927" 
d="M433 358q0 46 -29 70.5t-85 24.5q-73 0 -124 -37v-13l92 -54v-54q-20 -12 -25.5 -27.5t-5.5 -52.5v-116q0 -61 -25.5 -87.5t-89.5 -26.5t-89 24t-25 76q0 46 26 69.5t70 23.5v52q0 31 6.5 48.5t27.5 38.5l-90 53v78q48 46 112.5 71t140.5 25q120 0 185 -52q70 52 169 52
q114 0 160 -51t46 -144v-550h-135v551q0 54 -20 78.5t-70 24.5q-29 0 -55.5 -8.5t-46.5 -25.5q15 -27 15 -67v-553h-135v559zM169.5 55q8.5 8 8.5 31q0 21 -8.5 29t-31.5 8t-31.5 -8t-8.5 -29q0 -23 8.5 -31t31.5 -8t31.5 8z" />
    <glyph glyph-name=".notdef" horiz-adv-x="600" 
d="M94 714h411v-714h-411v714zM454 51v612h-309v-612h309z" />
    <glyph glyph-name=".null" 
 />
    <glyph glyph-name="nonmarkingreturn" unicode="&#xd;" horiz-adv-x="325" 
 />
    <glyph glyph-name="space" unicode=" " horiz-adv-x="325" 
 />
    <glyph glyph-name="exclam" unicode="!" horiz-adv-x="218" 
d="M39 647h141l-7 -451h-127zM37 105h144v-105h-144v105z" />
    <glyph glyph-name="quotedbl" unicode="&#x22;" horiz-adv-x="374" 
d="M37 721h120l-12 -205h-95zM216 721h121l-13 -205h-94z" />
    <glyph glyph-name="numbersign" unicode="#" horiz-adv-x="749" 
d="M144 170h-107v88h126l34 149h-132v88h151l33 152h115l-34 -152h167l34 152h114l-34 -152h101v-88h-121l-33 -149h125v-88h-145l-37 -170h-113l36 170h-167l-36 -170h-115zM444 258l33 149h-167l-33 -149h167z" />
    <glyph glyph-name="dollar" unicode="$" horiz-adv-x="561" 
d="M215 -9q-51 7 -97 26t-81 46v107h133v-69q23 -13 54 -20.5t65 -7.5q52 0 79 21.5t27 64.5q0 29 -16 48.5t-43.5 34.5t-81.5 37q-74 30 -118.5 57t-68.5 63t-24 87q0 71 47 113.5t125 55.5v112h121v-109q99 -10 177 -72v-99h-133v64q-41 23 -101 23q-50 0 -78.5 -20
t-28.5 -64q0 -28 16.5 -48t40.5 -33t64 -29l21 -9q84 -36 123.5 -58t63 -57t23.5 -91q0 -70 -49 -118.5t-139 -57.5v-109h-121v111z" />
    <glyph glyph-name="percent" unicode="%" horiz-adv-x="769" 
d="M113.5 374.5q-35.5 20.5 -56 56t-20.5 77.5t20.5 77.5t56 56t77.5 20.5t77.5 -20.5t56 -56t20.5 -77.5t-20.5 -77.5t-56 -56t-77.5 -20.5t-77.5 20.5zM510 647h133l-377 -647h-133zM239.5 460q19.5 20 19.5 48q0 29 -19.5 48.5t-48.5 19.5q-28 0 -48 -19.5t-20 -48.5
q0 -28 20 -48t48 -20q29 0 48.5 20zM500.5 5.5q-35.5 20.5 -56 56t-20.5 77.5t20.5 77.5t56 56t77.5 20.5t77.5 -20.5t56 -56t20.5 -77.5t-20.5 -77.5t-56 -56t-77.5 -20.5t-77.5 20.5zM626.5 91q19.5 20 19.5 48q0 29 -19.5 48.5t-48.5 19.5t-49 -20t-20 -48t20 -48t49 -20
t48.5 20z" />
    <glyph glyph-name="ampersand" unicode="&#x26;" horiz-adv-x="693" 
d="M103 32.5q-66 47.5 -66 132.5q0 66 31.5 111.5t98.5 83.5q-38 37 -60.5 73t-22.5 76q0 74 49 113.5t135 39.5q91 0 138.5 -43.5t47.5 -112.5v-28h-132v41q0 27 -14 42t-39 15q-27 0 -41.5 -15.5t-14.5 -51.5q0 -27 15.5 -49.5t52.5 -59.5l19 -20l156 -165q12 32 12 84v80
h177v-86h-32q-16 0 -22 -6.5t-6 -22.5q0 -93 -36 -153l107 -111h-148l-39 41q-40 -32 -83 -44t-107 -12q-110 0 -176 47.5zM349.5 79.5q28.5 8.5 54.5 29.5l-163 174q-39 -23 -56 -49.5t-17 -68.5q0 -45 32.5 -69.5t78.5 -24.5q42 0 70.5 8.5z" />
    <glyph glyph-name="quotesingle" unicode="'" horiz-adv-x="207" 
d="M37 721h133l-13 -205h-107z" />
    <glyph glyph-name="parenleft" unicode="(" horiz-adv-x="367" 
d="M37 316q0 247 143 391h150q-83 -75 -123.5 -174t-40.5 -217q0 -121 39 -218.5t125 -172.5h-150q-143 144 -143 391z" />
    <glyph glyph-name="parenright" unicode=")" horiz-adv-x="367" 
d="M160.5 99q40.5 99 40.5 217q0 121 -39 218.5t-125 172.5h150q143 -144 143 -391t-143 -391h-150q83 75 123.5 174z" />
    <glyph glyph-name="asterisk" unicode="*" horiz-adv-x="427" 
d="M72 454l67 84l-102 27l34 97l88 -39l-3 98h116l-5 -98l89 38l34 -96l-103 -27l68 -84l-87 -59l-55 87l-54 -87z" />
    <glyph glyph-name="plus" unicode="+" horiz-adv-x="413" 
d="M152 264h-115v87h115v104h106v-104h118v-87h-118v-104h-106v104z" />
    <glyph glyph-name="comma" unicode="," horiz-adv-x="237" 
d="M71 97h129l-67 -216h-96z" />
    <glyph glyph-name="hyphen" unicode="-" horiz-adv-x="372" 
d="M37 345h298v-87h-298v87z" />
    <glyph glyph-name="period" unicode="." horiz-adv-x="179" 
d="M37 97h105v-97h-105v97z" />
    <glyph glyph-name="slash" unicode="/" horiz-adv-x="458" 
d="M288 676h133l-250 -676h-134z" />
    <glyph glyph-name="zero" unicode="0" horiz-adv-x="625" 
d="M97 69.5q-70 84.5 -70 254.5q0 169 70 253.5t215 84.5q146 0 216 -84.5t70 -253.5q0 -170 -70 -254.5t-216 -84.5q-145 0 -215 84.5zM428 132.5q40 58.5 40 191.5q0 132 -40 190.5t-116 58.5q-75 0 -115 -58.5t-40 -190.5q0 -133 40 -191.5t115 -58.5q76 0 116 58.5z" />
    <glyph glyph-name="one" unicode="1" horiz-adv-x="418" 
d="M67 87h56q22 0 31 9.5t9 29.5v394l-87 -53l-49 80l158 100h109v-521q0 -20 9.5 -29.5t31.5 -9.5h56v-87h-324v87z" />
    <glyph glyph-name="two" unicode="2" horiz-adv-x="543" 
d="M37 57q0 91 55.5 156.5t162.5 118.5q64 32 92.5 64t28.5 87q0 46 -28 68t-79 22q-53 0 -99 -20v-60h-129v102q45 30 105 48.5t122 18.5q109 0 173.5 -44.5t64.5 -134.5q0 -73 -43.5 -123.5t-145.5 -107.5q-54 -30 -84 -51t-48 -48.5t-18 -65.5h331v-87h-461v57z" />
    <glyph glyph-name="three" unicode="3" horiz-adv-x="559" 
d="M140.5 5q-60.5 20 -103.5 58v102h131v-63q49 -28 108 -28q62 0 89.5 26.5t27.5 92.5q0 101 -106 101h-84v88h86q97 0 97 102q0 45 -29 67t-78 22q-54 0 -98 -18v-62h-131v101q42 31 103 49.5t125 18.5q107 0 172.5 -43.5t65.5 -130.5q0 -95 -84 -149q90 -45 90 -142
q0 -110 -60.5 -161t-188.5 -51q-72 0 -132.5 20z" />
    <glyph glyph-name="four" unicode="4" horiz-adv-x="549" 
d="M215 87h44q22 0 31 9.5t9 29.5v45h-282v79l292 397h118v-388h105v-88h-105v-45q0 -20 9.5 -29.5t31.5 -9.5h44v-87h-297v87zM308 259v219l-161 -219h161z" />
    <glyph glyph-name="five" unicode="5" horiz-adv-x="562" 
d="M37 63v102h131v-64q47 -27 115 -27q59 0 86 37t27 108q0 69 -33 98.5t-103 29.5h-201v62l20 238h426v-87h-305l-11 -123h87q249 0 249 -218q0 -112 -61 -173t-185 -61q-146 0 -242 78z" />
    <glyph glyph-name="six" unicode="6" horiz-adv-x="570" 
d="M105 57q-68 72 -68 224q0 139 40 224t104.5 121t141.5 36q62 0 103.5 -14t83.5 -45l-48 -77q-52 47 -127 47q-74 0 -116 -43t-56 -129q58 57 168 57q222 0 222 -227q0 -121 -66 -183.5t-195 -62.5q-119 0 -187 72zM392.5 109.5q30.5 35.5 30.5 121.5q0 73 -30.5 108
t-97.5 35q-55 0 -91.5 -35t-36.5 -99q0 -89 32.5 -127.5t92.5 -38.5q70 0 100.5 35.5z" />
    <glyph glyph-name="seven" unicode="7" horiz-adv-x="517" 
d="M356 560h-207v-70h-132v157h483v-58l-237 -589h-133z" />
    <glyph glyph-name="eight" unicode="8" horiz-adv-x="587" 
d="M103 33.5q-66 48.5 -66 149.5q0 53 23.5 91.5t66.5 62.5q-41 28 -60 63.5t-19 80.5q0 88 67.5 134.5t178.5 46.5q112 0 179.5 -46.5t67.5 -134.5q0 -45 -18.5 -80.5t-61.5 -63.5q43 -24 66 -62.5t23 -91.5q0 -101 -66 -149.5t-190 -48.5q-125 0 -191 48.5zM304 380
q55 0 81 23.5t26 77.5q0 47 -30.5 69.5t-86.5 22.5q-55 0 -85.5 -22.5t-30.5 -69.5q0 -54 26.5 -77.5t80.5 -23.5h19zM389.5 101.5q30.5 27.5 30.5 87.5q0 105 -117 105h-17q-58 0 -88.5 -27t-30.5 -78q0 -60 31 -87.5t96 -27.5t95.5 27.5z" />
    <glyph glyph-name="nine" unicode="9" horiz-adv-x="590" 
d="M166.5 -2.5q-46.5 12.5 -86.5 40.5l50 81q55 -45 126 -45q72 0 111.5 42.5t60.5 131.5q-32 -32 -69.5 -45.5t-89.5 -13.5q-113 0 -172.5 59.5t-59.5 170.5q0 119 68 181t195 62q118 0 185.5 -72t67.5 -224q0 -203 -78.5 -292t-199.5 -89q-62 0 -108.5 12.5zM387.5 308.5
q34.5 35.5 34.5 101.5q0 89 -31 126t-91 37q-70 0 -101.5 -35.5t-31.5 -121.5q0 -73 31 -108t98 -35q57 0 91.5 35.5z" />
    <glyph glyph-name="colon" unicode=":" horiz-adv-x="180" 
d="M37 496h106v-111h-106v111zM37 112h106v-112h-106v112z" />
    <glyph glyph-name="semicolon" unicode=";" horiz-adv-x="230" 
d="M68 496h118v-111h-118v111zM70 97h123l-66 -216h-90z" />
    <glyph glyph-name="less" unicode="&#x3c;" horiz-adv-x="622" 
d="M37 292v66l548 244v-108l-397 -168l397 -170v-108z" />
    <glyph glyph-name="equal" unicode="=" horiz-adv-x="419" 
d="M37 427h345v-88h-345v88zM37 266h345v-89h-345v89z" />
    <glyph glyph-name="greater" unicode="&#x3e;" horiz-adv-x="622" 
d="M37 156l397 170l-397 168v108l548 -244v-66l-548 -244v108z" />
    <glyph glyph-name="question" unicode="?" horiz-adv-x="543" 
d="M166 189q0 64 27.5 109t92.5 80q48 24 69 47.5t21 63.5q0 85 -112 85q-55 0 -109 -26v-60h-118v105q42 31 102 50t129 19q113 0 175.5 -43.5t62.5 -129.5q0 -43 -14.5 -73t-43.5 -53.5t-81 -53.5q-30 -16 -44.5 -32.5t-19.5 -37t-5 -56.5v-23h-132v29zM158 108h147v-108
h-147v108z" />
    <glyph glyph-name="at" unicode="@" horiz-adv-x="862" 
d="M135 -6q-98 104 -98 284q0 112 49.5 197t140 131t210.5 46q192 0 290 -92.5t98 -260.5q0 -234 -167 -234q-35 0 -64.5 18.5t-37.5 45.5q-23 -33 -64 -50.5t-96 -17.5q-73 0 -110.5 30.5t-37.5 85.5q0 57 34 89t97 36l119 8v27q0 30 -12.5 43t-42.5 13q-33 0 -56 -12v-28
h-112v66q68 49 169 49q89 0 130.5 -35t41.5 -105v-132q0 -43 33 -43q31 0 46 35.5t15 113.5q0 127 -62.5 186.5t-210.5 59.5q-137 0 -210.5 -67.5t-73.5 -202.5q0 -150 72 -219t212 -69q59 0 119.5 8.5t112.5 27.5v-98q-61 -20 -114 -29t-118 -9q-204 0 -302 104zM474.5 154
q23.5 18 23.5 54v26l-86 -6q-27 -2 -40.5 -13t-13.5 -37q0 -42 54 -42q39 0 62.5 18z" />
    <glyph glyph-name="A" unicode="A" horiz-adv-x="717" 
d="M27 87h29q24 0 36 7.5t19 28.5l185 524h127l182 -524q7 -21 19.5 -28.5t37.5 -7.5h28v-87h-250v87h46l-36 110h-182l-37 -110h46v-87h-250v87zM428 269l-68 207l-70 -207h138z" />
    <glyph glyph-name="B" unicode="B" horiz-adv-x="599" 
d="M27 87h28q21 0 29.5 9t8.5 30v397q0 19 -8.5 28t-29.5 9h-28v87h354q85 0 132.5 -45t47.5 -129q0 -47 -23.5 -85t-66.5 -59q101 -39 101 -148q0 -81 -48.5 -131t-130.5 -50h-366v87zM335 370q44 0 70 24.5t26 71.5q0 94 -93 94h-114v-190h111zM352 87q41 0 65.5 25
t24.5 73q0 51 -26.5 73t-75.5 22h-116v-193h128z" />
    <glyph glyph-name="C" unicode="C" horiz-adv-x="603" 
d="M180 27q-76 42 -114.5 117.5t-38.5 174.5q0 100 35 177.5t107.5 121.5t180.5 44q73 0 124 -14t100 -45v-114h-131v69q-19 8 -38 11.5t-48 3.5q-97 0 -148.5 -67t-51.5 -187q0 -117 55.5 -181t158.5 -64q45 0 82 10t76 32l47 -74q-48 -32 -95.5 -44.5t-115.5 -12.5
q-109 0 -185 42z" />
    <glyph glyph-name="D" unicode="D" horiz-adv-x="631" 
d="M27 87h26q21 0 30 9.5t9 29.5v397q0 19 -9 28t-30 9h-26v87h300q140 0 208.5 -84.5t68.5 -241.5q0 -144 -70.5 -232.5t-206.5 -88.5h-300v87zM308 87q90 0 128.5 58t38.5 176q0 121 -38 180t-129 59h-88v-473h88z" />
    <glyph glyph-name="E" unicode="E" horiz-adv-x="546" 
d="M27 87h26q21 0 30 9.5t9 29.5v397q0 19 -9 28t-30 9h-26v87h492v-142h-120v18q0 37 -39 37h-136v-192h154v-88h-154v-193h136q20 0 29.5 9t9.5 29v18h120v-143h-492v87z" />
    <glyph glyph-name="F" unicode="F" horiz-adv-x="546" 
d="M27 87h26q21 0 30 9.5t9 29.5v397q0 19 -9 28t-30 9h-26v87h492v-142h-120v18q0 37 -39 37h-136v-192h154v-88h-154v-156q0 -19 9 -28t28 -9h27v-87h-261v87z" />
    <glyph glyph-name="G" unicode="G" horiz-adv-x="625" 
d="M176.5 27.5q-73.5 42.5 -111.5 117.5t-38 174q0 100 35 177.5t107.5 121.5t180.5 44q73 0 124 -14t100 -45v-114h-131v69q-19 8 -38 11.5t-48 3.5q-97 0 -148.5 -67t-51.5 -187q0 -116 53.5 -180.5t150.5 -64.5q60 0 105 16v171h-131v88h263v-297q-50 -35 -109.5 -51
t-133.5 -16q-105 0 -178.5 42.5z" />
    <glyph glyph-name="H" unicode="H" horiz-adv-x="685" 
d="M27 87h26q21 0 29.5 9t8.5 30v397q0 19 -8.5 28t-29.5 9h-26v87h254v-87h-20q-20 0 -28.5 -9t-8.5 -28v-155h237v154q0 20 -8.5 29t-28.5 9h-21v87h255v-87h-26q-21 0 -30 -9t-9 -28v-397q0 -20 9 -29.5t30 -9.5h26v-87h-255v87h21q19 0 28 9.5t9 29.5v155h-237v-155
q0 -20 9 -29.5t28 -9.5h20v-87h-254v87z" />
    <glyph glyph-name="I" unicode="I" horiz-adv-x="313" 
d="M27 87h26q21 0 30 9.5t9 29.5v397q0 19 -9 28t-30 9h-26v87h259v-87h-26q-20 0 -28.5 -9t-8.5 -28v-399q0 -19 8.5 -28t28.5 -9h26v-87h-259v87z" />
    <glyph glyph-name="J" unicode="J" horiz-adv-x="503" 
d="M82.5 5.5q-52.5 20.5 -85.5 59.5v88h118v-50q28 -29 80 -29q44 0 64 21.5t20 68.5v359q0 19 -9 28t-29 9h-27v87h262v-87h-27q-38 0 -38 -37v-339q0 -94 -53.5 -146.5t-154.5 -52.5q-68 0 -120.5 20.5z" />
    <glyph glyph-name="K" unicode="K" horiz-adv-x="655" 
d="M27 87h26q20 0 29 9t9 28v399q0 19 -8.5 28t-29.5 9h-26v87h248v-88h-18q-33 0 -33 -36v-182l204 219h-46v87h237v-87h-36q-19 0 -29 -6t-24 -21l-153 -163l168 -256q9 -14 21 -20.5t30 -6.5h32v-87h-250v87h55l-133 204l-76 -81v-86q0 -18 7.5 -27.5t25.5 -9.5h18v-87
h-248v87z" />
    <glyph glyph-name="L" unicode="L" horiz-adv-x="516" 
d="M27 87h25q21 0 30.5 9t9.5 29v398q0 19 -9 28t-30 9h-26v87h262v-87h-26q-21 0 -30 -9t-9 -28v-436h136q20 0 29.5 9t9.5 29v35h120v-160h-492v87z" />
    <glyph glyph-name="M" unicode="M" horiz-adv-x="774" 
d="M27 87h26q21 0 30 9.5t9 29.5v395q0 20 -9 29.5t-30 9.5h-26v87h200l161 -371l160 371h199v-87h-27q-19 0 -28 -9.5t-9 -29.5v-395q0 -20 9 -29.5t28 -9.5h27v-87h-259v87h27q19 0 28 9t9 28v314l-120 -280h-90l-121 280v-314q0 -37 39 -37h27v-87h-260v87z" />
    <glyph glyph-name="N" unicode="N" horiz-adv-x="693" 
d="M27 87h26q39 0 39 37v399q0 19 -9 28t-30 9h-26v87h165l279 -433v309q0 37 -39 37h-27v87h261v-87h-27q-19 0 -28 -9t-9 -28v-523h-101l-277 431v-307q0 -19 8.5 -28t28.5 -9h26v-87h-260v87z" />
    <glyph glyph-name="O" unicode="O" horiz-adv-x="663" 
d="M102 68.5q-75 83.5 -75 252.5q0 171 73 256t232 85q157 0 230.5 -85t73.5 -256q0 -169 -75 -252.5t-229 -83.5q-155 0 -230 83.5zM464.5 131q41.5 57 41.5 190q0 136 -41.5 194t-132.5 58q-62 0 -100 -24.5t-56.5 -80t-18.5 -147.5q0 -134 41.5 -190.5t133.5 -56.5
q91 0 132.5 57z" />
    <glyph glyph-name="P" unicode="P" horiz-adv-x="626" 
d="M27 87h25q40 0 40 37v399q0 19 -9.5 28t-30.5 9h-25v87h348q105 0 164.5 -52t59.5 -151q0 -98 -60.5 -154t-164.5 -56h-154v-110q0 -37 39 -37h28v-87h-260v87zM357 321q57 0 85 30.5t28 92.5q0 64 -27 90t-86 26h-137v-239h137z" />
    <glyph glyph-name="Q" unicode="Q" horiz-adv-x="663" 
d="M335 -108.5q-43 36.5 -54 95.5q-127 13 -190.5 99t-63.5 235q0 164 74 252.5t231 88.5q155 0 229.5 -88.5t74.5 -252.5q0 -149 -63.5 -235t-190.5 -99q5 -27 25 -36.5t49 -9.5q33 0 56 17v27h102v-61q-24 -32 -65 -50.5t-95 -18.5q-76 0 -119 36.5zM463.5 134
q42.5 60 42.5 187q0 130 -42.5 191t-131.5 61q-91 0 -133 -61t-42 -191q0 -127 42.5 -187t132.5 -60q89 0 131.5 60z" />
    <glyph glyph-name="R" unicode="R" horiz-adv-x="629" 
d="M27 87h25q40 0 40 37v399q0 19 -9.5 28t-30.5 9h-25v87h338q105 0 164 -50.5t59 -146.5q0 -72 -37.5 -121t-107.5 -68l78 -143q10 -17 23 -24t34 -7h24v-87h-234v87h40l-84 159h-104v-125q0 -18 7 -26t26 -8h24v-87h-250v87zM345 333q114 0 114 117q0 59 -27 84.5
t-87 25.5h-125v-227h125z" />
    <glyph glyph-name="S" unicode="S" horiz-adv-x="542" 
d="M138 6q-65 21 -111 57v107h133v-69q48 -27 119 -27q106 0 106 85q0 29 -16 48.5t-43 33.5t-82 37q-74 30 -118.5 57t-69 63.5t-24.5 87.5q0 87 68.5 131.5t175.5 44.5q132 0 227 -76v-99h-134v64q-38 22 -100 22q-107 0 -107 -83q0 -29 20 -50.5t47.5 -35.5t74.5 -33
q81 -33 122.5 -56t65 -58t23.5 -92q0 -52 -27.5 -92.5t-81 -64t-128.5 -23.5t-140 21z" />
    <glyph glyph-name="T" unicode="T" horiz-adv-x="590" 
d="M165 87h25q21 0 30 9t9 28v436h-78q-21 0 -30 -8.5t-9 -28.5v-37h-95v161h556v-161h-95v37q0 20 -9 28.5t-30 8.5h-78v-436q0 -19 9.5 -28t30.5 -9h25v-87h-261v87z" />
    <glyph glyph-name="U" unicode="U" horiz-adv-x="666" 
d="M141 38.5q-64 53.5 -64 146.5v339q0 19 -8.5 27.5t-29.5 8.5h-22v87h248v-87h-22q-20 0 -29 -8.5t-9 -27.5v-345q0 -105 128 -105t128 105v345q0 19 -8.5 27.5t-29.5 8.5h-22v87h248v-87h-22q-20 0 -29 -8.5t-9 -27.5v-339q0 -93 -64.5 -146.5t-191.5 -53.5
q-128 0 -192 53.5z" />
    <glyph glyph-name="V" unicode="V" horiz-adv-x="709" 
d="M110 517q-9 26 -22.5 34.5t-43.5 8.5h-17v87h179l149 -476l146 476h181v-87h-17q-31 0 -44 -8.5t-23 -34.5l-179 -517h-127z" />
    <glyph glyph-name="W" unicode="W" horiz-adv-x="863" 
d="M106 516q-6 26 -19 35t-44 9h-16v87h173l87 -416l95 307h98l96 -307l88 416h172v-87h-17q-31 0 -44 -9t-19 -35l-114 -516h-107l-104 318l-102 -318h-108z" />
    <glyph glyph-name="X" unicode="X" horiz-adv-x="681" 
d="M27 87h29q29 0 45 8t31 30l139 199l-137 199q-15 22 -31 29.5t-45 7.5h-23v87h246v-87h-40l99 -158l100 158h-41v87h246v-87h-23q-28 0 -44 -8t-31 -29l-138 -199l140 -199q14 -22 30.5 -30t44.5 -8h30v-87h-253v87h41l-102 159l-101 -159h40v-87h-252v87z" />
    <glyph glyph-name="Y" unicode="Y" horiz-adv-x="669" 
d="M204 87h25q21 0 30 9.5t9 28.5v114l-152 280q-13 24 -26.5 32.5t-39.5 8.5h-23v87h242v-87h-14q-17 0 -17 -11q0 -8 8 -24l89 -179l88 179q8 16 8 24q0 11 -17 11h-14v87h242v-87h-23q-26 0 -39.5 -8.5t-26.5 -32.5l-153 -280v-115q0 -19 9.5 -28t30.5 -9h25v-87h-261v87
z" />
    <glyph glyph-name="Z" unicode="Z" horiz-adv-x="565" 
d="M27 72l345 488h-177q-21 0 -30 -8.5t-9 -28.5v-17h-120v141h486v-71l-338 -489h195q21 0 30 9t9 29v16h120v-141h-511v72z" />
    <glyph glyph-name="bracketleft" unicode="[" horiz-adv-x="309" 
d="M47 750h225v-87h-93v-659h93v-87h-225v833z" />
    <glyph glyph-name="backslash" unicode="\" horiz-adv-x="456" 
d="M37 676h133l249 -676h-132z" />
    <glyph glyph-name="bracketright" unicode="]" horiz-adv-x="309" 
d="M37 4h93v659h-93v87h225v-833h-225v87z" />
    <glyph glyph-name="asciicircum" unicode="^" horiz-adv-x="611" 
d="M252 719h107l215 -358h-136l-132 234l-133 -234h-136z" />
    <glyph glyph-name="underscore" unicode="_" horiz-adv-x="475" 
d="M37 -10h401v-89h-401v89z" />
    <glyph glyph-name="grave" unicode="`" horiz-adv-x="308" 
d="M37 709h148l86 -193h-112z" />
    <glyph glyph-name="a" unicode="a" horiz-adv-x="525" 
d="M59.5 20q-42.5 35 -42.5 100q0 73 47.5 108.5t137.5 40.5l123 8v59q0 38 -17 54t-57 16q-46 0 -78 -18v-39h-113v92q87 54 195 54q105 0 153.5 -46t48.5 -126v-199q0 -19 7.5 -28t24.5 -9h19v-87h-124l-13 60q-35 -42 -76 -58.5t-110 -16.5q-83 0 -125.5 35zM296 93
q29 23 29 68v41l-111 -8q-42 -3 -58 -17.5t-16 -47.5q0 -59 75 -59q52 0 81 23z" />
    <glyph glyph-name="b" unicode="b" horiz-adv-x="599" 
d="M250.5 6.5q-41.5 21.5 -70.5 67.5l-8 -74h-100v532q0 22 -7.5 32t-29.5 10h-18v88h183v-231q32 34 71.5 49t91.5 15q103 0 156 -66t53 -191q0 -119 -60 -186t-160 -67q-60 0 -101.5 21.5zM415.5 106q27.5 43 27.5 133t-27.5 130.5t-91.5 40.5q-53 0 -85.5 -38t-32.5 -105
v-56q0 -62 34 -105t88 -43q60 0 87.5 43z" />
    <glyph glyph-name="c" unicode="c" horiz-adv-x="520" 
d="M154.5 13.5q-59.5 28.5 -93.5 85t-34 136.5q0 124 70 192t192 68q68 0 113 -15t88 -48v-105h-113v58q-20 11 -39.5 16t-48.5 5q-58 0 -95 -43t-37 -128q0 -81 43 -121t114 -40q41 0 73.5 10t61.5 30l44 -72q-45 -32 -89 -44.5t-114 -12.5q-76 0 -135.5 28.5z" />
    <glyph glyph-name="d" unicode="d" horiz-adv-x="594" 
d="M84 49q-57 63 -57 181q0 127 56.5 196t162.5 69q55 0 89 -14t63 -48v99q0 22 -7.5 32t-29.5 10h-18v88h184v-541q0 -22 7.5 -30t26.5 -8h16v-83h-150l-8 67q-32 -42 -74 -61.5t-104 -19.5q-100 0 -157 63zM361 108q32 43 32 108v49q0 69 -30 108t-87 39
q-63 0 -91.5 -44.5t-28.5 -135.5q0 -88 27.5 -127.5t89.5 -39.5q56 0 88 43z" />
    <glyph glyph-name="e" unicode="e" horiz-adv-x="541" 
d="M95.5 48.5q-68.5 63.5 -68.5 186.5q0 130 65 195t185 65q116 0 176.5 -64.5t60.5 -174.5v-47h-357q0 -70 33 -102.5t95 -32.5t99 16v35h113v-76q-76 -64 -213 -64q-120 0 -188.5 63.5zM384 284q0 62 -27 92t-82 30q-57 0 -87.5 -31.5t-30.5 -90.5h227z" />
    <glyph glyph-name="f" unicode="f" horiz-adv-x="428" 
d="M28 87h26q21 0 30 9.5t9 29.5v267h-76v87h76v32q0 82 48.5 127.5t142.5 45.5q109 0 175 -55v-86h-113v40q-19 16 -52 16t-51.5 -20t-18.5 -60v-40h137v-87h-137v-269q0 -19 8.5 -28t28.5 -9h26v-87h-259v87z" />
    <glyph glyph-name="g" unicode="g" horiz-adv-x="593" 
d="M114 -132v79h113v-41q17 -10 36.5 -13.5t48.5 -3.5q87 0 87 90v77q-28 -32 -64 -46.5t-89 -14.5q-104 0 -161.5 64t-57.5 188q0 79 29 135t80.5 84.5t118.5 28.5q59 0 96.5 -19.5t67.5 -63.5l9 68h148v-84h-17q-19 0 -25.5 -9.5t-6.5 -32.5v-353q0 -92 -55 -146.5
t-156 -54.5q-125 0 -202 68zM363.5 114q29.5 39 29.5 108v41q0 67 -30 110t-87 43q-63 0 -91.5 -41t-28.5 -128q0 -90 28.5 -131t92.5 -41q57 0 86.5 39z" />
    <glyph glyph-name="h" unicode="h" horiz-adv-x="609" 
d="M27 87h26q21 0 30 9.5t9 29.5v407q0 22 -7.5 32t-29.5 10h-28v87h183v-227q38 34 74.5 47t90.5 13q80 0 117 -42.5t37 -124.5v-204q0 -19 8.5 -28t28.5 -9h26v-87h-194v327q0 44 -18.5 63.5t-58.5 19.5q-43 0 -70.5 -24.5t-27.5 -68.5v-193q0 -19 8.5 -28t28.5 -9h26v-87
h-259v87z" />
    <glyph glyph-name="i" unicode="i" horiz-adv-x="293" 
d="M77 658h138v-106h-138v106zM17 87h26q21 0 30 9.5t9 29.5v225q0 22 -7.5 32t-29.5 10h-28v87h196v-356q0 -19 8.5 -28t28.5 -9h26v-87h-259v87z" />
    <glyph glyph-name="j" unicode="j" horiz-adv-x="390" 
d="M205 658h138v-106h-138v106zM-33 -111v92h109v-41q23 -20 64 -20q35 0 52.5 15.5t17.5 53.5v362q0 22 -7.5 32t-29.5 10h-28v87h196v-475q0 -86 -49 -130t-145 -44q-113 0 -180 58z" />
    <glyph glyph-name="k" unicode="k" horiz-adv-x="589" 
d="M27 87h26q21 0 30 9.5t9 29.5v407q0 22 -7.5 32t-29.5 10h-28v87h196v-374l120 105h-41v87h249v-87h-50q-16 0 -24 -3.5t-20 -13.5l-83 -73l112 -192q9 -15 17 -19.5t27 -4.5h42v-87h-149l-137 234l-63 -55v-55q0 -19 8.5 -28t28.5 -9h26v-87h-259v87z" />
    <glyph glyph-name="l" unicode="l" horiz-adv-x="303" 
d="M27 87h26q21 0 30 9.5t9 29.5v407q0 22 -7.5 32t-29.5 10h-28v87h196v-538q0 -19 8.5 -28t28.5 -9h26v-87h-259v87z" />
    <glyph glyph-name="m" unicode="m" horiz-adv-x="869" 
d="M27 87h26q21 0 30 9.5t9 29.5v230q0 19 -8.5 28t-28.5 9h-28v87h147l7 -68q56 83 172 83q43 0 75 -19t51 -53q26 37 62.5 54.5t87.5 17.5q85 0 122.5 -41.5t37.5 -124.5v-205q0 -19 8.5 -28t28.5 -9h26v-87h-194v329q0 44 -17 62.5t-55 18.5q-41 0 -62.5 -22t-21.5 -66
v-198q0 -19 8.5 -28t28.5 -9h31v-87h-191v327q0 43 -17 63t-53 20q-43 0 -65.5 -23t-22.5 -70v-193q0 -19 8.5 -28t28.5 -9h28v-87h-259v87z" />
    <glyph glyph-name="n" unicode="n" horiz-adv-x="607" 
d="M27 87h26q21 0 30 9.5t9 29.5v230q0 19 -8.5 28t-28.5 9h-28v87h149l6 -66q33 41 77.5 61t105.5 20q84 0 123 -42.5t39 -124.5v-204q0 -19 8.5 -28t28.5 -9h26v-87h-194v327q0 44 -18 63.5t-59 19.5q-43 0 -69.5 -24.5t-26.5 -68.5v-193q0 -19 8.5 -28t28.5 -9h26v-87
h-259v87z" />
    <glyph glyph-name="o" unicode="o" horiz-adv-x="558" 
d="M91.5 51q-64.5 66 -64.5 188q0 123 64 189.5t188 66.5q125 0 188.5 -66.5t63.5 -189.5q0 -122 -64.5 -188t-187.5 -66t-187.5 66zM371.5 114q29.5 40 29.5 125q0 86 -29.5 126.5t-92.5 40.5t-92.5 -40.5t-29.5 -126.5q0 -85 29.5 -125t92.5 -40t92.5 40z" />
    <glyph glyph-name="p" unicode="p" horiz-adv-x="613" 
d="M17 -121h26q21 0 30 9.5t9 29.5v436q0 20 -9 29.5t-29 9.5h-17v87h157l10 -70q60 85 173 85q102 0 160.5 -64.5t58.5 -186.5q0 -124 -56.5 -191.5t-160.5 -67.5q-52 0 -88 14t-68 47v-130q0 -19 8.5 -28t28.5 -9h26v-87h-259v87zM427.5 110q28.5 43 28.5 134
q0 89 -27 130.5t-90 41.5q-55 0 -90.5 -43t-35.5 -106v-56q0 -66 35 -105t88 -39q63 0 91.5 43z" />
    <glyph glyph-name="q" unicode="q" horiz-adv-x="613" 
d="M400 46q-32 -33 -68 -47t-88 -14q-104 0 -160.5 67.5t-56.5 191.5q0 122 58.5 186.5t160.5 64.5q113 0 173 -85l10 70h157v-87h-17q-20 0 -29 -9.5t-9 -29.5v-436q0 -20 9 -29.5t30 -9.5h26v-87h-196v254zM365 106q35 39 35 105v56q0 63 -35.5 106t-90.5 43
q-63 0 -90 -41.5t-27 -130.5q0 -91 28.5 -134t91.5 -43q53 0 88 39z" />
    <glyph glyph-name="r" unicode="r" horiz-adv-x="402" 
d="M27 87h26q21 0 30 9.5t9 29.5v230q0 19 -8 28t-28 9h-29v87h171l13 -53q34 53 122 53h52v-87h-68q-50 0 -72 -23t-22 -70v-176q0 -19 8.5 -28t28.5 -9h26v-87h-259v87z" />
    <glyph glyph-name="s" unicode="s" horiz-adv-x="471" 
d="M123 0q-55 15 -96 46v84h121v-38q28 -18 83 -18q43 0 63 10t20 36q0 23 -16.5 35t-65.5 31l-46 18q-53 22 -84.5 40.5t-50.5 46t-19 67.5q0 68 53 102.5t145 34.5q60 0 112 -15t91 -45v-84h-117v36q-26 19 -73 19q-38 0 -59.5 -10.5t-21.5 -37.5q0 -25 24 -39.5t76 -33.5
l32 -12q51 -19 82 -37.5t49.5 -46t18.5 -69.5q0 -66 -52.5 -100.5t-154.5 -34.5q-59 0 -114 15z" />
    <glyph glyph-name="t" unicode="t" horiz-adv-x="448" 
d="M139.5 27.5q-46.5 42.5 -46.5 123.5v242h-76v87h76v103l131 39v-142h137v-87h-137v-252q0 -37 15.5 -54t46.5 -17q38 0 59 18v43h106v-84q-62 -62 -173 -62q-92 0 -138.5 42.5z" />
    <glyph glyph-name="u" unicode="u" horiz-adv-x="597" 
d="M123 28q-43 43 -43 124v204q0 19 -8.5 28t-28.5 9h-26v87h194v-327q0 -44 19.5 -63.5t60.5 -19.5q42 0 67.5 24t25.5 69v193q0 19 -8.5 28t-28.5 9h-26v87h259v-87h-26q-21 0 -30 -9.5t-9 -29.5v-230q0 -19 8.5 -28t28.5 -9h28v-87h-149l-6 66q-33 -43 -72 -62t-102 -19
q-85 0 -128 43z" />
    <glyph glyph-name="v" unicode="v" horiz-adv-x="570" 
d="M89 363q-6 18 -16.5 24t-37.5 6h-18v87h159l109 -344l109 344h159v-87h-19q-26 0 -36.5 -6t-17.5 -24l-131 -363h-128z" />
    <glyph glyph-name="w" unicode="w" horiz-adv-x="763" 
d="M87 362q-4 18 -14.5 24.5t-31.5 6.5h-24v87h158l74 -321l86 278h92l86 -278l76 321h157v-87h-24q-21 0 -31.5 -6.5t-14.5 -24.5l-88 -362h-121l-85 274l-87 -274h-120z" />
    <glyph glyph-name="x" unicode="x" horiz-adv-x="552" 
d="M17 87h31q23 0 36 6.5t26 23.5l95 124l-95 122q-13 17 -26 23.5t-36 6.5h-31v87h219v-87h-25l65 -87l65 87h-25v87h219v-87h-31q-23 0 -36 -6.5t-26 -23.5l-96 -122l96 -124q13 -17 26 -23.5t36 -6.5h31v-87h-219v87h25l-65 88l-65 -88h25v-87h-219v87z" />
    <glyph glyph-name="y" unicode="y" horiz-adv-x="575" 
d="M199 -182q-52 18 -88 52v75h113v-35q15 -14 35.5 -19.5t51.5 -5.5q92 0 92 108v54q-54 -42 -129 -42q-90 0 -141.5 45.5t-51.5 127.5v178q0 37 -38 37h-26v87h197v-307q0 -83 85 -83q44 0 69.5 25t25.5 72v169q0 37 -38 37h-26v87h198v-464q0 -98 -57.5 -157t-155.5 -59
q-64 0 -116 18z" />
    <glyph glyph-name="z" unicode="z" horiz-adv-x="502" 
d="M27 64l277 328h-146q-39 0 -39 -37v-18h-84v143h430v-65l-276 -327h162q21 0 30.5 9t9.5 28v17h84v-142h-448v64z" />
    <glyph glyph-name="braceleft" unicode="{" horiz-adv-x="344" 
d="M127 -39.5q-37 43.5 -37 130.5v135q0 36 -18.5 50.5t-54.5 14.5v89q36 0 54.5 14t18.5 50v133q0 87 37 130t126 43h54v-87h-21q-33 0 -48.5 -16.5t-15.5 -50.5v-162q0 -30 -16 -56.5t-44 -43.5q28 -16 44 -42t16 -56v-165q0 -34 15.5 -50.5t48.5 -16.5h21v-87h-54
q-89 0 -126 43.5z" />
    <glyph glyph-name="bar" unicode="|" horiz-adv-x="206" 
d="M37 767h132v-887h-132v887z" />
    <glyph glyph-name="braceright" unicode="}" horiz-adv-x="344" 
d="M37 4h21q33 0 48.5 16.5t15.5 50.5v165q0 30 16 56t44 42q-28 17 -44 43.5t-16 56.5v162q0 34 -15.5 50.5t-48.5 16.5h-21v87h54q89 0 126 -43t37 -130v-133q0 -36 18.5 -50t54.5 -14v-89q-36 0 -54.5 -14.5t-18.5 -50.5v-135q0 -87 -37 -130.5t-126 -43.5h-54v87z" />
    <glyph glyph-name="asciitilde" unicode="~" horiz-adv-x="560" 
d="M172 391q31 0 54 -8t55 -24q26 -13 45 -20t40 -7q30 0 42.5 15t12.5 44h102q0 -81 -32 -121t-100 -40q-35 0 -61 8.5t-59 25.5q-25 13 -41 19t-34 6q-30 0 -43 -15t-13 -44h-103q0 161 135 161z" />
    <glyph glyph-name="uni00A0" unicode="&#xa0;" horiz-adv-x="325" 
 />
    <glyph glyph-name="exclamdown" unicode="&#xa1;" horiz-adv-x="218" 
d="M37 495h144v-105h-144v105zM46 299h127l7 -451h-141z" />
    <glyph glyph-name="cent" unicode="&#xa2;" horiz-adv-x="521" 
d="M222 -7q-88 16 -141.5 79t-53.5 163q0 107 51.5 172t143.5 81v82h120v-79q46 -4 82 -18.5t70 -40.5v-105h-113v55q-19 11 -39.5 15.5t-50.5 4.5q-59 0 -96 -41t-37 -126q0 -80 42 -118t114 -38q43 0 75.5 8t59.5 27l44 -72q-37 -25 -71.5 -38t-79.5 -17v-77h-120v83z" />
    <glyph glyph-name="sterling" unicode="&#xa3;" horiz-adv-x="510" 
d="M39 87h26q25 0 37 15.5t12 47.5v191h-77v87h77v55q0 80 56 129.5t153 49.5q55 0 94 -14t72 -41v-88h-107v39q-23 15 -56 15q-38 0 -59.5 -21.5t-21.5 -66.5v-57h161v-87h-161v-183q0 -47 -21 -71h269v-87h-454v87z" />
    <glyph glyph-name="currency" unicode="&#xa4;" horiz-adv-x="629" 
d="M47 126l84 77q-40 58 -40 128q0 63 32 115l-86 79l75 77l87 -80q53 34 116 34q61 0 116 -34l86 80l75 -77l-86 -79q33 -52 33 -115q0 -71 -41 -128l86 -77l-76 -78l-92 84q-43 -25 -101 -25q-57 0 -102 25l-92 -84zM399 246q34 35 34 85t-34 84.5t-84 34.5t-83.5 -34.5
t-33.5 -84.5t33.5 -85t83.5 -35t84 35z" />
    <glyph glyph-name="yen" unicode="&#xa5;" horiz-adv-x="669" 
d="M204 87h25q21 0 30 9.5t9 28.5v15h-151v87h151v12l-11 19h-140v87h93l-94 174q-13 24 -26.5 32.5t-39.5 8.5h-23v87h242v-87h-14q-17 0 -17 -11q0 -8 8 -24l89 -182l88 182q8 16 8 24q0 11 -17 11h-14v87h242v-87h-23q-26 0 -39.5 -8.5t-26.5 -32.5l-95 -174h93v-87h-141
l-10 -19v-12h151v-87h-151v-16q0 -19 9.5 -28t30.5 -9h25v-87h-261v87z" />
    <glyph glyph-name="brokenbar" unicode="&#xa6;" horiz-adv-x="205" 
d="M37 767h131v-357h-131v357zM37 236h131v-356h-131v356z" />
    <glyph glyph-name="section" unicode="&#xa7;" horiz-adv-x="521" 
d="M128 -135q-65 21 -111 57v107h133v-69q48 -27 119 -27q106 0 106 86q0 32 -16 51.5t-40.5 31.5t-84.5 36q-78 31 -122.5 57.5t-66.5 62t-22 87.5q0 58 32 94q-32 39 -32 97q0 87 68 131.5t175 44.5q137 0 227 -76v-99h-133v64q-40 22 -101 22q-48 0 -77.5 -20t-29.5 -63
q0 -31 18.5 -52t42 -32t81.5 -35q80 -32 121.5 -55.5t65 -58.5t23.5 -92q0 -54 -30 -93q30 -37 30 -98q0 -52 -27.5 -92.5t-80.5 -64t-128 -23.5t-140 21zM384 202.5q1 6.5 1 16.5q0 28 -22.5 48.5t-72.5 41.5q-18 8 -27 11q-77 32 -113 52q-7 -10 -7 -30q0 -31 27.5 -53.5
t82.5 -47.5q8 -4 18.5 -8t22.5 -10q62 -25 85 -36q4 9 5 15.5z" />
    <glyph glyph-name="dieresis" unicode="&#xa8;" horiz-adv-x="414" 
d="M37 653h101v-109h-101v109zM274 653h103v-109h-103v109z" />
    <glyph glyph-name="copyright" unicode="&#xa9;" horiz-adv-x="790" 
d="M215 35q-82 48 -130 130t-48 179t48 179.5t130 130.5t180 48q97 0 179.5 -48t130.5 -130.5t48 -179.5t-48 -179t-130.5 -130t-179.5 -48q-98 0 -180 48zM537 101.5q62 36.5 96 100.5t34 142t-34 142t-96 101t-142 37t-141.5 -37t-95.5 -101t-34 -142t34 -142t95.5 -100.5
t141.5 -36.5t142 36.5zM278.5 131q-52.5 29 -83 82t-30.5 124q0 114 61.5 178t166.5 64q61 0 99 -13t77 -44v-90h-95v48q-18 11 -36 15.5t-45 4.5q-53 0 -86 -41t-33 -122q0 -76 37 -116t99 -40q71 0 122 44l37 -60q-59 -63 -175 -63q-63 0 -115.5 29z" />
    <glyph glyph-name="ordfeminine" unicode="&#xaa;" horiz-adv-x="391" 
d="M64 358q-27 23 -27 65q0 47 31 71.5t88 29.5l75 5v31q0 23 -10.5 32t-34.5 9q-15 0 -25 -3t-22 -11v-23h-75v63q56 35 126 35q66 0 99 -30t33 -80v-126q0 -13 4.5 -18.5t15.5 -5.5h12v-57h-82l-11 37q-22 -26 -48.5 -36.5t-69.5 -10.5q-52 0 -79 23zM231 450v23l-64 -5
q-23 -2 -33 -11.5t-10 -28.5q0 -32 43 -32q64 0 64 54z" />
    <glyph glyph-name="guillemotleft" unicode="&#xab;" horiz-adv-x="619" 
d="M37 298v54l305 257v-132l-174 -152l174 -151v-133zM277 298v54l305 257v-132l-175 -152l175 -151v-133z" />
    <glyph glyph-name="logicalnot" unicode="&#xac;" horiz-adv-x="502" 
d="M358 263h-321v88h428v-218h-107v130z" />
    <glyph glyph-name="uni00AD" unicode="&#xad;" horiz-adv-x="372" 
d="M37 345h298v-87h-298v87z" />
    <glyph glyph-name="registered" unicode="&#xae;" horiz-adv-x="790" 
d="M215 35q-82 48 -130 130t-48 179t48 179.5t130 130.5t180 48q97 0 179.5 -48t130.5 -130.5t48 -179.5t-48 -179t-130.5 -130t-179.5 -48q-98 0 -180 48zM537 101.5q62 36.5 96 100.5t34 142t-34 142t-96 101t-142 37t-141.5 -37t-95.5 -101t-34 -142t34 -142t95.5 -100.5
t141.5 -36.5t142 36.5zM215 211h11q18 0 22 9t4 37v195q0 15 -5.5 21t-20.5 6h-11v68h208q69 0 108 -31.5t39 -85.5q0 -44 -22.5 -74.5t-65.5 -39.5l39 -74q9 -16 19 -23.5t24 -7.5h19v-64h-184v64h41l-48 96h-53v-67q0 -16 5 -22.5t19 -6.5h12v-64h-160v64zM416 372
q57 0 57 56q0 27 -14 39t-43 12h-65v-107h65z" />
    <glyph glyph-name="macron" unicode="&#xaf;" horiz-adv-x="426" 
d="M37 633h352v-81h-352v81z" />
    <glyph glyph-name="degree" unicode="&#xb0;" horiz-adv-x="341" 
d="M103.5 424q-30.5 18 -48.5 48t-18 66q0 37 18 67.5t48 48.5t66 18q37 0 68 -18t49 -48.5t18 -67.5q0 -36 -18.5 -66t-49.5 -48t-67 -18q-35 0 -65.5 18zM209 499.5q15 15.5 15 38.5q0 24 -15 40t-39 16q-23 0 -38.5 -16t-15.5 -40q0 -23 15.5 -38.5t38.5 -15.5
q24 0 39 15.5z" />
    <glyph glyph-name="plusminus" unicode="&#xb1;" horiz-adv-x="413" 
d="M152 276h-115v87h115v104h106v-104h118v-87h-118v-104h-106v104zM37 111h339v-88h-339v88z" />
    <glyph glyph-name="uni00B2" unicode="&#xb2;" horiz-adv-x="330" 
d="M37 377q0 40 22.5 65.5t75.5 56.5q39 23 52.5 36t13.5 34q0 35 -43 35q-25 0 -41 -9v-29h-80v61q22 15 58.5 25t68.5 10q60 0 93.5 -23.5t33.5 -67.5q0 -35 -17 -55.5t-66 -48.5q-7 -5 -27 -17t-29 -22t-9 -20h150v-63h-256v32z" />
    <glyph glyph-name="uni00B3" unicode="&#xb3;" horiz-adv-x="341" 
d="M92 346.5q-33 11.5 -55 30.5v58h79v-30q17 -12 47 -12q27 0 40 9.5t13 32.5t-11.5 31.5t-38.5 8.5h-35v57h36q25 0 35 7.5t10 29.5q0 18 -11 26.5t-35 8.5q-26 0 -44 -10v-28h-79v60q19 15 52 25.5t68 10.5q68 0 101.5 -23t33.5 -64q0 -53 -40 -72q46 -16 46 -67
q0 -101 -140 -101q-39 0 -72 11.5z" />
    <glyph glyph-name="acute" unicode="&#xb4;" horiz-adv-x="309" 
d="M123 709h149l-122 -193h-113z" />
    <glyph glyph-name="paragraph" unicode="&#xb6;" horiz-adv-x="674" 
d="M159 -69h26q20 0 28.5 9t8.5 28v331q-88 0 -136.5 46.5t-48.5 123.5q0 178 214 178h384v-87h-21q-22 0 -31 -9.5t-9 -29.5v-553q0 -19 8.5 -28t28.5 -9h26v-87h-194v716h-90v-716h-194v87z" />
    <glyph glyph-name="periodcentered" unicode="&#xb7;" horiz-adv-x="179" 
d="M37 356h105v-98h-105v98z" />
    <glyph glyph-name="cedilla" unicode="&#xb8;" horiz-adv-x="306" 
d="M37 -213v73q34 -15 71 -15q49 0 49 30q0 24 -19 34.5t-72 10.5l11 80h120l-6 -43q41 -7 59.5 -28.5t18.5 -58.5q0 -98 -146 -98q-48 0 -86 15z" />
    <glyph glyph-name="uni00B9" unicode="&#xb9;" horiz-adv-x="274" 
d="M51 408h32q15 0 20 5t5 18v145l-47 -31l-34 54l92 58h72v-226q0 -13 4.5 -18t19.5 -5h32v-63h-196v63z" />
    <glyph glyph-name="ordmasculine" unicode="&#xba;" horiz-adv-x="398" 
d="M79 377.5q-42 42.5 -42 120.5q0 79 41.5 121.5t120.5 42.5t120.5 -42.5t41.5 -121.5q0 -78 -42.5 -120.5t-119.5 -42.5q-78 0 -120 42.5zM253 423q17 24 17 75q0 52 -17 76t-54 24q-38 0 -54.5 -23.5t-16.5 -76.5q0 -52 16.5 -75.5t54.5 -23.5q37 0 54 24z" />
    <glyph glyph-name="guillemotright" unicode="&#xbb;" horiz-adv-x="619" 
d="M37 174l174 151l-174 152v132l305 -257v-54l-305 -257v133zM277 174l175 151l-175 152v132l305 -257v-54l-305 -257v133z" />
    <glyph glyph-name="onequarter" unicode="&#xbc;" horiz-adv-x="644" 
d="M61 408h32q15 0 20 5t5 18v145l-47 -31l-34 54l92 58h72v-226q0 -13 4.5 -18t19.5 -5h32v-63h-196v63zM475 647h121l-391 -647h-121zM437 52h19q11 0 15.5 4.5t4.5 14.5v15h-142v52l135 174h88v-169h50v-57h-50v-15q0 -10 4 -14.5t16 -4.5h19v-52h-159v52zM486 143v89
l-70 -89h70z" />
    <glyph glyph-name="onehalf" unicode="&#xbd;" horiz-adv-x="695" 
d="M61 408h32q15 0 20 5t5 18v145l-47 -31l-34 54l92 58h72v-226q0 -13 4.5 -18t19.5 -5h32v-63h-196v63zM475 647h121l-391 -647h-121zM402 32q0 40 22.5 65.5t74.5 56.5q39 23 52.5 36t13.5 34q0 18 -10.5 26.5t-32.5 8.5q-25 0 -39 -9v-29h-81v61q22 15 59 25t69 10
q59 0 92.5 -23.5t33.5 -67.5q0 -34 -17 -54.5t-65 -49.5q-7 -4 -27 -16.5t-29.5 -22.5t-9.5 -20h150v-63h-256v32z" />
    <glyph glyph-name="threequarters" unicode="&#xbe;" horiz-adv-x="655" 
d="M92 346.5q-33 11.5 -55 30.5v58h79v-30q17 -12 47 -12q27 0 40 9.5t13 32.5t-11.5 31.5t-38.5 8.5h-35v57h36q25 0 35 8.5t10 31.5q0 32 -46 32q-26 0 -44 -10v-28h-79v60q19 15 52 25.5t68 10.5q68 0 101.5 -23t33.5 -64q0 -53 -40 -72q46 -16 46 -67q0 -101 -140 -101
q-39 0 -72 11.5zM485 647h122l-391 -647h-121zM447 52h20q20 0 20 19v15h-143v52l136 174h88v-169h50v-57h-50v-15q0 -10 4 -14.5t15 -4.5h20v-52h-160v52zM496 143v89l-70 -89h70z" />
    <glyph glyph-name="questiondown" unicode="&#xbf;" horiz-adv-x="543" 
d="M238 495h147v-108h-147v108zM99.5 -123.5q-62.5 43.5 -62.5 129.5q0 44 14.5 74t43.5 53.5t81 52.5q30 17 44.5 33t19.5 36.5t5 56.5v23h132v-29q0 -65 -27.5 -110t-92.5 -79q-48 -25 -69 -48t-21 -63q0 -85 112 -85q55 0 109 26v60h118v-105q-42 -31 -102 -50t-129 -19
q-113 0 -175.5 43.5z" />
    <glyph glyph-name="Agrave" unicode="&#xc0;" horiz-adv-x="717" 
d="M193 879h149l78 -180h-114zM27 87h29q24 0 36 7.5t19 28.5l185 524h127l182 -524q7 -21 19.5 -28.5t37.5 -7.5h28v-87h-250v87h46l-36 110h-182l-37 -110h46v-87h-250v87zM428 269l-68 207l-70 -207h138z" />
    <glyph glyph-name="Aacute" unicode="&#xc1;" horiz-adv-x="717" 
d="M379 879h148l-113 -180h-112zM27 87h29q24 0 36 7.5t19 28.5l185 524h127l182 -524q7 -21 19.5 -28.5t37.5 -7.5h28v-87h-250v87h46l-36 110h-182l-37 -110h46v-87h-250v87zM428 269l-68 207l-70 -207h138z" />
    <glyph glyph-name="Acircumflex" unicode="&#xc2;" horiz-adv-x="717" 
d="M301 893h120l130 -193h-121l-70 120l-70 -120h-120zM27 87h29q24 0 36 7.5t19 28.5l185 524h127l182 -524q7 -21 19.5 -28.5t37.5 -7.5h28v-87h-250v87h46l-36 110h-182l-37 -110h46v-87h-250v87zM428 269l-68 207l-70 -207h138z" />
    <glyph glyph-name="Atilde" unicode="&#xc3;" horiz-adv-x="717" 
d="M183.5 815.5q28.5 37.5 89.5 37.5q27 0 47 -7.5t48 -22.5q20 -11 33 -16.5t27 -5.5q22 0 33 12.5t11 39.5h93q0 -80 -27 -116.5t-87 -36.5q-27 0 -48.5 7.5t-47.5 21.5q-21 11 -34 16t-27 5q-23 0 -34 -11.5t-11 -38.5h-94q0 78 28.5 115.5zM27 87h29q24 0 36 7.5
t19 28.5l185 524h127l182 -524q7 -21 19.5 -28.5t37.5 -7.5h28v-87h-250v87h46l-36 110h-182l-37 -110h46v-87h-250v87zM428 269l-68 207l-70 -207h138z" />
    <glyph glyph-name="Adieresis" unicode="&#xc4;" horiz-adv-x="717" 
d="M195 828h104v-109h-104v109zM420 828h105v-109h-105v109zM27 87h29q24 0 36 7.5t19 28.5l185 524h127l182 -524q7 -21 19.5 -28.5t37.5 -7.5h28v-87h-250v87h46l-36 110h-182l-37 -110h46v-87h-250v87zM428 269l-68 207l-70 -207h138z" />
    <glyph glyph-name="Aring" unicode="&#xc5;" horiz-adv-x="717" 
d="M690 87v-87h-250v87h46l-36 110h-182l-37 -110h46v-87h-250v87h29q24 0 36 7.5t19 28.5l177 501q-21 16 -32.5 40t-11.5 52q0 48 33.5 82t82.5 34t83 -34t34 -82q0 -28 -12.5 -52t-33.5 -40l174 -501q7 -21 19.5 -28.5t37.5 -7.5h28zM326.5 750q-13.5 -14 -13.5 -34
t13.5 -34t33.5 -14t33.5 14t13.5 34t-13.5 34t-33.5 14t-33.5 -14zM428 269l-68 207l-70 -207h138z" />
    <glyph glyph-name="AE" unicode="&#xc6;" horiz-adv-x="832" 
d="M27 87h29q24 0 35.5 7.5t19.5 28.5l193 524h501v-142h-120v17q0 25 -14.5 31.5t-52.5 6.5h-98v-192h144v-88h-144v-193h126q20 0 29.5 9t9.5 29v18h120v-143h-464v87h15q20 0 26 8.5t6 30.5v71h-118l-39 -110h46v-87h-250v87zM388 276v284h-3l-91 -284h94z" />
    <glyph glyph-name="Ccedilla" unicode="&#xc7;" horiz-adv-x="603" 
d="M247 -213v73q33 -15 72 -15q48 0 48 30q0 24 -19 34.5t-73 10.5l11 71q-126 22 -192.5 109.5t-66.5 218.5q0 100 35 177.5t107.5 121.5t180.5 44q73 0 124 -14t100 -45v-114h-131v69q-19 8 -38 11.5t-48 3.5q-97 0 -148.5 -67t-51.5 -187q0 -117 55.5 -181t158.5 -64
q45 0 82 10t76 32l47 -74q-46 -30 -75 -39.5t-96 -16.5l-5 -29q41 -7 60 -28.5t19 -58.5q0 -98 -146 -98q-49 0 -86 15z" />
    <glyph glyph-name="Egrave" unicode="&#xc8;" horiz-adv-x="546" 
d="M128 879h149l78 -180h-114zM27 87h26q21 0 30 9.5t9 29.5v397q0 19 -9 28t-30 9h-26v87h492v-142h-120v18q0 37 -39 37h-136v-192h154v-88h-154v-193h136q20 0 29.5 9t9.5 29v18h120v-143h-492v87z" />
    <glyph glyph-name="Eacute" unicode="&#xc9;" horiz-adv-x="546" 
d="M267 879h148l-113 -180h-112zM27 87h26q21 0 30 9.5t9 29.5v397q0 19 -9 28t-30 9h-26v87h492v-142h-120v18q0 37 -39 37h-136v-192h154v-88h-154v-193h136q20 0 29.5 9t9.5 29v18h120v-143h-492v87z" />
    <glyph glyph-name="Ecircumflex" unicode="&#xca;" horiz-adv-x="546" 
d="M208 893h120l130 -193h-121l-70 120l-70 -120h-120zM27 87h26q21 0 30 9.5t9 29.5v397q0 19 -9 28t-30 9h-26v87h492v-142h-120v18q0 37 -39 37h-136v-192h154v-88h-154v-193h136q20 0 29.5 9t9.5 29v18h120v-143h-492v87z" />
    <glyph glyph-name="Edieresis" unicode="&#xcb;" horiz-adv-x="546" 
d="M113 828h104v-109h-104v109zM338 828h105v-109h-105v109zM27 87h26q21 0 30 9.5t9 29.5v397q0 19 -9 28t-30 9h-26v87h492v-142h-120v18q0 37 -39 37h-136v-192h154v-88h-154v-193h136q20 0 29.5 9t9.5 29v18h120v-143h-492v87z" />
    <glyph glyph-name="Igrave" unicode="&#xcc;" horiz-adv-x="313" 
d="M-7 879h149l78 -180h-114zM27 87h26q21 0 30 9.5t9 29.5v397q0 19 -9 28t-30 9h-26v87h259v-87h-26q-20 0 -28.5 -9t-8.5 -28v-399q0 -19 8.5 -28t28.5 -9h26v-87h-259v87z" />
    <glyph glyph-name="Iacute" unicode="&#xcd;" horiz-adv-x="313" 
d="M165 879h148l-113 -180h-112zM27 87h26q21 0 30 9.5t9 29.5v397q0 19 -9 28t-30 9h-26v87h259v-87h-26q-20 0 -28.5 -9t-8.5 -28v-399q0 -19 8.5 -28t28.5 -9h26v-87h-259v87z" />
    <glyph glyph-name="Icircumflex" unicode="&#xce;" horiz-adv-x="313" 
d="M97 892h120l130 -193h-121l-70 120l-70 -120h-120zM27 87h26q21 0 30 9.5t9 29.5v397q0 19 -9 28t-30 9h-26v87h259v-87h-26q-20 0 -28.5 -9t-8.5 -28v-399q0 -19 8.5 -28t28.5 -9h26v-87h-259v87z" />
    <glyph glyph-name="Idieresis" unicode="&#xcf;" horiz-adv-x="313" 
d="M-9 828h104v-109h-104v109zM216 828h105v-109h-105v109zM27 87h26q21 0 30 9.5t9 29.5v397q0 19 -9 28t-30 9h-26v87h259v-87h-26q-20 0 -28.5 -9t-8.5 -28v-399q0 -19 8.5 -28t28.5 -9h26v-87h-259v87z" />
    <glyph glyph-name="Eth" unicode="&#xd0;" horiz-adv-x="631" 
d="M27 87h26q21 0 30 9.5t9 29.5v152h-65v89h65v156q0 19 -9 28t-30 9h-26v87h300q140 0 208.5 -84.5t68.5 -241.5q0 -144 -70.5 -232.5t-206.5 -88.5h-300v87zM308 87q90 0 128.5 58t38.5 176q0 121 -38 180t-129 59h-88v-193h126v-89h-126v-191h88z" />
    <glyph glyph-name="Ntilde" unicode="&#xd1;" horiz-adv-x="693" 
d="M161.5 815.5q28.5 37.5 89.5 37.5q27 0 47 -7.5t48 -22.5q20 -11 33 -16.5t27 -5.5q22 0 33 12.5t11 39.5h93q0 -80 -27 -116.5t-87 -36.5q-27 0 -48.5 7.5t-47.5 21.5q-21 11 -34 16t-27 5q-23 0 -34 -11.5t-11 -38.5h-94q0 78 28.5 115.5zM27 87h26q39 0 39 37v399
q0 19 -9 28t-30 9h-26v87h165l279 -433v309q0 37 -39 37h-27v87h261v-87h-27q-19 0 -28 -9t-9 -28v-523h-101l-277 431v-307q0 -19 8.5 -28t28.5 -9h26v-87h-260v87z" />
    <glyph glyph-name="Ograve" unicode="&#xd2;" horiz-adv-x="663" 
d="M178 879h149l78 -180h-114zM102 68.5q-75 83.5 -75 252.5q0 171 73 256t232 85q157 0 230.5 -85t73.5 -256q0 -169 -75 -252.5t-229 -83.5q-155 0 -230 83.5zM464.5 131q41.5 57 41.5 190q0 136 -41.5 194t-132.5 58q-62 0 -100 -24.5t-56.5 -80t-18.5 -147.5
q0 -134 41.5 -190.5t133.5 -56.5q91 0 132.5 57z" />
    <glyph glyph-name="Oacute" unicode="&#xd3;" horiz-adv-x="663" 
d="M340 879h148l-113 -180h-112zM102 68.5q-75 83.5 -75 252.5q0 171 73 256t232 85q157 0 230.5 -85t73.5 -256q0 -169 -75 -252.5t-229 -83.5q-155 0 -230 83.5zM464.5 131q41.5 57 41.5 190q0 136 -41.5 194t-132.5 58q-62 0 -100 -24.5t-56.5 -80t-18.5 -147.5
q0 -134 41.5 -190.5t133.5 -56.5q91 0 132.5 57z" />
    <glyph glyph-name="Ocircumflex" unicode="&#xd4;" horiz-adv-x="663" 
d="M272 893h120l130 -193h-121l-70 120l-70 -120h-120zM102 68.5q-75 83.5 -75 252.5q0 171 73 256t232 85q157 0 230.5 -85t73.5 -256q0 -169 -75 -252.5t-229 -83.5q-155 0 -230 83.5zM464.5 131q41.5 57 41.5 190q0 136 -41.5 194t-132.5 58q-62 0 -100 -24.5t-56.5 -80
t-18.5 -147.5q0 -134 41.5 -190.5t133.5 -56.5q91 0 132.5 57z" />
    <glyph glyph-name="Otilde" unicode="&#xd5;" horiz-adv-x="663" 
d="M154.5 815.5q28.5 37.5 89.5 37.5q27 0 47 -7.5t48 -22.5q20 -11 33 -16.5t27 -5.5q22 0 33 12.5t11 39.5h93q0 -80 -27 -116.5t-87 -36.5q-27 0 -48.5 7.5t-47.5 21.5q-21 11 -34 16t-27 5q-23 0 -34 -11.5t-11 -38.5h-94q0 78 28.5 115.5zM102 68.5q-75 83.5 -75 252.5
q0 171 73 256t232 85q157 0 230.5 -85t73.5 -256q0 -169 -75 -252.5t-229 -83.5q-155 0 -230 83.5zM464.5 131q41.5 57 41.5 190q0 136 -41.5 194t-132.5 58q-62 0 -100 -24.5t-56.5 -80t-18.5 -147.5q0 -134 41.5 -190.5t133.5 -56.5q91 0 132.5 57z" />
    <glyph glyph-name="Odieresis" unicode="&#xd6;" horiz-adv-x="663" 
d="M166 828h104v-109h-104v109zM391 828h105v-109h-105v109zM102 68.5q-75 83.5 -75 252.5q0 171 73 256t232 85q157 0 230.5 -85t73.5 -256q0 -169 -75 -252.5t-229 -83.5q-155 0 -230 83.5zM464.5 131q41.5 57 41.5 190q0 136 -41.5 194t-132.5 58q-62 0 -100 -24.5
t-56.5 -80t-18.5 -147.5q0 -134 41.5 -190.5t133.5 -56.5q91 0 132.5 57z" />
    <glyph glyph-name="multiply" unicode="&#xd7;" horiz-adv-x="375" 
d="M38 228l79 79l-80 82l71 68l79 -80l81 80l70 -68l-80 -82l80 -79l-70 -70l-80 79l-80 -80z" />
    <glyph glyph-name="Oslash" unicode="&#xd8;" horiz-adv-x="663" 
d="M180 13q-153 66 -153 308q0 171 73 256t232 85q43 0 85 -8l14 35h56l-19 -49q86 -32 127 -111.5t41 -207.5q0 -169 -75 -252.5t-229 -83.5q-55 0 -102 11l-14 -39h-56zM386 567q-24 6 -54 6q-62 0 -100 -24.5t-56.5 -80t-18.5 -147.5q0 -79 14.5 -129.5t45.5 -78.5z
M464.5 131q41.5 57 41.5 190q0 89 -18 144t-55 81l-171 -462q25 -10 70 -10q91 0 132.5 57z" />
    <glyph glyph-name="Ugrave" unicode="&#xd9;" horiz-adv-x="666" 
d="M170 879h149l78 -180h-114zM141 38.5q-64 53.5 -64 146.5v339q0 19 -8.5 27.5t-29.5 8.5h-22v87h248v-87h-22q-20 0 -29 -8.5t-9 -27.5v-345q0 -105 128 -105t128 105v345q0 19 -8.5 27.5t-29.5 8.5h-22v87h248v-87h-22q-20 0 -29 -8.5t-9 -27.5v-339q0 -93 -64.5 -146.5
t-191.5 -53.5q-128 0 -192 53.5z" />
    <glyph glyph-name="Uacute" unicode="&#xda;" horiz-adv-x="666" 
d="M328 879h148l-113 -180h-112zM141 38.5q-64 53.5 -64 146.5v339q0 19 -8.5 27.5t-29.5 8.5h-22v87h248v-87h-22q-20 0 -29 -8.5t-9 -27.5v-345q0 -105 128 -105t128 105v345q0 19 -8.5 27.5t-29.5 8.5h-22v87h248v-87h-22q-20 0 -29 -8.5t-9 -27.5v-339
q0 -93 -64.5 -146.5t-191.5 -53.5q-128 0 -192 53.5z" />
    <glyph glyph-name="Ucircumflex" unicode="&#xdb;" horiz-adv-x="666" 
d="M274 893h120l130 -193h-121l-70 120l-70 -120h-120zM141 38.5q-64 53.5 -64 146.5v339q0 19 -8.5 27.5t-29.5 8.5h-22v87h248v-87h-22q-20 0 -29 -8.5t-9 -27.5v-345q0 -105 128 -105t128 105v345q0 19 -8.5 27.5t-29.5 8.5h-22v87h248v-87h-22q-20 0 -29 -8.5t-9 -27.5
v-339q0 -93 -64.5 -146.5t-191.5 -53.5q-128 0 -192 53.5z" />
    <glyph glyph-name="Udieresis" unicode="&#xdc;" horiz-adv-x="666" 
d="M167 828h104v-109h-104v109zM392 828h105v-109h-105v109zM141 38.5q-64 53.5 -64 146.5v339q0 19 -8.5 27.5t-29.5 8.5h-22v87h248v-87h-22q-20 0 -29 -8.5t-9 -27.5v-345q0 -105 128 -105t128 105v345q0 19 -8.5 27.5t-29.5 8.5h-22v87h248v-87h-22q-20 0 -29 -8.5
t-9 -27.5v-339q0 -93 -64.5 -146.5t-191.5 -53.5q-128 0 -192 53.5z" />
    <glyph glyph-name="Yacute" unicode="&#xdd;" horiz-adv-x="669" 
d="M350 879h148l-113 -180h-112zM204 87h25q21 0 30 9.5t9 28.5v114l-152 280q-13 24 -26.5 32.5t-39.5 8.5h-23v87h242v-87h-14q-17 0 -17 -11q0 -8 8 -24l89 -179l88 179q8 16 8 24q0 11 -17 11h-14v87h242v-87h-23q-26 0 -39.5 -8.5t-26.5 -32.5l-153 -280v-115
q0 -19 9.5 -28t30.5 -9h25v-87h-261v87z" />
    <glyph glyph-name="Thorn" unicode="&#xde;" horiz-adv-x="626" 
d="M27 87h25q40 0 40 37v399q0 37 -39 37h-26v87h193v-89h155q105 0 164.5 -52t59.5 -151q0 -98 -60.5 -154t-164.5 -56h-154v-21q0 -37 39 -37h28v-87h-260v87zM357 232q57 0 85 30.5t28 92.5q0 64 -27 90t-86 26h-137v-239h137z" />
    <glyph glyph-name="germandbls" unicode="&#xdf;" horiz-adv-x="643" 
d="M334.5 -7q-36.5 8 -63.5 26l42 79q38 -24 86 -24q87 0 87 116q0 60 -26.5 88.5t-89.5 28.5h-55v90h49q57 0 82 28t25 86t-31.5 85t-92.5 27q-123 0 -123 -116v-507h-197v87h28q21 0 29.5 9t8.5 30v372q0 98 63 156t189 58q128 0 192.5 -55t64.5 -146q0 -53 -21 -97.5
t-63 -62.5q53 -22 75.5 -63t22.5 -99q0 -94 -52 -149t-156 -55q-37 0 -73.5 8z" />
    <glyph glyph-name="agrave" unicode="&#xe0;" horiz-adv-x="525" 
d="M93 704h149l78 -180h-114zM59.5 20q-42.5 35 -42.5 100q0 73 47.5 108.5t137.5 40.5l123 8v59q0 38 -17 54t-57 16q-46 0 -78 -18v-39h-113v92q87 54 195 54q105 0 153.5 -46t48.5 -126v-199q0 -19 7.5 -28t24.5 -9h19v-87h-124l-13 60q-35 -42 -76 -58.5t-110 -16.5
q-83 0 -125.5 35zM296 93q29 23 29 68v41l-111 -8q-42 -3 -58 -17.5t-16 -47.5q0 -59 75 -59q52 0 81 23z" />
    <glyph glyph-name="aacute" unicode="&#xe1;" horiz-adv-x="525" 
d="M273 704h148l-113 -180h-112zM59.5 20q-42.5 35 -42.5 100q0 73 47.5 108.5t137.5 40.5l123 8v59q0 38 -17 54t-57 16q-46 0 -78 -18v-39h-113v92q87 54 195 54q105 0 153.5 -46t48.5 -126v-199q0 -19 7.5 -28t24.5 -9h19v-87h-124l-13 60q-35 -42 -76 -58.5t-110 -16.5
q-83 0 -125.5 35zM296 93q29 23 29 68v41l-111 -8q-42 -3 -58 -17.5t-16 -47.5q0 -59 75 -59q52 0 81 23z" />
    <glyph glyph-name="acircumflex" unicode="&#xe2;" horiz-adv-x="525" 
d="M199 716h120l130 -193h-121l-70 120l-70 -120h-120zM59.5 20q-42.5 35 -42.5 100q0 73 47.5 108.5t137.5 40.5l123 8v59q0 38 -17 54t-57 16q-46 0 -78 -18v-39h-113v92q87 54 195 54q105 0 153.5 -46t48.5 -126v-199q0 -19 7.5 -28t24.5 -9h19v-87h-124l-13 60
q-35 -42 -76 -58.5t-110 -16.5q-83 0 -125.5 35zM296 93q29 23 29 68v41l-111 -8q-42 -3 -58 -17.5t-16 -47.5q0 -59 75 -59q52 0 81 23z" />
    <glyph glyph-name="atilde" unicode="&#xe3;" horiz-adv-x="525" 
d="M81.5 639.5q28.5 37.5 89.5 37.5q27 0 47 -7.5t48 -22.5q20 -11 33 -16.5t27 -5.5q22 0 33 12.5t11 39.5h93q0 -80 -27 -116.5t-87 -36.5q-27 0 -48.5 7.5t-47.5 21.5q-21 11 -34 16t-27 5q-23 0 -34 -11.5t-11 -38.5h-94q0 78 28.5 115.5zM59.5 20q-42.5 35 -42.5 100
q0 73 47.5 108.5t137.5 40.5l123 8v59q0 38 -17 54t-57 16q-46 0 -78 -18v-39h-113v92q87 54 195 54q105 0 153.5 -46t48.5 -126v-199q0 -19 7.5 -28t24.5 -9h19v-87h-124l-13 60q-35 -42 -76 -58.5t-110 -16.5q-83 0 -125.5 35zM296 93q29 23 29 68v41l-111 -8
q-42 -3 -58 -17.5t-16 -47.5q0 -59 75 -59q52 0 81 23z" />
    <glyph glyph-name="adieresis" unicode="&#xe4;" horiz-adv-x="525" 
d="M87 653h104v-109h-104v109zM312 653h105v-109h-105v109zM59.5 20q-42.5 35 -42.5 100q0 73 47.5 108.5t137.5 40.5l123 8v59q0 38 -17 54t-57 16q-46 0 -78 -18v-39h-113v92q87 54 195 54q105 0 153.5 -46t48.5 -126v-199q0 -19 7.5 -28t24.5 -9h19v-87h-124l-13 60
q-35 -42 -76 -58.5t-110 -16.5q-83 0 -125.5 35zM296 93q29 23 29 68v41l-111 -8q-42 -3 -58 -17.5t-16 -47.5q0 -59 75 -59q52 0 81 23z" />
    <glyph glyph-name="aring" unicode="&#xe5;" horiz-adv-x="525" 
d="M176.5 557.5q-33.5 33.5 -33.5 82.5q0 48 33.5 82t82.5 34t83 -34t34 -82q0 -49 -34 -82.5t-83 -33.5t-82.5 33.5zM292.5 606q13.5 14 13.5 34t-13.5 34t-33.5 14t-33.5 -14t-13.5 -34t13.5 -34t33.5 -14t33.5 14zM59.5 20q-42.5 35 -42.5 100q0 73 47.5 108.5
t137.5 40.5l123 8v59q0 38 -17 54t-57 16q-46 0 -78 -18v-39h-113v92q87 54 195 54q105 0 153.5 -46t48.5 -126v-199q0 -19 7.5 -28t24.5 -9h19v-87h-124l-13 60q-35 -42 -76 -58.5t-110 -16.5q-83 0 -125.5 35zM296 93q29 23 29 68v41l-111 -8q-42 -3 -58 -17.5t-16 -47.5
q0 -59 75 -59q52 0 81 23z" />
    <glyph glyph-name="ae" unicode="&#xe6;" horiz-adv-x="832" 
d="M59.5 20q-42.5 35 -42.5 100q0 73 47.5 108.5t137.5 40.5l123 8v59q0 38 -17 54t-57 16q-46 0 -78 -18v-39h-113v92q87 54 195 54q99 0 144 -55q29 25 72.5 40t96.5 15q116 0 176.5 -64.5t60.5 -174.5v-47h-348v-7q1 -68 30 -98t89 -30q62 0 99 16v35h113v-76
q-76 -64 -213 -64q-125 0 -176 78q-36 -42 -87 -60t-127 -18q-83 0 -125.5 35zM675 284q0 62 -27 92t-82 30q-104 0 -109 -111v-11h218zM296 93q29 23 29 68v41l-111 -8q-42 -3 -58 -17.5t-16 -47.5q0 -59 75 -59q52 0 81 23z" />
    <glyph glyph-name="ccedilla" unicode="&#xe7;" horiz-adv-x="520" 
d="M191 -213v73q33 -15 72 -15q48 0 48 30q0 24 -19 34.5t-73 10.5l11 70q-92 16 -147.5 79t-55.5 166q0 124 70 192t192 68q68 0 113 -15t88 -48v-105h-113v58q-20 11 -39.5 16t-48.5 5q-58 0 -95 -43t-37 -128q0 -81 43 -121t114 -40q41 0 73.5 10t61.5 30l44 -72
q-35 -25 -68 -37.5t-76 -16.5l-5 -31q41 -7 60 -28.5t19 -58.5q0 -98 -146 -98q-49 0 -86 15z" />
    <glyph glyph-name="egrave" unicode="&#xe8;" horiz-adv-x="541" 
d="M135 704h149l78 -180h-114zM95.5 48.5q-68.5 63.5 -68.5 186.5q0 130 65 195t185 65q116 0 176.5 -64.5t60.5 -174.5v-47h-357q0 -70 33 -102.5t95 -32.5t99 16v35h113v-76q-76 -64 -213 -64q-120 0 -188.5 63.5zM384 284q0 62 -27 92t-82 30q-57 0 -87.5 -31.5
t-30.5 -90.5h227z" />
    <glyph glyph-name="eacute" unicode="&#xe9;" horiz-adv-x="541" 
d="M298 704h148l-113 -180h-112zM95.5 48.5q-68.5 63.5 -68.5 186.5q0 130 65 195t185 65q116 0 176.5 -64.5t60.5 -174.5v-47h-357q0 -70 33 -102.5t95 -32.5t99 16v35h113v-76q-76 -64 -213 -64q-120 0 -188.5 63.5zM384 284q0 62 -27 92t-82 30q-57 0 -87.5 -31.5
t-30.5 -90.5h227z" />
    <glyph glyph-name="ecircumflex" unicode="&#xea;" horiz-adv-x="541" 
d="M220 716h120l130 -193h-121l-70 120l-70 -120h-120zM95.5 48.5q-68.5 63.5 -68.5 186.5q0 130 65 195t185 65q116 0 176.5 -64.5t60.5 -174.5v-47h-357q0 -70 33 -102.5t95 -32.5t99 16v35h113v-76q-76 -64 -213 -64q-120 0 -188.5 63.5zM384 284q0 62 -27 92t-82 30
q-57 0 -87.5 -31.5t-30.5 -90.5h227z" />
    <glyph glyph-name="edieresis" unicode="&#xeb;" horiz-adv-x="541" 
d="M116 641h104v-109h-104v109zM341 641h105v-109h-105v109zM95.5 48.5q-68.5 63.5 -68.5 186.5q0 130 65 195t185 65q116 0 176.5 -64.5t60.5 -174.5v-47h-357q0 -70 33 -102.5t95 -32.5t99 16v35h113v-76q-76 -64 -213 -64q-120 0 -188.5 63.5zM384 284q0 62 -27 92
t-82 30q-57 0 -87.5 -31.5t-30.5 -90.5h227z" />
    <glyph glyph-name="igrave" unicode="&#xec;" horiz-adv-x="293" 
d="M-20 701h149l78 -180h-114zM17 87h26q21 0 30 9.5t9 29.5v225q0 22 -7.5 32t-29.5 10h-28v87h196v-356q0 -19 8.5 -28t28.5 -9h26v-87h-259v87z" />
    <glyph glyph-name="iacute" unicode="&#xed;" horiz-adv-x="293" 
d="M144 701h148l-113 -180h-112zM17 87h26q21 0 30 9.5t9 29.5v225q0 22 -7.5 32t-29.5 10h-28v87h196v-356q0 -19 8.5 -28t28.5 -9h26v-87h-259v87z" />
    <glyph glyph-name="icircumflex" unicode="&#xee;" horiz-adv-x="293" 
d="M76 701h120l130 -193h-121l-70 120l-70 -120h-120zM17 87h26q21 0 30 9.5t9 29.5v225q0 22 -7.5 32t-29.5 10h-28v87h196v-356q0 -19 8.5 -28t28.5 -9h26v-87h-259v87z" />
    <glyph glyph-name="idieresis" unicode="&#xef;" horiz-adv-x="293" 
d="M-37 657h104v-109h-104v109zM188 657h105v-109h-105v109zM17 87h26q21 0 30 9.5t9 29.5v225q0 22 -7.5 32t-29.5 10h-28v87h196v-356q0 -19 8.5 -28t28.5 -9h26v-87h-259v87z" />
    <glyph glyph-name="eth" unicode="&#xf0;" horiz-adv-x="583" 
d="M91 38q-63 53 -63 165q0 83 33.5 144t94.5 94t144 33q39 0 71.5 -12.5t53.5 -36.5q-1 43 -10.5 71t-29.5 47l-88 -49l-11 44l56 31q-18 3 -40 3q-85 0 -148 -37l-27 80q79 47 195 47q74 0 126 -31l77 44l11 -46l-50 -28q70 -72 70 -234q0 -179 -72 -280.5t-220 -101.5
q-110 0 -173 53zM371.5 120.5q37.5 47.5 41.5 143.5q3 63 -26 92t-81 29q-149 0 -149 -200q0 -57 25 -84.5t87 -27.5q65 0 102.5 47.5z" />
    <glyph glyph-name="ntilde" unicode="&#xf1;" horiz-adv-x="607" 
d="M121.5 639.5q28.5 37.5 89.5 37.5q27 0 47 -7.5t48 -22.5q20 -11 33 -16.5t27 -5.5q22 0 33 12.5t11 39.5h93q0 -80 -27 -116.5t-87 -36.5q-27 0 -48.5 7.5t-47.5 21.5q-21 11 -34 16t-27 5q-23 0 -34 -11.5t-11 -38.5h-94q0 78 28.5 115.5zM27 87h26q21 0 30 9.5t9 29.5
v230q0 19 -8.5 28t-28.5 9h-28v87h149l6 -66q33 41 77.5 61t105.5 20q84 0 123 -42.5t39 -124.5v-204q0 -19 8.5 -28t28.5 -9h26v-87h-194v327q0 44 -18 63.5t-59 19.5q-43 0 -69.5 -24.5t-26.5 -68.5v-193q0 -19 8.5 -28t28.5 -9h26v-87h-259v87z" />
    <glyph glyph-name="ograve" unicode="&#xf2;" horiz-adv-x="558" 
d="M113 704h149l78 -180h-114zM91.5 51q-64.5 66 -64.5 188q0 123 64 189.5t188 66.5q125 0 188.5 -66.5t63.5 -189.5q0 -122 -64.5 -188t-187.5 -66t-187.5 66zM371.5 114q29.5 40 29.5 125q0 86 -29.5 126.5t-92.5 40.5t-92.5 -40.5t-29.5 -126.5q0 -85 29.5 -125
t92.5 -40t92.5 40z" />
    <glyph glyph-name="oacute" unicode="&#xf3;" horiz-adv-x="558" 
d="M278 704h148l-113 -180h-112zM91.5 51q-64.5 66 -64.5 188q0 123 64 189.5t188 66.5q125 0 188.5 -66.5t63.5 -189.5q0 -122 -64.5 -188t-187.5 -66t-187.5 66zM371.5 114q29.5 40 29.5 125q0 86 -29.5 126.5t-92.5 40.5t-92.5 -40.5t-29.5 -126.5q0 -85 29.5 -125
t92.5 -40t92.5 40z" />
    <glyph glyph-name="ocircumflex" unicode="&#xf4;" horiz-adv-x="558" 
d="M220 716h120l130 -193h-121l-70 120l-70 -120h-120zM91.5 51q-64.5 66 -64.5 188q0 123 64 189.5t188 66.5q125 0 188.5 -66.5t63.5 -189.5q0 -122 -64.5 -188t-187.5 -66t-187.5 66zM371.5 114q29.5 40 29.5 125q0 86 -29.5 126.5t-92.5 40.5t-92.5 -40.5t-29.5 -126.5
q0 -85 29.5 -125t92.5 -40t92.5 40z" />
    <glyph glyph-name="otilde" unicode="&#xf5;" horiz-adv-x="558" 
d="M102.5 639.5q28.5 37.5 89.5 37.5q27 0 47 -7.5t48 -22.5q20 -11 33 -16.5t27 -5.5q22 0 33 12.5t11 39.5h93q0 -80 -27 -116.5t-87 -36.5q-27 0 -48.5 7.5t-47.5 21.5q-21 11 -34 16t-27 5q-23 0 -34 -11.5t-11 -38.5h-94q0 78 28.5 115.5zM91.5 51q-64.5 66 -64.5 188
q0 123 64 189.5t188 66.5q125 0 188.5 -66.5t63.5 -189.5q0 -122 -64.5 -188t-187.5 -66t-187.5 66zM371.5 114q29.5 40 29.5 125q0 86 -29.5 126.5t-92.5 40.5t-92.5 -40.5t-29.5 -126.5q0 -85 29.5 -125t92.5 -40t92.5 40z" />
    <glyph glyph-name="odieresis" unicode="&#xf6;" horiz-adv-x="558" 
d="M114 653h104v-109h-104v109zM339 653h105v-109h-105v109zM91.5 51q-64.5 66 -64.5 188q0 123 64 189.5t188 66.5q125 0 188.5 -66.5t63.5 -189.5q0 -122 -64.5 -188t-187.5 -66t-187.5 66zM371.5 114q29.5 40 29.5 125q0 86 -29.5 126.5t-92.5 40.5t-92.5 -40.5
t-29.5 -126.5q0 -85 29.5 -125t92.5 -40t92.5 40z" />
    <glyph glyph-name="divide" unicode="&#xf7;" horiz-adv-x="413" 
d="M162 469h88v-84h-88v84zM37 348h339v-81h-339v81zM162 231h88v-85h-88v85z" />
    <glyph glyph-name="oslash" unicode="&#xf8;" horiz-adv-x="558" 
d="M168 2q-69 25 -105 86t-36 151q0 123 64 189.5t188 66.5q25 0 65 -6l16 46h55l-21 -59q68 -26 102.5 -86.5t34.5 -150.5q0 -122 -64.5 -188t-187.5 -66q-28 0 -61 5l-15 -42h-56zM312 402q-20 4 -33 4q-63 0 -92.5 -40.5t-29.5 -126.5q0 -96 46 -136zM371.5 114
q29.5 40 29.5 125q0 96 -44 135l-108 -297q13 -3 30 -3q63 0 92.5 40z" />
    <glyph glyph-name="ugrave" unicode="&#xf9;" horiz-adv-x="597" 
d="M133 704h149l78 -180h-114zM123 28q-43 43 -43 124v204q0 19 -8.5 28t-28.5 9h-26v87h194v-327q0 -44 19.5 -63.5t60.5 -19.5q42 0 67.5 24t25.5 69v193q0 19 -8.5 28t-28.5 9h-26v87h259v-87h-26q-21 0 -30 -9.5t-9 -29.5v-230q0 -19 8.5 -28t28.5 -9h28v-87h-149l-6 66
q-33 -43 -72 -62t-102 -19q-85 0 -128 43z" />
    <glyph glyph-name="uacute" unicode="&#xfa;" horiz-adv-x="597" 
d="M299 704h148l-113 -180h-112zM123 28q-43 43 -43 124v204q0 19 -8.5 28t-28.5 9h-26v87h194v-327q0 -44 19.5 -63.5t60.5 -19.5q42 0 67.5 24t25.5 69v193q0 19 -8.5 28t-28.5 9h-26v87h259v-87h-26q-21 0 -30 -9.5t-9 -29.5v-230q0 -19 8.5 -28t28.5 -9h28v-87h-149
l-6 66q-33 -43 -72 -62t-102 -19q-85 0 -128 43z" />
    <glyph glyph-name="ucircumflex" unicode="&#xfb;" horiz-adv-x="597" 
d="M232 716h120l130 -193h-121l-70 120l-70 -120h-120zM123 28q-43 43 -43 124v204q0 19 -8.5 28t-28.5 9h-26v87h194v-327q0 -44 19.5 -63.5t60.5 -19.5q42 0 67.5 24t25.5 69v193q0 19 -8.5 28t-28.5 9h-26v87h259v-87h-26q-21 0 -30 -9.5t-9 -29.5v-230q0 -19 8.5 -28
t28.5 -9h28v-87h-149l-6 66q-33 -43 -72 -62t-102 -19q-85 0 -128 43z" />
    <glyph glyph-name="udieresis" unicode="&#xfc;" horiz-adv-x="597" 
d="M127 653h104v-109h-104v109zM352 653h105v-109h-105v109zM123 28q-43 43 -43 124v204q0 19 -8.5 28t-28.5 9h-26v87h194v-327q0 -44 19.5 -63.5t60.5 -19.5q42 0 67.5 24t25.5 69v193q0 19 -8.5 28t-28.5 9h-26v87h259v-87h-26q-21 0 -30 -9.5t-9 -29.5v-230
q0 -19 8.5 -28t28.5 -9h28v-87h-149l-6 66q-33 -43 -72 -62t-102 -19q-85 0 -128 43z" />
    <glyph glyph-name="yacute" unicode="&#xfd;" horiz-adv-x="575" 
d="M294 704h148l-113 -180h-112zM199 -182q-52 18 -88 52v75h113v-35q15 -14 35.5 -19.5t51.5 -5.5q92 0 92 108v54q-54 -42 -129 -42q-90 0 -141.5 45.5t-51.5 127.5v178q0 37 -38 37h-26v87h197v-307q0 -83 85 -83q44 0 69.5 25t25.5 72v169q0 37 -38 37h-26v87h198v-464
q0 -98 -57.5 -157t-155.5 -59q-64 0 -116 18z" />
    <glyph glyph-name="thorn" unicode="&#xfe;" horiz-adv-x="623" 
d="M27 -121h26q21 0 30 9.5t9 29.5v618q0 20 -9 29.5t-29 9.5h-17v87h186v-223q30 31 64.5 43.5t89.5 12.5q102 0 160.5 -64.5t58.5 -186.5q0 -124 -56.5 -191.5t-160.5 -67.5q-52 0 -88 14t-68 47v-130q0 -19 8.5 -28t28.5 -9h26v-87h-259v87zM437.5 110q28.5 43 28.5 134
q0 89 -27 130.5t-90 41.5q-55 0 -90.5 -43t-35.5 -106v-56q0 -66 35 -105t88 -39q63 0 91.5 43z" />
    <glyph glyph-name="ydieresis" unicode="&#xff;" horiz-adv-x="575" 
d="M108 653h104v-109h-104v109zM333 653h105v-109h-105v109zM199 -182q-52 18 -88 52v75h113v-35q15 -14 35.5 -19.5t51.5 -5.5q92 0 92 108v54q-54 -42 -129 -42q-90 0 -141.5 45.5t-51.5 127.5v178q0 37 -38 37h-26v87h197v-307q0 -83 85 -83q44 0 69.5 25t25.5 72v169
q0 37 -38 37h-26v87h198v-464q0 -98 -57.5 -157t-155.5 -59q-64 0 -116 18z" />
    <glyph glyph-name="Amacron" unicode="&#x100;" horiz-adv-x="717" 
d="M211 801h299v-81h-299v81zM27 87h29q24 0 36 7.5t19 28.5l185 524h127l182 -524q7 -21 19.5 -28.5t37.5 -7.5h28v-87h-250v87h46l-36 110h-182l-37 -110h46v-87h-250v87zM428 269l-68 207l-70 -207h138z" />
    <glyph glyph-name="amacron" unicode="&#x101;" horiz-adv-x="525" 
d="M114 625h299v-81h-299v81zM59.5 20q-42.5 35 -42.5 100q0 73 47.5 108.5t137.5 40.5l123 8v59q0 38 -17 54t-57 16q-46 0 -78 -18v-39h-113v92q87 54 195 54q105 0 153.5 -46t48.5 -126v-199q0 -19 7.5 -28t24.5 -9h19v-87h-124l-13 60q-35 -42 -76 -58.5t-110 -16.5
q-83 0 -125.5 35zM296 93q29 23 29 68v41l-111 -8q-42 -3 -58 -17.5t-16 -47.5q0 -59 75 -59q52 0 81 23z" />
    <glyph glyph-name="Abreve" unicode="&#x102;" horiz-adv-x="717" 
d="M236 740q-45 41 -45 109h109q0 -33 15.5 -51t44.5 -18q60 0 60 69h109q0 -68 -45 -109t-124 -41t-124 41zM27 87h29q24 0 36 7.5t19 28.5l185 524h127l182 -524q7 -21 19.5 -28.5t37.5 -7.5h28v-87h-250v87h46l-36 110h-182l-37 -110h46v-87h-250v87zM428 269l-68 207
l-70 -207h138z" />
    <glyph glyph-name="abreve" unicode="&#x103;" horiz-adv-x="525" 
d="M138 565q-45 41 -45 109h109q0 -33 15.5 -51t44.5 -18q60 0 60 69h109q0 -68 -45 -109t-124 -41t-124 41zM59.5 20q-42.5 35 -42.5 100q0 73 47.5 108.5t137.5 40.5l123 8v59q0 38 -17 54t-57 16q-46 0 -78 -18v-39h-113v92q87 54 195 54q105 0 153.5 -46t48.5 -126v-199
q0 -19 7.5 -28t24.5 -9h19v-87h-124l-13 60q-35 -42 -76 -58.5t-110 -16.5q-83 0 -125.5 35zM296 93q29 23 29 68v41l-111 -8q-42 -3 -58 -17.5t-16 -47.5q0 -59 75 -59q52 0 81 23z" />
    <glyph glyph-name="Aogonek" unicode="&#x104;" horiz-adv-x="717" 
d="M565 -39.5q-12 -19.5 -12 -43.5q0 -42 34 -42q18 0 39 8v-74q-31 -22 -80 -22q-46 0 -75.5 25t-29.5 75q0 33 14 63t38 50h-53v87h46l-36 110h-182l-37 -110h46v-87h-250v87h29q24 0 36 7.5t19 28.5l185 524h127l182 -524q7 -21 19.5 -28.5t37.5 -7.5h28v-87h-88
q-25 -20 -37 -39.5zM428 269l-68 207l-70 -207h138z" />
    <glyph glyph-name="aogonek" unicode="&#x105;" horiz-adv-x="525" 
d="M518 -117v-74q-31 -22 -80 -22q-46 0 -75.5 25t-29.5 75q0 33 14 63t38 50h-1l-13 60q-35 -42 -76 -58.5t-110 -16.5q-83 0 -125.5 35t-42.5 100q0 73 47.5 108.5t137.5 40.5l123 8v59q0 38 -17 54t-57 16q-46 0 -78 -18v-39h-113v92q87 54 195 54q105 0 153.5 -46
t48.5 -126v-199q0 -19 7.5 -28t24.5 -9h19v-87h-14q-25 -20 -37 -39.5t-12 -43.5q0 -42 34 -42q18 0 39 8zM325 202l-111 -8q-42 -3 -58 -17.5t-16 -47.5q0 -59 75 -59q52 0 81 23t29 68v41z" />
    <glyph glyph-name="Cacute" unicode="&#x106;" horiz-adv-x="603" 
d="M374 879h148l-113 -180h-112zM180 27q-76 42 -114.5 117.5t-38.5 174.5q0 100 35 177.5t107.5 121.5t180.5 44q73 0 124 -14t100 -45v-114h-131v69q-19 8 -38 11.5t-48 3.5q-97 0 -148.5 -67t-51.5 -187q0 -117 55.5 -181t158.5 -64q45 0 82 10t76 32l47 -74
q-48 -32 -95.5 -44.5t-115.5 -12.5q-109 0 -185 42z" />
    <glyph glyph-name="cacute" unicode="&#x107;" horiz-adv-x="520" 
d="M305 704h148l-113 -180h-112zM154.5 13.5q-59.5 28.5 -93.5 85t-34 136.5q0 124 70 192t192 68q68 0 113 -15t88 -48v-105h-113v58q-20 11 -39.5 16t-48.5 5q-58 0 -95 -43t-37 -128q0 -81 43 -121t114 -40q41 0 73.5 10t61.5 30l44 -72q-45 -32 -89 -44.5t-114 -12.5
q-76 0 -135.5 28.5z" />
    <glyph glyph-name="Ccircumflex" unicode="&#x108;" horiz-adv-x="603" 
d="M293 893h120l130 -193h-121l-70 120l-70 -120h-120zM180 27q-76 42 -114.5 117.5t-38.5 174.5q0 100 35 177.5t107.5 121.5t180.5 44q73 0 124 -14t100 -45v-114h-131v69q-19 8 -38 11.5t-48 3.5q-97 0 -148.5 -67t-51.5 -187q0 -117 55.5 -181t158.5 -64q45 0 82 10
t76 32l47 -74q-48 -32 -95.5 -44.5t-115.5 -12.5q-109 0 -185 42z" />
    <glyph glyph-name="ccircumflex" unicode="&#x109;" horiz-adv-x="520" 
d="M216 716h120l130 -193h-121l-70 120l-70 -120h-120zM154.5 13.5q-59.5 28.5 -93.5 85t-34 136.5q0 124 70 192t192 68q68 0 113 -15t88 -48v-105h-113v58q-20 11 -39.5 16t-48.5 5q-58 0 -95 -43t-37 -128q0 -81 43 -121t114 -40q41 0 73.5 10t61.5 30l44 -72
q-45 -32 -89 -44.5t-114 -12.5q-76 0 -135.5 28.5z" />
    <glyph glyph-name="Cdotaccent" unicode="&#x10a;" horiz-adv-x="603" 
d="M291 828h104v-109h-104v109zM180 27q-76 42 -114.5 117.5t-38.5 174.5q0 100 35 177.5t107.5 121.5t180.5 44q73 0 124 -14t100 -45v-114h-131v69q-19 8 -38 11.5t-48 3.5q-97 0 -148.5 -67t-51.5 -187q0 -117 55.5 -181t158.5 -64q45 0 82 10t76 32l47 -74
q-48 -32 -95.5 -44.5t-115.5 -12.5q-109 0 -185 42z" />
    <glyph glyph-name="cdotaccent" unicode="&#x10b;" horiz-adv-x="520" 
d="M223 651h104v-109h-104v109zM154.5 13.5q-59.5 28.5 -93.5 85t-34 136.5q0 124 70 192t192 68q68 0 113 -15t88 -48v-105h-113v58q-20 11 -39.5 16t-48.5 5q-58 0 -95 -43t-37 -128q0 -81 43 -121t114 -40q41 0 73.5 10t61.5 30l44 -72q-45 -32 -89 -44.5t-114 -12.5
q-76 0 -135.5 28.5z" />
    <glyph glyph-name="Ccaron" unicode="&#x10c;" horiz-adv-x="603" 
d="M156 893h120l70 -120l70 120h121l-130 -193h-120zM180 27q-76 42 -114.5 117.5t-38.5 174.5q0 100 35 177.5t107.5 121.5t180.5 44q73 0 124 -14t100 -45v-114h-131v69q-19 8 -38 11.5t-48 3.5q-97 0 -148.5 -67t-51.5 -187q0 -117 55.5 -181t158.5 -64q45 0 82 10t76 32
l47 -74q-48 -32 -95.5 -44.5t-115.5 -12.5q-109 0 -185 42z" />
    <glyph glyph-name="ccaron" unicode="&#x10d;" horiz-adv-x="520" 
d="M96 716h120l70 -120l70 120h121l-130 -193h-120zM154.5 13.5q-59.5 28.5 -93.5 85t-34 136.5q0 124 70 192t192 68q68 0 113 -15t88 -48v-105h-113v58q-20 11 -39.5 16t-48.5 5q-58 0 -95 -43t-37 -128q0 -81 43 -121t114 -40q41 0 73.5 10t61.5 30l44 -72
q-45 -32 -89 -44.5t-114 -12.5q-76 0 -135.5 28.5z" />
    <glyph glyph-name="Dcaron" unicode="&#x10e;" horiz-adv-x="631" 
d="M100 893h120l70 -120l70 120h121l-130 -193h-120zM27 87h26q21 0 30 9.5t9 29.5v397q0 19 -9 28t-30 9h-26v87h300q140 0 208.5 -84.5t68.5 -241.5q0 -144 -70.5 -232.5t-206.5 -88.5h-300v87zM308 87q90 0 128.5 58t38.5 176q0 121 -38 180t-129 59h-88v-473h88z" />
    <glyph glyph-name="dcaron" unicode="&#x10f;" horiz-adv-x="758" 
d="M606 721h145l-77 -211h-111zM84 49q-57 63 -57 181q0 127 56.5 196t162.5 69q55 0 89 -14t63 -48v99q0 22 -7.5 32t-29.5 10h-18v88h184v-541q0 -22 7.5 -30t26.5 -8h16v-83h-150l-8 67q-32 -42 -74 -61.5t-104 -19.5q-100 0 -157 63zM361 108q32 43 32 108v49
q0 69 -30 108t-87 39q-63 0 -91.5 -44.5t-28.5 -135.5q0 -88 27.5 -127.5t89.5 -39.5q56 0 88 43z" />
    <glyph glyph-name="Dcroat" unicode="&#x110;" horiz-adv-x="631" 
d="M27 87h26q21 0 30 9.5t9 29.5v152h-65v89h65v156q0 19 -9 28t-30 9h-26v87h300q140 0 208.5 -84.5t68.5 -241.5q0 -144 -70.5 -232.5t-206.5 -88.5h-300v87zM308 87q90 0 128.5 58t38.5 176q0 121 -38 180t-129 59h-88v-193h126v-89h-126v-191h88z" />
    <glyph glyph-name="dcroat" unicode="&#x111;" horiz-adv-x="594" 
d="M84.5 49q-57.5 63 -57.5 181q0 127 56.5 196t163.5 69q55 0 89 -14t63 -48v83h-140v85h140q-2 10 -7.5 14.5t-18.5 4.5l-11 10v58h164v-87h50v-85h-50v-395q0 -22 7.5 -30t26.5 -8h16v-83h-148l-8 67q-32 -42 -74 -61.5t-104 -19.5q-100 0 -157.5 63zM362 108
q32 43 32 108v49q0 69 -30 108t-87 39q-63 0 -91 -44.5t-28 -135.5q0 -88 27 -127.5t89 -39.5q56 0 88 43z" />
    <glyph glyph-name="Emacron" unicode="&#x112;" horiz-adv-x="546" 
d="M132 801h299v-81h-299v81zM27 87h26q21 0 30 9.5t9 29.5v397q0 19 -9 28t-30 9h-26v87h492v-142h-120v18q0 37 -39 37h-136v-192h154v-88h-154v-193h136q20 0 29.5 9t9.5 29v18h120v-143h-492v87z" />
    <glyph glyph-name="emacron" unicode="&#x113;" horiz-adv-x="541" 
d="M129 625h299v-81h-299v81zM95.5 48.5q-68.5 63.5 -68.5 186.5q0 130 65 195t185 65q116 0 176.5 -64.5t60.5 -174.5v-47h-357q0 -70 33 -102.5t95 -32.5t99 16v35h113v-76q-76 -64 -213 -64q-120 0 -188.5 63.5zM384 284q0 62 -27 92t-82 30q-57 0 -87.5 -31.5
t-30.5 -90.5h227z" />
    <glyph glyph-name="Ebreve" unicode="&#x114;" horiz-adv-x="546" 
d="M156 740q-45 41 -45 109h109q0 -33 15.5 -51t44.5 -18q60 0 60 69h109q0 -68 -45 -109t-124 -41t-124 41zM27 87h26q21 0 30 9.5t9 29.5v397q0 19 -9 28t-30 9h-26v87h492v-142h-120v18q0 37 -39 37h-136v-192h154v-88h-154v-193h136q20 0 29.5 9t9.5 29v18h120v-143
h-492v87z" />
    <glyph glyph-name="ebreve" unicode="&#x115;" horiz-adv-x="541" 
d="M150 565q-45 41 -45 109h109q0 -33 15.5 -51t44.5 -18q60 0 60 69h109q0 -68 -45 -109t-124 -41t-124 41zM95.5 48.5q-68.5 63.5 -68.5 186.5q0 130 65 195t185 65q116 0 176.5 -64.5t60.5 -174.5v-47h-357q0 -70 33 -102.5t95 -32.5t99 16v35h113v-76q-76 -64 -213 -64
q-120 0 -188.5 63.5zM384 284q0 62 -27 92t-82 30q-57 0 -87.5 -31.5t-30.5 -90.5h227z" />
    <glyph glyph-name="Edotaccent" unicode="&#x116;" horiz-adv-x="546" 
d="M218 828h104v-109h-104v109zM27 87h26q21 0 30 9.5t9 29.5v397q0 19 -9 28t-30 9h-26v87h492v-142h-120v18q0 37 -39 37h-136v-192h154v-88h-154v-193h136q20 0 29.5 9t9.5 29v18h120v-143h-492v87z" />
    <glyph glyph-name="edotaccent" unicode="&#x117;" horiz-adv-x="541" 
d="M223 653h104v-109h-104v109zM95.5 48.5q-68.5 63.5 -68.5 186.5q0 130 65 195t185 65q116 0 176.5 -64.5t60.5 -174.5v-47h-357q0 -70 33 -102.5t95 -32.5t99 16v35h113v-76q-76 -64 -213 -64q-120 0 -188.5 63.5zM384 284q0 62 -27 92t-82 30q-57 0 -87.5 -31.5
t-30.5 -90.5h227z" />
    <glyph glyph-name="Eogonek" unicode="&#x118;" horiz-adv-x="546" 
d="M399 505v18q0 37 -39 37h-136v-192h154v-88h-154v-193h136q20 0 29.5 9t9.5 29v18h120v-143h-24q-25 -20 -37 -39.5t-12 -43.5q0 -42 34 -42q18 0 39 8v-74q-31 -22 -80 -22q-46 0 -75.5 25t-29.5 75q0 33 14 63t38 50h-359v87h26q21 0 30 9.5t9 29.5v397q0 19 -9 28
t-30 9h-26v87h492v-142h-120z" />
    <glyph glyph-name="eogonek" unicode="&#x119;" horiz-adv-x="541" 
d="M270.5 -186.5q-27.5 25.5 -27.5 73.5q0 27 9.5 52.5t27.5 45.5q-118 1 -185.5 64t-67.5 186q0 130 65 195t185 65q116 0 176.5 -64.5t60.5 -174.5v-47h-357q0 -70 33 -102.5t95 -32.5t99 16v35h113v-76q-38 -32 -89 -48l-3 -1q-26 -20 -38 -39.5t-12 -43.5q0 -42 34 -42
q19 0 40 8v-74q-20 -13 -39.5 -17t-48.5 -4q-43 0 -70.5 25.5zM384 284q0 62 -27 92t-82 30q-57 0 -87.5 -31.5t-30.5 -90.5h227z" />
    <glyph glyph-name="Ecaron" unicode="&#x11a;" horiz-adv-x="546" 
d="M86 893h120l70 -120l70 120h121l-130 -193h-120zM27 87h26q21 0 30 9.5t9 29.5v397q0 19 -9 28t-30 9h-26v87h492v-142h-120v18q0 37 -39 37h-136v-192h154v-88h-154v-193h136q20 0 29.5 9t9.5 29v18h120v-143h-492v87z" />
    <glyph glyph-name="ecaron" unicode="&#x11b;" horiz-adv-x="541" 
d="M85 716h120l70 -120l70 120h121l-130 -193h-120zM95.5 48.5q-68.5 63.5 -68.5 186.5q0 130 65 195t185 65q116 0 176.5 -64.5t60.5 -174.5v-47h-357q0 -70 33 -102.5t95 -32.5t99 16v35h113v-76q-76 -64 -213 -64q-120 0 -188.5 63.5zM384 284q0 62 -27 92t-82 30
q-57 0 -87.5 -31.5t-30.5 -90.5h227z" />
    <glyph glyph-name="Gcircumflex" unicode="&#x11c;" horiz-adv-x="625" 
d="M278 893h120l130 -193h-121l-70 120l-70 -120h-120zM176.5 27.5q-73.5 42.5 -111.5 117.5t-38 174q0 100 35 177.5t107.5 121.5t180.5 44q73 0 124 -14t100 -45v-114h-131v69q-19 8 -38 11.5t-48 3.5q-97 0 -148.5 -67t-51.5 -187q0 -116 53.5 -180.5t150.5 -64.5
q60 0 105 16v171h-131v88h263v-297q-50 -35 -109.5 -51t-133.5 -16q-105 0 -178.5 42.5z" />
    <glyph glyph-name="gcircumflex" unicode="&#x11d;" horiz-adv-x="593" 
d="M215 716h120l130 -193h-121l-70 120l-70 -120h-120zM114 -132v79h113v-41q17 -10 36.5 -13.5t48.5 -3.5q87 0 87 90v77q-28 -32 -64 -46.5t-89 -14.5q-104 0 -161.5 64t-57.5 188q0 79 29 135t80.5 84.5t118.5 28.5q59 0 96.5 -19.5t67.5 -63.5l9 68h148v-84h-17
q-19 0 -25.5 -9.5t-6.5 -32.5v-353q0 -92 -55 -146.5t-156 -54.5q-125 0 -202 68zM363.5 114q29.5 39 29.5 108v41q0 67 -30 110t-87 43q-63 0 -91.5 -41t-28.5 -128q0 -90 28.5 -131t92.5 -41q57 0 86.5 39z" />
    <glyph glyph-name="Gbreve" unicode="&#x11e;" horiz-adv-x="625" 
d="M218 740q-45 41 -45 109h109q0 -33 15.5 -51t44.5 -18q60 0 60 69h109q0 -68 -45 -109t-124 -41t-124 41zM176.5 27.5q-73.5 42.5 -111.5 117.5t-38 174q0 100 35 177.5t107.5 121.5t180.5 44q73 0 124 -14t100 -45v-114h-131v69q-19 8 -38 11.5t-48 3.5
q-97 0 -148.5 -67t-51.5 -187q0 -116 53.5 -180.5t150.5 -64.5q60 0 105 16v171h-131v88h263v-297q-50 -35 -109.5 -51t-133.5 -16q-105 0 -178.5 42.5z" />
    <glyph glyph-name="gbreve" unicode="&#x11f;" horiz-adv-x="593" 
d="M169 565q-45 41 -45 109h109q0 -33 15.5 -51t44.5 -18q60 0 60 69h109q0 -68 -45 -109t-124 -41t-124 41zM114 -132v79h113v-41q17 -10 36.5 -13.5t48.5 -3.5q87 0 87 90v77q-28 -32 -64 -46.5t-89 -14.5q-104 0 -161.5 64t-57.5 188q0 79 29 135t80.5 84.5t118.5 28.5
q59 0 96.5 -19.5t67.5 -63.5l9 68h148v-84h-17q-19 0 -25.5 -9.5t-6.5 -32.5v-353q0 -92 -55 -146.5t-156 -54.5q-125 0 -202 68zM363.5 114q29.5 39 29.5 108v41q0 67 -30 110t-87 43q-63 0 -91.5 -41t-28.5 -128q0 -90 28.5 -131t92.5 -41q57 0 86.5 39z" />
    <glyph glyph-name="Gdotaccent" unicode="&#x120;" horiz-adv-x="625" 
d="M293 820h104v-109h-104v109zM176.5 27.5q-73.5 42.5 -111.5 117.5t-38 174q0 100 35 177.5t107.5 121.5t180.5 44q73 0 124 -14t100 -45v-114h-131v69q-19 8 -38 11.5t-48 3.5q-97 0 -148.5 -67t-51.5 -187q0 -116 53.5 -180.5t150.5 -64.5q60 0 105 16v171h-131v88h263
v-297q-50 -35 -109.5 -51t-133.5 -16q-105 0 -178.5 42.5z" />
    <glyph glyph-name="gdotaccent" unicode="&#x121;" horiz-adv-x="593" 
d="M229 641h104v-109h-104v109zM114 -132v79h113v-41q17 -10 36.5 -13.5t48.5 -3.5q87 0 87 90v77q-28 -32 -64 -46.5t-89 -14.5q-104 0 -161.5 64t-57.5 188q0 79 29 135t80.5 84.5t118.5 28.5q59 0 96.5 -19.5t67.5 -63.5l9 68h148v-84h-17q-19 0 -25.5 -9.5t-6.5 -32.5
v-353q0 -92 -55 -146.5t-156 -54.5q-125 0 -202 68zM363.5 114q29.5 39 29.5 108v41q0 67 -30 110t-87 43q-63 0 -91.5 -41t-28.5 -128q0 -90 28.5 -131t92.5 -41q57 0 86.5 39z" />
    <glyph glyph-name="Gcommaaccent" unicode="&#x122;" horiz-adv-x="625" 
d="M176.5 27.5q-73.5 42.5 -111.5 117.5t-38 174q0 100 35 177.5t107.5 121.5t180.5 44q73 0 124 -14t100 -45v-114h-131v69q-19 8 -38 11.5t-48 3.5q-97 0 -148.5 -67t-51.5 -187q0 -116 53.5 -180.5t150.5 -64.5q60 0 105 16v171h-131v88h263v-297q-50 -35 -109.5 -51
t-133.5 -16q-105 0 -178.5 42.5zM305 -49h141l-65 -214h-108z" />
    <glyph glyph-name="gcommaaccent" unicode="&#x123;" horiz-adv-x="593" 
d="M257 759h108l-32 -214h-141zM114 -132v79h113v-41q17 -10 36.5 -13.5t48.5 -3.5q87 0 87 90v77q-28 -32 -64 -46.5t-89 -14.5q-104 0 -161.5 64t-57.5 188q0 79 29 135t80.5 84.5t118.5 28.5q59 0 96.5 -19.5t67.5 -63.5l9 68h148v-84h-17q-19 0 -25.5 -9.5t-6.5 -32.5
v-353q0 -92 -55 -146.5t-156 -54.5q-125 0 -202 68zM363.5 114q29.5 39 29.5 108v41q0 67 -30 110t-87 43q-63 0 -91.5 -41t-28.5 -128q0 -90 28.5 -131t92.5 -41q57 0 86.5 39z" />
    <glyph glyph-name="Hcircumflex" unicode="&#x124;" horiz-adv-x="685" 
d="M283 893h120l130 -193h-121l-70 120l-70 -120h-120zM27 87h26q21 0 29.5 9t8.5 30v397q0 19 -8.5 28t-29.5 9h-26v87h254v-87h-20q-20 0 -28.5 -9t-8.5 -28v-155h237v154q0 20 -8.5 29t-28.5 9h-21v87h255v-87h-26q-21 0 -30 -9t-9 -28v-397q0 -20 9 -29.5t30 -9.5h26
v-87h-255v87h21q19 0 28 9.5t9 29.5v155h-237v-155q0 -20 9 -29.5t28 -9.5h20v-87h-254v87z" />
    <glyph glyph-name="hcircumflex" unicode="&#x125;" horiz-adv-x="609" 
d="M159 893h120l130 -193h-121l-70 120l-70 -120h-120zM27 87h26q21 0 30 9.5t9 29.5v407q0 22 -7.5 32t-29.5 10h-28v87h183v-227q38 34 74.5 47t90.5 13q80 0 117 -42.5t37 -124.5v-204q0 -19 8.5 -28t28.5 -9h26v-87h-194v327q0 44 -18.5 63.5t-58.5 19.5
q-43 0 -70.5 -24.5t-27.5 -68.5v-193q0 -19 8.5 -28t28.5 -9h26v-87h-259v87z" />
    <glyph glyph-name="Hbar" unicode="&#x126;" horiz-adv-x="685" 
d="M27 87h26q21 0 29.5 9t8.5 30v290h-64v80h64v27q0 19 -8.5 28t-29.5 9h-26v87h254v-87h-20q-20 0 -28.5 -9t-8.5 -28v-27h237v26q0 20 -8.5 29t-28.5 9h-21v87h255v-87h-26q-21 0 -30 -9t-9 -28v-27h65v-80h-65v-290q0 -20 9 -29.5t30 -9.5h26v-87h-255v87h21
q19 0 28 9.5t9 29.5v155h-237v-155q0 -20 9 -29.5t28 -9.5h20v-87h-254v87zM461 368v48h-237v-48h237z" />
    <glyph glyph-name="hbar" unicode="&#x127;" horiz-adv-x="609" 
d="M27 87h26q21 0 30 9.5t9 29.5v397h-65v88h65v12q0 22 -7.5 32t-29.5 10h-28v57h183v-111h124v-88h-124v-88q38 34 74.5 47t90.5 13q80 0 117 -42.5t37 -124.5v-204q0 -19 8.5 -28t28.5 -9h26v-87h-194v327q0 44 -18.5 63.5t-58.5 19.5q-43 0 -70.5 -24.5t-27.5 -68.5
v-193q0 -19 8.5 -28t28.5 -9h26v-87h-259v87z" />
    <glyph glyph-name="Itilde" unicode="&#x128;" horiz-adv-x="313" 
d="M-18.5 815.5q28.5 37.5 89.5 37.5q27 0 47 -7.5t48 -22.5q20 -11 33 -16.5t27 -5.5q22 0 33 12.5t11 39.5h93q0 -80 -27 -116.5t-87 -36.5q-27 0 -48.5 7.5t-47.5 21.5q-21 11 -34 16t-27 5q-23 0 -34 -11.5t-11 -38.5h-94q0 78 28.5 115.5zM27 87h26q21 0 30 9.5t9 29.5
v397q0 19 -9 28t-30 9h-26v87h259v-87h-26q-20 0 -28.5 -9t-8.5 -28v-399q0 -19 8.5 -28t28.5 -9h26v-87h-259v87z" />
    <glyph glyph-name="itilde" unicode="&#x129;" horiz-adv-x="293" 
d="M-38.5 650.5q28.5 37.5 89.5 37.5q27 0 47 -7.5t48 -22.5q20 -11 33 -16.5t27 -5.5q22 0 33 12.5t11 39.5h93q0 -80 -27 -116.5t-87 -36.5q-27 0 -48.5 7.5t-47.5 21.5q-21 11 -34 16t-27 5q-23 0 -34 -11.5t-11 -38.5h-94q0 78 28.5 115.5zM17 87h26q21 0 30 9.5t9 29.5
v225q0 22 -7.5 32t-29.5 10h-28v87h196v-356q0 -19 8.5 -28t28.5 -9h26v-87h-259v87z" />
    <glyph glyph-name="Imacron" unicode="&#x12a;" horiz-adv-x="313" 
d="M7 801h299v-81h-299v81zM27 87h26q21 0 30 9.5t9 29.5v397q0 19 -9 28t-30 9h-26v87h259v-87h-26q-20 0 -28.5 -9t-8.5 -28v-399q0 -19 8.5 -28t28.5 -9h26v-87h-259v87z" />
    <glyph glyph-name="imacron" unicode="&#x12b;" horiz-adv-x="293" 
d="M-18 625h299v-81h-299v81zM17 87h26q21 0 30 9.5t9 29.5v225q0 22 -7.5 32t-29.5 10h-28v87h196v-356q0 -19 8.5 -28t28.5 -9h26v-87h-259v87z" />
    <glyph glyph-name="Ibreve" unicode="&#x12c;" horiz-adv-x="313" 
d="M32 741q-45 41 -45 109h109q0 -33 15.5 -51t44.5 -18q60 0 60 69h109q0 -68 -45 -109t-124 -41t-124 41zM27 87h26q21 0 30 9.5t9 29.5v397q0 19 -9 28t-30 9h-26v87h259v-87h-26q-20 0 -28.5 -9t-8.5 -28v-399q0 -19 8.5 -28t28.5 -9h26v-87h-259v87z" />
    <glyph glyph-name="ibreve" unicode="&#x12d;" horiz-adv-x="293" 
d="M11 576q-45 41 -45 109h109q0 -33 15.5 -51t44.5 -18q60 0 60 69h109q0 -68 -45 -109t-124 -41t-124 41zM17 87h26q21 0 30 9.5t9 29.5v225q0 22 -7.5 32t-29.5 10h-28v87h196v-356q0 -19 8.5 -28t28.5 -9h26v-87h-259v87z" />
    <glyph glyph-name="Iogonek" unicode="&#x12e;" horiz-adv-x="313" 
d="M231.5 551q-8.5 -9 -8.5 -28v-399q0 -19 8.5 -28t28.5 -9h26v-87h-63q-25 -20 -37 -39.5t-12 -43.5q0 -42 34 -42q18 0 39 8v-74q-31 -22 -80 -22q-46 0 -75.5 25t-29.5 75q0 33 14 63t38 50h-87v87h26q21 0 30 9.5t9 29.5v397q0 19 -9 28t-30 9h-26v87h259v-87h-26
q-20 0 -28.5 -9z" />
    <glyph glyph-name="iogonek" unicode="&#x12f;" horiz-adv-x="293" 
d="M215 552h-138v106h138v-106zM178 -39.5q-12 -19.5 -12 -43.5q0 -42 34 -42q18 0 39 8v-74q-31 -22 -80 -22q-46 0 -75.5 25t-29.5 75q0 33 14 63t38 50h-89v87h26q21 0 30 9.5t9 29.5v225q0 22 -7.5 32t-29.5 10h-28v87h196v-356q0 -19 8.5 -28t28.5 -9h26v-87h-61
q-25 -20 -37 -39.5z" />
    <glyph glyph-name="Idotaccent" unicode="&#x130;" horiz-adv-x="313" 
d="M104 828h104v-109h-104v109zM27 87h26q21 0 30 9.5t9 29.5v397q0 19 -9 28t-30 9h-26v87h259v-87h-26q-20 0 -28.5 -9t-8.5 -28v-399q0 -19 8.5 -28t28.5 -9h26v-87h-259v87z" />
    <glyph glyph-name="dotlessi" unicode="&#x131;" horiz-adv-x="293" 
d="M17 87h26q21 0 30 9.5t9 29.5v225q0 22 -7.5 32t-29.5 10h-28v87h196v-356q0 -19 8.5 -28t28.5 -9h26v-87h-259v87z" />
    <glyph glyph-name="IJ" unicode="&#x132;" horiz-adv-x="783" 
d="M27 87h26q21 0 30 9.5t9 29.5v397q0 19 -9 28t-30 9h-26v87h259v-87h-26q-20 0 -28.5 -9t-8.5 -28v-399q0 -19 8.5 -28t28.5 -9h26v-87h-259v87zM372.5 5.5q-52.5 20.5 -85.5 59.5v88h118v-50q28 -29 80 -29q44 0 64 21.5t20 68.5v359q0 19 -9 28t-29 9h-27v87h262v-87
h-27q-38 0 -38 -37v-339q0 -94 -53.5 -146.5t-154.5 -52.5q-68 0 -120.5 20.5z" />
    <glyph glyph-name="ij" unicode="&#x133;" horiz-adv-x="576" 
d="M77 658h138v-106h-138v106zM391 658h138v-106h-138v106zM17 87h26q21 0 30 9.5t9 29.5v225q0 22 -7.5 32t-29.5 10h-28v87h196v-356q0 -19 8.5 -28t28.5 -9h26v-87h-259v87zM153 -111v92h109v-41q23 -20 64 -20q35 0 52.5 15.5t17.5 53.5v362q0 22 -7.5 32t-29.5 10h-28
v87h196v-475q0 -86 -49 -130t-145 -44q-113 0 -180 58z" />
    <glyph glyph-name="Jcircumflex" unicode="&#x134;" horiz-adv-x="503" 
d="M273 892h120l130 -193h-121l-70 120l-70 -120h-120zM82.5 5.5q-52.5 20.5 -85.5 59.5v88h118v-50q28 -29 80 -29q44 0 64 21.5t20 68.5v359q0 19 -9 28t-29 9h-27v87h262v-87h-27q-38 0 -38 -37v-339q0 -94 -53.5 -146.5t-154.5 -52.5q-68 0 -120.5 20.5z" />
    <glyph glyph-name="jcircumflex" unicode="&#x135;" horiz-adv-x="388" 
d="M145 716h120l130 -193h-121l-70 120l-70 -120h-120zM-33 -111v92h109v-41q23 -20 64 -20q35 0 52.5 15.5t17.5 53.5v362q0 22 -7.5 32t-29.5 10h-28v87h196v-475q0 -86 -49 -130t-145 -44q-113 0 -180 58z" />
    <glyph glyph-name="Kcommaaccent" unicode="&#x136;" horiz-adv-x="655" 
d="M27 87h26q20 0 29 9t9 28v399q0 19 -8.5 28t-29.5 9h-26v87h248v-88h-18q-33 0 -33 -36v-182l204 219h-46v87h237v-87h-36q-19 0 -29 -6t-24 -21l-153 -163l168 -256q9 -14 21 -20.5t30 -6.5h32v-87h-250v87h55l-133 204l-76 -81v-86q0 -18 7.5 -27.5t25.5 -9.5h18v-87
h-248v87zM263 -49h141l-65 -214h-108z" />
    <glyph glyph-name="kcommaaccent" unicode="&#x137;" horiz-adv-x="589" 
d="M27 87h26q21 0 30 9.5t9 29.5v407q0 22 -7.5 32t-29.5 10h-28v87h196v-374l120 105h-41v87h249v-87h-50q-16 0 -24 -3.5t-20 -13.5l-83 -73l112 -192q9 -15 17 -19.5t27 -4.5h42v-87h-149l-137 234l-63 -55v-55q0 -19 8.5 -28t28.5 -9h26v-87h-259v87zM240 -49h141
l-65 -214h-108z" />
    <glyph glyph-name="kgreenlandic" unicode="&#x138;" horiz-adv-x="588" 
d="M27 84h25q22 0 27.5 10t5.5 38v233q0 18 -7 25.5t-25 7.5h-22v82h225v-82h-17q-21 0 -26.5 -9.5t-5.5 -36.5v-79l130 125h-34v82h240v-82h-49q-16 0 -25.5 -5t-19 -14t-13.5 -12l-79 -71l113 -188q8 -13 18 -18.5t28 -5.5h45v-84h-247v84h47l-86 142l-68 -61v-48
q0 -18 7 -25.5t27 -7.5h31v-84h-245v84z" />
    <glyph glyph-name="Lacute" unicode="&#x139;" horiz-adv-x="516" 
d="M139 879h148l-113 -180h-112zM27 87h25q21 0 30.5 9t9.5 29v398q0 19 -9 28t-30 9h-26v87h262v-87h-26q-21 0 -30 -9t-9 -28v-436h136q20 0 29.5 9t9.5 29v35h120v-160h-492v87z" />
    <glyph glyph-name="lacute" unicode="&#x13a;" horiz-adv-x="303" 
d="M114 879h148l-113 -180h-112zM27 87h26q21 0 30 9.5t9 29.5v407q0 22 -7.5 32t-29.5 10h-28v87h196v-538q0 -19 8.5 -28t28.5 -9h26v-87h-259v87z" />
    <glyph glyph-name="Lcommaaccent" unicode="&#x13b;" horiz-adv-x="516" 
d="M27 87h25q21 0 30.5 9t9.5 29v398q0 19 -9 28t-30 9h-26v87h262v-87h-26q-21 0 -30 -9t-9 -28v-436h136q20 0 29.5 9t9.5 29v35h120v-160h-492v87zM238 -49h141l-65 -214h-108z" />
    <glyph glyph-name="lcommaaccent" unicode="&#x13c;" horiz-adv-x="313" 
d="M27 87h26q21 0 30 9.5t9 29.5v407q0 22 -7.5 32t-29.5 10h-28v87h196v-538q0 -19 8.5 -28t28.5 -9h26v-87h-259v87zM94 -49h141l-65 -214h-108z" />
    <glyph glyph-name="Lcaron" unicode="&#x13d;" horiz-adv-x="535" 
d="M403 714h141l-65 -214h-108zM27 87h25q21 0 30.5 9t9.5 29v398q0 19 -9 28t-30 9h-26v87h262v-87h-26q-21 0 -30 -9t-9 -28v-436h136q20 0 29.5 9t9.5 29v35h120v-160h-492v87z" />
    <glyph glyph-name="lcaron" unicode="&#x13e;" horiz-adv-x="426" 
d="M316 760h141l-65 -214h-108zM27 87h26q21 0 30 9.5t9 29.5v407q0 22 -7.5 32t-29.5 10h-28v87h196v-538q0 -19 8.5 -28t28.5 -9h26v-87h-259v87z" />
    <glyph glyph-name="Ldot" unicode="&#x13f;" horiz-adv-x="516" 
d="M27 87h25q21 0 30.5 9t9.5 29v398q0 19 -9 28t-30 9h-26v87h262v-87h-26q-21 0 -30 -9t-9 -28v-436h136q20 0 29.5 9t9.5 29v35h120v-160h-492v87zM313 404h105v-109h-105v109z" />
    <glyph glyph-name="ldot" unicode="&#x140;" horiz-adv-x="394" 
d="M27 87h26q21 0 30 9.5t9 29.5v407q0 22 -7.5 32t-29.5 10h-28v87h196v-538q0 -19 8.5 -28t28.5 -9h26v-87h-259v87zM302 395h105v-109h-105v109z" />
    <glyph glyph-name="Lslash" unicode="&#x141;" horiz-adv-x="516" 
d="M27 87h25q21 0 30.5 9t9.5 29v100l-59 -34v94l59 34v204q0 19 -9 28t-30 9h-26v87h262v-87h-26q-21 0 -30 -9t-9 -28v-128l95 55v-94l-95 -55v-214h136q20 0 29.5 9t9.5 29v35h120v-160h-492v87z" />
    <glyph glyph-name="lslash" unicode="&#x142;" horiz-adv-x="303" 
d="M27 87h26q21 0 30 9.5t9 29.5v142l-65 -37v94l65 37v171q0 22 -7.5 32t-29.5 10h-28v87h196v-224l63 37v-94l-63 -37v-220q0 -19 8.5 -28t28.5 -9h26v-87h-259v87z" />
    <glyph glyph-name="Nacute" unicode="&#x143;" horiz-adv-x="693" 
d="M338 879h148l-113 -180h-112zM27 87h26q39 0 39 37v399q0 19 -9 28t-30 9h-26v87h165l279 -433v309q0 37 -39 37h-27v87h261v-87h-27q-19 0 -28 -9t-9 -28v-523h-101l-277 431v-307q0 -19 8.5 -28t28.5 -9h26v-87h-260v87z" />
    <glyph glyph-name="nacute" unicode="&#x144;" horiz-adv-x="607" 
d="M278 704h148l-113 -180h-112zM27 87h26q21 0 30 9.5t9 29.5v230q0 19 -8.5 28t-28.5 9h-28v87h149l6 -66q33 41 77.5 61t105.5 20q84 0 123 -42.5t39 -124.5v-204q0 -19 8.5 -28t28.5 -9h26v-87h-194v327q0 44 -18 63.5t-59 19.5q-43 0 -69.5 -24.5t-26.5 -68.5v-193
q0 -19 8.5 -28t28.5 -9h26v-87h-259v87z" />
    <glyph glyph-name="Ncommaaccent" unicode="&#x145;" horiz-adv-x="693" 
d="M27 87h26q39 0 39 37v399q0 19 -9 28t-30 9h-26v87h165l279 -433v309q0 37 -39 37h-27v87h261v-87h-27q-19 0 -28 -9t-9 -28v-523h-101l-277 431v-307q0 -19 8.5 -28t28.5 -9h26v-87h-260v87zM295 -49h141l-65 -214h-108z" />
    <glyph glyph-name="ncommaaccent" unicode="&#x146;" horiz-adv-x="607" 
d="M27 87h26q21 0 30 9.5t9 29.5v230q0 19 -8.5 28t-28.5 9h-28v87h149l6 -66q33 41 77.5 61t105.5 20q84 0 123 -42.5t39 -124.5v-204q0 -19 8.5 -28t28.5 -9h26v-87h-194v327q0 44 -18 63.5t-59 19.5q-43 0 -69.5 -24.5t-26.5 -68.5v-193q0 -19 8.5 -28t28.5 -9h26v-87
h-259v87zM276 -49h141l-65 -214h-108z" />
    <glyph glyph-name="Ncaron" unicode="&#x147;" horiz-adv-x="693" 
d="M138 893h120l70 -120l70 120h121l-130 -193h-120zM27 87h26q39 0 39 37v399q0 19 -9 28t-30 9h-26v87h165l279 -433v309q0 37 -39 37h-27v87h261v-87h-27q-19 0 -28 -9t-9 -28v-523h-101l-277 431v-307q0 -19 8.5 -28t28.5 -9h26v-87h-260v87z" />
    <glyph glyph-name="ncaron" unicode="&#x148;" horiz-adv-x="607" 
d="M95 716h120l70 -120l70 120h121l-130 -193h-120zM27 87h26q21 0 30 9.5t9 29.5v230q0 19 -8.5 28t-28.5 9h-28v87h149l6 -66q33 41 77.5 61t105.5 20q84 0 123 -42.5t39 -124.5v-204q0 -19 8.5 -28t28.5 -9h26v-87h-194v327q0 44 -18 63.5t-59 19.5q-43 0 -69.5 -24.5
t-26.5 -68.5v-193q0 -19 8.5 -28t28.5 -9h26v-87h-259v87z" />
    <glyph glyph-name="napostrophe" unicode="&#x149;" horiz-adv-x="760" 
d="M77 714h141l-65 -214h-108zM180 87h26q21 0 30 9.5t9 29.5v230q0 19 -8.5 28t-28.5 9h-28v87h149l6 -66q33 41 77.5 61t105.5 20q84 0 123 -42.5t39 -124.5v-204q0 -19 8.5 -28t28.5 -9h26v-87h-194v327q0 44 -18 63.5t-59 19.5q-43 0 -69.5 -24.5t-26.5 -68.5v-193
q0 -19 8.5 -28t28.5 -9h26v-87h-259v87z" />
    <glyph glyph-name="Eng" unicode="&#x14a;" horiz-adv-x="693" 
d="M228 -227v92h109v-41q23 -20 64 -20q35 0 52.5 15.5t17.5 53.5v173l-247 385v-307q0 -19 8.5 -28t28.5 -9h26v-87h-260v87h26q39 0 39 37v399q0 19 -9 28t-30 9h-26v87h165l279 -433v309q0 37 -39 37h-27v87h261v-87h-27q-19 0 -28 -9t-9 -28v-634q0 -86 -49 -130
t-145 -44q-113 0 -180 58z" />
    <glyph glyph-name="eng" unicode="&#x14b;" horiz-adv-x="584" 
d="M153 -202v92h109v-41q23 -20 64 -20q35 0 52.5 15.5t17.5 53.5v429q0 44 -18 63.5t-59 19.5q-43 0 -69.5 -24.5t-26.5 -68.5v-193q0 -19 8.5 -28t28.5 -9h26v-87h-259v87h26q21 0 30 9.5t9 29.5v230q0 19 -8.5 28t-28.5 9h-28v87h149l6 -66q33 41 77.5 61t105.5 20
q84 0 123 -42.5t39 -124.5v-414q0 -86 -49 -130t-145 -44q-113 0 -180 58z" />
    <glyph glyph-name="Omacron" unicode="&#x14c;" horiz-adv-x="663" 
d="M182 801h299v-81h-299v81zM102 68.5q-75 83.5 -75 252.5q0 171 73 256t232 85q157 0 230.5 -85t73.5 -256q0 -169 -75 -252.5t-229 -83.5q-155 0 -230 83.5zM464.5 131q41.5 57 41.5 190q0 136 -41.5 194t-132.5 58q-62 0 -100 -24.5t-56.5 -80t-18.5 -147.5
q0 -134 41.5 -190.5t133.5 -56.5q91 0 132.5 57z" />
    <glyph glyph-name="omacron" unicode="&#x14d;" horiz-adv-x="558" 
d="M130 625h299v-81h-299v81zM91.5 51q-64.5 66 -64.5 188q0 123 64 189.5t188 66.5q125 0 188.5 -66.5t63.5 -189.5q0 -122 -64.5 -188t-187.5 -66t-187.5 66zM371.5 114q29.5 40 29.5 125q0 86 -29.5 126.5t-92.5 40.5t-92.5 -40.5t-29.5 -126.5q0 -85 29.5 -125t92.5 -40
t92.5 40z" />
    <glyph glyph-name="Obreve" unicode="&#x14e;" horiz-adv-x="663" 
d="M207 740q-45 41 -45 109h109q0 -33 15.5 -51t44.5 -18q60 0 60 69h109q0 -68 -45 -109t-124 -41t-124 41zM102 68.5q-75 83.5 -75 252.5q0 171 73 256t232 85q157 0 230.5 -85t73.5 -256q0 -169 -75 -252.5t-229 -83.5q-155 0 -230 83.5zM464.5 131q41.5 57 41.5 190
q0 136 -41.5 194t-132.5 58q-62 0 -100 -24.5t-56.5 -80t-18.5 -147.5q0 -134 41.5 -190.5t133.5 -56.5q91 0 132.5 57z" />
    <glyph glyph-name="obreve" unicode="&#x14f;" horiz-adv-x="558" 
d="M155 565q-45 41 -45 109h109q0 -33 15.5 -51t44.5 -18q60 0 60 69h109q0 -68 -45 -109t-124 -41t-124 41zM91.5 51q-64.5 66 -64.5 188q0 123 64 189.5t188 66.5q125 0 188.5 -66.5t63.5 -189.5q0 -122 -64.5 -188t-187.5 -66t-187.5 66zM371.5 114q29.5 40 29.5 125
q0 86 -29.5 126.5t-92.5 40.5t-92.5 -40.5t-29.5 -126.5q0 -85 29.5 -125t92.5 -40t92.5 40z" />
    <glyph glyph-name="Ohungarumlaut" unicode="&#x150;" horiz-adv-x="663" 
d="M222 892h152l-122 -193h-118zM437 892h154l-124 -193h-117zM102 68.5q-75 83.5 -75 252.5q0 171 73 256t232 85q157 0 230.5 -85t73.5 -256q0 -169 -75 -252.5t-229 -83.5q-155 0 -230 83.5zM464.5 131q41.5 57 41.5 190q0 136 -41.5 194t-132.5 58q-62 0 -100 -24.5
t-56.5 -80t-18.5 -147.5q0 -134 41.5 -190.5t133.5 -56.5q91 0 132.5 57z" />
    <glyph glyph-name="ohungarumlaut" unicode="&#x151;" horiz-adv-x="560" 
d="M164 716h152l-122 -193h-118zM379 716h154l-124 -193h-117zM91.5 51q-64.5 66 -64.5 188q0 123 64 189.5t188 66.5q125 0 188.5 -66.5t63.5 -189.5q0 -122 -64.5 -188t-187.5 -66t-187.5 66zM371.5 114q29.5 40 29.5 125q0 86 -29.5 126.5t-92.5 40.5t-92.5 -40.5
t-29.5 -126.5q0 -85 29.5 -125t92.5 -40t92.5 40z" />
    <glyph glyph-name="OE" unicode="&#x152;" horiz-adv-x="805" 
d="M109 78q-82 78 -82 243q0 167 80.5 246.5t243.5 79.5h427v-142h-120v18q0 37 -39 37h-136v-192h154v-88h-154v-193h136q20 0 29.5 9t9.5 29v18h120v-143h-427q-160 0 -242 78zM364 87v473h-43q-75 0 -119.5 -59.5t-44.5 -179.5q0 -118 43.5 -176t118.5 -58h45z" />
    <glyph glyph-name="oe" unicode="&#x153;" horiz-adv-x="915" 
d="M91.5 51q-64.5 66 -64.5 188q0 123 64 189.5t188 66.5q119 0 187 -68q66 68 185 68q116 0 176.5 -64.5t60.5 -174.5v-47h-357q0 -70 33 -102.5t95 -32.5t99 16v35h113v-76q-76 -64 -213 -64q-60 0 -109 18t-83 51q-32 -33 -79.5 -51t-107.5 -18q-123 0 -187.5 66z
M371.5 114q29.5 40 29.5 125q0 86 -29.5 126.5t-92.5 40.5t-92.5 -40.5t-29.5 -126.5q0 -85 29.5 -125t92.5 -40t92.5 40zM758 284q0 62 -27 92t-82 30q-57 0 -87.5 -31.5t-30.5 -90.5h227z" />
    <glyph glyph-name="Racute" unicode="&#x154;" horiz-adv-x="629" 
d="M286 879h148l-113 -180h-112zM27 87h25q40 0 40 37v399q0 19 -9.5 28t-30.5 9h-25v87h338q105 0 164 -50.5t59 -146.5q0 -72 -37.5 -121t-107.5 -68l78 -143q10 -17 23 -24t34 -7h24v-87h-234v87h40l-84 159h-104v-125q0 -18 7 -26t26 -8h24v-87h-250v87zM345 333
q114 0 114 117q0 59 -27 84.5t-87 25.5h-125v-227h125z" />
    <glyph glyph-name="racute" unicode="&#x155;" horiz-adv-x="402" 
d="M171 704h148l-113 -180h-112zM27 87h26q21 0 30 9.5t9 29.5v230q0 19 -8 28t-28 9h-29v87h171l13 -53q34 53 122 53h52v-87h-68q-50 0 -72 -23t-22 -70v-176q0 -19 8.5 -28t28.5 -9h26v-87h-259v87z" />
    <glyph glyph-name="Rcommaaccent" unicode="&#x156;" horiz-adv-x="629" 
d="M27 87h25q40 0 40 37v399q0 19 -9.5 28t-30.5 9h-25v87h338q105 0 164 -50.5t59 -146.5q0 -72 -37.5 -121t-107.5 -68l78 -143q10 -17 23 -24t34 -7h24v-87h-234v87h40l-84 159h-104v-125q0 -18 7 -26t26 -8h24v-87h-250v87zM345 333q114 0 114 117q0 59 -27 84.5
t-87 25.5h-125v-227h125zM264 -49h141l-65 -214h-108z" />
    <glyph glyph-name="rcommaaccent" unicode="&#x157;" horiz-adv-x="402" 
d="M27 87h26q21 0 30 9.5t9 29.5v230q0 19 -8 28t-28 9h-29v87h171l13 -53q34 53 122 53h52v-87h-68q-50 0 -72 -23t-22 -70v-176q0 -19 8.5 -28t28.5 -9h26v-87h-259v87zM100 -49h141l-65 -214h-108z" />
    <glyph glyph-name="Rcaron" unicode="&#x158;" horiz-adv-x="629" 
d="M105 893h120l70 -120l70 120h121l-130 -193h-120zM27 87h25q40 0 40 37v399q0 19 -9.5 28t-30.5 9h-25v87h338q105 0 164 -50.5t59 -146.5q0 -72 -37.5 -121t-107.5 -68l78 -143q10 -17 23 -24t34 -7h24v-87h-234v87h40l-84 159h-104v-125q0 -18 7 -26t26 -8h24v-87h-250
v87zM345 333q114 0 114 117q0 59 -27 84.5t-87 25.5h-125v-227h125z" />
    <glyph glyph-name="rcaron" unicode="&#x159;" horiz-adv-x="402" 
d="M13 716h120l70 -120l70 120h121l-130 -193h-120zM27 87h26q21 0 30 9.5t9 29.5v230q0 19 -8 28t-28 9h-29v87h171l13 -53q34 53 122 53h52v-87h-68q-50 0 -72 -23t-22 -70v-176q0 -19 8.5 -28t28.5 -9h26v-87h-259v87z" />
    <glyph glyph-name="Sacute" unicode="&#x15a;" horiz-adv-x="542" 
d="M280 879h148l-113 -180h-112zM138 6q-65 21 -111 57v107h133v-69q48 -27 119 -27q106 0 106 85q0 29 -16 48.5t-43 33.5t-82 37q-74 30 -118.5 57t-69 63.5t-24.5 87.5q0 87 68.5 131.5t175.5 44.5q132 0 227 -76v-99h-134v64q-38 22 -100 22q-107 0 -107 -83
q0 -29 20 -50.5t47.5 -35.5t74.5 -33q81 -33 122.5 -56t65 -58t23.5 -92q0 -52 -27.5 -92.5t-81 -64t-128.5 -23.5t-140 21z" />
    <glyph glyph-name="sacute" unicode="&#x15b;" horiz-adv-x="471" 
d="M235 704h148l-113 -180h-112zM123 0q-55 15 -96 46v84h121v-38q28 -18 83 -18q43 0 63 10t20 36q0 23 -16.5 35t-65.5 31l-46 18q-53 22 -84.5 40.5t-50.5 46t-19 67.5q0 68 53 102.5t145 34.5q60 0 112 -15t91 -45v-84h-117v36q-26 19 -73 19q-38 0 -59.5 -10.5
t-21.5 -37.5q0 -25 24 -39.5t76 -33.5l32 -12q51 -19 82 -37.5t49.5 -46t18.5 -69.5q0 -66 -52.5 -100.5t-154.5 -34.5q-59 0 -114 15z" />
    <glyph glyph-name="Scircumflex" unicode="&#x15c;" horiz-adv-x="542" 
d="M209 893h120l130 -193h-121l-70 120l-70 -120h-120zM138 6q-65 21 -111 57v107h133v-69q48 -27 119 -27q106 0 106 85q0 29 -16 48.5t-43 33.5t-82 37q-74 30 -118.5 57t-69 63.5t-24.5 87.5q0 87 68.5 131.5t175.5 44.5q132 0 227 -76v-99h-134v64q-38 22 -100 22
q-107 0 -107 -83q0 -29 20 -50.5t47.5 -35.5t74.5 -33q81 -33 122.5 -56t65 -58t23.5 -92q0 -52 -27.5 -92.5t-81 -64t-128.5 -23.5t-140 21z" />
    <glyph glyph-name="scircumflex" unicode="&#x15d;" horiz-adv-x="471" 
d="M162 716h120l130 -193h-121l-70 120l-70 -120h-120zM123 0q-55 15 -96 46v84h121v-38q28 -18 83 -18q43 0 63 10t20 36q0 23 -16.5 35t-65.5 31l-46 18q-53 22 -84.5 40.5t-50.5 46t-19 67.5q0 68 53 102.5t145 34.5q60 0 112 -15t91 -45v-84h-117v36q-26 19 -73 19
q-38 0 -59.5 -10.5t-21.5 -37.5q0 -25 24 -39.5t76 -33.5l32 -12q51 -19 82 -37.5t49.5 -46t18.5 -69.5q0 -66 -52.5 -100.5t-154.5 -34.5q-59 0 -114 15z" />
    <glyph glyph-name="Scedilla" unicode="&#x15e;" horiz-adv-x="541" 
d="M171 -213v73q33 -15 72 -15q47 0 47 30q0 24 -18.5 34.5t-72.5 10.5l10 70q-108 15 -182 73v107h133v-69q23 -13 54 -20.5t65 -7.5q52 0 79 21.5t27 64.5q0 29 -16 48.5t-43.5 34.5t-81.5 37q-74 30 -118.5 57t-68.5 63t-24 87q0 87 68 131.5t175 44.5q132 0 227 -76v-99
h-134v64q-40 23 -100 23q-50 0 -78.5 -20t-28.5 -64q0 -31 20 -52.5t44.5 -33.5t77.5 -33q80 -32 121.5 -55.5t65 -58.5t23.5 -92q0 -69 -48.5 -117.5t-136.5 -59.5l-5 -31q41 -7 59.5 -28.5t18.5 -58.5q0 -98 -146 -98q-48 0 -85 15z" />
    <glyph glyph-name="scedilla" unicode="&#x15f;" horiz-adv-x="471" 
d="M143 -213v73q35 -15 71 -15q49 0 49 30q0 24 -19 34.5t-72 10.5l9 68q-94 13 -154 58v84h121v-38q28 -18 83 -18q43 0 63 10t20 36q0 23 -16.5 35t-65.5 31l-46 18q-53 22 -84.5 40.5t-50.5 46t-19 67.5q0 68 53 102.5t145 34.5q60 0 112 -15t91 -45v-84h-117v36
q-26 19 -73 19q-38 0 -59.5 -10.5t-21.5 -37.5q0 -25 24 -39.5t76 -33.5l32 -12q51 -19 82 -37.5t49.5 -46t18.5 -69.5q0 -54 -36 -87.5t-107 -43.5l-4 -32q41 -7 59.5 -28.5t18.5 -58.5q0 -98 -146 -98q-48 0 -86 15z" />
    <glyph glyph-name="Scaron" unicode="&#x160;" horiz-adv-x="542" 
d="M81 893h120l70 -120l70 120h121l-130 -193h-120zM138 6q-65 21 -111 57v107h133v-69q48 -27 119 -27q106 0 106 85q0 29 -16 48.5t-43 33.5t-82 37q-74 30 -118.5 57t-69 63.5t-24.5 87.5q0 87 68.5 131.5t175.5 44.5q132 0 227 -76v-99h-134v64q-38 22 -100 22
q-107 0 -107 -83q0 -29 20 -50.5t47.5 -35.5t74.5 -33q81 -33 122.5 -56t65 -58t23.5 -92q0 -52 -27.5 -92.5t-81 -64t-128.5 -23.5t-140 21z" />
    <glyph glyph-name="scaron" unicode="&#x161;" horiz-adv-x="471" 
d="M37 716h120l70 -120l70 120h121l-130 -193h-120zM123 0q-55 15 -96 46v84h121v-38q28 -18 83 -18q43 0 63 10t20 36q0 23 -16.5 35t-65.5 31l-46 18q-53 22 -84.5 40.5t-50.5 46t-19 67.5q0 68 53 102.5t145 34.5q60 0 112 -15t91 -45v-84h-117v36q-26 19 -73 19
q-38 0 -59.5 -10.5t-21.5 -37.5q0 -25 24 -39.5t76 -33.5l32 -12q51 -19 82 -37.5t49.5 -46t18.5 -69.5q0 -66 -52.5 -100.5t-154.5 -34.5q-59 0 -114 15z" />
    <glyph glyph-name="uni0162" unicode="&#x162;" horiz-adv-x="590" 
d="M573 647v-161h-95v37q0 20 -9 28.5t-30 8.5h-78v-436q0 -19 9.5 -28t30.5 -9h25v-87h-69l-7 -43q41 -7 60 -28.5t19 -58.5q0 -47 -36 -72.5t-110 -25.5q-49 0 -87 15v73q35 -15 72 -15q49 0 49 30q0 24 -19 34.5t-73 10.5l12 80h-72v87h25q21 0 30 9t9 28v436h-78
q-21 0 -30 -8.5t-9 -28.5v-37h-95v161h556z" />
    <glyph glyph-name="uni0163" unicode="&#x163;" horiz-adv-x="453" 
d="M165 -213v73q35 -15 72 -15q49 0 49 30q0 24 -19 34.5t-73 10.5l11 74q-112 28 -112 157v244h-76v85h76v103l133 39v-142h137v-85h-137v-254q0 -38 14.5 -54.5t45.5 -16.5q38 0 59 18v43h111v-84q-57 -48 -132 -59l-5 -31q41 -7 60 -28.5t19 -58.5q0 -47 -36 -72.5
t-110 -25.5q-49 0 -87 15z" />
    <glyph glyph-name="Tcaron" unicode="&#x164;" horiz-adv-x="590" 
d="M105 893h120l70 -120l70 120h121l-130 -193h-120zM165 87h25q21 0 30 9t9 28v436h-78q-21 0 -30 -8.5t-9 -28.5v-37h-95v161h556v-161h-95v37q0 20 -9 28.5t-30 8.5h-78v-436q0 -19 9.5 -28t30.5 -9h25v-87h-261v87z" />
    <glyph glyph-name="tcaron" unicode="&#x165;" horiz-adv-x="453" 
d="M330 756h141l-65 -214h-108zM139.5 27.5q-46.5 42.5 -46.5 123.5v242h-76v87h76v103l131 39v-142h137v-87h-137v-252q0 -37 15.5 -54t46.5 -17q38 0 59 18v43h106v-84q-62 -62 -173 -62q-92 0 -138.5 42.5z" />
    <glyph glyph-name="Tbar" unicode="&#x166;" horiz-adv-x="590" 
d="M573 647v-161h-95v37q0 20 -9 28.5t-30 8.5h-78v-200h110v-81h-110v-155q0 -19 9.5 -28t30.5 -9h25v-87h-261v87h25q21 0 30 9t9 28v155h-110v81h110v200h-78q-21 0 -30 -8.5t-9 -28.5v-37h-95v161h556z" />
    <glyph glyph-name="tbar" unicode="&#x167;" horiz-adv-x="453" 
d="M139.5 27.5q-46.5 42.5 -46.5 123.5v66h-76v81h76v97h-76v85h76v103l133 39v-142h138v-85h-138v-97h138v-81h-138v-76q0 -38 14.5 -54.5t45.5 -16.5q38 0 59 18v43h111v-84q-74 -62 -178 -62q-92 0 -138.5 42.5z" />
    <glyph glyph-name="Utilde" unicode="&#x168;" horiz-adv-x="666" 
d="M156.5 815.5q28.5 37.5 89.5 37.5q27 0 47 -7.5t48 -22.5q20 -11 33 -16.5t27 -5.5q22 0 33 12.5t11 39.5h93q0 -80 -27 -116.5t-87 -36.5q-27 0 -48.5 7.5t-47.5 21.5q-21 11 -34 16t-27 5q-23 0 -34 -11.5t-11 -38.5h-94q0 78 28.5 115.5zM141 38.5q-64 53.5 -64 146.5
v339q0 19 -8.5 27.5t-29.5 8.5h-22v87h248v-87h-22q-20 0 -29 -8.5t-9 -27.5v-345q0 -105 128 -105t128 105v345q0 19 -8.5 27.5t-29.5 8.5h-22v87h248v-87h-22q-20 0 -29 -8.5t-9 -27.5v-339q0 -93 -64.5 -146.5t-191.5 -53.5q-128 0 -192 53.5z" />
    <glyph glyph-name="utilde" unicode="&#x169;" horiz-adv-x="597" 
d="M116.5 639.5q28.5 37.5 89.5 37.5q27 0 47 -7.5t48 -22.5q20 -11 33 -16.5t27 -5.5q22 0 33 12.5t11 39.5h93q0 -80 -27 -116.5t-87 -36.5q-27 0 -48.5 7.5t-47.5 21.5q-21 11 -34 16t-27 5q-23 0 -34 -11.5t-11 -38.5h-94q0 78 28.5 115.5zM123 28q-43 43 -43 124v204
q0 19 -8.5 28t-28.5 9h-26v87h194v-327q0 -44 19.5 -63.5t60.5 -19.5q42 0 67.5 24t25.5 69v193q0 19 -8.5 28t-28.5 9h-26v87h259v-87h-26q-21 0 -30 -9.5t-9 -29.5v-230q0 -19 8.5 -28t28.5 -9h28v-87h-149l-6 66q-33 -43 -72 -62t-102 -19q-85 0 -128 43z" />
    <glyph glyph-name="Umacron" unicode="&#x16a;" horiz-adv-x="666" 
d="M184 801h299v-81h-299v81zM141 38.5q-64 53.5 -64 146.5v339q0 19 -8.5 27.5t-29.5 8.5h-22v87h248v-87h-22q-20 0 -29 -8.5t-9 -27.5v-345q0 -105 128 -105t128 105v345q0 19 -8.5 27.5t-29.5 8.5h-22v87h248v-87h-22q-20 0 -29 -8.5t-9 -27.5v-339q0 -93 -64.5 -146.5
t-191.5 -53.5q-128 0 -192 53.5z" />
    <glyph glyph-name="umacron" unicode="&#x16b;" horiz-adv-x="597" 
d="M128 625h299v-81h-299v81zM123 28q-43 43 -43 124v204q0 19 -8.5 28t-28.5 9h-26v87h194v-327q0 -44 19.5 -63.5t60.5 -19.5q42 0 67.5 24t25.5 69v193q0 19 -8.5 28t-28.5 9h-26v87h259v-87h-26q-21 0 -30 -9.5t-9 -29.5v-230q0 -19 8.5 -28t28.5 -9h28v-87h-149l-6 66
q-33 -43 -72 -62t-102 -19q-85 0 -128 43z" />
    <glyph glyph-name="Ubreve" unicode="&#x16c;" horiz-adv-x="666" 
d="M209 740q-45 41 -45 109h109q0 -33 15.5 -51t44.5 -18q60 0 60 69h109q0 -68 -45 -109t-124 -41t-124 41zM141 38.5q-64 53.5 -64 146.5v339q0 19 -8.5 27.5t-29.5 8.5h-22v87h248v-87h-22q-20 0 -29 -8.5t-9 -27.5v-345q0 -105 128 -105t128 105v345q0 19 -8.5 27.5
t-29.5 8.5h-22v87h248v-87h-22q-20 0 -29 -8.5t-9 -27.5v-339q0 -93 -64.5 -146.5t-191.5 -53.5q-128 0 -192 53.5z" />
    <glyph glyph-name="ubreve" unicode="&#x16d;" horiz-adv-x="597" 
d="M156 577q-45 41 -45 109h109q0 -33 15.5 -51t44.5 -18q60 0 60 69h109q0 -68 -45 -109t-124 -41t-124 41zM123 28q-43 43 -43 124v204q0 19 -8.5 28t-28.5 9h-26v87h194v-327q0 -44 19.5 -63.5t60.5 -19.5q42 0 67.5 24t25.5 69v193q0 19 -8.5 28t-28.5 9h-26v87h259v-87
h-26q-21 0 -30 -9.5t-9 -29.5v-230q0 -19 8.5 -28t28.5 -9h28v-87h-149l-6 66q-33 -43 -72 -62t-102 -19q-85 0 -128 43z" />
    <glyph glyph-name="Uring" unicode="&#x16e;" horiz-adv-x="666" 
d="M250.5 732.5q-33.5 33.5 -33.5 82.5q0 48 33.5 82t82.5 34t83 -34t34 -82q0 -49 -34 -82.5t-83 -33.5t-82.5 33.5zM366.5 781q13.5 14 13.5 34t-13.5 34t-33.5 14t-33.5 -14t-13.5 -34t13.5 -34t33.5 -14t33.5 14zM141 38.5q-64 53.5 -64 146.5v339q0 19 -8.5 27.5
t-29.5 8.5h-22v87h248v-87h-22q-20 0 -29 -8.5t-9 -27.5v-345q0 -105 128 -105t128 105v345q0 19 -8.5 27.5t-29.5 8.5h-22v87h248v-87h-22q-20 0 -29 -8.5t-9 -27.5v-339q0 -93 -64.5 -146.5t-191.5 -53.5q-128 0 -192 53.5z" />
    <glyph glyph-name="uring" unicode="&#x16f;" horiz-adv-x="597" 
d="M190.5 557.5q-33.5 33.5 -33.5 82.5q0 48 33.5 82t82.5 34t83 -34t34 -82q0 -49 -34 -82.5t-83 -33.5t-82.5 33.5zM306.5 606q13.5 14 13.5 34t-13.5 34t-33.5 14t-33.5 -14t-13.5 -34t13.5 -34t33.5 -14t33.5 14zM123 28q-43 43 -43 124v204q0 19 -8.5 28t-28.5 9h-26
v87h194v-327q0 -44 19.5 -63.5t60.5 -19.5q42 0 67.5 24t25.5 69v193q0 19 -8.5 28t-28.5 9h-26v87h259v-87h-26q-21 0 -30 -9.5t-9 -29.5v-230q0 -19 8.5 -28t28.5 -9h28v-87h-149l-6 66q-33 -43 -72 -62t-102 -19q-85 0 -128 43z" />
    <glyph glyph-name="Uhungarumlaut" unicode="&#x170;" horiz-adv-x="666" 
d="M229 892h152l-122 -193h-118zM444 892h154l-124 -193h-117zM141 38.5q-64 53.5 -64 146.5v339q0 19 -8.5 27.5t-29.5 8.5h-22v87h248v-87h-22q-20 0 -29 -8.5t-9 -27.5v-345q0 -105 128 -105t128 105v345q0 19 -8.5 27.5t-29.5 8.5h-22v87h248v-87h-22q-20 0 -29 -8.5
t-9 -27.5v-339q0 -93 -64.5 -146.5t-191.5 -53.5q-128 0 -192 53.5z" />
    <glyph glyph-name="uhungarumlaut" unicode="&#x171;" horiz-adv-x="597" 
d="M201 716h152l-122 -193h-118zM416 716h154l-124 -193h-117zM123 28q-43 43 -43 124v204q0 19 -8.5 28t-28.5 9h-26v87h194v-327q0 -44 19.5 -63.5t60.5 -19.5q42 0 67.5 24t25.5 69v193q0 19 -8.5 28t-28.5 9h-26v87h259v-87h-26q-21 0 -30 -9.5t-9 -29.5v-230
q0 -19 8.5 -28t28.5 -9h28v-87h-149l-6 66q-33 -43 -72 -62t-102 -19q-85 0 -128 43z" />
    <glyph glyph-name="Uogonek" unicode="&#x172;" horiz-adv-x="667" 
d="M273.5 -186.5q-27.5 25.5 -27.5 73.5q0 28 10 54t28 46q-103 10 -155 62.5t-52 135.5v339q0 19 -8.5 27.5t-29.5 8.5h-22v87h248v-87h-22q-20 0 -29 -8.5t-9 -27.5v-345q0 -105 128 -105t128 105v345q0 19 -8.5 27.5t-29.5 8.5h-22v87h248v-87h-22q-20 0 -29 -8.5
t-9 -27.5v-339q0 -81 -49.5 -133t-147.5 -64q-34 -31 -34 -71q0 -42 34 -42q19 0 40 8v-74q-20 -13 -39 -17t-49 -4q-43 0 -70.5 25.5z" />
    <glyph glyph-name="uogonek" unicode="&#x173;" horiz-adv-x="597" 
d="M524 383.5q-9 -9.5 -9 -29.5v-230q0 -19 8.5 -28t28.5 -9h28v-87h-40q-25 -20 -37 -39.5t-12 -43.5q0 -42 34 -42q18 0 39 8v-74q-31 -22 -80 -22q-46 0 -75.5 25t-29.5 75q0 33 14 63t38 50l-6 66q-33 -43 -72 -62t-102 -19q-85 0 -128 43t-43 124v204q0 19 -8.5 28
t-28.5 9h-26v87h194v-327q0 -44 19.5 -63.5t60.5 -19.5q42 0 67.5 24t25.5 69v193q0 19 -8.5 28t-28.5 9h-26v87h259v-87h-26q-21 0 -30 -9.5z" />
    <glyph glyph-name="Wcircumflex" unicode="&#x174;" horiz-adv-x="863" 
d="M372 893h120l130 -193h-121l-70 120l-70 -120h-120zM106 516q-6 26 -19 35t-44 9h-16v87h173l87 -416l95 307h98l96 -307l88 416h172v-87h-17q-31 0 -44 -9t-19 -35l-114 -516h-107l-104 318l-102 -318h-108z" />
    <glyph glyph-name="wcircumflex" unicode="&#x175;" horiz-adv-x="763" 
d="M323 716h120l130 -193h-121l-70 120l-70 -120h-120zM87 362q-4 18 -14.5 24.5t-31.5 6.5h-24v87h158l74 -321l86 278h92l86 -278l76 321h157v-87h-24q-21 0 -31.5 -6.5t-14.5 -24.5l-88 -362h-121l-85 274l-87 -274h-120z" />
    <glyph glyph-name="Ycircumflex" unicode="&#x176;" horiz-adv-x="669" 
d="M276 893h120l130 -193h-121l-70 120l-70 -120h-120zM204 87h25q21 0 30 9.5t9 28.5v114l-152 280q-13 24 -26.5 32.5t-39.5 8.5h-23v87h242v-87h-14q-17 0 -17 -11q0 -8 8 -24l89 -179l88 179q8 16 8 24q0 11 -17 11h-14v87h242v-87h-23q-26 0 -39.5 -8.5t-26.5 -32.5
l-153 -280v-115q0 -19 9.5 -28t30.5 -9h25v-87h-261v87z" />
    <glyph glyph-name="ycircumflex" unicode="&#x177;" horiz-adv-x="575" 
d="M227 716h120l130 -193h-121l-70 120l-70 -120h-120zM199 -182q-52 18 -88 52v75h113v-35q15 -14 35.5 -19.5t51.5 -5.5q92 0 92 108v54q-54 -42 -129 -42q-90 0 -141.5 45.5t-51.5 127.5v178q0 37 -38 37h-26v87h197v-307q0 -83 85 -83q44 0 69.5 25t25.5 72v169
q0 37 -38 37h-26v87h198v-464q0 -98 -57.5 -157t-155.5 -59q-64 0 -116 18z" />
    <glyph glyph-name="Ydieresis" unicode="&#x178;" horiz-adv-x="669" 
d="M170 828h104v-109h-104v109zM395 828h105v-109h-105v109zM204 87h25q21 0 30 9.5t9 28.5v114l-152 280q-13 24 -26.5 32.5t-39.5 8.5h-23v87h242v-87h-14q-17 0 -17 -11q0 -8 8 -24l89 -179l88 179q8 16 8 24q0 11 -17 11h-14v87h242v-87h-23q-26 0 -39.5 -8.5
t-26.5 -32.5l-153 -280v-115q0 -19 9.5 -28t30.5 -9h25v-87h-261v87z" />
    <glyph glyph-name="Zacute" unicode="&#x179;" horiz-adv-x="565" 
d="M293 879h148l-113 -180h-112zM27 72l345 488h-177q-21 0 -30 -8.5t-9 -28.5v-17h-120v141h486v-71l-338 -489h195q21 0 30 9t9 29v16h120v-141h-511v72z" />
    <glyph glyph-name="zacute" unicode="&#x17a;" horiz-adv-x="502" 
d="M268 704h148l-113 -180h-112zM27 64l277 328h-146q-39 0 -39 -37v-18h-84v143h430v-65l-276 -327h162q21 0 30.5 9t9.5 28v17h84v-142h-448v64z" />
    <glyph glyph-name="Zdotaccent" unicode="&#x17b;" horiz-adv-x="565" 
d="M244 816h104v-109h-104v109zM27 72l345 488h-177q-21 0 -30 -8.5t-9 -28.5v-17h-120v141h486v-71l-338 -489h195q21 0 30 9t9 29v16h120v-141h-511v72z" />
    <glyph glyph-name="zdotaccent" unicode="&#x17c;" horiz-adv-x="502" 
d="M210 653h104v-109h-104v109zM27 64l277 328h-146q-39 0 -39 -37v-18h-84v143h430v-65l-276 -327h162q21 0 30.5 9t9.5 28v17h84v-142h-448v64z" />
    <glyph glyph-name="Zcaron" unicode="&#x17d;" horiz-adv-x="565" 
d="M103 893h120l70 -120l70 120h121l-130 -193h-120zM27 72l345 488h-177q-21 0 -30 -8.5t-9 -28.5v-17h-120v141h486v-71l-338 -489h195q21 0 30 9t9 29v16h120v-141h-511v72z" />
    <glyph glyph-name="zcaron" unicode="&#x17e;" horiz-adv-x="502" 
d="M72 716h120l70 -120l70 120h121l-130 -193h-120zM27 64l277 328h-146q-39 0 -39 -37v-18h-84v143h430v-65l-276 -327h162q21 0 30.5 9t9.5 28v17h84v-142h-448v64z" />
    <glyph glyph-name="uni018F" unicode="&#x18f;" horiz-adv-x="679" 
d="M165 25.5q-70 40.5 -104 112t-34 163.5v71h495q0 202 -192 202q-92 0 -147 -26v-68h-135v101q56 42 125.5 61.5t156.5 19.5q145 0 233.5 -81.5t88.5 -245.5q0 -172 -79 -261t-235 -89q-103 0 -173 40.5zM477.5 130.5q44.5 57.5 44.5 151.5h-359q0 -100 44 -154.5
t131 -54.5q95 0 139.5 57.5z" />
    <glyph glyph-name="florin" unicode="&#x192;" horiz-adv-x="614" 
d="M-98.5 -144.5q-42.5 14.5 -68.5 40.5l19 87h106l-9 -41q15 -16 54 -16q33 0 51 17t26 53l85 397h-76l19 87h75l5 28q15 85 70 127t155 42q54 0 95.5 -14.5t68.5 -40.5l-19 -87h-107l9 40q-20 17 -52 17q-72 0 -84 -70l-7 -42h138l-19 -87h-138l-82 -383
q-18 -84 -67 -126.5t-151 -42.5q-54 0 -96.5 14.5z" />
    <glyph glyph-name="Ohorn" unicode="&#x1a0;" horiz-adv-x="720" 
d="M102 68.5q-75 83.5 -75 252.5q0 171 73 256t232 85q148 0 223 -79q29 9 37 23.5t8 44.5v38h128v-39q0 -60 -29 -97.5t-93 -50.5q30 -73 30 -181q0 -169 -75 -252.5t-229 -83.5q-155 0 -230 83.5zM464 130.5q41 56.5 41 190.5q0 137 -41 194.5t-132 57.5q-62 0 -100 -24.5
t-56.5 -80t-18.5 -147.5q0 -134 41.5 -190.5t133.5 -56.5q91 0 132 56.5z" />
    <glyph glyph-name="ohorn" unicode="&#x1a1;" horiz-adv-x="625" 
d="M91.5 51q-64.5 66 -64.5 188q0 123 64 189.5t188 66.5q118 0 182 -61q25 5 35 20.5t10 45.5v38h127v-39q0 -59 -28.5 -96.5t-90.5 -50.5q17 -47 17 -113q0 -122 -64.5 -188t-187.5 -66t-187.5 66zM371.5 114q29.5 40 29.5 125q0 86 -29.5 126.5t-92.5 40.5t-92.5 -40.5
t-29.5 -126.5q0 -85 29.5 -125t92.5 -40t92.5 40z" />
    <glyph glyph-name="Uhorn" unicode="&#x1af;" horiz-adv-x="755" 
d="M141 38.5q-64 53.5 -64 146.5v339q0 19 -8.5 27.5t-29.5 8.5h-22v87h248v-87h-22q-20 0 -29 -8.5t-9 -27.5v-345q0 -105 128 -105q127 0 127 105v345q0 19 -8.5 27.5t-29.5 8.5h-22v87h188v-61q28 3 38 18t10 47v38h127v-39q0 -71 -41 -111t-134 -46v-308
q0 -93 -64 -146.5t-191 -53.5q-128 0 -192 53.5z" />
    <glyph glyph-name="uhorn" unicode="&#x1b0;" horiz-adv-x="676" 
d="M123 28q-43 43 -43 124v204q0 19 -8.5 28t-28.5 9h-26v87h194v-327q0 -44 19.5 -63.5t60.5 -19.5q42 0 67.5 24t25.5 69v193q0 19 -8.5 28t-28.5 9h-26v87h194v-45q26 4 34.5 19t8.5 46v38h126v-39q0 -70 -39.5 -110t-129.5 -47v-218q0 -19 8.5 -28t28.5 -9h28v-87h-149
l-6 66q-33 -43 -72 -62t-102 -19q-85 0 -128 43z" />
    <glyph glyph-name="uni01CD" unicode="&#x1cd;" horiz-adv-x="717" 
d="M170 892h120l70 -120l70 120h121l-130 -193h-120zM27 87h29q24 0 36 7.5t19 28.5l185 524h127l182 -524q7 -21 19.5 -28.5t37.5 -7.5h28v-87h-250v87h46l-36 110h-182l-37 -110h46v-87h-250v87zM428 269l-68 207l-70 -207h138z" />
    <glyph glyph-name="uni01CE" unicode="&#x1ce;" horiz-adv-x="525" 
d="M71 716h120l70 -120l70 120h121l-130 -193h-120zM59.5 20q-42.5 35 -42.5 100q0 73 47.5 108.5t137.5 40.5l123 8v59q0 38 -17 54t-57 16q-46 0 -78 -18v-39h-113v92q87 54 195 54q105 0 153.5 -46t48.5 -126v-199q0 -19 7.5 -28t24.5 -9h19v-87h-124l-13 60
q-35 -42 -76 -58.5t-110 -16.5q-83 0 -125.5 35zM296 93q29 23 29 68v41l-111 -8q-42 -3 -58 -17.5t-16 -47.5q0 -59 75 -59q52 0 81 23z" />
    <glyph glyph-name="uni01CF" unicode="&#x1cf;" horiz-adv-x="313" 
d="M-37 893h120l70 -120l70 120h121l-130 -193h-120zM27 87h26q21 0 30 9.5t9 29.5v397q0 19 -9 28t-30 9h-26v87h259v-87h-26q-20 0 -28.5 -9t-8.5 -28v-399q0 -19 8.5 -28t28.5 -9h26v-87h-259v87z" />
    <glyph glyph-name="uni01D0" unicode="&#x1d0;" horiz-adv-x="293" 
d="M-57 707h120l70 -120l70 120h121l-130 -193h-120zM17 87h26q21 0 30 9.5t9 29.5v225q0 22 -7.5 32t-29.5 10h-28v87h196v-356q0 -19 8.5 -28t28.5 -9h26v-87h-259v87z" />
    <glyph glyph-name="uni01D1" unicode="&#x1d1;" horiz-adv-x="663" 
d="M141 893h120l70 -120l70 120h121l-130 -193h-120zM102 68.5q-75 83.5 -75 252.5q0 171 73 256t232 85q157 0 230.5 -85t73.5 -256q0 -169 -75 -252.5t-229 -83.5q-155 0 -230 83.5zM464.5 131q41.5 57 41.5 190q0 136 -41.5 194t-132.5 58q-62 0 -100 -24.5t-56.5 -80
t-18.5 -147.5q0 -134 41.5 -190.5t133.5 -56.5q91 0 132.5 57z" />
    <glyph glyph-name="uni01D2" unicode="&#x1d2;" horiz-adv-x="558" 
d="M89 716h120l70 -120l70 120h121l-130 -193h-120zM91.5 51q-64.5 66 -64.5 188q0 123 64 189.5t188 66.5q125 0 188.5 -66.5t63.5 -189.5q0 -122 -64.5 -188t-187.5 -66t-187.5 66zM371.5 114q29.5 40 29.5 125q0 86 -29.5 126.5t-92.5 40.5t-92.5 -40.5t-29.5 -126.5
q0 -85 29.5 -125t92.5 -40t92.5 40z" />
    <glyph glyph-name="uni01D3" unicode="&#x1d3;" horiz-adv-x="666" 
d="M143 893h120l70 -120l70 120h121l-130 -193h-120zM141 38.5q-64 53.5 -64 146.5v339q0 19 -8.5 27.5t-29.5 8.5h-22v87h248v-87h-22q-20 0 -29 -8.5t-9 -27.5v-345q0 -105 128 -105t128 105v345q0 19 -8.5 27.5t-29.5 8.5h-22v87h248v-87h-22q-20 0 -29 -8.5t-9 -27.5
v-339q0 -93 -64.5 -146.5t-191.5 -53.5q-128 0 -192 53.5z" />
    <glyph glyph-name="uni01D4" unicode="&#x1d4;" horiz-adv-x="597" 
d="M91 716h120l70 -120l70 120h121l-130 -193h-120zM123 28q-43 43 -43 124v204q0 19 -8.5 28t-28.5 9h-26v87h194v-327q0 -44 19.5 -63.5t60.5 -19.5q42 0 67.5 24t25.5 69v193q0 19 -8.5 28t-28.5 9h-26v87h259v-87h-26q-21 0 -30 -9.5t-9 -29.5v-230q0 -19 8.5 -28
t28.5 -9h28v-87h-149l-6 66q-33 -43 -72 -62t-102 -19q-85 0 -128 43z" />
    <glyph glyph-name="uni01D5" unicode="&#x1d5;" horiz-adv-x="666" 
d="M184 957h299v-81h-299v81zM168 821h104v-109h-104v109zM393 821h105v-109h-105v109zM141 38.5q-64 53.5 -64 146.5v339q0 19 -8.5 27.5t-29.5 8.5h-22v87h248v-87h-22q-20 0 -29 -8.5t-9 -27.5v-345q0 -105 128 -105t128 105v345q0 19 -8.5 27.5t-29.5 8.5h-22v87h248
v-87h-22q-20 0 -29 -8.5t-9 -27.5v-339q0 -93 -64.5 -146.5t-191.5 -53.5q-128 0 -192 53.5z" />
    <glyph glyph-name="uni01D6" unicode="&#x1d6;" horiz-adv-x="597" 
d="M134 785h299v-81h-299v81zM118 648h104v-109h-104v109zM343 648h105v-109h-105v109zM123 28q-43 43 -43 124v204q0 19 -8.5 28t-28.5 9h-26v87h194v-327q0 -44 19.5 -63.5t60.5 -19.5q42 0 67.5 24t25.5 69v193q0 19 -8.5 28t-28.5 9h-26v87h259v-87h-26q-21 0 -30 -9.5
t-9 -29.5v-230q0 -19 8.5 -28t28.5 -9h28v-87h-149l-6 66q-33 -43 -72 -62t-102 -19q-85 0 -128 43z" />
    <glyph glyph-name="uni01D7" unicode="&#x1d7;" horiz-adv-x="666" 
d="M346 1015h125l-100 -142h-87zM162 825h101v-109h-101v109zM389 825h103v-109h-103v109zM141 38.5q-64 53.5 -64 146.5v339q0 19 -8.5 27.5t-29.5 8.5h-22v87h248v-87h-22q-20 0 -29 -8.5t-9 -27.5v-345q0 -105 128 -105t128 105v345q0 19 -8.5 27.5t-29.5 8.5h-22v87h248
v-87h-22q-20 0 -29 -8.5t-9 -27.5v-339q0 -93 -64.5 -146.5t-191.5 -53.5q-128 0 -192 53.5z" />
    <glyph glyph-name="uni01D8" unicode="&#x1d8;" horiz-adv-x="597" 
d="M297 840h125l-100 -142h-87zM113 650h101v-109h-101v109zM340 650h103v-109h-103v109zM123 28q-43 43 -43 124v204q0 19 -8.5 28t-28.5 9h-26v87h194v-327q0 -44 19.5 -63.5t60.5 -19.5q42 0 67.5 24t25.5 69v193q0 19 -8.5 28t-28.5 9h-26v87h259v-87h-26
q-21 0 -30 -9.5t-9 -29.5v-230q0 -19 8.5 -28t28.5 -9h28v-87h-149l-6 66q-33 -43 -72 -62t-102 -19q-85 0 -128 43z" />
    <glyph glyph-name="uni01D9" unicode="&#x1d9;" horiz-adv-x="666" 
d="M165 996h113l55 -78l58 78h111l-111 -138h-116zM167 825h103v-109h-103v109zM396 825h101v-109h-101v109zM141 38.5q-64 53.5 -64 146.5v339q0 19 -8.5 27.5t-29.5 8.5h-22v87h248v-87h-22q-20 0 -29 -8.5t-9 -27.5v-345q0 -105 128 -105t128 105v345q0 19 -8.5 27.5
t-29.5 8.5h-22v87h248v-87h-22q-20 0 -29 -8.5t-9 -27.5v-339q0 -93 -64.5 -146.5t-191.5 -53.5q-128 0 -192 53.5z" />
    <glyph glyph-name="uni01DA" unicode="&#x1da;" horiz-adv-x="597" 
d="M114 821h113l55 -78l58 78h111l-111 -138h-116zM116 650h103v-109h-103v109zM345 650h101v-109h-101v109zM123 28q-43 43 -43 124v204q0 19 -8.5 28t-28.5 9h-26v87h194v-327q0 -44 19.5 -63.5t60.5 -19.5q42 0 67.5 24t25.5 69v193q0 19 -8.5 28t-28.5 9h-26v87h259v-87
h-26q-21 0 -30 -9.5t-9 -29.5v-230q0 -19 8.5 -28t28.5 -9h28v-87h-149l-6 66q-33 -43 -72 -62t-102 -19q-85 0 -128 43z" />
    <glyph glyph-name="uni01DB" unicode="&#x1db;" horiz-adv-x="666" 
d="M190 1015h125l62 -142h-87zM169 825h103v-109h-103v109zM398 825h101v-109h-101v109zM141 38.5q-64 53.5 -64 146.5v339q0 19 -8.5 27.5t-29.5 8.5h-22v87h248v-87h-22q-20 0 -29 -8.5t-9 -27.5v-345q0 -105 128 -105t128 105v345q0 19 -8.5 27.5t-29.5 8.5h-22v87h248
v-87h-22q-20 0 -29 -8.5t-9 -27.5v-339q0 -93 -64.5 -146.5t-191.5 -53.5q-128 0 -192 53.5z" />
    <glyph glyph-name="uni01DC" unicode="&#x1dc;" horiz-adv-x="597" 
d="M134 840h125l62 -142h-87zM113 650h103v-109h-103v109zM342 650h101v-109h-101v109zM123 28q-43 43 -43 124v204q0 19 -8.5 28t-28.5 9h-26v87h194v-327q0 -44 19.5 -63.5t60.5 -19.5q42 0 67.5 24t25.5 69v193q0 19 -8.5 28t-28.5 9h-26v87h259v-87h-26q-21 0 -30 -9.5
t-9 -29.5v-230q0 -19 8.5 -28t28.5 -9h28v-87h-149l-6 66q-33 -43 -72 -62t-102 -19q-85 0 -128 43z" />
    <glyph glyph-name="Gcaron" unicode="&#x1e6;" horiz-adv-x="625" 
d="M150 893h120l70 -120l70 120h121l-130 -193h-120zM176.5 27.5q-73.5 42.5 -111.5 117.5t-38 174q0 100 35 177.5t107.5 121.5t180.5 44q73 0 124 -14t100 -45v-114h-131v69q-19 8 -38 11.5t-48 3.5q-97 0 -148.5 -67t-51.5 -187q0 -116 53.5 -180.5t150.5 -64.5
q60 0 105 16v171h-131v88h263v-297q-50 -35 -109.5 -51t-133.5 -16q-105 0 -178.5 42.5z" />
    <glyph glyph-name="gcaron" unicode="&#x1e7;" horiz-adv-x="593" 
d="M105 716h120l70 -120l70 120h121l-130 -193h-120zM114 -132v79h113v-41q17 -10 36.5 -13.5t48.5 -3.5q87 0 87 90v77q-28 -32 -64 -46.5t-89 -14.5q-104 0 -161.5 64t-57.5 188q0 79 29 135t80.5 84.5t118.5 28.5q59 0 96.5 -19.5t67.5 -63.5l9 68h148v-84h-17
q-19 0 -25.5 -9.5t-6.5 -32.5v-353q0 -92 -55 -146.5t-156 -54.5q-125 0 -202 68zM363.5 114q29.5 39 29.5 108v41q0 67 -30 110t-87 43q-63 0 -91.5 -41t-28.5 -128q0 -90 28.5 -131t92.5 -41q57 0 86.5 39z" />
    <glyph glyph-name="Aringacute" unicode="&#x1fa;" horiz-adv-x="717" 
d="M403 861h-112l77 180h148zM690 87v-87h-250v87h46l-36 110h-182l-37 -110h46v-87h-250v87h29q24 0 36 7.5t19 28.5l178 504q-21 16 -33 40t-12 52q0 48 33.5 82t82.5 34t83 -34t34 -82q0 -29 -12.5 -53t-34.5 -40l175 -503q7 -21 19.5 -28.5t37.5 -7.5h28zM326.5 753
q-13.5 -14 -13.5 -34t13.5 -34t33.5 -14t33.5 14t13.5 34t-13.5 34t-33.5 14t-33.5 -14zM428 269l-68 207l-70 -207h138z" />
    <glyph glyph-name="aringacute" unicode="&#x1fb;" horiz-adv-x="525" 
d="M255 922h148l-113 -144h-112zM168.5 555.5q-33.5 33.5 -33.5 82.5q0 48 33.5 82t82.5 34t83 -34t34 -82q0 -49 -34 -82.5t-83 -33.5t-82.5 33.5zM284.5 604q13.5 14 13.5 34t-13.5 34t-33.5 14t-33.5 -14t-13.5 -34t13.5 -34t33.5 -14t33.5 14zM59.5 20
q-42.5 35 -42.5 100q0 73 47.5 108.5t137.5 40.5l123 8v59q0 38 -17 54t-57 16q-46 0 -78 -18v-39h-113v92q87 54 195 54q105 0 153.5 -46t48.5 -126v-199q0 -19 7.5 -28t24.5 -9h19v-87h-124l-13 60q-35 -42 -76 -58.5t-110 -16.5q-83 0 -125.5 35zM296 93q29 23 29 68v41
l-111 -8q-42 -3 -58 -17.5t-16 -47.5q0 -59 75 -59q52 0 81 23z" />
    <glyph glyph-name="AEacute" unicode="&#x1fc;" horiz-adv-x="832" 
d="M472 879h148l-113 -180h-112zM27 87h29q24 0 35.5 7.5t19.5 28.5l193 524h501v-142h-120v17q0 25 -14.5 31.5t-52.5 6.5h-98v-192h144v-88h-144v-193h126q20 0 29.5 9t9.5 29v18h120v-143h-464v87h15q20 0 26 8.5t6 30.5v71h-118l-39 -110h46v-87h-250v87zM388 276v284
h-3l-91 -284h94z" />
    <glyph glyph-name="aeacute" unicode="&#x1fd;" horiz-adv-x="832" 
d="M419 704h148l-113 -180h-112zM59.5 20q-42.5 35 -42.5 100q0 73 47.5 108.5t137.5 40.5l123 8v59q0 38 -17 54t-57 16q-46 0 -78 -18v-39h-113v92q87 54 195 54q99 0 144 -55q29 25 72.5 40t96.5 15q116 0 176.5 -64.5t60.5 -174.5v-47h-348v-7q1 -68 30 -98t89 -30
q62 0 99 16v35h113v-76q-76 -64 -213 -64q-125 0 -176 78q-36 -42 -87 -60t-127 -18q-83 0 -125.5 35zM675 284q0 62 -27 92t-82 30q-104 0 -109 -111v-11h218zM296 93q29 23 29 68v41l-111 -8q-42 -3 -58 -17.5t-16 -47.5q0 -59 75 -59q52 0 81 23z" />
    <glyph glyph-name="Oslashacute" unicode="&#x1fe;" horiz-adv-x="663" 
d="M343 878h149l-114 -180h-112zM180 13q-153 66 -153 308q0 171 73 256t232 85q43 0 85 -8l14 35h56l-19 -49q86 -32 127 -111.5t41 -207.5q0 -169 -75 -252.5t-229 -83.5q-55 0 -102 11l-14 -39h-56zM386 567q-24 6 -54 6q-62 0 -100 -24.5t-56.5 -80t-18.5 -147.5
q0 -79 14.5 -129.5t45.5 -78.5zM464.5 131q41.5 57 41.5 190q0 89 -18 144t-55 81l-171 -462q25 -10 70 -10q91 0 132.5 57z" />
    <glyph glyph-name="oslashacute" unicode="&#x1ff;" horiz-adv-x="558" 
d="M277 701h149l-113 -180h-112zM168 2q-69 25 -105 86t-36 151q0 123 64 189.5t188 66.5q25 0 65 -6l16 46h55l-21 -59q68 -26 102.5 -86.5t34.5 -150.5q0 -122 -64.5 -188t-187.5 -66q-28 0 -61 5l-15 -42h-56zM312 402q-20 4 -33 4q-63 0 -92.5 -40.5t-29.5 -126.5
q0 -96 46 -136zM371.5 114q29.5 40 29.5 125q0 96 -44 135l-108 -297q13 -3 30 -3q63 0 92.5 40z" />
    <glyph glyph-name="Scommaaccent" unicode="&#x218;" horiz-adv-x="542" 
d="M138 6q-65 21 -111 57v107h133v-69q48 -27 119 -27q106 0 106 85q0 29 -16 48.5t-43 33.5t-82 37q-74 30 -118.5 57t-69 63.5t-24.5 87.5q0 87 68.5 131.5t175.5 44.5q132 0 227 -76v-99h-134v64q-38 22 -100 22q-107 0 -107 -83q0 -29 20 -50.5t47.5 -35.5t74.5 -33
q81 -33 122.5 -56t65 -58t23.5 -92q0 -52 -27.5 -92.5t-81 -64t-128.5 -23.5t-140 21zM204 -49h160l-100 -204h-124z" />
    <glyph glyph-name="scommaaccent" unicode="&#x219;" horiz-adv-x="471" 
d="M123 0q-55 15 -96 46v84h121v-38q28 -18 83 -18q43 0 63 10t20 36q0 23 -16.5 35t-65.5 31l-46 18q-53 22 -84.5 40.5t-50.5 46t-19 67.5q0 68 53 102.5t145 34.5q60 0 112 -15t91 -45v-84h-117v36q-26 19 -73 19q-38 0 -59.5 -10.5t-21.5 -37.5q0 -25 24 -39.5t76 -33.5
l32 -12q51 -19 82 -37.5t49.5 -46t18.5 -69.5q0 -66 -52.5 -100.5t-154.5 -34.5q-59 0 -114 15zM165 -49h160l-100 -204h-124z" />
    <glyph glyph-name="uni021A" unicode="&#x21a;" horiz-adv-x="590" 
d="M165 87h25q21 0 30 9t9 28v436h-78q-21 0 -30 -8.5t-9 -28.5v-37h-95v161h556v-161h-95v37q0 20 -9 28.5t-30 8.5h-78v-436q0 -19 9.5 -28t30.5 -9h25v-87h-261v87zM229 -49h141l-65 -214h-108z" />
    <glyph glyph-name="uni021B" unicode="&#x21b;" horiz-adv-x="448" 
d="M139.5 27.5q-46.5 42.5 -46.5 123.5v242h-76v87h76v103l131 39v-142h137v-87h-137v-252q0 -37 15.5 -54t46.5 -17q38 0 59 18v43h106v-84q-62 -62 -173 -62q-92 0 -138.5 42.5zM212 -49h141l-65 -214h-108z" />
    <glyph glyph-name="uni0237" unicode="&#x237;" horiz-adv-x="388" 
d="M-33 -111v92h109v-41q23 -20 64 -20q35 0 52.5 15.5t17.5 53.5v362q0 22 -7.5 32t-29.5 10h-28v87h196v-475q0 -86 -49 -130t-145 -44q-113 0 -180 58z" />
    <glyph glyph-name="uni0251" unicode="&#x251;" horiz-adv-x="594" 
d="M84 49q-57 63 -57 181q0 127 56.5 196t162.5 69q59 0 97 -15t65 -47l10 47h109v-359q0 -22 7.5 -30t26.5 -8h16v-83h-150l-8 67q-32 -42 -74 -61.5t-104 -19.5q-100 0 -157 63zM361 108q32 43 32 108v49q0 69 -30 108t-87 39q-63 0 -91.5 -44.5t-28.5 -135.5
q0 -88 27.5 -127.5t89.5 -39.5q56 0 88 43z" />
    <glyph glyph-name="uni0259" unicode="&#x259;" horiz-adv-x="541" 
d="M87.5 49.5q-60.5 64.5 -60.5 174.5v47h357q0 70 -33 102.5t-95 32.5t-99 -16v-35h-113v76q76 64 213 64q120 0 188.5 -63.5t68.5 -186.5q0 -130 -65 -195t-185 -65q-116 0 -176.5 64.5zM353.5 105.5q30.5 31.5 30.5 90.5h-227q0 -62 27 -92t82 -30q57 0 87.5 31.5z" />
    <glyph glyph-name="uni02BB" unicode="&#x2bb;" horiz-adv-x="309" 
d="M146 646h126l-74 -231h-161z" />
    <glyph glyph-name="uni02BC" unicode="&#x2bc;" horiz-adv-x="309" 
d="M111 646h161l-109 -231h-126z" />
    <glyph glyph-name="uni02BE" unicode="&#x2be;" 
d="M-104 546q39 0 55 12.5t16 44.5q0 31 -16 44t-55 13v76q170 0 170 -133t-170 -133v76z" />
    <glyph glyph-name="uni02BF" unicode="&#x2bf;" 
d="M-104 603q0 133 170 133v-76q-39 0 -55 -13t-16 -44q0 -32 16 -44.5t55 -12.5v-76q-170 0 -170 133z" />
    <glyph glyph-name="circumflex" unicode="&#x2c6;" horiz-adv-x="482" 
d="M176 733h131l138 -207h-144l-61 102l-61 -102h-142z" />
    <glyph glyph-name="caron" unicode="&#x2c7;" horiz-adv-x="454" 
d="M37 715h119l71 -120l69 120h121l-130 -193h-120z" />
    <glyph glyph-name="uni02C8" unicode="&#x2c8;" 
d="M-66 727h131v-187h-131v187z" />
    <glyph glyph-name="uni02C9" unicode="&#x2c9;" horiz-adv-x="586" 
d="M144 625h299v-81h-299v81z" />
    <glyph glyph-name="uni02CA" unicode="&#x2ca;" 
d="M5 701h149l-113 -180h-113z" />
    <glyph glyph-name="uni02CB" unicode="&#x2cb;" 
d="M-93 701h149l77 -180h-113z" />
    <glyph glyph-name="uni02CC" unicode="&#x2cc;" 
d="M-66 -38h131v-186h-131v186z" />
    <glyph glyph-name="breve" unicode="&#x2d8;" horiz-adv-x="411" 
d="M82 584q-45 41 -45 109h109q0 -33 15.5 -51t44.5 -18q59 0 59 69h109q0 -68 -45 -109t-123 -41q-79 0 -124 41z" />
    <glyph glyph-name="dotaccent" unicode="&#x2d9;" horiz-adv-x="179" 
d="M37 653h105v-109h-105v109z" />
    <glyph glyph-name="ring" unicode="&#x2da;" horiz-adv-x="307" 
d="M70.5 538.5q-33.5 33.5 -33.5 82.5q0 48 33.5 82t82.5 34t83 -34t34 -82q0 -49 -34 -82.5t-83 -33.5t-82.5 33.5zM186.5 587q13.5 14 13.5 34t-13.5 34t-33.5 14t-33.5 -14t-13.5 -34t13.5 -34t33.5 -14t33.5 14z" />
    <glyph glyph-name="ogonek" unicode="&#x2db;" horiz-adv-x="259" 
d="M66.5 -188q-29.5 25 -29.5 75q0 33 14 63t38 50h109q-25 -20 -37 -40.5t-12 -44.5q0 -40 34 -40q18 0 39 8v-74q-31 -22 -80 -22q-46 0 -75.5 25z" />
    <glyph glyph-name="tilde" unicode="&#x2dc;" horiz-adv-x="485" 
d="M65.5 658.5q28.5 37.5 88.5 37.5q26 0 47 -7.5t48 -22.5q19 -11 33 -16.5t28 -5.5q23 0 33 12t10 40h95q0 -80 -27.5 -116.5t-88.5 -36.5q-26 0 -46.5 7.5t-46.5 20.5q-21 11 -34.5 16.5t-29.5 5.5q-22 0 -33 -11.5t-11 -38.5h-94q0 78 28.5 115.5z" />
    <glyph glyph-name="hungarumlaut" unicode="&#x2dd;" horiz-adv-x="530" 
d="M125 721h153l-124 -193h-117zM341 721h152l-122 -193h-117z" />
    <glyph glyph-name="gravecomb" unicode="&#x300;" 
d="M-441 701h149l78 -180h-114z" />
    <glyph glyph-name="acutecomb" unicode="&#x301;" 
d="M-343 701h148l-113 -180h-112z" />
    <glyph glyph-name="uni0302" unicode="&#x302;" 
d="M-59 701h120l130 -193h-121l-70 120l-70 -120h-120z" />
    <glyph glyph-name="tildecomb" unicode="&#x303;" 
d="M-486.5 650.5q28.5 37.5 89.5 37.5q27 0 47 -7.5t48 -22.5q20 -11 33 -16.5t27 -5.5q22 0 33 12.5t11 39.5h93q0 -80 -27 -116.5t-87 -36.5q-27 0 -48.5 7.5t-47.5 21.5q-21 11 -34 16t-27 5q-23 0 -34 -11.5t-11 -38.5h-94q0 78 28.5 115.5z" />
    <glyph glyph-name="uni0304" unicode="&#x304;" 
d="M-148 625h299v-81h-299v81z" />
    <glyph glyph-name="uni0306" unicode="&#x306;" 
d="M-124 576q-45 41 -45 109h109q0 -33 15.5 -51t44.5 -18q60 0 60 69h109q0 -68 -45 -109t-124 -41t-124 41z" />
    <glyph glyph-name="uni0307" unicode="&#x307;" 
d="M-52 645h104v-109h-104v109z" />
    <glyph glyph-name="uni0308" unicode="&#x308;" 
d="M-164 657h104v-109h-104v109zM61 657h105v-109h-105v109z" />
    <glyph glyph-name="hookabovecomb" unicode="&#x309;" 
d="M-361 577q57 0 57 39q0 17 -10 24.5t-34 7.5q-28 0 -47 -9v68q31 12 81 12q122 0 122 -85q0 -62 -62 -81v-41h-107v65z" />
    <glyph glyph-name="uni030A" unicode="&#x30a;" 
d="M-82.5 542.5q-33.5 33.5 -33.5 82.5q0 48 33.5 82t82.5 34t83 -34t34 -82q0 -49 -34 -82.5t-83 -33.5t-82.5 33.5zM33.5 591q13.5 14 13.5 34t-13.5 34t-33.5 14t-33.5 -14t-13.5 -34t13.5 -34t33.5 -14t33.5 14z" />
    <glyph glyph-name="uni030B" unicode="&#x30b;" 
d="M-170 713h152l-122 -193h-118zM45 713h154l-124 -193h-117z" />
    <glyph glyph-name="uni030C" unicode="&#x30c;" 
d="M-190 707h120l70 -120l70 120h121l-130 -193h-120z" />
    <glyph glyph-name="uni031B" unicode="&#x31b;" 
d="M-139 567q46 0 63.5 18t17.5 58v38h132v-39q0 -76 -49.5 -116.5t-163.5 -40.5v82z" />
    <glyph glyph-name="dotbelowcomb" unicode="&#x323;" 
d="M-357 -61h104v-110h-104v110z" />
    <glyph glyph-name="uni0324" unicode="&#x324;" 
d="M-163 -61h104v-110h-104v110zM61 -61h105v-110h-105v110z" />
    <glyph glyph-name="uni0326" unicode="&#x326;" 
d="M-47 -49h160l-100 -204h-124z" />
    <glyph glyph-name="uni0327" unicode="&#x327;" 
d="M-121 -213v73q35 -15 72 -15q49 0 49 30q0 24 -19 34.5t-73 10.5l12 80h120l-7 -43q41 -7 60 -28.5t19 -58.5q0 -47 -36 -72.5t-110 -25.5q-49 0 -87 15z" />
    <glyph glyph-name="uni0328" unicode="&#x328;" 
d="M-72.5 -188q-29.5 25 -29.5 75q0 33 14 63t38 50h109q-25 -20 -37 -39.5t-12 -43.5q0 -42 34 -42q18 0 39 8v-74q-31 -22 -80 -22q-46 0 -75.5 25z" />
    <glyph glyph-name="uni032E" unicode="&#x32e;" 
d="M-124 -157q-45 41 -45 110h109q0 -33 15.5 -51t44.5 -18q60 0 60 69h109q0 -69 -45 -110t-124 -41t-124 41z" />
    <glyph glyph-name="uni0331" unicode="&#x331;" 
d="M-148 -57h299v-81h-299v81z" />
    <glyph glyph-name="uni0394" unicode="&#x394;" horiz-adv-x="724" 
d="M37 94l266 579h118l266 -579v-94h-650v94zM545 97l-183 419l-183 -419h366z" />
    <glyph glyph-name="uni03A9" unicode="&#x3a9;" horiz-adv-x="804" 
d="M37 138h94v-17q0 -20 7.5 -27t28.5 -7h74q-73 51 -118 122t-45 161q0 146 80.5 235.5t244.5 89.5q162 0 243 -89.5t81 -235.5q0 -89 -45.5 -160.5t-118.5 -122.5h74q20 0 28 7.5t8 26.5v17h94v-138h-326v104q83 53 119.5 115.5t36.5 150.5q0 114 -47.5 175t-146.5 61
q-98 0 -146.5 -61.5t-48.5 -174.5q0 -88 36.5 -150.5t119.5 -115.5v-104h-327v138z" />
    <glyph glyph-name="uni03BC" unicode="&#x3bc;" horiz-adv-x="597" 
d="M80 356q0 19 -8.5 28t-28.5 9h-26v87h194v-327q0 -44 19.5 -63.5t60.5 -19.5q42 0 67.5 24t25.5 69v193q0 19 -8.5 28t-28.5 9h-26v87h194v-356q0 -19 8.5 -28t28.5 -9h28v-87h-149l-6 66q-33 -43 -70 -62t-95 -19q-31 0 -49 6v-199h-131v564z" />
    <glyph glyph-name="pi" unicode="&#x3c0;" horiz-adv-x="721" 
d="M405 27q-42 42 -42 124v242h-133v-267q0 -21 8.5 -30t28.5 -9h26v-87h-259v87h26q21 0 30 9.5t9 29.5v267h-82v87h559v-87h-82v-257q0 -37 12 -51.5t40 -14.5q18 0 29 4t23 14v43h106v-84q-31 -31 -70 -46.5t-96 -15.5q-91 0 -133 42z" />
    <glyph glyph-name="uni0E01" unicode="&#xe01;" horiz-adv-x="575" 
d="M46 206q0 44 12.5 72t44.5 47l-76 45v78q48 46 112.5 71t140.5 25q123 0 185.5 -52t62.5 -140v-352h-135v358q0 46 -29 70.5t-85 24.5q-73 0 -124 -37v-13l77 -48v-53q-30 -12 -40.5 -31t-10.5 -58v-213h-135v206z" />
    <glyph glyph-name="uni0E02" unicode="&#xe02;" horiz-adv-x="544" 
d="M49 176v41q0 38 15 72t43 60q-44 3 -62 25.5t-18 71.5q0 51 24.5 74.5t88.5 23.5q65 0 89.5 -22t24.5 -79v-35q0 -21 -7.5 -36t-23.5 -36q-19 -25 -29 -47.5t-10 -55.5v-63q0 -48 17 -71t72 -23q38 0 57.5 11.5t25.5 31t6 51.5v359h135v-347q0 -197 -224 -197t-224 191z
M170.5 414q8.5 8 8.5 29q0 23 -8.5 31t-31.5 8t-32 -8.5t-9 -30.5q0 -21 9 -29t32 -8t31.5 8z" />
    <glyph glyph-name="uni0E03" unicode="&#xe03;" horiz-adv-x="556" 
d="M111 34.5q-50 49.5 -50 133.5v26q0 37 22 70t60 72q3 4 15.5 17t18 22t5.5 15q-18 -14 -34.5 -19.5t-39.5 -5.5q-47 0 -69 20.5t-22 64.5q0 51 19 72.5t76 21.5q38 0 57 -10t28 -36l39 31h60v-129q0 -27 -12.5 -49.5t-37.5 -51.5t-37.5 -51.5t-12.5 -48.5v-29
q0 -48 17 -71t72 -23q38 0 57.5 11.5t25.5 31t6 51.5v359h135v-347q0 -197 -224 -197q-124 0 -174 49.5zM145.5 423q8.5 8 8.5 29q0 23 -8.5 31t-31.5 8t-32 -8.5t-9 -30.5q0 -21 9 -29t32 -8t31.5 8z" />
    <glyph glyph-name="uni0E04" unicode="&#xe04;" horiz-adv-x="593" 
d="M47 326q0 218 249 218q136 0 193 -59t57 -159v-326h-135v342q0 55 -25 83t-90 28q-62 0 -88 -28t-26 -83v-83q31 41 52 56.5t59 15.5q56 0 79 -21.5t23 -76.5q0 -52 -24.5 -75.5t-78.5 -23.5q-71 0 -85 42l-25 -35v-141h-135v326zM324 201q8 9 8 31t-8 29.5t-31 7.5
q-24 0 -32.5 -7.5t-8.5 -29.5t9 -31t32 -9t31 9z" />
    <glyph glyph-name="uni0E05" unicode="&#xe05;" horiz-adv-x="593" 
d="M47 396q0 73 38 110.5t102 37.5q42 0 71 -15t38 -46q12 31 42 46t73 15q65 0 100 -36.5t35 -111.5v-396h-135v387q0 40 -6.5 53t-27.5 13q-33 0 -33 -45v-10h-96v10q0 24 -7 34.5t-23 10.5q-21 0 -28.5 -13.5t-7.5 -52.5v-128q31 41 52 56.5t59 15.5q56 0 79 -21.5
t23 -76.5q0 -52 -24.5 -75.5t-78.5 -23.5q-71 0 -85 42l-25 -35v-141h-135v396zM324 201q8 9 8 31t-8 29.5t-31 7.5q-24 0 -32.5 -7.5t-8.5 -29.5t9 -31t32 -9t31 9z" />
    <glyph glyph-name="uni0E06" unicode="&#xe06;" horiz-adv-x="581" 
d="M62.5 9q-25.5 24 -25.5 74q0 49 22.5 72.5t66.5 25.5v20q0 37 11 65t31 60q12 21 18 34t6 25q-18 -12 -34.5 -16t-39.5 -4q-47 0 -69 20.5t-22 64.5q0 51 19 72.5t76 21.5q38 0 57 -10t28 -36l44 31h60v-136q0 -27 -7 -47t-21 -47t-20.5 -46.5t-6.5 -45.5v-30l143 -53
v405h135v-529h-78l-193 71q-3 -45 -26.5 -65.5t-87.5 -20.5q-61 0 -86.5 24zM155.5 423q8.5 8 8.5 29q0 23 -8.5 31t-31.5 8t-32 -8.5t-9 -30.5q0 -21 9 -29t32 -8t31.5 8zM185.5 54.5q8.5 8.5 8.5 29.5q0 22 -8.5 30t-31.5 8t-31.5 -8t-8.5 -30t8.5 -30t31.5 -8t31.5 8.5z
" />
    <glyph glyph-name="uni0E07" unicode="&#xe07;" horiz-adv-x="511" 
d="M7 358h131l96 -267h45q25 0 37.5 10.5t12.5 33.5v216q-44 0 -69 23.5t-25 69.5q0 52 25 76t89 24t89.5 -26.5t25.5 -87.5v-265q0 -69 -31 -117t-127 -48h-167zM377.5 414q8.5 8 8.5 29q0 23 -8.5 31t-31.5 8t-31.5 -8t-8.5 -31q0 -21 8.5 -29t31.5 -8t31.5 8z" />
    <glyph glyph-name="uni0E08" unicode="&#xe08;" horiz-adv-x="527" 
d="M153 159q-14 -2 -23 -2q-47 0 -71.5 24t-24.5 70q0 51 24 74.5t85 23.5q43 0 64.5 -9.5t30.5 -30t18 -65.5l30 -153h16q22 0 32.5 10t10.5 32v214q0 56 -30 81t-97 25q-44 0 -79 -13.5t-67 -39.5l-55 73q86 71 218 71q120 0 182.5 -48.5t62.5 -144.5v-196
q0 -61 -35.5 -108t-130.5 -47h-130zM173.5 219q8.5 8 8.5 29q0 23 -8 31t-31 8t-32 -8.5t-9 -30.5q0 -21 9 -29t32 -8q22 0 30.5 8z" />
    <glyph glyph-name="uni0E09" unicode="&#xe09;" horiz-adv-x="577" 
d="M342.5 4.5q-28.5 19.5 -27.5 59.5l-76 -64h-117v142q-44 0 -69.5 23.5t-25.5 69.5q0 52 25 76t89 24q65 0 90.5 -26.5t25.5 -87.5v-94l117 99q11 9 16 19.5t5 27.5v75q0 105 -141 105q-45 0 -89.5 -13.5t-76.5 -39.5l-55 73q42 35 104.5 53t128.5 18q134 0 199 -51.5
t65 -142.5v-72q0 -33 -12 -54.5t-42 -42.5q38 -7 54 -29t16 -63q0 -57 -26 -80.5t-95 -23.5q-54 0 -82.5 19.5zM169.5 205q8.5 8 8.5 29q0 23 -8.5 31t-31.5 8t-31.5 -8t-8.5 -31q0 -21 8.5 -29t31.5 -8t31.5 8zM459.5 60q8.5 8 8.5 30t-8.5 30.5t-31.5 8.5t-31.5 -8.5
t-8.5 -30.5t8.5 -30t31.5 -8t31.5 8z" />
    <glyph glyph-name="uni0E0A" unicode="&#xe0a;" horiz-adv-x="545" 
d="M49 176v41q0 38 15 72t43 60q-44 3 -62 25.5t-18 71.5q0 51 24.5 74.5t88.5 23.5q65 0 89.5 -22t24.5 -79v-35q0 -21 -7.5 -36t-23.5 -36q-19 -25 -29 -47.5t-10 -55.5v-63q0 -48 17 -71t72 -23q38 0 57.5 11.5t25.5 31t6 51.5v92q0 32 -12 47.5t-40 15.5h-22v93h23
q30 0 41 14.5t11 48.5v63h135v-58q0 -42 -16.5 -73t-51.5 -43q67 -29 67 -119v-69q0 -197 -224 -197t-224 191zM170.5 414q8.5 8 8.5 29q0 23 -8.5 31t-31.5 8t-32 -8.5t-9 -30.5q0 -21 9 -29t32 -8t31.5 8z" />
    <glyph glyph-name="uni0E0B" unicode="&#xe0b;" horiz-adv-x="557" 
d="M61 176v18q0 37 22 70t60 72q3 4 15.5 17t18 22t5.5 15q-18 -14 -34.5 -19.5t-39.5 -5.5q-47 0 -69 20.5t-22 64.5q0 51 19 72.5t76 21.5q38 0 57 -10t28 -36l39 31h60v-129q0 -27 -12.5 -49.5t-37.5 -51.5t-37.5 -51.5t-12.5 -48.5v-29q0 -48 17 -71t72 -23
q38 0 57.5 11.5t25.5 31t6 51.5v92q0 32 -12 47.5t-40 15.5h-10v93h11q30 0 41 14.5t11 48.5v63h135v-58q0 -42 -16.5 -73t-51.5 -43q67 -29 67 -119v-69q0 -197 -224 -197t-224 191zM145.5 423q8.5 8 8.5 29q0 23 -8.5 31t-31.5 8t-32 -8.5t-9 -30.5q0 -21 9 -29t32 -8
t31.5 8z" />
    <glyph glyph-name="uni0E0C" unicode="&#xe0c;" horiz-adv-x="825" 
d="M71 11.5q-25 26.5 -25 87.5v107q0 44 12.5 72t44.5 47l-76 45v78q101 96 246 96q122 0 180 -51.5t58 -140.5v-179l132 -53v409h135v-529h-97l-163 69q-3 -43 -29 -63.5t-88 -20.5q-56 0 -80.5 24t-24.5 74q0 93 84 96v179q0 95 -108 95q-66 0 -117 -37v-13l77 -48v-53
q-31 -11 -41 -29t-10 -55v-40q44 0 68.5 -23t24.5 -70q0 -52 -25 -76t-89 -24t-89 26.5zM194.5 55q8.5 8 8.5 31q0 21 -8.5 29t-31.5 8t-31.5 -8t-8.5 -29q0 -23 8.5 -31t31.5 -8t31.5 8zM439.5 53q8.5 8 8.5 31q0 21 -8.5 29t-31.5 8t-31.5 -8t-8.5 -29q0 -23 8.5 -31
t31.5 -8t31.5 8z" />
    <glyph glyph-name="uni0E0D" unicode="&#xe0d;" horiz-adv-x="883" 
d="M71 11.5q-25 26.5 -25 87.5v107q0 44 12.5 72t44.5 47l-76 45v78q101 96 246 96q122 0 180 -51.5t58 -140.5v-123q0 -52 21 -76.5t74 -24.5t74 24.5t21 76.5v300h135v-293q0 -89 -52.5 -144t-175.5 -55q-126 0 -177 51t-51 149v121q0 95 -108 95q-66 0 -117 -37v-13
l77 -48v-53q-31 -11 -41 -29t-10 -55v-40q44 0 68.5 -23t24.5 -70q0 -52 -25 -76t-89 -24t-89 26.5zM194.5 55q8.5 8 8.5 31q0 21 -8.5 29t-31.5 8t-31.5 -8t-8.5 -29q0 -23 8.5 -31t31.5 -8t31.5 8zM452.5 -180.5q-66.5 31.5 -66.5 100.5q0 59 25 82.5t84 23.5q52 0 77 -20
t28 -64q1 -29 -14 -49q15 -7 50 -7q94 0 154 63l58 -72q-36 -47 -97.5 -68t-130.5 -21q-101 0 -167.5 31.5zM522.5 -103q8.5 8 8.5 29q0 22 -8 30t-31 8t-31.5 -8t-8.5 -30q0 -21 8.5 -29t31.5 -8q22 0 30.5 8z" />
    <glyph glyph-name="uni0E0E" unicode="&#xe0e;" horiz-adv-x="615" 
d="M136 -210q16 140 168 140q80 0 129 -35v463q0 46 -29 70.5t-85 24.5q-73 0 -124 -37v-13l92 -54v-54q-20 -12 -25.5 -27.5t-5.5 -52.5v-116q0 -61 -25.5 -87.5t-89.5 -26.5t-89 24t-25 76q0 46 26 69.5t70 23.5v52q0 31 6.5 48.5t27.5 38.5l-90 53v78q48 46 112.5 71
t140.5 25q123 0 185.5 -52t62.5 -140v-573h-126q-13 27 -41 43.5t-67 16.5q-43 0 -65 -13t-30 -47zM169.5 55q8.5 8 8.5 31q0 21 -8.5 29t-31.5 8t-31.5 -8t-8.5 -29q0 -23 8.5 -31t31.5 -8t31.5 8z" />
    <glyph glyph-name="uni0E0F" unicode="&#xe0f;" horiz-adv-x="615" 
d="M148.5 -189q-35.5 33 -45.5 92l106 24q6 -30 19.5 -44t38.5 -14q23 0 37 12.5t26 37.5l103 -47v486q0 46 -29 70.5t-85 24.5q-73 0 -124 -37v-13l92 -54v-54q-20 -12 -25.5 -27.5t-5.5 -52.5v-116q0 -61 -25.5 -87.5t-89.5 -26.5t-89 24t-25 76q0 46 26 69.5t70 23.5v52
q0 31 6.5 48.5t27.5 38.5l-90 53v78q48 46 112.5 71t140.5 25q123 0 185.5 -52t62.5 -140v-573h-135l-90 42q-36 -43 -103 -43q-56 0 -91.5 33zM169.5 55q8.5 8 8.5 31q0 21 -8.5 29t-31.5 8t-31.5 -8t-8.5 -29q0 -23 8.5 -31t31.5 -8t31.5 8z" />
    <glyph glyph-name="uni0E10" unicode="&#xe10;" horiz-adv-x="545" 
d="M158 159q-14 -2 -23 -2q-47 0 -71.5 24t-24.5 70q0 51 24 74.5t85 23.5q43 0 64.5 -9.5t30.5 -30t18 -65.5l30 -153h16q22 0 32.5 10t10.5 32v214q0 56 -30 81t-97 25q-44 0 -79 -13.5t-67 -39.5l-55 73q86 71 218 71q74 0 127 -22q11 10 19.5 24.5t11.5 28.5l107 -23
q-2 -24 -16 -51t-37 -42q33 -44 33 -108v-196q0 -61 -35.5 -108t-130.5 -47h-130zM178.5 219q8.5 8 8.5 29q0 23 -8 31t-31 8t-32 -8.5t-9 -30.5q0 -21 9 -29t32 -8q22 0 30.5 8zM103.5 -246q-35.5 30 -45.5 87l101 23q7 -29 21 -43t39 -14q23 0 36 8t26 26l108 -34v28
q-91 0 -91 73q0 41 22.5 59.5t76.5 18.5q52 0 72.5 -19.5t20.5 -63.5v-176h-99l-96 32q-21 -18 -44 -26.5t-56 -8.5q-56 0 -91.5 30zM424 -119q8 7 8 24q0 19 -8 26.5t-28 7.5q-21 0 -29 -7.5t-8 -26.5q0 -18 8 -24.5t29 -6.5q20 0 28 7z" />
    <glyph glyph-name="uni0E11" unicode="&#xe11;" horiz-adv-x="612" 
d="M116 189q0 38 12 68.5t33 66.5q14 24 20 37t6 25q-33 -21 -79 -21q-47 0 -69 20.5t-22 64.5q0 51 19 72.5t76 21.5q38 0 57 -10t28 -36l44 31h60v-92l33 35q38 40 65.5 56t70.5 16q95 0 95 -105v-439h-135v395q0 20 -17 20q-13 0 -28 -12t-38 -39q-45 -52 -63 -77
t-25.5 -50t-7.5 -66v-171h-135v189zM145.5 423q8.5 8 8.5 29q0 23 -8.5 31t-31.5 8t-32 -8.5t-9 -30.5q0 -21 9 -29t32 -8t31.5 8z" />
    <glyph glyph-name="uni0E12" unicode="&#xe12;" horiz-adv-x="867" 
d="M362.5 9q-24.5 24 -24.5 74q0 44 22.5 69t61.5 27v207q0 38 -8.5 52.5t-34.5 14.5q-22 0 -31.5 -11t-9.5 -34v-10h-96v10q0 24 -8.5 34.5t-29.5 10.5q-24 0 -34 -15.5t-10 -52.5v-291l66 76q-26 8 -36 25.5t-10 51.5q0 52 24 74t74 22q54 0 77.5 -22t23.5 -69
q0 -29 -7.5 -48.5t-20.5 -36t-48 -54.5l-103 -113h-153v396q0 73 35.5 110.5t97.5 37.5q42 0 70.5 -15t37.5 -46q12 31 42 46t73 15q66 0 104.5 -37t38.5 -111v-220l139 -56v409h135v-529h-97l-163 69q-3 -43 -29 -63.5t-88 -20.5q-56 0 -80.5 24zM311 219q9 9 9 30
q0 22 -8.5 30t-31.5 8t-31.5 -8t-8.5 -30t8.5 -30.5t31.5 -8.5q22 0 31 9zM481.5 53q8.5 8 8.5 31q0 21 -8.5 29t-31.5 8t-31.5 -8t-8.5 -29q0 -23 8.5 -31t31.5 -8t31.5 8z" />
    <glyph glyph-name="uni0E13" unicode="&#xe13;" horiz-adv-x="845" 
d="M71 11.5q-25 26.5 -25 87.5v107q0 44 12.5 72t44.5 47l-76 45v78q101 96 246 96q122 0 180 -51.5t58 -140.5v-226l133 95q12 8 16.5 16.5t4.5 23.5v268h133v-266q0 -25 -11.5 -43t-40.5 -39q38 -7 54 -29t16 -63q0 -57 -26 -80.5t-95 -23.5q-58 0 -83 19.5t-25 65.5
l-92 -70h-115v358q0 95 -108 95q-66 0 -117 -37v-13l77 -48v-53q-31 -11 -41 -29t-10 -55v-40q44 0 68.5 -23t24.5 -70q0 -52 -25 -76t-89 -24t-89 26.5zM729.5 60q8.5 8 8.5 30t-8.5 30.5t-31.5 8.5t-31.5 -8.5t-8.5 -30.5t8.5 -30t31.5 -8t31.5 8zM194.5 55q8.5 8 8.5 31
q0 21 -8.5 29t-31.5 8t-31.5 -8t-8.5 -29q0 -23 8.5 -31t31.5 -8t31.5 8z" />
    <glyph glyph-name="uni0E14" unicode="&#xe14;" horiz-adv-x="593" 
d="M47 334q0 98 57.5 154t190.5 56q251 0 251 -210v-334h-131v343q0 57 -25.5 83.5t-94.5 26.5t-93 -26t-24 -84v-242l61 62q-24 7 -34 25t-10 53q0 52 24 74t75 22q62 0 84 -22t22 -77q0 -32 -12.5 -53t-40.5 -49l-135 -136h-165v334zM328 212q9 9 9 30q0 22 -8.5 30
t-31.5 8q-24 0 -32.5 -8t-8.5 -30t9 -30.5t32 -8.5q22 0 31 9z" />
    <glyph glyph-name="uni0E15" unicode="&#xe15;" horiz-adv-x="593" 
d="M47 396q0 73 38 110.5t102 37.5q42 0 71 -15t38 -46q12 31 42 46t73 15q65 0 100 -36.5t35 -111.5v-396h-131v387q0 39 -7.5 52.5t-28.5 13.5q-16 0 -25.5 -11t-9.5 -34v-10h-96v10q0 23 -7.5 34t-24.5 11q-21 0 -29.5 -14t-8.5 -52v-286l61 62q-24 7 -34 25t-10 53
q0 52 24 74t75 22q62 0 84 -22t22 -77q0 -32 -12.5 -53t-40.5 -49l-135 -136h-165v396zM328 212q9 9 9 30q0 22 -8.5 30t-31.5 8q-24 0 -32.5 -8t-8.5 -30t9 -30.5t32 -8.5q22 0 31 9z" />
    <glyph glyph-name="uni0E16" unicode="&#xe16;" horiz-adv-x="575" 
d="M71 11.5q-25 26.5 -25 87.5v107q0 44 12.5 72t44.5 47l-76 45v78q48 46 112.5 71t140.5 25q123 0 185.5 -52t62.5 -140v-352h-135v358q0 46 -29.5 70.5t-84.5 24.5q-73 0 -124 -37v-13l77 -48v-53q-31 -11 -41 -29t-10 -55v-40q44 0 68.5 -23t24.5 -70q0 -52 -25 -76
t-89 -24t-89 26.5zM194.5 55q8.5 8 8.5 31q0 21 -8.5 29t-31.5 8t-31.5 -8t-8.5 -29q0 -23 8.5 -31t31.5 -8t31.5 8z" />
    <glyph glyph-name="uni0E17" unicode="&#xe17;" horiz-adv-x="608" 
d="M112 351q-44 0 -69.5 23.5t-25.5 69.5q0 52 25 76t89 24q65 0 90.5 -26.5t25.5 -87.5v-123l83 145q28 50 58 71t75 21q47 0 72.5 -28.5t25.5 -76.5v-439h-135v380q0 8 -2 11.5t-8 3.5t-10.5 -5t-12.5 -19l-146 -254v-117h-135v351zM159.5 414q8.5 8 8.5 29q0 23 -8.5 31
t-31.5 8t-31.5 -8t-8.5 -31q0 -21 8.5 -29t31.5 -8t31.5 8z" />
    <glyph glyph-name="uni0E18" unicode="&#xe18;" horiz-adv-x="519" 
d="M88 37q-50 52 -50 136v57h135v-60q0 -53 18.5 -77.5t72.5 -24.5q46 0 69.5 17t23.5 57v46q0 29 -11 40.5t-45 19.5l-274 61v76q0 71 62.5 115t176.5 44q138 0 216 -65l-55 -74q-28 22 -68 35t-86 13q-111 0 -111 -62v-18l199 -44q70 -16 100.5 -49.5t30.5 -89.5v-48
q0 -74 -59.5 -115.5t-168.5 -41.5q-126 0 -176 52z" />
    <glyph glyph-name="uni0E19" unicode="&#xe19;" horiz-adv-x="590" 
d="M328 71l-100 -71h-116v351q-44 0 -69.5 23.5t-25.5 69.5q0 52 25 76t89 24q65 0 90.5 -26.5t25.5 -87.5v-303l140 94q12 7 16.5 16t4.5 24v268h135v-251q0 -33 -11.5 -54.5t-42.5 -42.5q38 -7 54 -29t16 -63q0 -57 -26 -80.5t-95 -23.5q-118 0 -110 86zM159.5 414
q8.5 8 8.5 29q0 23 -8.5 31t-31.5 8t-31.5 -8t-8.5 -31q0 -21 8.5 -29t31.5 -8t31.5 8zM472.5 60q8.5 8 8.5 30t-8.5 30.5t-31.5 8.5t-31.5 -8.5t-8.5 -30.5t8.5 -30t31.5 -8t31.5 8z" />
    <glyph glyph-name="uni0E1A" unicode="&#xe1a;" horiz-adv-x="632" 
d="M166 35.5q-55 50.5 -55 146.5v169q-44 0 -69 23.5t-25 69.5q0 52 25 76t89 24t89.5 -26.5t25.5 -87.5v-254q0 -51 23.5 -75.5t78.5 -24.5t78.5 24.5t23.5 75.5v353h135v-347q0 -96 -53 -146.5t-182 -50.5t-184 50.5zM159.5 414q8.5 8 8.5 29q0 23 -8.5 31t-31.5 8
t-31.5 -8t-8.5 -31q0 -21 8.5 -29t31.5 -8t31.5 8z" />
    <glyph glyph-name="uni0E1B" unicode="&#xe1b;" horiz-adv-x="632" 
d="M166 35.5q-55 50.5 -55 146.5v169q-44 0 -69 23.5t-25 69.5q0 52 25 76t89 24t89.5 -26.5t25.5 -87.5v-254q0 -51 23.5 -75.5t78.5 -24.5t78.5 24.5t23.5 75.5v538h135v-532q0 -96 -53 -146.5t-182 -50.5t-184 50.5zM159.5 414q8.5 8 8.5 29q0 23 -8.5 31t-31.5 8
t-31.5 -8t-8.5 -31q0 -21 8.5 -29t31.5 -8t31.5 8z" />
    <glyph glyph-name="uni0E1C" unicode="&#xe1c;" horiz-adv-x="590" 
d="M47 430q0 61 25.5 87.5t89.5 26.5t89 -24t25 -76q0 -46 -25 -69.5t-69 -23.5v-208l86 120h52l88 -120v386h135v-529h-144l-104 154l-103 -154h-145v430zM196.5 414q8.5 8 8.5 29q0 23 -8.5 31t-31.5 8t-31.5 -8t-8.5 -31q0 -21 8.5 -29t31.5 -8t31.5 8z" />
    <glyph glyph-name="uni0E1D" unicode="&#xe1d;" horiz-adv-x="590" 
d="M47 430q0 61 25.5 87.5t89.5 26.5t89 -24t25 -76q0 -46 -25 -69.5t-69 -23.5v-208l86 120h52l88 -120v571h135v-714h-144l-104 154l-103 -154h-145v430zM196.5 414q8.5 8 8.5 29q0 23 -8.5 31t-31.5 8t-31.5 -8t-8.5 -31q0 -21 8.5 -29t31.5 -8t31.5 8z" />
    <glyph glyph-name="uni0E1E" unicode="&#xe1e;" horiz-adv-x="627" 
d="M111 351q-44 0 -69 23.5t-25 69.5q0 52 25 76t89 24t89.5 -26.5t25.5 -87.5v-235l72 180h52l75 -180v334h135v-529h-138l-97 224l-95 -224h-139v351zM159.5 414q8.5 8 8.5 29q0 23 -8.5 31t-31.5 8t-31.5 -8t-8.5 -31q0 -21 8.5 -29t31.5 -8t31.5 8z" />
    <glyph glyph-name="uni0E1F" unicode="&#xe1f;" horiz-adv-x="627" 
d="M111 351q-44 0 -69 23.5t-25 69.5q0 52 25 76t89 24t89.5 -26.5t25.5 -87.5v-235l72 180h52l75 -180v519h135v-714h-138l-97 224l-95 -224h-139v351zM159.5 414q8.5 8 8.5 29q0 23 -8.5 31t-31.5 8t-31.5 -8t-8.5 -31q0 -21 8.5 -29t31.5 -8t31.5 8z" />
    <glyph glyph-name="uni0E20" unicode="&#xe20;" horiz-adv-x="615" 
d="M52 9q-25 24 -25 76q0 46 26 69.5t70 23.5v52q0 31 6.5 48.5t27.5 38.5l-90 53v78q48 46 112.5 71t140.5 25q123 0 185.5 -52t62.5 -140v-352h-135v358q0 46 -29 70.5t-85 24.5q-73 0 -124 -37v-13l92 -54v-54q-20 -12 -25.5 -27.5t-5.5 -52.5v-116q0 -61 -25.5 -87.5
t-89.5 -26.5t-89 24zM169.5 55q8.5 8 8.5 31q0 21 -8.5 29t-31.5 8t-31.5 -8t-8.5 -29q0 -23 8.5 -31t31.5 -8t31.5 8z" />
    <glyph glyph-name="uni0E21" unicode="&#xe21;" horiz-adv-x="582" 
d="M60.5 9q-25.5 24 -25.5 74t21.5 73t65.5 25v170q-44 0 -69.5 23.5t-25.5 69.5q0 52 25 76t89 24q65 0 90.5 -26.5t25.5 -87.5v-253l143 -53v405h135v-529h-78l-193 71q-3 -44 -28 -65t-89 -21q-61 0 -86.5 24zM169.5 414q8.5 8 8.5 29q0 23 -8.5 31t-31.5 8t-31.5 -8
t-8.5 -31q0 -21 8.5 -29t31.5 -8t31.5 8zM183.5 54.5q8.5 8.5 8.5 29.5q0 22 -8.5 30t-31.5 8t-31.5 -8t-8.5 -30t8.5 -30t31.5 -8t31.5 8.5z" />
    <glyph glyph-name="uni0E22" unicode="&#xe22;" horiz-adv-x="552" 
d="M87.5 27q-60.5 42 -60.5 120q0 38 12.5 64.5t42.5 43.5q-53 42 -53 134v38q0 61 25.5 89t89.5 28t89 -24t25 -76q0 -46 -25 -69.5t-69 -23.5q0 -27 11.5 -39t41.5 -12h40v-93h-34q-64 0 -64 -63q0 -34 29 -51t78 -17q53 0 78.5 24t25.5 75v354h135v-332q0 -212 -238 -212
q-119 0 -179.5 42zM178.5 414q8.5 8 8.5 29q0 23 -8.5 31t-31.5 8t-31.5 -8t-8.5 -31q0 -21 8.5 -29t31.5 -8t31.5 8z" />
    <glyph glyph-name="uni0E23" unicode="&#xe23;" horiz-adv-x="471" 
d="M162 9q-25 24 -25 76q0 46 25 69.5t69 23.5v43q0 26 -10 37.5t-37 19.5l-157 46v60q0 84 57 122t153 38q72 0 119 -14.5t88 -46.5l-55 -74q-24 20 -58 32t-75 12q-47 0 -70.5 -15.5t-23.5 -43.5v-15l134 -39q31 -9 46 -22.5t19.5 -34.5t4.5 -58v-126q0 -61 -25.5 -87.5
t-89.5 -26.5t-89 24zM279.5 55q8.5 8 8.5 31q0 21 -8.5 29t-31.5 8t-31.5 -8t-8.5 -29q0 -23 8.5 -31t31.5 -8t31.5 8z" />
    <glyph glyph-name="uni0E24" unicode="&#xe24;" horiz-adv-x="575" 
d="M393 358q0 46 -29.5 70.5t-84.5 24.5q-73 0 -124 -37v-13l77 -48v-53q-31 -11 -41 -29t-10 -55v-40q44 0 68.5 -23t24.5 -70q0 -52 -25 -76t-89 -24t-89 26.5t-25 87.5v107q0 44 12.5 72t44.5 47l-76 45v78q48 46 112.5 71t140.5 25q123 0 185.5 -52t62.5 -140v-553h-135
v559zM194.5 55q8.5 8 8.5 31q0 21 -8.5 29t-31.5 8t-31.5 -8t-8.5 -29q0 -23 8.5 -31t31.5 -8t31.5 8z" />
    <glyph glyph-name="uni0E25" unicode="&#xe25;" horiz-adv-x="540" 
d="M52.5 17.5q-25.5 32.5 -25.5 102.5q0 210 199 210q43 0 78.5 -11.5t53.5 -34.5v66q0 51 -28.5 77t-89.5 26q-89 0 -150 -55l-55 75q86 71 221 71q117 0 177 -52t60 -142v-350h-131q0 89 -13 141t-41.5 75t-77.5 23q-39 0 -59.5 -14t-23.5 -46l16 1q47 0 69 -24t22 -73
q0 -51 -25 -74.5t-89 -23.5q-62 0 -87.5 32.5zM174.5 54.5q8.5 8.5 8.5 31.5q0 21 -8.5 29t-31.5 8t-31.5 -8t-8.5 -29q0 -22 9 -31t31 -9q23 0 31.5 8.5z" />
    <glyph glyph-name="uni0E26" unicode="&#xe26;" horiz-adv-x="615" 
d="M433 358q0 46 -29 70.5t-85 24.5q-73 0 -124 -37v-13l92 -54v-54q-20 -12 -25.5 -27.5t-5.5 -52.5v-116q0 -61 -25.5 -87.5t-89.5 -26.5t-89 24t-25 76q0 46 26 69.5t70 23.5v52q0 31 6.5 48.5t27.5 38.5l-90 53v78q48 46 112.5 71t140.5 25q123 0 185.5 -52t62.5 -140
v-553h-135v559zM169.5 55q8.5 8 8.5 31q0 21 -8.5 29t-31.5 8t-31.5 -8t-8.5 -29q0 -23 8.5 -31t31.5 -8t31.5 8z" />
    <glyph glyph-name="uni0E27" unicode="&#xe27;" horiz-adv-x="463" 
d="M212 9q-25 24 -25 76q0 46 25 69.5t69 23.5v186q0 89 -95 89q-63 0 -116 -53l-63 74q43 37 89.5 53.5t105.5 16.5q115 0 164.5 -47.5t49.5 -135.5v-262q0 -61 -25.5 -87.5t-89.5 -26.5t-89 24zM329.5 55q8.5 8 8.5 31q0 21 -8.5 29t-31.5 8t-31.5 -8t-8.5 -29
q0 -23 8.5 -31t31.5 -8t31.5 8z" />
    <glyph glyph-name="uni0E28" unicode="&#xe28;" horiz-adv-x="594" 
d="M47 326q0 218 249 218q73 0 127 -19q23 21 29 50l107 -23q-2 -22 -15.5 -47.5t-34.5 -43.5q37 -51 37 -135v-326h-135v342q0 55 -25 83t-90 28q-62 0 -88 -28t-26 -83v-83q31 41 52 56.5t59 15.5q56 0 79 -21.5t23 -76.5q0 -52 -24.5 -75.5t-78.5 -23.5q-71 0 -85 42
l-25 -35v-141h-135v326zM324 201q8 9 8 31t-8 29.5t-31 7.5q-24 0 -32.5 -7.5t-8.5 -29.5t9 -31t32 -9t31 9z" />
    <glyph glyph-name="uni0E29" unicode="&#xe29;" horiz-adv-x="632" 
d="M166 35.5q-55 50.5 -55 146.5v169q-44 0 -69 23.5t-25 69.5q0 52 25 76t89 24t89.5 -26.5t25.5 -87.5v-254q0 -51 23.5 -75.5t78.5 -24.5t78.5 24.5t23.5 75.5v23q-28 -7 -67 -7q-61 0 -92 24t-31 78q0 56 22.5 78t65.5 22q49 0 70.5 -23t17.5 -70q6 0 14 2v226h135v-347
q0 -96 -53 -146.5t-182 -50.5t-184 50.5zM159.5 414q8.5 8 8.5 29q0 23 -8.5 31t-31.5 8t-31.5 -8t-8.5 -31q0 -21 8.5 -29t31.5 -8t31.5 8zM377.5 269.5q7.5 7.5 7.5 28.5q0 20 -7.5 28t-25.5 8q-21 0 -29 -8t-8 -28q0 -21 8 -28.5t29 -7.5q18 0 25.5 7.5z" />
    <glyph glyph-name="uni0E2A" unicode="&#xe2a;" horiz-adv-x="539" 
d="M52.5 17.5q-25.5 32.5 -25.5 102.5q0 210 199 210q43 0 78.5 -11.5t53.5 -34.5v66q0 51 -28.5 77t-89.5 26q-89 0 -150 -55l-55 75q86 71 221 71q70 0 119 -21q11 10 19 24t11 28l107 -23q-2 -22 -16.5 -48.5t-35.5 -44.5q33 -41 33 -109v-350h-131q0 89 -13 141
t-41.5 75t-77.5 23q-39 0 -59.5 -14t-23.5 -46l16 1q47 0 69 -24t22 -73q0 -51 -25 -74.5t-89 -23.5q-62 0 -87.5 32.5zM174.5 54.5q8.5 8.5 8.5 31.5q0 21 -8.5 29t-31.5 8t-31.5 -8t-8.5 -29q0 -22 9 -31t31 -9q23 0 31.5 8.5z" />
    <glyph glyph-name="uni0E2B" unicode="&#xe2b;" horiz-adv-x="586" 
d="M112 351q-44 0 -69.5 23.5t-25.5 69.5q0 52 25 76t89 24q65 0 90.5 -26.5t25.5 -87.5v-245l100 151q10 15 26 26q-46 19 -46 81q0 52 24 76.5t88 24.5t89 -22t25 -79q0 -64 -48 -82q34 -18 34 -72v-289h-135v230q0 8 -2 11.5t-6 3.5q-5 0 -8.5 -3.5t-5.5 -7.5t-4 -6
l-147 -228h-119v351zM159.5 414q8.5 8 8.5 29q0 23 -8.5 31t-31.5 8t-31.5 -8t-8.5 -31q0 -21 8.5 -29t31.5 -8t31.5 8zM471 414q9 8 9 29q0 22 -9 30.5t-32 8.5t-31.5 -8t-8.5 -31q0 -21 8.5 -29t31.5 -8t32 8z" />
    <glyph glyph-name="uni0E2C" unicode="&#xe2c;" horiz-adv-x="627" 
d="M111 351q-44 0 -69 23.5t-25 69.5q0 52 25 76t89 24t89.5 -26.5t25.5 -87.5v-235l72 180h52l75 -180v235q0 35 -12.5 51t-45.5 16h-31v91h28q37 0 49.5 16t12.5 56v54h134v-58q0 -40 -13.5 -71t-42.5 -44q56 -28 56 -112v-429h-138l-97 224l-95 -224h-139v351zM159.5 414
q8.5 8 8.5 29q0 23 -8.5 31t-31.5 8t-31.5 -8t-8.5 -31q0 -21 8.5 -29t31.5 -8t31.5 8z" />
    <glyph glyph-name="uni0E2D" unicode="&#xe2d;" horiz-adv-x="541" 
d="M81 33.5q-48 48.5 -48 130.5v60q0 61 25.5 87.5t89.5 26.5t89 -24t25 -76q0 -45 -26.5 -65.5t-72.5 -20.5v-14q0 -31 23 -46.5t72 -15.5t75 17.5t26 49.5v207q0 53 -31 78t-97 25q-44 0 -79.5 -13t-69.5 -40l-55 73q43 35 99.5 53t122.5 18q129 0 187 -50t58 -143v-201
q0 -40 -22.5 -77.5t-75 -62.5t-138.5 -25q-129 0 -177 48.5zM182.5 208q8.5 8 8.5 29q0 23 -8.5 31t-31.5 8t-31.5 -8t-8.5 -31q0 -21 8.5 -29t31.5 -8t31.5 8z" />
    <glyph glyph-name="uni0E2E" unicode="&#xe2e;" horiz-adv-x="553" 
d="M81 33.5q-48 48.5 -48 130.5v60q0 61 25.5 87.5t89.5 26.5t89 -24t25 -76q0 -45 -26.5 -65.5t-72.5 -20.5v-14q0 -31 23 -46.5t72 -15.5t75 17.5t26 49.5v207q0 53 -31 78t-97 25q-44 0 -79.5 -13t-69.5 -40l-55 73q43 35 99.5 53t122.5 18q77 0 129 -22q11 10 19 24.5
t11 28.5l107 -23q-2 -22 -16.5 -48.5t-35.5 -44.5q31 -42 31 -108v-201q0 -40 -22.5 -77.5t-75 -62.5t-138.5 -25q-129 0 -177 48.5zM182.5 208q8.5 8 8.5 29q0 23 -8.5 31t-31.5 8t-31.5 -8t-8.5 -31q0 -21 8.5 -29t31.5 -8t31.5 8z" />
    <glyph glyph-name="uni0E2F" unicode="&#xe2f;" horiz-adv-x="525" 
d="M343 307q-23 -20 -52.5 -28.5t-76.5 -8.5t-90 19t-70 55t-27 84q0 62 25 89t88 27q64 0 89 -23.5t25 -74.5q0 -35 -11 -53.5t-40 -27.5q10 -4 26 -4q60 0 87.5 39t27.5 129h134v-529h-135v307zM174.5 412q8.5 8 8.5 30t-8.5 30.5t-31.5 8.5t-32 -8.5t-9 -30.5
q0 -21 9 -29.5t32 -8.5t31.5 8z" />
    <glyph glyph-name="uni0E30" unicode="&#xe30;" horiz-adv-x="421" 
d="M27 418q0 55 27 81.5t90 26.5q57 0 81.5 -22.5t24.5 -65.5q0 -33 -10 -49q53 -4 105 42l49 -68q-54 -65 -180 -65q-187 0 -187 120zM171 393.5q9 8.5 9 28.5q0 22 -8 30t-31 8t-31 -8t-8 -30q0 -20 9 -28.5t30 -8.5t30 8.5zM27 143q0 55 27 81.5t90 26.5q57 0 81.5 -22.5
t24.5 -65.5q0 -33 -10 -49q53 -4 105 42l49 -68q-54 -65 -180 -65q-187 0 -187 120zM171 118.5q9 8.5 9 28.5q0 22 -8 30t-31 8t-31 -8t-8 -30q0 -20 9 -28.5t30 -8.5t30 8.5z" />
    <glyph glyph-name="uni0E31" unicode="&#xe31;" 
d="M-346 714q0 56 28.5 82.5t91.5 26.5q60 0 85 -22.5t25 -70.5q0 -25 -11 -44q12 -3 34 -3q34 0 68.5 15.5t59.5 39.5l53 -70q-74 -79 -226 -79q-208 0 -208 125zM-197 688q9 8 9 29q0 22 -9 30.5t-32 8.5t-31 -8t-8 -31q0 -21 8 -29t31 -8t32 8z" />
    <glyph glyph-name="uni0E32" unicode="&#xe32;" horiz-adv-x="438" 
d="M256 350q0 54 -20 78.5t-70 24.5q-60 0 -112 -48l-54 73q38 34 83 50t102 16q114 0 160 -51t46 -144v-349h-135v350z" />
    <glyph glyph-name="uni0E33" unicode="&#xe33;" horiz-adv-x="438" 
d="M-210 615q-28 26 -28 81t28 80.5t88 25.5q59 0 87 -25.5t28 -80.5t-28 -81t-87 -26q-60 0 -88 26zM-82 696q0 37 -40 37q-42 0 -42 -37t42 -37q40 0 40 37zM256 350q0 54 -20 78.5t-70 24.5q-60 0 -112 -48l-54 73q38 34 83 50t102 16q114 0 160 -51t46 -144v-349h-135
v350z" />
    <glyph glyph-name="uni0E34" unicode="&#xe34;" 
d="M-458 730.5q67 49.5 167 49.5q102 0 169.5 -49.5t74.5 -141.5h-487q9 92 76 141.5zM-173 656q-8 25 -40 37.5t-77 12.5t-77 -12.5t-39 -37.5h233z" />
    <glyph glyph-name="uni0E35" unicode="&#xe35;" 
d="M-460.5 730.5q65.5 49.5 165.5 49.5q38 0 73.5 -10t57.5 -28v73h117v-226h-487q8 92 73.5 141.5zM-172 656q-12 25 -45 37.5t-78 12.5q-44 0 -74.5 -12.5t-37.5 -37.5h235z" />
    <glyph glyph-name="uni0E36" unicode="&#xe36;" 
d="M-459 730.5q68 49.5 168 49.5q34 0 69 -11q8 55 89 55q59 0 79 -21t20 -70q0 -27 -9.5 -43.5t-30.5 -25.5q23 -32 26 -75h-486q7 92 75 141.5zM-103.5 710q7.5 8 7.5 27q0 20 -7.5 27t-28.5 7q-20 0 -28 -7.5t-8 -26.5q0 -35 36 -35q21 0 28.5 8zM-174 656q-13 22 -44 36
t-73 14q-45 0 -77 -12.5t-40 -37.5h234z" />
    <glyph glyph-name="uni0E37" unicode="&#xe37;" 
d="M-465.5 721q59.5 48 146.5 52q5 1 17 1t17 -1v42h101v-56q26 -10 36 -21v77h101v-226h-487q9 84 68.5 132zM-172 656q-13 25 -45.5 37.5t-77.5 12.5q-44 0 -74.5 -12.5t-37.5 -37.5h235z" />
    <glyph glyph-name="uni0E38" unicode="&#xe38;" 
d="M-172 -234q-95 0 -95 93q0 51 24 75.5t86 24.5t86 -27t24 -87v-163h-125v84zM-128.5 -171q8.5 8 8.5 29q0 23 -8.5 31t-31.5 8t-31.5 -8t-8.5 -31q0 -21 8.5 -29t31.5 -8t31.5 8z" />
    <glyph glyph-name="uni0E39" unicode="&#xe39;" 
d="M-285 -292.5q-37 23.5 -37 70.5v6q-5 -1 -15 -1q-42 0 -64.5 20.5t-22.5 66.5q0 48 25 68.5t82 20.5q59 0 81 -21.5t22 -78.5v-60q0 -17 6 -23.5t22 -6.5q17 0 23 6.5t6 23.5v154h110v-148q0 -59 -32 -90t-106 -31q-63 0 -100 23.5zM-288.5 -160q8.5 8 8.5 28
q0 21 -8.5 29t-30.5 8q-21 0 -30 -8t-9 -29q0 -20 9 -28t30 -8q22 0 30.5 8z" />
    <glyph glyph-name="uni0E3A" unicode="&#xe3a;" 
d="M-170 -170.5q-15 14.5 -15 53.5q0 41 14.5 55t57.5 14q40 0 56 -14.5t16 -54.5q0 -37 -16 -52.5t-56 -15.5q-42 0 -57 14.5z" />
    <glyph glyph-name="uni0E3F" unicode="&#xe3f;" horiz-adv-x="599" 
d="M240 0h-193v87h28q21 0 29.5 9t8.5 30v397q0 19 -8.5 28t-29.5 9h-28v87h193v120h120v-120h41q85 0 132.5 -45t47.5 -129q0 -47 -23.5 -85t-66.5 -59q101 -39 101 -148q0 -81 -48.5 -131t-130.5 -50h-53v-120h-120v120zM355 370q44 0 70 24.5t26 71.5q0 94 -93 94h-114
v-190h111zM372 87q41 0 65.5 25t24.5 73q0 51 -26.5 73t-75.5 22h-116v-193h128z" />
    <glyph glyph-name="uni0E40" unicode="&#xe40;" horiz-adv-x="256" 
d="M52.5 11.5q-25.5 26.5 -25.5 87.5v430h135v-351q44 0 69 -23.5t25 -69.5q0 -52 -25 -76t-89 -24t-89.5 26.5zM176.5 55q8.5 8 8.5 31q0 21 -8.5 29t-31.5 8t-31.5 -8t-8.5 -29q0 -23 8.5 -31t31.5 -8t31.5 8z" />
    <glyph glyph-name="uni0E41" unicode="&#xe41;" horiz-adv-x="521" 
d="M52.5 11.5q-25.5 26.5 -25.5 87.5v430h135v-351q44 0 69 -23.5t25 -69.5q0 -52 -25 -76t-89 -24t-89.5 26.5zM317.5 11.5q-25.5 26.5 -25.5 87.5v430h135v-351q44 0 69 -23.5t25 -69.5q0 -52 -25 -76t-89 -24t-89.5 26.5zM176.5 55q8.5 8 8.5 31q0 21 -8.5 29t-31.5 8
t-31.5 -8t-8.5 -29q0 -23 8.5 -31t31.5 -8t31.5 8zM441.5 55q8.5 8 8.5 31q0 21 -8.5 29t-31.5 8t-31.5 -8t-8.5 -29q0 -23 8.5 -31t31.5 -8t31.5 8z" />
    <glyph glyph-name="uni0E42" unicode="&#xe42;" horiz-adv-x="340" 
d="M103.5 11.5q-25.5 26.5 -25.5 87.5v392q0 33 -4.5 45t-24.5 23l-92 49v89q36 29 92 47t108 18q56 0 101.5 -10.5t84.5 -35.5l-46 -74q-30 18 -61.5 25.5t-72.5 7.5q-22 0 -43.5 -5.5t-34.5 -14.5v-11l65 -33q29 -14 42 -30t17 -38t4 -65v-300q44 0 69 -23.5t25 -69.5
q0 -52 -25 -76t-89 -24t-89.5 26.5zM227.5 55q8.5 8 8.5 31q0 21 -8.5 29t-31.5 8t-31.5 -8t-8.5 -29q0 -23 8.5 -31t31.5 -8t31.5 8z" />
    <glyph glyph-name="uni0E43" unicode="&#xe43;" horiz-adv-x="444" 
d="M166.5 11.5q-25.5 26.5 -25.5 87.5v272q0 35 17.5 64.5t49.5 65.5q29 34 43 56.5t14 48.5q0 27 -14.5 40t-45.5 13t-47 -14.5t-16 -42.5v-34h-135v35q0 70 57.5 108.5t142.5 38.5q97 0 143.5 -38t46.5 -106q0 -34 -16 -62t-48 -67q-29 -36 -43 -60t-14 -51v-188
q44 0 69 -23.5t25 -69.5q0 -52 -25 -76t-89 -24t-89.5 26.5zM290.5 55q8.5 8 8.5 31q0 21 -8.5 29t-31.5 8t-31.5 -8t-8.5 -29q0 -23 8.5 -31t31.5 -8t31.5 8z" />
    <glyph glyph-name="uni0E44" unicode="&#xe44;" horiz-adv-x="423" 
d="M143.5 11.5q-25.5 26.5 -25.5 87.5v354q0 64 12 105.5t39 70.5l35 37h-187v91h359v-68l-73 -71q-26 -26 -38 -65.5t-12 -95.5v-279q44 0 69 -23.5t25 -69.5q0 -52 -25 -76t-89 -24t-89.5 26.5zM267.5 55q8.5 8 8.5 31q0 21 -8.5 29t-31.5 8t-31.5 -8t-8.5 -29
q0 -23 8.5 -31t31.5 -8t31.5 8z" />
    <glyph glyph-name="uni0E45" unicode="&#xe45;" horiz-adv-x="438" 
d="M256 350q0 54 -20 78.5t-70 24.5q-60 0 -112 -48l-54 73q38 34 83 50t102 16q114 0 160 -51t46 -144v-550h-135v551z" />
    <glyph glyph-name="uni0E46" unicode="&#xe46;" horiz-adv-x="544" 
d="M362 401q0 30 -6.5 41t-27.5 11q-32 0 -32 -41v-11h-91v11q0 21 -7.5 31t-25.5 10q-20 0 -28 -15.5t-8 -52.5q59 0 84 -21.5t25 -70.5q0 -52 -25 -76t-89 -24t-89 26.5t-25 87.5v92q0 70 36.5 107.5t98.5 37.5q80 0 99 -61q20 61 106 61q65 0 102.5 -34.5t37.5 -106.5
v-403h-135v401zM165.5 263q8.5 8 8.5 31q0 21 -8.5 29t-31.5 8t-31.5 -8t-8.5 -29q0 -23 8.5 -31t31.5 -8t31.5 8z" />
    <glyph glyph-name="uni0E47" unicode="&#xe47;" 
d="M-228.5 588.5q-23.5 7.5 -42.5 26.5l-22 23l-53 -49h-94v136q0 60 32 91t94 31h235v-75h-215q-29 0 -41.5 -12t-12.5 -41v-42l40 37h33l26 -28q0 67 84 67q46 0 67 -19t21 -62q0 -47 -21.5 -69t-74.5 -22q-32 0 -55.5 7.5zM-137 640.5q7 6.5 7 25.5q0 18 -7.5 25.5
t-26.5 7.5t-26.5 -7.5t-7.5 -25.5q0 -19 7 -25.5t27 -6.5t27 6.5z" />
    <glyph glyph-name="uni0E48" unicode="&#xe48;" 
d="M-182 754h135v-165h-135v165z" />
    <glyph glyph-name="uni0E49" unicode="&#xe49;" 
d="M-304 655q23 0 34.5 3.5t15.5 14.5q-41 -4 -61.5 14.5t-20.5 55.5q0 42 22.5 60t71.5 18q51 0 71.5 -18.5t20.5 -62.5q0 -49 -22 -73q45 6 62 30.5t17 77.5v18h100v-21q0 -50 -21 -92t-61.5 -66.5t-97.5 -24.5h-131v66zM-215 719q7 7 7 25t-7.5 25t-26.5 7
q-20 0 -27 -6.5t-7 -25.5q0 -18 7 -25t27 -7t27 7z" />
    <glyph glyph-name="uni0E4A" unicode="&#xe4a;" 
d="M-405.5 611.5q-22.5 22.5 -22.5 72.5t22.5 72.5t76.5 22.5q28 0 45 -7.5t27 -21.5q24 29 65 29q37 0 54 -18t17 -49v-25h8q15 0 20 11.5t5 36.5v42h82v-54q0 -65 -31.5 -88.5t-84.5 -23.5h-76v72q0 11 -3.5 16t-12.5 5q-8 0 -13 -4.5t-6 -12.5q0 -49 -22.5 -73.5
t-75.5 -24.5q-52 0 -74.5 22.5zM-302 656q8 8 8 28t-7.5 27.5t-29.5 7.5q-20 0 -28 -7.5t-8 -27.5t7.5 -28t28.5 -8t29 8z" />
    <glyph glyph-name="uni0E4B" unicode="&#xe4b;" 
d="M-242 632h-60v83h60v45h135v-45h60v-83h-60v-43h-135v43z" />
    <glyph glyph-name="uni0E4C" unicode="&#xe4c;" 
d="M-312.5 614q-25.5 25 -25.5 81q0 61 48.5 91t150.5 30h141v-84h-89q-35 0 -49 -2q7 -11 9.5 -22t2.5 -28q0 -41 -28.5 -66t-73.5 -25q-61 0 -86.5 25zM-198 660.5q8 7.5 8 29.5q0 21 -8.5 29t-30.5 8t-30.5 -8t-8.5 -29t8.5 -29t30.5 -8q23 0 31 7.5z" />
    <glyph glyph-name="uni0E4D" unicode="&#xe4d;" 
d="M-210 615q-28 26 -28 81t28 80.5t88 25.5q59 0 87 -25.5t28 -80.5t-28 -81t-87 -26q-60 0 -88 26zM-82 696q0 37 -40 37q-42 0 -42 -37t42 -37q40 0 40 37z" />
    <glyph glyph-name="uni0E4E" unicode="&#xe4e;" 
d="M-240 609.5q-28 20.5 -28 56.5q0 24 9 39.5t27 25.5q-36 20 -36 63q0 34 24 54t63 20h95v-69h-58q-24 0 -24 -19t23 -19h37v-60h-37q-15 0 -21 -5.5t-6 -17.5q0 -21 34 -21q24 0 42 15l33 -49q-33 -34 -100 -34q-49 0 -77 20.5z" />
    <glyph glyph-name="uni0E4F" unicode="&#xe4f;" horiz-adv-x="568" 
d="M94 54.5q-67 69.5 -67 184.5q0 75 29.5 133t87.5 90.5t140 32.5t140 -32.5t87.5 -90.5t29.5 -133q0 -115 -67 -184.5t-190 -69.5t-190 69.5zM408 108.5q46 44.5 46 130.5q0 87 -46 132t-124 45t-124 -45t-46 -132q0 -86 46 -130.5t124 -44.5t124 44.5zM180.5 138
q-35.5 38 -35.5 101q0 64 35.5 102.5t103.5 38.5t103.5 -38.5t35.5 -102.5q0 -63 -35.5 -101t-103.5 -38t-103.5 38zM328.5 192.5q16.5 15.5 16.5 46.5t-16.5 47.5t-44.5 16.5t-44.5 -16.5t-16.5 -47.5t16.5 -46.5t44.5 -15.5t44.5 15.5z" />
    <glyph glyph-name="uni0E50" unicode="&#xe50;" horiz-adv-x="601" 
d="M96 53q-69 68 -69 186t69 187t205 69t204.5 -69t68.5 -187t-68.5 -186t-204.5 -68t-205 68zM407 114q35 39 35 125t-35 126t-106 40t-106.5 -40t-35.5 -126t35.5 -125t106.5 -39t106 39z" />
    <glyph glyph-name="uni0E51" unicode="&#xe51;" horiz-adv-x="606" 
d="M201 34q89 11 142.5 34.5t78.5 64t25 103.5q0 83 -32 120.5t-110 37.5q-66 0 -106 -33.5t-40 -93.5q0 -38 13.5 -57.5t36.5 -19.5q-19 18 -19 53q0 50 27 74t91 24q62 0 85.5 -25.5t23.5 -88.5q0 -57 -46 -94.5t-133 -37.5q-101 0 -156 46.5t-55 132.5q0 99 74 154.5
t206 55.5q151 0 211.5 -65.5t60.5 -182.5q0 -124 -90.5 -201t-267.5 -95zM332.5 211q8.5 8 8.5 29q0 22 -9 31t-31 9q-23 0 -32 -8.5t-9 -31.5q0 -21 9 -29t32 -8t31.5 8z" />
    <glyph glyph-name="uni0E52" unicode="&#xe52;" horiz-adv-x="690" 
d="M123 48q-76 63 -76 187v309h133v-319q0 -74 37 -111.5t119 -37.5q70 0 107.5 19.5t52 60t14.5 111.5v90q0 27 -6.5 37t-24.5 10q-17 0 -24.5 -10.5t-7.5 -32.5v-17h-79v17q0 22 -7 32.5t-24 10.5q-19 0 -25.5 -11.5t-6.5 -42.5v-26q45 0 74 -21t29 -65q0 -35 -8 -55.5
t-30 -31t-64 -10.5q-61 0 -82.5 26t-21.5 88v92q0 148 117 148q39 0 59.5 -13.5t30.5 -45.5q12 31 38 45t67 14q65 0 97 -35.5t32 -109.5v-79q0 -88 -24.5 -150t-92 -99t-190.5 -37q-137 0 -213 63zM338.5 207q8.5 8 8.5 30q0 20 -8.5 28t-30.5 8t-30.5 -8t-8.5 -28
q0 -22 8.5 -30t30.5 -8t30.5 8z" />
    <glyph glyph-name="uni0E53" unicode="&#xe53;" horiz-adv-x="636" 
d="M72 11.5q-25 26.5 -25 87.5v248q0 71 46 109.5t114 38.5q42 0 72 -15.5t39 -45.5q12 30 45 45.5t77 15.5q69 0 109 -37t40 -111v-347h-135v341q0 35 -9 49t-33 14q-22 0 -32 -11.5t-10 -35.5v-112h-104v112q0 24 -9.5 35.5t-30.5 11.5q-24 0 -34 -14.5t-10 -49.5v-162
q44 0 68.5 -23t24.5 -70q0 -52 -25 -76t-89 -24t-89 26.5zM195.5 55q8.5 8 8.5 31q0 21 -8.5 29t-31.5 8t-31.5 -8t-8.5 -29q0 -23 8.5 -31t31.5 -8t31.5 8z" />
    <glyph glyph-name="uni0E54" unicode="&#xe54;" horiz-adv-x="609" 
d="M76 47.5q-49 47.5 -49 129.5v87q0 99 61.5 157.5t179.5 58.5h117q52 0 85.5 13t61.5 50l70 -62q-41 -55 -91 -73.5t-144 -18.5h-83q-65 0 -96.5 -34.5t-31.5 -94.5v-81q0 -46 16.5 -67t48.5 -21h64q-19 31 -19 88v41q0 43 9 67t32.5 35t68.5 11q64 0 88.5 -22.5
t24.5 -73.5q0 -41 -21 -66t-65 -25q-15 0 -22 1v-8q0 -21 13.5 -34.5t36.5 -13.5h112v-91h-327q-91 0 -140 47.5zM408 205q8 8 8 30q0 23 -8 30.5t-31 7.5q-24 0 -32.5 -8t-8.5 -30t9 -30t32 -8t31 8z" />
    <glyph glyph-name="uni0E55" unicode="&#xe55;" horiz-adv-x="609" 
d="M76 47.5q-49 47.5 -49 129.5v87q0 95 57 153t166 63q-4 9 -4 29q0 45 22.5 67t80.5 22q52 0 75.5 -18.5t26.5 -58.5l1 -15q0 -6 -2 -20q47 11 82 57l70 -62q-41 -55 -91 -73.5t-144 -18.5h-83q-65 0 -96.5 -34.5t-31.5 -94.5v-81q0 -46 16.5 -67t48.5 -21h64
q-19 31 -19 88v41q0 43 9 67t32.5 35t68.5 11q64 0 88.5 -22.5t24.5 -73.5q0 -41 -21 -66t-65 -25q-15 0 -22 1v-8q0 -21 13.5 -34.5t36.5 -13.5h112v-91h-327q-91 0 -140 47.5zM384 468q9 8 9 29q0 22 -9 30.5t-32 8.5t-31.5 -8t-8.5 -31q0 -21 8.5 -29t31.5 -8t32 8z
M408 205q8 8 8 30q0 23 -8 30.5t-31 7.5q-24 0 -32.5 -8t-8.5 -30t9 -30t32 -8t31 8z" />
    <glyph glyph-name="uni0E56" unicode="&#xe56;" horiz-adv-x="612" 
d="M199.5 5q-57.5 20 -89.5 55t-32 81q0 66 25 93.5t89 27.5q63 0 88 -23.5t25 -74.5q0 -37 -10.5 -53t-35.5 -28q32 -8 68 -8q69 0 97.5 41.5t28.5 129.5q0 81 -31.5 120t-102.5 39q-85 0 -130 -69h-102l-80 185l111 36l49 -117q24 23 73.5 39t97.5 16q247 0 247 -249
q0 -115 -64 -188t-190 -73q-74 0 -131.5 20zM226 132q9 8 9 29q0 23 -9 31.5t-32 8.5q-22 0 -31 -9t-9 -31q0 -21 8.5 -29t31.5 -8t32 8z" />
    <glyph glyph-name="uni0E57" unicode="&#xe57;" horiz-adv-x="789" 
d="M86 -3q-23 12 -31 36t-8 66v248q0 73 38 110.5t102 37.5q42 0 69 -15t37 -46q12 31 42.5 46t74.5 15q132 0 132 -148v-256q34 0 50 10.5t21.5 32t5.5 62.5v348h123v-344q0 -96 -43.5 -148t-148.5 -52h-128v351q0 31 -8 42t-35 11t-36 -12.5t-9 -39.5v-107h-82v107
q0 26 -9.5 39t-32.5 13q-25 0 -35.5 -12t-10.5 -41v-173q44 0 68.5 -23t24.5 -70q0 -36 -8 -57t-31 -32t-66 -11t-66 12zM185.5 53q8.5 8 8.5 31q0 21 -8.5 29t-31.5 8t-31.5 -8t-8.5 -29q0 -23 8.5 -31t31.5 -8t31.5 8z" />
    <glyph glyph-name="uni0E58" unicode="&#xe58;" horiz-adv-x="595" 
d="M64.5 21.5q-37.5 36.5 -37.5 111.5v144q0 95 52 149t154 54h88q70 0 104.5 12t67.5 50l72 -58q-33 -48 -80 -71.5t-118 -23.5h-95q-65 0 -90.5 -31t-25.5 -109v-104q0 -37 9.5 -53t35.5 -16q23 0 33 13.5t10 33.5v28h101v-34q0 -23 10 -32t33 -9q25 0 35.5 11.5
t10.5 42.5v20q-45 0 -73.5 24t-28.5 70q0 52 25 76t89 24t89 -26.5t25 -87.5v-97q0 -71 -45 -109.5t-112 -38.5q-43 0 -74 15.5t-40 45.5q-12 -30 -43.5 -45.5t-75.5 -15.5q-68 0 -105.5 36.5zM474.5 214q8.5 8 8.5 29q0 23 -8.5 31t-31.5 8t-31.5 -8t-8.5 -31
q0 -21 8.5 -29t31.5 -8t31.5 8z" />
    <glyph glyph-name="uni0E59" unicode="&#xe59;" horiz-adv-x="653" 
d="M86 -3q-23 12 -31 36t-8 66v239q0 78 35.5 117.5t111.5 39.5q46 0 71 -13t41 -39q15 23 43.5 37.5t64.5 14.5q50 0 77.5 -20.5t32.5 -56.5q18 0 23.5 17.5t5.5 59.5h93q0 -88 -30.5 -131.5t-105.5 -43.5h-53q0 41 -7.5 62.5t-35.5 21.5q-20 0 -30 -10.5t-10 -27.5
q0 -9 1 -14l67 -352h-116l-65 346q-6 31 -16 44.5t-33 13.5q-26 0 -37.5 -15t-11.5 -52v-159q45 0 69.5 -23t24.5 -70q0 -36 -8 -57t-31 -32t-66 -11t-66 12zM185.5 53q8.5 8 8.5 31q0 21 -8.5 29t-31.5 8t-31.5 -8t-8.5 -29q0 -23 8.5 -31t31.5 -8t31.5 8z" />
    <glyph glyph-name="uni0E5A" unicode="&#xe5a;" horiz-adv-x="766" 
d="M343 310q-23 -20 -52.5 -28.5t-76.5 -8.5q-80 0 -133.5 41t-53.5 114q0 62 25 89t88 27q64 0 89 -23.5t25 -74.5q0 -35 -11 -53.5t-40 -27.5q11 -4 26 -4q56 0 85.5 40t29.5 128h134v-166q52 5 79.5 43.5t27.5 122.5h134v-529h-135v310q-40 -32 -106 -35v-275h-135v310z
M174.5 412q8.5 8 8.5 30t-8.5 30.5t-31.5 8.5t-32 -8.5t-9 -30.5q0 -21 9 -29.5t32 -8.5t31.5 8z" />
    <glyph glyph-name="uni0E5B" unicode="&#xe5b;" horiz-adv-x="1116" 
d="M158.5 16.5q-64.5 31.5 -98 88.5t-33.5 131q0 113 59 182t190 69q112 0 168 -53t56 -145q0 -85 -43.5 -131t-122.5 -46t-119 33.5t-40 98.5q0 48 22 72.5t71 24.5q51 0 74 -21t23 -69q0 -40 -34 -63q6 -2 17 -2q31 0 43.5 23.5t12.5 71.5q0 61 -29.5 90.5t-93.5 29.5
q-82 0 -118.5 -42t-36.5 -123q0 -78 50 -122t140 -44q101 0 159.5 54.5t58.5 146.5q0 80 28 113t96 33q64 0 89 -33t25 -87v-55q0 -29 4 -38t18 -9q15 0 20 9t5 29v47q0 57 27.5 80.5t80.5 23.5q52 0 77 -25.5t25 -67.5v-15h80v-88h-163v68q0 26 -3 34.5t-18 8.5t-18 -9
t-3 -40v-21q0 -52 -27 -86t-82 -34q-60 0 -88 30.5t-28 99.5v39q0 22 -6 30.5t-23 8.5t-21.5 -13t-4.5 -53q0 -76 -37 -136.5t-108 -95t-167 -34.5q-89 0 -153.5 31.5zM297.5 223q7.5 8 7.5 28t-7.5 27t-28.5 7t-29 -7t-8 -27t8.5 -28t28.5 -8q21 0 28.5 8z" />
    <glyph glyph-name="uni1E0C" unicode="&#x1e0c;" horiz-adv-x="631" 
d="M27 87h26q21 0 30 9.5t9 29.5v397q0 19 -9 28t-30 9h-26v87h300q140 0 208.5 -84.5t68.5 -241.5q0 -144 -70.5 -232.5t-206.5 -88.5h-300v87zM308 87q90 0 128.5 58t38.5 176q0 121 -38 180t-129 59h-88v-473h88zM210 -61h104v-110h-104v110z" />
    <glyph glyph-name="uni1E0D" unicode="&#x1e0d;" horiz-adv-x="594" 
d="M84 49q-57 63 -57 181q0 127 56.5 196t162.5 69q55 0 89 -14t63 -48v99q0 22 -7.5 32t-29.5 10h-18v88h184v-541q0 -22 7.5 -30t26.5 -8h16v-83h-150l-8 67q-32 -42 -74 -61.5t-104 -19.5q-100 0 -157 63zM361 108q32 43 32 108v49q0 69 -30 108t-87 39
q-63 0 -91.5 -44.5t-28.5 -135.5q0 -88 27.5 -127.5t89.5 -39.5q56 0 88 43zM216 -61h104v-110h-104v110z" />
    <glyph glyph-name="uni1E0E" unicode="&#x1e0e;" horiz-adv-x="631" 
d="M27 87h26q21 0 30 9.5t9 29.5v397q0 19 -9 28t-30 9h-26v87h300q140 0 208.5 -84.5t68.5 -241.5q0 -144 -70.5 -232.5t-206.5 -88.5h-300v87zM308 87q90 0 128.5 58t38.5 176q0 121 -38 180t-129 59h-88v-473h88zM115 -57h299v-81h-299v81z" />
    <glyph glyph-name="uni1E0F" unicode="&#x1e0f;" horiz-adv-x="594" 
d="M84 49q-57 63 -57 181q0 127 56.5 196t162.5 69q55 0 89 -14t63 -48v99q0 22 -7.5 32t-29.5 10h-18v88h184v-541q0 -22 7.5 -30t26.5 -8h16v-83h-150l-8 67q-32 -42 -74 -61.5t-104 -19.5q-100 0 -157 63zM361 108q32 43 32 108v49q0 69 -30 108t-87 39
q-63 0 -91.5 -44.5t-28.5 -135.5q0 -88 27.5 -127.5t89.5 -39.5q56 0 88 43zM148 -57h299v-81h-299v81z" />
    <glyph glyph-name="uni1E20" unicode="&#x1e20;" horiz-adv-x="625" 
d="M198 801h299v-81h-299v81zM176.5 27.5q-73.5 42.5 -111.5 117.5t-38 174q0 100 35 177.5t107.5 121.5t180.5 44q73 0 124 -14t100 -45v-114h-131v69q-19 8 -38 11.5t-48 3.5q-97 0 -148.5 -67t-51.5 -187q0 -116 53.5 -180.5t150.5 -64.5q60 0 105 16v171h-131v88h263
v-297q-50 -35 -109.5 -51t-133.5 -16q-105 0 -178.5 42.5z" />
    <glyph glyph-name="uni1E21" unicode="&#x1e21;" horiz-adv-x="593" 
d="M144 625h299v-81h-299v81zM114 -132v79h113v-41q17 -10 36.5 -13.5t48.5 -3.5q87 0 87 90v77q-28 -32 -64 -46.5t-89 -14.5q-104 0 -161.5 64t-57.5 188q0 79 29 135t80.5 84.5t118.5 28.5q59 0 96.5 -19.5t67.5 -63.5l9 68h148v-84h-17q-19 0 -25.5 -9.5t-6.5 -32.5
v-353q0 -92 -55 -146.5t-156 -54.5q-125 0 -202 68zM363.5 114q29.5 39 29.5 108v41q0 67 -30 110t-87 43q-63 0 -91.5 -41t-28.5 -128q0 -90 28.5 -131t92.5 -41q57 0 86.5 39z" />
    <glyph glyph-name="uni1E24" unicode="&#x1e24;" horiz-adv-x="685" 
d="M27 87h26q21 0 29.5 9t8.5 30v397q0 19 -8.5 28t-29.5 9h-26v87h254v-87h-20q-20 0 -28.5 -9t-8.5 -28v-155h237v154q0 20 -8.5 29t-28.5 9h-21v87h255v-87h-26q-21 0 -30 -9t-9 -28v-397q0 -20 9 -29.5t30 -9.5h26v-87h-255v87h21q19 0 28 9.5t9 29.5v155h-237v-155
q0 -20 9 -29.5t28 -9.5h20v-87h-254v87zM290 -61h104v-110h-104v110z" />
    <glyph glyph-name="uni1E25" unicode="&#x1e25;" horiz-adv-x="609" 
d="M27 87h26q21 0 30 9.5t9 29.5v407q0 22 -7.5 32t-29.5 10h-28v87h183v-227q38 34 74.5 47t90.5 13q80 0 117 -42.5t37 -124.5v-204q0 -19 8.5 -28t28.5 -9h26v-87h-194v327q0 44 -18.5 63.5t-58.5 19.5q-43 0 -70.5 -24.5t-27.5 -68.5v-193q0 -19 8.5 -28t28.5 -9h26v-87
h-259v87zM263 -61h104v-110h-104v110z" />
    <glyph glyph-name="uni1E2A" unicode="&#x1e2a;" horiz-adv-x="685" 
d="M27 87h26q21 0 29.5 9t8.5 30v397q0 19 -8.5 28t-29.5 9h-26v87h254v-87h-20q-20 0 -28.5 -9t-8.5 -28v-155h237v154q0 20 -8.5 29t-28.5 9h-21v87h255v-87h-26q-21 0 -30 -9t-9 -28v-397q0 -20 9 -29.5t30 -9.5h26v-87h-255v87h21q19 0 28 9.5t9 29.5v155h-237v-155
q0 -20 9 -29.5t28 -9.5h20v-87h-254v87zM218 -157q-45 41 -45 110h109q0 -33 15.5 -51t44.5 -18q60 0 60 69h109q0 -69 -45 -110t-124 -41t-124 41z" />
    <glyph glyph-name="uni1E2B" unicode="&#x1e2b;" horiz-adv-x="609" 
d="M27 87h26q21 0 30 9.5t9 29.5v407q0 22 -7.5 32t-29.5 10h-28v87h183v-227q38 34 74.5 47t90.5 13q80 0 117 -42.5t37 -124.5v-204q0 -19 8.5 -28t28.5 -9h26v-87h-194v327q0 44 -18.5 63.5t-58.5 19.5q-43 0 -70.5 -24.5t-27.5 -68.5v-193q0 -19 8.5 -28t28.5 -9h26v-87
h-259v87zM191 -157q-45 41 -45 110h109q0 -33 15.5 -51t44.5 -18q60 0 60 69h109q0 -69 -45 -110t-124 -41t-124 41z" />
    <glyph glyph-name="uni1E36" unicode="&#x1e36;" horiz-adv-x="516" 
d="M27 87h25q21 0 30.5 9t9.5 29v398q0 19 -9 28t-30 9h-26v87h262v-87h-26q-21 0 -30 -9t-9 -28v-436h136q20 0 29.5 9t9.5 29v35h120v-160h-492v87zM205 -61h104v-110h-104v110z" />
    <glyph glyph-name="uni1E37" unicode="&#x1e37;" horiz-adv-x="303" 
d="M27 87h26q21 0 30 9.5t9 29.5v407q0 22 -7.5 32t-29.5 10h-28v87h196v-538q0 -19 8.5 -28t28.5 -9h26v-87h-259v87zM103 -61h104v-110h-104v110z" />
    <glyph glyph-name="uni1E38" unicode="&#x1e38;" horiz-adv-x="516" 
d="M27 792h299v-81h-299v81zM27 87h25q21 0 30.5 9t9.5 29v398q0 19 -9 28t-30 9h-26v87h262v-87h-26q-21 0 -30 -9t-9 -28v-436h136q20 0 29.5 9t9.5 29v35h120v-160h-492v87zM203 -61h104v-110h-104v110z" />
    <glyph glyph-name="uni1E39" unicode="&#x1e39;" horiz-adv-x="303" 
d="M-10 792h299v-81h-299v81zM27 87h26q21 0 30 9.5t9 29.5v407q0 22 -7.5 32t-29.5 10h-28v87h196v-538q0 -19 8.5 -28t28.5 -9h26v-87h-259v87zM103 -61h104v-110h-104v110z" />
    <glyph glyph-name="uni1E3A" unicode="&#x1e3a;" horiz-adv-x="516" 
d="M27 87h25q21 0 30.5 9t9.5 29v398q0 19 -9 28t-30 9h-26v87h262v-87h-26q-21 0 -30 -9t-9 -28v-436h136q20 0 29.5 9t9.5 29v35h120v-160h-492v87zM105 -57h299v-81h-299v81z" />
    <glyph glyph-name="uni1E3B" unicode="&#x1e3b;" horiz-adv-x="303" 
d="M27 87h26q21 0 30 9.5t9 29.5v407q0 22 -7.5 32t-29.5 10h-28v87h196v-538q0 -19 8.5 -28t28.5 -9h26v-87h-259v87zM5 -57h299v-81h-299v81z" />
    <glyph glyph-name="uni1E42" unicode="&#x1e42;" horiz-adv-x="774" 
d="M27 87h26q21 0 30 9.5t9 29.5v395q0 20 -9 29.5t-30 9.5h-26v87h200l161 -371l160 371h199v-87h-27q-19 0 -28 -9.5t-9 -29.5v-395q0 -20 9 -29.5t28 -9.5h27v-87h-259v87h27q19 0 28 9t9 28v314l-120 -280h-90l-121 280v-314q0 -37 39 -37h27v-87h-260v87zM336 -61h104
v-110h-104v110z" />
    <glyph glyph-name="uni1E43" unicode="&#x1e43;" horiz-adv-x="869" 
d="M27 87h26q21 0 30 9.5t9 29.5v230q0 19 -8.5 28t-28.5 9h-28v87h147l7 -68q56 83 172 83q43 0 75 -19t51 -53q26 37 62.5 54.5t87.5 17.5q85 0 122.5 -41.5t37.5 -124.5v-205q0 -19 8.5 -28t28.5 -9h26v-87h-194v329q0 44 -17 62.5t-55 18.5q-41 0 -62.5 -22t-21.5 -66
v-198q0 -19 8.5 -28t28.5 -9h31v-87h-191v327q0 43 -17 63t-53 20q-43 0 -65.5 -23t-22.5 -70v-193q0 -19 8.5 -28t28.5 -9h28v-87h-259v87zM379 -61h104v-110h-104v110z" />
    <glyph glyph-name="uni1E44" unicode="&#x1e44;" horiz-adv-x="693" 
d="M286 828h104v-109h-104v109zM27 87h26q39 0 39 37v399q0 19 -9 28t-30 9h-26v87h165l279 -433v309q0 37 -39 37h-27v87h261v-87h-27q-19 0 -28 -9t-9 -28v-523h-101l-277 431v-307q0 -19 8.5 -28t28.5 -9h26v-87h-260v87z" />
    <glyph glyph-name="uni1E45" unicode="&#x1e45;" horiz-adv-x="607" 
d="M235 653h104v-109h-104v109zM27 87h26q21 0 30 9.5t9 29.5v230q0 19 -8.5 28t-28.5 9h-28v87h149l6 -66q33 41 77.5 61t105.5 20q84 0 123 -42.5t39 -124.5v-204q0 -19 8.5 -28t28.5 -9h26v-87h-194v327q0 44 -18 63.5t-59 19.5q-43 0 -69.5 -24.5t-26.5 -68.5v-193
q0 -19 8.5 -28t28.5 -9h26v-87h-259v87z" />
    <glyph glyph-name="uni1E46" unicode="&#x1e46;" horiz-adv-x="693" 
d="M27 87h26q39 0 39 37v399q0 19 -9 28t-30 9h-26v87h165l279 -433v309q0 37 -39 37h-27v87h261v-87h-27q-19 0 -28 -9t-9 -28v-523h-101l-277 431v-307q0 -19 8.5 -28t28.5 -9h26v-87h-260v87zM295 -61h104v-110h-104v110z" />
    <glyph glyph-name="uni1E47" unicode="&#x1e47;" horiz-adv-x="607" 
d="M27 87h26q21 0 30 9.5t9 29.5v230q0 19 -8.5 28t-28.5 9h-28v87h149l6 -66q33 41 77.5 61t105.5 20q84 0 123 -42.5t39 -124.5v-204q0 -19 8.5 -28t28.5 -9h26v-87h-194v327q0 44 -18 63.5t-59 19.5q-43 0 -69.5 -24.5t-26.5 -68.5v-193q0 -19 8.5 -28t28.5 -9h26v-87
h-259v87zM239 -61h104v-110h-104v110z" />
    <glyph glyph-name="uni1E48" unicode="&#x1e48;" horiz-adv-x="693" 
d="M27 87h26q39 0 39 37v399q0 19 -9 28t-30 9h-26v87h165l279 -433v309q0 37 -39 37h-27v87h261v-87h-27q-19 0 -28 -9t-9 -28v-523h-101l-277 431v-307q0 -19 8.5 -28t28.5 -9h26v-87h-260v87zM185 -57h299v-81h-299v81z" />
    <glyph glyph-name="uni1E49" unicode="&#x1e49;" horiz-adv-x="607" 
d="M27 87h26q21 0 30 9.5t9 29.5v230q0 19 -8.5 28t-28.5 9h-28v87h149l6 -66q33 41 77.5 61t105.5 20q84 0 123 -42.5t39 -124.5v-204q0 -19 8.5 -28t28.5 -9h26v-87h-194v327q0 44 -18 63.5t-59 19.5q-43 0 -69.5 -24.5t-26.5 -68.5v-193q0 -19 8.5 -28t28.5 -9h26v-87
h-259v87zM146 -57h299v-81h-299v81z" />
    <glyph glyph-name="uni1E5A" unicode="&#x1e5a;" horiz-adv-x="629" 
d="M27 87h25q40 0 40 37v399q0 19 -9.5 28t-30.5 9h-25v87h338q105 0 164 -50.5t59 -146.5q0 -72 -37.5 -121t-107.5 -68l78 -143q10 -17 23 -24t34 -7h24v-87h-234v87h40l-84 159h-104v-125q0 -18 7 -26t26 -8h24v-87h-250v87zM345 333q114 0 114 117q0 59 -27 84.5
t-87 25.5h-125v-227h125zM243 -61h104v-110h-104v110z" />
    <glyph glyph-name="uni1E5B" unicode="&#x1e5b;" horiz-adv-x="402" 
d="M27 87h26q21 0 30 9.5t9 29.5v230q0 19 -8 28t-28 9h-29v87h171l13 -53q34 53 122 53h52v-87h-68q-50 0 -72 -23t-22 -70v-176q0 -19 8.5 -28t28.5 -9h26v-87h-259v87zM108 -61h104v-110h-104v110z" />
    <glyph glyph-name="uni1E5C" unicode="&#x1e5c;" horiz-adv-x="629" 
d="M135 801h299v-81h-299v81zM27 87h25q40 0 40 37v399q0 19 -9.5 28t-30.5 9h-25v87h338q105 0 164 -50.5t59 -146.5q0 -72 -37.5 -121t-107.5 -68l78 -143q10 -17 23 -24t34 -7h24v-87h-234v87h40l-84 159h-104v-125q0 -18 7 -26t26 -8h24v-87h-250v87zM345 333
q114 0 114 117q0 59 -27 84.5t-87 25.5h-125v-227h125zM240 -61h104v-110h-104v110z" />
    <glyph glyph-name="uni1E5D" unicode="&#x1e5d;" horiz-adv-x="402" 
d="M28 625h299v-81h-299v81zM27 87h26q21 0 30 9.5t9 29.5v230q0 19 -8 28t-28 9h-29v87h171l13 -53q34 53 122 53h52v-87h-68q-50 0 -72 -23t-22 -70v-176q0 -19 8.5 -28t28.5 -9h26v-87h-259v87zM108 -61h104v-110h-104v110z" />
    <glyph glyph-name="uni1E5E" unicode="&#x1e5e;" horiz-adv-x="629" 
d="M27 87h25q40 0 40 37v399q0 19 -9.5 28t-30.5 9h-25v87h338q105 0 164 -50.5t59 -146.5q0 -72 -37.5 -121t-107.5 -68l78 -143q10 -17 23 -24t34 -7h24v-87h-234v87h40l-84 159h-104v-125q0 -18 7 -26t26 -8h24v-87h-250v87zM345 333q114 0 114 117q0 59 -27 84.5
t-87 25.5h-125v-227h125zM142 -57h299v-81h-299v81z" />
    <glyph glyph-name="uni1E5F" unicode="&#x1e5f;" horiz-adv-x="402" 
d="M27 87h26q21 0 30 9.5t9 29.5v230q0 19 -8 28t-28 9h-29v87h171l13 -53q34 53 122 53h52v-87h-68q-50 0 -72 -23t-22 -70v-176q0 -19 8.5 -28t28.5 -9h26v-87h-259v87zM13 -57h299v-81h-299v81z" />
    <glyph glyph-name="uni1E60" unicode="&#x1e60;" horiz-adv-x="542" 
d="M216 828h104v-109h-104v109zM138 6q-65 21 -111 57v107h133v-69q48 -27 119 -27q106 0 106 85q0 29 -16 48.5t-43 33.5t-82 37q-74 30 -118.5 57t-69 63.5t-24.5 87.5q0 87 68.5 131.5t175.5 44.5q132 0 227 -76v-99h-134v64q-38 22 -100 22q-107 0 -107 -83
q0 -29 20 -50.5t47.5 -35.5t74.5 -33q81 -33 122.5 -56t65 -58t23.5 -92q0 -52 -27.5 -92.5t-81 -64t-128.5 -23.5t-140 21z" />
    <glyph glyph-name="uni1E61" unicode="&#x1e61;" horiz-adv-x="471" 
d="M181 653h104v-109h-104v109zM123 0q-55 15 -96 46v84h121v-38q28 -18 83 -18q43 0 63 10t20 36q0 23 -16.5 35t-65.5 31l-46 18q-53 22 -84.5 40.5t-50.5 46t-19 67.5q0 68 53 102.5t145 34.5q60 0 112 -15t91 -45v-84h-117v36q-26 19 -73 19q-38 0 -59.5 -10.5
t-21.5 -37.5q0 -25 24 -39.5t76 -33.5l32 -12q51 -19 82 -37.5t49.5 -46t18.5 -69.5q0 -66 -52.5 -100.5t-154.5 -34.5q-59 0 -114 15z" />
    <glyph glyph-name="uni1E62" unicode="&#x1e62;" horiz-adv-x="542" 
d="M138 6q-65 21 -111 57v107h133v-69q48 -27 119 -27q106 0 106 85q0 29 -16 48.5t-43 33.5t-82 37q-74 30 -118.5 57t-69 63.5t-24.5 87.5q0 87 68.5 131.5t175.5 44.5q132 0 227 -76v-99h-134v64q-38 22 -100 22q-107 0 -107 -83q0 -29 20 -50.5t47.5 -35.5t74.5 -33
q81 -33 122.5 -56t65 -58t23.5 -92q0 -52 -27.5 -92.5t-81 -64t-128.5 -23.5t-140 21zM205 -61h104v-110h-104v110z" />
    <glyph glyph-name="uni1E63" unicode="&#x1e63;" horiz-adv-x="471" 
d="M123 0q-55 15 -96 46v84h121v-38q28 -18 83 -18q43 0 63 10t20 36q0 23 -16.5 35t-65.5 31l-46 18q-53 22 -84.5 40.5t-50.5 46t-19 67.5q0 68 53 102.5t145 34.5q60 0 112 -15t91 -45v-84h-117v36q-26 19 -73 19q-38 0 -59.5 -10.5t-21.5 -37.5q0 -25 24 -39.5t76 -33.5
l32 -12q51 -19 82 -37.5t49.5 -46t18.5 -69.5q0 -66 -52.5 -100.5t-154.5 -34.5q-59 0 -114 15zM176 -61h104v-110h-104v110z" />
    <glyph glyph-name="uni1E6C" unicode="&#x1e6c;" horiz-adv-x="590" 
d="M165 87h25q21 0 30 9t9 28v436h-78q-21 0 -30 -8.5t-9 -28.5v-37h-95v161h556v-161h-95v37q0 20 -9 28.5t-30 8.5h-78v-436q0 -19 9.5 -28t30.5 -9h25v-87h-261v87zM230 -61h104v-110h-104v110z" />
    <glyph glyph-name="uni1E6D" unicode="&#x1e6d;" horiz-adv-x="448" 
d="M139.5 27.5q-46.5 42.5 -46.5 123.5v242h-76v87h76v103l131 39v-142h137v-87h-137v-252q0 -37 15.5 -54t46.5 -17q38 0 59 18v43h106v-84q-62 -62 -173 -62q-92 0 -138.5 42.5zM206 -61h104v-110h-104v110z" />
    <glyph glyph-name="uni1E6E" unicode="&#x1e6e;" horiz-adv-x="590" 
d="M165 87h25q21 0 30 9t9 28v436h-78q-21 0 -30 -8.5t-9 -28.5v-37h-95v161h556v-161h-95v37q0 20 -9 28.5t-30 8.5h-78v-436q0 -19 9.5 -28t30.5 -9h25v-87h-261v87zM136 -57h299v-81h-299v81z" />
    <glyph glyph-name="uni1E6F" unicode="&#x1e6f;" horiz-adv-x="448" 
d="M139.5 27.5q-46.5 42.5 -46.5 123.5v242h-76v87h76v103l131 39v-142h137v-87h-137v-252q0 -37 15.5 -54t46.5 -17q38 0 59 18v43h106v-84q-62 -62 -173 -62q-92 0 -138.5 42.5zM110 -57h299v-81h-299v81z" />
    <glyph glyph-name="Wgrave" unicode="&#x1e80;" horiz-adv-x="863" 
d="M252 879h149l78 -180h-114zM106 516q-6 26 -19 35t-44 9h-16v87h173l87 -416l95 307h98l96 -307l88 416h172v-87h-17q-31 0 -44 -9t-19 -35l-114 -516h-107l-104 318l-102 -318h-108z" />
    <glyph glyph-name="wgrave" unicode="&#x1e81;" horiz-adv-x="763" 
d="M206 704h149l78 -180h-114zM87 362q-4 18 -14.5 24.5t-31.5 6.5h-24v87h158l74 -321l86 278h92l86 -278l76 321h157v-87h-24q-21 0 -31.5 -6.5t-14.5 -24.5l-88 -362h-121l-85 274l-87 -274h-120z" />
    <glyph glyph-name="Wacute" unicode="&#x1e82;" horiz-adv-x="863" 
d="M450 879h148l-113 -180h-112zM106 516q-6 26 -19 35t-44 9h-16v87h173l87 -416l95 307h98l96 -307l88 416h172v-87h-17q-31 0 -44 -9t-19 -35l-114 -516h-107l-104 318l-102 -318h-108z" />
    <glyph glyph-name="wacute" unicode="&#x1e83;" horiz-adv-x="763" 
d="M395 704h148l-113 -180h-112zM87 362q-4 18 -14.5 24.5t-31.5 6.5h-24v87h158l74 -321l86 278h92l86 -278l76 321h157v-87h-24q-21 0 -31.5 -6.5t-14.5 -24.5l-88 -362h-121l-85 274l-87 -274h-120z" />
    <glyph glyph-name="Wdieresis" unicode="&#x1e84;" horiz-adv-x="863" 
d="M266 824h104v-109h-104v109zM491 824h105v-109h-105v109zM106 516q-6 26 -19 35t-44 9h-16v87h173l87 -416l95 307h98l96 -307l88 416h172v-87h-17q-31 0 -44 -9t-19 -35l-114 -516h-107l-104 318l-102 -318h-108z" />
    <glyph glyph-name="wdieresis" unicode="&#x1e85;" horiz-adv-x="763" 
d="M217 653h104v-109h-104v109zM442 653h105v-109h-105v109zM87 362q-4 18 -14.5 24.5t-31.5 6.5h-24v87h158l74 -321l86 278h92l86 -278l76 321h157v-87h-24q-21 0 -31.5 -6.5t-14.5 -24.5l-88 -362h-121l-85 274l-87 -274h-120z" />
    <glyph glyph-name="uni1E8E" unicode="&#x1e8e;" horiz-adv-x="669" 
d="M283 804h104v-109h-104v109zM204 87h25q21 0 30 9.5t9 28.5v114l-152 280q-13 24 -26.5 32.5t-39.5 8.5h-23v87h242v-87h-14q-17 0 -17 -11q0 -8 8 -24l89 -179l88 179q8 16 8 24q0 11 -17 11h-14v87h242v-87h-23q-26 0 -39.5 -8.5t-26.5 -32.5l-153 -280v-115
q0 -19 9.5 -28t30.5 -9h25v-87h-261v87z" />
    <glyph glyph-name="uni1E8F" unicode="&#x1e8f;" horiz-adv-x="575" 
d="M225 653h104v-109h-104v109zM199 -182q-52 18 -88 52v75h113v-35q15 -14 35.5 -19.5t51.5 -5.5q92 0 92 108v54q-54 -42 -129 -42q-90 0 -141.5 45.5t-51.5 127.5v178q0 37 -38 37h-26v87h197v-307q0 -83 85 -83q44 0 69.5 25t25.5 72v169q0 37 -38 37h-26v87h198v-464
q0 -98 -57.5 -157t-155.5 -59q-64 0 -116 18z" />
    <glyph glyph-name="uni1E92" unicode="&#x1e92;" horiz-adv-x="565" 
d="M27 72l345 488h-177q-21 0 -30 -8.5t-9 -28.5v-17h-120v141h486v-71l-338 -489h195q21 0 30 9t9 29v16h120v-141h-511v72zM214 -61h104v-110h-104v110z" />
    <glyph glyph-name="uni1E93" unicode="&#x1e93;" horiz-adv-x="502" 
d="M27 64l277 328h-146q-39 0 -39 -37v-18h-84v143h430v-65l-276 -327h162q21 0 30.5 9t9.5 28v17h84v-142h-448v64zM187 -61h104v-110h-104v110z" />
    <glyph glyph-name="uni1E97" unicode="&#x1e97;" horiz-adv-x="454" 
d="M17 766h104v-109h-104v109zM242 766h105v-109h-105v109zM145.5 27.5q-46.5 42.5 -46.5 123.5v242h-76v87h76v103l131 39v-142h137v-87h-137v-252q0 -37 15.5 -54t46.5 -17q38 0 59 18v43h106v-84q-62 -62 -173 -62q-92 0 -138.5 42.5z" />
    <glyph glyph-name="uni1E9E" unicode="&#x1e9e;" horiz-adv-x="667" 
d="M289 19l42 72q22 -12 42.5 -16.5t46.5 -4.5q90 0 90 117q0 60 -25.5 86t-82.5 26h-95v63l141 176q0 26 -29 45t-77 19q-68 0 -99.5 -35.5t-31.5 -107.5v-459h-194v87h25q22 0 28 13t6 45v312q0 107 65 170t203 63q76 0 129 -24t80 -63.5t27 -84.5l-113 -135
q92 -7 132.5 -54.5t40.5 -140.5q0 -92 -52.5 -147.5t-157.5 -55.5q-81 0 -141 34z" />
    <glyph glyph-name="uni1EA0" unicode="&#x1ea0;" horiz-adv-x="717" 
d="M27 87h29q24 0 36 7.5t19 28.5l185 524h127l182 -524q7 -21 19.5 -28.5t37.5 -7.5h28v-87h-250v87h46l-36 110h-182l-37 -110h46v-87h-250v87zM428 269l-68 207l-70 -207h138zM296 -61h104v-110h-104v110z" />
    <glyph glyph-name="uni1EA1" unicode="&#x1ea1;" horiz-adv-x="525" 
d="M59.5 20q-42.5 35 -42.5 100q0 73 47.5 108.5t137.5 40.5l123 8v59q0 38 -17 54t-57 16q-46 0 -78 -18v-39h-113v92q87 54 195 54q105 0 153.5 -46t48.5 -126v-199q0 -19 7.5 -28t24.5 -9h19v-87h-124l-13 60q-35 -42 -76 -58.5t-110 -16.5q-83 0 -125.5 35zM296 93
q29 23 29 68v41l-111 -8q-42 -3 -58 -17.5t-16 -47.5q0 -59 75 -59q52 0 81 23zM191 -61h104v-110h-104v110z" />
    <glyph glyph-name="uni1EA2" unicode="&#x1ea2;" horiz-adv-x="717" 
d="M305 762q57 0 57 39q0 17 -10 24.5t-34 7.5q-27 0 -47 -9v68q31 12 81 12q122 0 122 -85q0 -62 -62 -81v-41h-107v65zM27 87h29q24 0 36 7.5t19 28.5l185 524h127l182 -524q7 -21 19.5 -28.5t37.5 -7.5h28v-87h-250v87h46l-36 110h-182l-37 -110h46v-87h-250v87zM428 269
l-68 207l-70 -207h138z" />
    <glyph glyph-name="uni1EA3" unicode="&#x1ea3;" horiz-adv-x="525" 
d="M202 588q57 0 57 39q0 17 -10 24.5t-34 7.5q-27 0 -47 -9v68q31 12 81 12q122 0 122 -85q0 -62 -62 -81v-41h-107v65zM59.5 20q-42.5 35 -42.5 100q0 73 47.5 108.5t137.5 40.5l123 8v59q0 38 -17 54t-57 16q-46 0 -78 -18v-39h-113v92q87 54 195 54q105 0 153.5 -46
t48.5 -126v-199q0 -19 7.5 -28t24.5 -9h19v-87h-124l-13 60q-35 -42 -76 -58.5t-110 -16.5q-83 0 -125.5 35zM296 93q29 23 29 68v41l-111 -8q-42 -3 -58 -17.5t-16 -47.5q0 -59 75 -59q52 0 81 23z" />
    <glyph glyph-name="uni1EA4" unicode="&#x1ea4;" horiz-adv-x="717" 
d="M523 947h131l-100 -133h-94zM299 841h116l110 -138h-113l-55 78l-58 -78h-111zM27 87h29q24 0 36 7.5t19 28.5l185 524h127l182 -524q7 -21 19.5 -28.5t37.5 -7.5h28v-87h-250v87h46l-36 110h-182l-37 -110h46v-87h-250v87zM428 269l-68 207l-70 -207h138z" />
    <glyph glyph-name="uni1EA5" unicode="&#x1ea5;" horiz-adv-x="555" 
d="M417 768h131l-100 -133h-94zM193 662h116l110 -138h-113l-55 78l-58 -78h-111zM59.5 20q-42.5 35 -42.5 100q0 73 47.5 108.5t137.5 40.5l123 8v59q0 38 -17 54t-57 16q-46 0 -78 -18v-39h-113v92q87 54 195 54q105 0 153.5 -46t48.5 -126v-199q0 -19 7.5 -28t24.5 -9h19
v-87h-124l-13 60q-35 -42 -76 -58.5t-110 -16.5q-83 0 -125.5 35zM296 93q29 23 29 68v41l-111 -8q-42 -3 -58 -17.5t-16 -47.5q0 -59 75 -59q52 0 81 23z" />
    <glyph glyph-name="uni1EA6" unicode="&#x1ea6;" horiz-adv-x="717" 
d="M61 947h131l63 -133h-94zM300 841h116l111 -138h-111l-58 78l-55 -78h-113zM27 87h29q24 0 36 7.5t19 28.5l185 524h127l182 -524q7 -21 19.5 -28.5t37.5 -7.5h28v-87h-250v87h46l-36 110h-182l-37 -110h46v-87h-250v87zM428 269l-68 207l-70 -207h138z" />
    <glyph glyph-name="uni1EA7" unicode="&#x1ea7;" horiz-adv-x="525" 
d="M-53 768h131l63 -133h-94zM199 662h116l111 -138h-111l-58 78l-55 -78h-113zM59.5 20q-42.5 35 -42.5 100q0 73 47.5 108.5t137.5 40.5l123 8v59q0 38 -17 54t-57 16q-46 0 -78 -18v-39h-113v92q87 54 195 54q105 0 153.5 -46t48.5 -126v-199q0 -19 7.5 -28t24.5 -9h19
v-87h-124l-13 60q-35 -42 -76 -58.5t-110 -16.5q-83 0 -125.5 35zM296 93q29 23 29 68v41l-111 -8q-42 -3 -58 -17.5t-16 -47.5q0 -59 75 -59q52 0 81 23z" />
    <glyph glyph-name="uni1EA8" unicode="&#x1ea8;" horiz-adv-x="717" 
d="M439 875q28 0 39 7t11 23q0 12 -8.5 18t-23.5 6q-17 0 -37 -8v56q25 9 64 9q92 0 92 -69q0 -25 -13 -40t-40 -22v-23h-84v43zM299 838h117l110 -138h-111l-58 78l-55 -78h-112zM27 87h29q24 0 36 7.5t19 28.5l185 524h127l182 -524q7 -21 19.5 -28.5t37.5 -7.5h28v-87
h-250v87h46l-36 110h-182l-37 -110h46v-87h-250v87zM428 269l-68 207l-70 -207h138z" />
    <glyph glyph-name="uni1EA9" unicode="&#x1ea9;" horiz-adv-x="525" 
d="M341 699q28 0 39 7t11 23q0 12 -8.5 18t-23.5 6q-17 0 -37 -8v56q25 9 64 9q92 0 92 -69q0 -25 -13 -40t-40 -22v-23h-84v43zM201 662h117l110 -138h-111l-58 78l-55 -78h-112zM59.5 20q-42.5 35 -42.5 100q0 73 47.5 108.5t137.5 40.5l123 8v59q0 38 -17 54t-57 16
q-46 0 -78 -18v-39h-113v92q87 54 195 54q105 0 153.5 -46t48.5 -126v-199q0 -19 7.5 -28t24.5 -9h19v-87h-124l-13 60q-35 -42 -76 -58.5t-110 -16.5q-83 0 -125.5 35zM296 93q29 23 29 68v41l-111 -8q-42 -3 -58 -17.5t-16 -47.5q0 -59 75 -59q52 0 81 23z" />
    <glyph glyph-name="uni1EAA" unicode="&#x1eaa;" horiz-adv-x="717" 
d="M397 859q-15 5 -42 17q-14 7 -27.5 12t-23.5 5q-16 0 -23.5 -9t-7.5 -27h-65q0 52 21 76t66 24q19 0 35 -5.5t39 -16.5q3 -1 18.5 -8.5t28.5 -7.5q31 0 31 35h65q0 -52 -19.5 -76t-63.5 -24q-17 0 -32 5zM301 838h117l110 -138h-111l-58 78l-55 -78h-112zM27 87h29
q24 0 36 7.5t19 28.5l185 524h127l182 -524q7 -21 19.5 -28.5t37.5 -7.5h28v-87h-250v87h46l-36 110h-182l-37 -110h46v-87h-250v87zM428 269l-68 207l-70 -207h138z" />
    <glyph glyph-name="uni1EAB" unicode="&#x1eab;" horiz-adv-x="525" 
d="M288 683q-15 5 -42 17q-14 7 -27.5 12t-23.5 5q-16 0 -23.5 -9t-7.5 -27h-65q0 52 21 76t66 24q19 0 35 -5.5t39 -16.5q3 -1 18.5 -8.5t28.5 -7.5q31 0 31 35h65q0 -52 -19.5 -76t-63.5 -24q-17 0 -32 5zM192 662h117l110 -138h-111l-58 78l-55 -78h-112zM59.5 20
q-42.5 35 -42.5 100q0 73 47.5 108.5t137.5 40.5l123 8v59q0 38 -17 54t-57 16q-46 0 -78 -18v-39h-113v92q87 54 195 54q105 0 153.5 -46t48.5 -126v-199q0 -19 7.5 -28t24.5 -9h19v-87h-124l-13 60q-35 -42 -76 -58.5t-110 -16.5q-83 0 -125.5 35zM296 93q29 23 29 68v41
l-111 -8q-42 -3 -58 -17.5t-16 -47.5q0 -59 75 -59q52 0 81 23z" />
    <glyph glyph-name="uni1EAC" unicode="&#x1eac;" horiz-adv-x="717" 
d="M301 893h120l130 -193h-121l-70 120l-70 -120h-120zM27 87h29q24 0 36 7.5t19 28.5l185 524h127l182 -524q7 -21 19.5 -28.5t37.5 -7.5h28v-87h-250v87h46l-36 110h-182l-37 -110h46v-87h-250v87zM428 269l-68 207l-70 -207h138zM308 -61h104v-110h-104v110z" />
    <glyph glyph-name="uni1EAD" unicode="&#x1ead;" horiz-adv-x="525" 
d="M192 716h120l130 -193h-121l-70 120l-70 -120h-120zM59.5 20q-42.5 35 -42.5 100q0 73 47.5 108.5t137.5 40.5l123 8v59q0 38 -17 54t-57 16q-46 0 -78 -18v-39h-113v92q87 54 195 54q105 0 153.5 -46t48.5 -126v-199q0 -19 7.5 -28t24.5 -9h19v-87h-124l-13 60
q-35 -42 -76 -58.5t-110 -16.5q-83 0 -125.5 35zM296 93q29 23 29 68v41l-111 -8q-42 -3 -58 -17.5t-16 -47.5q0 -59 75 -59q52 0 81 23zM199 -61h104v-110h-104v110z" />
    <glyph glyph-name="uni1EAE" unicode="&#x1eae;" horiz-adv-x="717" 
d="M370 996h125l-100 -142h-87zM234 742q-50 43 -50 116h92q0 -39 21 -60.5t62 -21.5q85 0 85 82h91q0 -74 -50 -116.5t-126 -42.5q-75 0 -125 43zM27 87h29q24 0 36 7.5t19 28.5l185 524h127l182 -524q7 -21 19.5 -28.5t37.5 -7.5h28v-87h-250v87h46l-36 110h-182l-37 -110
h46v-87h-250v87zM428 269l-68 207l-70 -207h138z" />
    <glyph glyph-name="uni1EAF" unicode="&#x1eaf;" horiz-adv-x="525" 
d="M267 821h125l-100 -142h-87zM131 567q-50 43 -50 116h92q0 -39 21 -60.5t62 -21.5q85 0 85 82h91q0 -74 -50 -116.5t-126 -42.5q-75 0 -125 43zM59.5 20q-42.5 35 -42.5 100q0 73 47.5 108.5t137.5 40.5l123 8v59q0 38 -17 54t-57 16q-46 0 -78 -18v-39h-113v92
q87 54 195 54q105 0 153.5 -46t48.5 -126v-199q0 -19 7.5 -28t24.5 -9h19v-87h-124l-13 60q-35 -42 -76 -58.5t-110 -16.5q-83 0 -125.5 35zM296 93q29 23 29 68v41l-111 -8q-42 -3 -58 -17.5t-16 -47.5q0 -59 75 -59q52 0 81 23z" />
    <glyph glyph-name="uni1EB0" unicode="&#x1eb0;" horiz-adv-x="717" 
d="M226 996h125l62 -142h-88zM235.5 742q-50.5 43 -50.5 116h92q0 -82 84 -82q41 0 62.5 21.5t21.5 60.5h91q0 -74 -50 -116.5t-125 -42.5t-125.5 43zM27 87h29q24 0 36 7.5t19 28.5l185 524h127l182 -524q7 -21 19.5 -28.5t37.5 -7.5h28v-87h-250v87h46l-36 110h-182
l-37 -110h46v-87h-250v87zM428 269l-68 207l-70 -207h138z" />
    <glyph glyph-name="uni1EB1" unicode="&#x1eb1;" horiz-adv-x="525" 
d="M115 821h125l62 -142h-88zM124.5 567q-50.5 43 -50.5 116h92q0 -82 84 -82q41 0 62.5 21.5t21.5 60.5h91q0 -74 -50 -116.5t-125 -42.5t-125.5 43zM59.5 20q-42.5 35 -42.5 100q0 73 47.5 108.5t137.5 40.5l123 8v59q0 38 -17 54t-57 16q-46 0 -78 -18v-39h-113v92
q87 54 195 54q105 0 153.5 -46t48.5 -126v-199q0 -19 7.5 -28t24.5 -9h19v-87h-124l-13 60q-35 -42 -76 -58.5t-110 -16.5q-83 0 -125.5 35zM296 93q29 23 29 68v41l-111 -8q-42 -3 -58 -17.5t-16 -47.5q0 -59 75 -59q52 0 81 23z" />
    <glyph glyph-name="uni1EB2" unicode="&#x1eb2;" horiz-adv-x="717" 
d="M313 889q28 0 39 7t11 23q0 24 -31 24q-16 0 -38 -8v56q27 9 66 9q91 0 91 -69q0 -25 -13 -40t-40 -22v-23h-85v43zM234 742q-50 43 -50 116h92q0 -39 21 -60.5t62 -21.5q85 0 85 82h91q0 -74 -50 -116.5t-126 -42.5q-75 0 -125 43zM27 87h29q24 0 36 7.5t19 28.5
l185 524h127l182 -524q7 -21 19.5 -28.5t37.5 -7.5h28v-87h-250v87h46l-36 110h-182l-37 -110h46v-87h-250v87zM428 269l-68 207l-70 -207h138z" />
    <glyph glyph-name="uni1EB3" unicode="&#x1eb3;" horiz-adv-x="525" 
d="M205 714q28 0 39 7t11 23q0 24 -31 24q-16 0 -38 -8v56q27 9 66 9q91 0 91 -69q0 -25 -13 -40t-40 -22v-23h-85v43zM126 567q-50 43 -50 116h92q0 -39 21 -60.5t62 -21.5q85 0 85 82h91q0 -74 -50 -116.5t-126 -42.5q-75 0 -125 43zM59.5 20q-42.5 35 -42.5 100
q0 73 47.5 108.5t137.5 40.5l123 8v59q0 38 -17 54t-57 16q-46 0 -78 -18v-39h-113v92q87 54 195 54q105 0 153.5 -46t48.5 -126v-199q0 -19 7.5 -28t24.5 -9h19v-87h-124l-13 60q-35 -42 -76 -58.5t-110 -16.5q-83 0 -125.5 35zM296 93q29 23 29 68v41l-111 -8
q-42 -3 -58 -17.5t-16 -47.5q0 -59 75 -59q52 0 81 23z" />
    <glyph glyph-name="uni1EB4" unicode="&#x1eb4;" horiz-adv-x="717" 
d="M399 890.5q-15 4.5 -27 10t-16 7.5q-14 7 -27.5 12t-23.5 5q-16 0 -23.5 -9t-7.5 -27h-65q0 52 21 76t66 24q20 0 35 -5.5t39 -16.5q16 -8 26 -12t20 -4q17 0 23.5 8.5t6.5 26.5h65q0 -52 -19 -76t-63 -24q-15 0 -30 4.5zM235 742q-50 43 -50 116h92q0 -39 21 -60.5
t62 -21.5q85 0 85 82h91q0 -74 -50 -116.5t-126 -42.5q-75 0 -125 43zM27 87h29q24 0 36 7.5t19 28.5l185 524h127l182 -524q7 -21 19.5 -28.5t37.5 -7.5h28v-87h-250v87h46l-36 110h-182l-37 -110h46v-87h-250v87zM428 269l-68 207l-70 -207h138z" />
    <glyph glyph-name="uni1EB5" unicode="&#x1eb5;" horiz-adv-x="525" 
d="M294 715.5q-15 4.5 -27 10t-16 7.5q-14 7 -27.5 12t-23.5 5q-16 0 -23.5 -9t-7.5 -27h-65q0 52 21 76t66 24q20 0 35 -5.5t39 -16.5q16 -8 26 -12t20 -4q17 0 23.5 8.5t6.5 26.5h65q0 -52 -19 -76t-63 -24q-15 0 -30 4.5zM130 567q-50 43 -50 116h92q0 -39 21 -60.5
t62 -21.5q85 0 85 82h91q0 -74 -50 -116.5t-126 -42.5q-75 0 -125 43zM59.5 20q-42.5 35 -42.5 100q0 73 47.5 108.5t137.5 40.5l123 8v59q0 38 -17 54t-57 16q-46 0 -78 -18v-39h-113v92q87 54 195 54q105 0 153.5 -46t48.5 -126v-199q0 -19 7.5 -28t24.5 -9h19v-87h-124
l-13 60q-35 -42 -76 -58.5t-110 -16.5q-83 0 -125.5 35zM296 93q29 23 29 68v41l-111 -8q-42 -3 -58 -17.5t-16 -47.5q0 -59 75 -59q52 0 81 23z" />
    <glyph glyph-name="uni1EB6" unicode="&#x1eb6;" horiz-adv-x="717" 
d="M236 740q-45 41 -45 109h109q0 -33 15.5 -51t44.5 -18q60 0 60 69h109q0 -68 -45 -109t-124 -41t-124 41zM27 87h29q24 0 36 7.5t19 28.5l185 524h127l182 -524q7 -21 19.5 -28.5t37.5 -7.5h28v-87h-250v87h46l-36 110h-182l-37 -110h46v-87h-250v87zM428 269l-68 207
l-70 -207h138zM308 -61h104v-110h-104v110z" />
    <glyph glyph-name="uni1EB7" unicode="&#x1eb7;" horiz-adv-x="525" 
d="M133 565q-45 41 -45 109h109q0 -33 15.5 -51t44.5 -18q60 0 60 69h109q0 -68 -45 -109t-124 -41t-124 41zM59.5 20q-42.5 35 -42.5 100q0 73 47.5 108.5t137.5 40.5l123 8v59q0 38 -17 54t-57 16q-46 0 -78 -18v-39h-113v92q87 54 195 54q105 0 153.5 -46t48.5 -126v-199
q0 -19 7.5 -28t24.5 -9h19v-87h-124l-13 60q-35 -42 -76 -58.5t-110 -16.5q-83 0 -125.5 35zM296 93q29 23 29 68v41l-111 -8q-42 -3 -58 -17.5t-16 -47.5q0 -59 75 -59q52 0 81 23zM204 -61h104v-110h-104v110z" />
    <glyph glyph-name="uni1EB8" unicode="&#x1eb8;" horiz-adv-x="546" 
d="M27 87h26q21 0 30 9.5t9 29.5v397q0 19 -9 28t-30 9h-26v87h492v-142h-120v18q0 37 -39 37h-136v-192h154v-88h-154v-193h136q20 0 29.5 9t9.5 29v18h120v-143h-492v87zM210 -61h104v-110h-104v110z" />
    <glyph glyph-name="uni1EB9" unicode="&#x1eb9;" horiz-adv-x="541" 
d="M95.5 48.5q-68.5 63.5 -68.5 186.5q0 130 65 195t185 65q116 0 176.5 -64.5t60.5 -174.5v-47h-357q0 -70 33 -102.5t95 -32.5t99 16v35h113v-76q-76 -64 -213 -64q-120 0 -188.5 63.5zM384 284q0 62 -27 92t-82 30q-57 0 -87.5 -31.5t-30.5 -90.5h227zM225 -61h104v-110
h-104v110z" />
    <glyph glyph-name="uni1EBA" unicode="&#x1eba;" horiz-adv-x="546" 
d="M212 765q57 0 57 39q0 17 -10 24.5t-34 7.5q-27 0 -47 -9v68q31 12 81 12q122 0 122 -85q0 -62 -62 -81v-41h-107v65zM27 87h26q21 0 30 9.5t9 29.5v397q0 19 -9 28t-30 9h-26v87h492v-142h-120v18q0 37 -39 37h-136v-192h154v-88h-154v-193h136q20 0 29.5 9t9.5 29v18
h120v-143h-492v87z" />
    <glyph glyph-name="uni1EBB" unicode="&#x1ebb;" horiz-adv-x="541" 
d="M223 588q57 0 57 39q0 17 -10 24.5t-34 7.5q-27 0 -47 -9v68q31 12 81 12q122 0 122 -85q0 -62 -62 -81v-41h-107v65zM95.5 48.5q-68.5 63.5 -68.5 186.5q0 130 65 195t185 65q116 0 176.5 -64.5t60.5 -174.5v-47h-357q0 -70 33 -102.5t95 -32.5t99 16v35h113v-76
q-76 -64 -213 -64q-120 0 -188.5 63.5zM384 284q0 62 -27 92t-82 30q-57 0 -87.5 -31.5t-30.5 -90.5h227z" />
    <glyph glyph-name="uni1EBC" unicode="&#x1ebc;" horiz-adv-x="546" 
d="M104.5 815.5q28.5 37.5 89.5 37.5q27 0 47 -7.5t48 -22.5q20 -11 33 -16.5t27 -5.5q22 0 33 12.5t11 39.5h93q0 -80 -27 -116.5t-87 -36.5q-27 0 -48.5 7.5t-47.5 21.5q-21 11 -34 16t-27 5q-23 0 -34 -11.5t-11 -38.5h-94q0 78 28.5 115.5zM27 87h26q21 0 30 9.5t9 29.5
v397q0 19 -9 28t-30 9h-26v87h492v-142h-120v18q0 37 -39 37h-136v-192h154v-88h-154v-193h136q20 0 29.5 9t9.5 29v18h120v-143h-492v87z" />
    <glyph glyph-name="uni1EBD" unicode="&#x1ebd;" horiz-adv-x="541" 
d="M107.5 639.5q28.5 37.5 89.5 37.5q27 0 47 -7.5t48 -22.5q20 -11 33 -16.5t27 -5.5q22 0 33 12.5t11 39.5h93q0 -80 -27 -116.5t-87 -36.5q-27 0 -48.5 7.5t-47.5 21.5q-21 11 -34 16t-27 5q-23 0 -34 -11.5t-11 -38.5h-94q0 78 28.5 115.5zM95.5 48.5
q-68.5 63.5 -68.5 186.5q0 130 65 195t185 65q116 0 176.5 -64.5t60.5 -174.5v-47h-357q0 -70 33 -102.5t95 -32.5t99 16v35h113v-76q-76 -64 -213 -64q-120 0 -188.5 63.5zM384 284q0 62 -27 92t-82 30q-57 0 -87.5 -31.5t-30.5 -90.5h227z" />
    <glyph glyph-name="uni1EBE" unicode="&#x1ebe;" horiz-adv-x="546" 
d="M434 944h131l-100 -133h-94zM210 838h116l110 -138h-113l-55 78l-58 -78h-111zM27 87h26q21 0 30 9.5t9 29.5v397q0 19 -9 28t-30 9h-26v87h492v-142h-120v18q0 37 -39 37h-136v-192h154v-88h-154v-193h136q20 0 29.5 9t9.5 29v18h120v-143h-492v87z" />
    <glyph glyph-name="uni1EBF" unicode="&#x1ebf;" horiz-adv-x="541" 
d="M450 768h131l-100 -133h-94zM216 662h116l110 -138h-113l-55 78l-58 -78h-111zM95.5 48.5q-68.5 63.5 -68.5 186.5q0 130 65 195t185 65q116 0 176.5 -64.5t60.5 -174.5v-47h-357q0 -70 33 -102.5t95 -32.5t99 16v35h113v-76q-76 -64 -213 -64q-120 0 -188.5 63.5z
M384 284q0 62 -27 92t-82 30q-57 0 -87.5 -31.5t-30.5 -90.5h227z" />
    <glyph glyph-name="uni1EC0" unicode="&#x1ec0;" horiz-adv-x="546" 
d="M-43 944h131l63 -133h-94zM219 838h116l111 -138h-111l-58 78l-55 -78h-113zM27 87h26q21 0 30 9.5t9 29.5v397q0 19 -9 28t-30 9h-26v87h492v-142h-120v18q0 37 -39 37h-136v-192h154v-88h-154v-193h136q20 0 29.5 9t9.5 29v18h120v-143h-492v87z" />
    <glyph glyph-name="uni1EC1" unicode="&#x1ec1;" horiz-adv-x="541" 
d="M-38 768h131l63 -133h-94zM208 662h116l111 -138h-111l-58 78l-55 -78h-113zM95.5 48.5q-68.5 63.5 -68.5 186.5q0 130 65 195t185 65q116 0 176.5 -64.5t60.5 -174.5v-47h-357q0 -70 33 -102.5t95 -32.5t99 16v35h113v-76q-76 -64 -213 -64q-120 0 -188.5 63.5zM384 284
q0 62 -27 92t-82 30q-57 0 -87.5 -31.5t-30.5 -90.5h227z" />
    <glyph glyph-name="uni1EC2" unicode="&#x1ec2;" horiz-adv-x="546" 
d="M347 875q28 0 39 7t11 23q0 12 -8.5 18t-23.5 6q-17 0 -37 -8v56q25 9 64 9q92 0 92 -69q0 -25 -13 -40t-40 -22v-23h-84v43zM207 838h117l110 -138h-111l-58 78l-55 -78h-112zM27 87h26q21 0 30 9.5t9 29.5v397q0 19 -9 28t-30 9h-26v87h492v-142h-120v18q0 37 -39 37
h-136v-192h154v-88h-154v-193h136q20 0 29.5 9t9.5 29v18h120v-143h-492v87z" />
    <glyph glyph-name="uni1EC3" unicode="&#x1ec3;" horiz-adv-x="541" 
d="M359 699q28 0 39 7t11 23q0 12 -8.5 18t-23.5 6q-17 0 -37 -8v56q25 9 64 9q92 0 92 -69q0 -25 -13 -40t-40 -22v-23h-84v43zM219 662h117l110 -138h-111l-58 78l-55 -78h-112zM95.5 48.5q-68.5 63.5 -68.5 186.5q0 130 65 195t185 65q116 0 176.5 -64.5t60.5 -174.5v-47
h-357q0 -70 33 -102.5t95 -32.5t99 16v35h113v-76q-76 -64 -213 -64q-120 0 -188.5 63.5zM384 284q0 62 -27 92t-82 30q-57 0 -87.5 -31.5t-30.5 -90.5h227z" />
    <glyph glyph-name="uni1EC4" unicode="&#x1ec4;" horiz-adv-x="546" 
d="M309 859q-15 5 -42 17q-14 7 -27.5 12t-23.5 5q-16 0 -23.5 -9t-7.5 -27h-65q0 52 21 76t66 24q19 0 35 -5.5t39 -16.5q3 -1 18.5 -8.5t28.5 -7.5q31 0 31 35h65q0 -52 -19.5 -76t-63.5 -24q-17 0 -32 5zM213 838h117l110 -138h-111l-58 78l-55 -78h-112zM27 87h26
q21 0 30 9.5t9 29.5v397q0 19 -9 28t-30 9h-26v87h492v-142h-120v18q0 37 -39 37h-136v-192h154v-88h-154v-193h136q20 0 29.5 9t9.5 29v18h120v-143h-492v87z" />
    <glyph glyph-name="uni1EC5" unicode="&#x1ec5;" horiz-adv-x="541" 
d="M311 683q-15 5 -42 17q-14 7 -27.5 12t-23.5 5q-16 0 -23.5 -9t-7.5 -27h-65q0 52 21 76t66 24q19 0 35 -5.5t39 -16.5q3 -1 18.5 -8.5t28.5 -7.5q31 0 31 35h65q0 -52 -19.5 -76t-63.5 -24q-17 0 -32 5zM215 662h117l110 -138h-111l-58 78l-55 -78h-112zM95.5 48.5
q-68.5 63.5 -68.5 186.5q0 130 65 195t185 65q116 0 176.5 -64.5t60.5 -174.5v-47h-357q0 -70 33 -102.5t95 -32.5t99 16v35h113v-76q-76 -64 -213 -64q-120 0 -188.5 63.5zM384 284q0 62 -27 92t-82 30q-57 0 -87.5 -31.5t-30.5 -90.5h227z" />
    <glyph glyph-name="uni1EC6" unicode="&#x1ec6;" horiz-adv-x="546" 
d="M210 893h120l130 -193h-121l-70 120l-70 -120h-120zM27 87h26q21 0 30 9.5t9 29.5v397q0 19 -9 28t-30 9h-26v87h492v-142h-120v18q0 37 -39 37h-136v-192h154v-88h-154v-193h136q20 0 29.5 9t9.5 29v18h120v-143h-492v87zM219 -61h104v-110h-104v110z" />
    <glyph glyph-name="uni1EC7" unicode="&#x1ec7;" horiz-adv-x="541" 
d="M215 716h120l130 -193h-121l-70 120l-70 -120h-120zM95.5 48.5q-68.5 63.5 -68.5 186.5q0 130 65 195t185 65q116 0 176.5 -64.5t60.5 -174.5v-47h-357q0 -70 33 -102.5t95 -32.5t99 16v35h113v-76q-76 -64 -213 -64q-120 0 -188.5 63.5zM384 284q0 62 -27 92t-82 30
q-57 0 -87.5 -31.5t-30.5 -90.5h227zM221 -61h104v-110h-104v110z" />
    <glyph glyph-name="uni1EC8" unicode="&#x1ec8;" horiz-adv-x="313" 
d="M98 764q57 0 57 39q0 17 -10 24.5t-34 7.5q-27 0 -47 -9v68q31 12 81 12q122 0 122 -85q0 -62 -62 -81v-41h-107v65zM27 87h26q21 0 30 9.5t9 29.5v397q0 19 -9 28t-30 9h-26v87h259v-87h-26q-20 0 -28.5 -9t-8.5 -28v-399q0 -19 8.5 -28t28.5 -9h26v-87h-259v87z" />
    <glyph glyph-name="uni1EC9" unicode="&#x1ec9;" horiz-adv-x="293" 
d="M77 577q57 0 57 39q0 17 -10 24.5t-34 7.5q-28 0 -47 -9v68q31 12 81 12q122 0 122 -85q0 -62 -62 -81v-41h-107v65zM17 87h26q21 0 30 9.5t9 29.5v225q0 22 -7.5 32t-29.5 10h-28v87h196v-356q0 -19 8.5 -28t28.5 -9h26v-87h-259v87z" />
    <glyph glyph-name="uni1ECA" unicode="&#x1eca;" horiz-adv-x="313" 
d="M27 87h26q21 0 30 9.5t9 29.5v397q0 19 -9 28t-30 9h-26v87h259v-87h-26q-20 0 -28.5 -9t-8.5 -28v-399q0 -19 8.5 -28t28.5 -9h26v-87h-259v87zM104 -61h104v-110h-104v110z" />
    <glyph glyph-name="uni1ECB" unicode="&#x1ecb;" horiz-adv-x="293" 
d="M77 658h138v-106h-138v106zM17 87h26q21 0 30 9.5t9 29.5v225q0 22 -7.5 32t-29.5 10h-28v87h196v-356q0 -19 8.5 -28t28.5 -9h26v-87h-259v87zM94 -61h104v-110h-104v110z" />
    <glyph glyph-name="uni1ECC" unicode="&#x1ecc;" horiz-adv-x="663" 
d="M102 68.5q-75 83.5 -75 252.5q0 171 73 256t232 85q157 0 230.5 -85t73.5 -256q0 -169 -75 -252.5t-229 -83.5q-155 0 -230 83.5zM464.5 131q41.5 57 41.5 190q0 136 -41.5 194t-132.5 58q-62 0 -100 -24.5t-56.5 -80t-18.5 -147.5q0 -134 41.5 -190.5t133.5 -56.5
q91 0 132.5 57zM279 -61h104v-110h-104v110z" />
    <glyph glyph-name="uni1ECD" unicode="&#x1ecd;" horiz-adv-x="558" 
d="M91.5 51q-64.5 66 -64.5 188q0 123 64 189.5t188 66.5q125 0 188.5 -66.5t63.5 -189.5q0 -122 -64.5 -188t-187.5 -66t-187.5 66zM371.5 114q29.5 40 29.5 125q0 86 -29.5 126.5t-92.5 40.5t-92.5 -40.5t-29.5 -126.5q0 -85 29.5 -125t92.5 -40t92.5 40zM226 -61h104
v-110h-104v110z" />
    <glyph glyph-name="uni1ECE" unicode="&#x1ece;" horiz-adv-x="663" 
d="M268 765q57 0 57 39q0 17 -10 24.5t-34 7.5q-27 0 -47 -9v68q31 12 81 12q122 0 122 -85q0 -62 -62 -81v-41h-107v65zM102 68.5q-75 83.5 -75 252.5q0 171 73 256t232 85q157 0 230.5 -85t73.5 -256q0 -169 -75 -252.5t-229 -83.5q-155 0 -230 83.5zM464.5 131
q41.5 57 41.5 190q0 136 -41.5 194t-132.5 58q-62 0 -100 -24.5t-56.5 -80t-18.5 -147.5q0 -134 41.5 -190.5t133.5 -56.5q91 0 132.5 57z" />
    <glyph glyph-name="uni1ECF" unicode="&#x1ecf;" horiz-adv-x="558" 
d="M222 588q57 0 57 39q0 17 -10 24.5t-34 7.5q-28 0 -47 -9v68q31 12 81 12q122 0 122 -85q0 -62 -62 -81v-41h-107v65zM91.5 51q-64.5 66 -64.5 188q0 123 64 189.5t188 66.5q125 0 188.5 -66.5t63.5 -189.5q0 -122 -64.5 -188t-187.5 -66t-187.5 66zM371.5 114
q29.5 40 29.5 125q0 86 -29.5 126.5t-92.5 40.5t-92.5 -40.5t-29.5 -126.5q0 -85 29.5 -125t92.5 -40t92.5 40z" />
    <glyph glyph-name="uni1ED0" unicode="&#x1ed0;" horiz-adv-x="663" 
d="M507 944h131l-100 -133h-94zM283 838h116l110 -138h-113l-55 78l-58 -78h-111zM102 68.5q-75 83.5 -75 252.5q0 171 73 256t232 85q157 0 230.5 -85t73.5 -256q0 -169 -75 -252.5t-229 -83.5q-155 0 -230 83.5zM464.5 131q41.5 57 41.5 190q0 136 -41.5 194t-132.5 58
q-62 0 -100 -24.5t-56.5 -80t-18.5 -147.5q0 -134 41.5 -190.5t133.5 -56.5q91 0 132.5 57z" />
    <glyph glyph-name="uni1ED1" unicode="&#x1ed1;" horiz-adv-x="558" 
d="M456 768h131l-100 -133h-94zM222 662h116l110 -138h-113l-55 78l-58 -78h-111zM91.5 51q-64.5 66 -64.5 188q0 123 64 189.5t188 66.5q125 0 188.5 -66.5t63.5 -189.5q0 -122 -64.5 -188t-187.5 -66t-187.5 66zM371.5 114q29.5 40 29.5 125q0 86 -29.5 126.5t-92.5 40.5
t-92.5 -40.5t-29.5 -126.5q0 -85 29.5 -125t92.5 -40t92.5 40z" />
    </font>
</defs>
</svg>
