<?xml version="1.0" standalone="no"?>
<!DOCTYPE svg PUBLIC "-//W3C//DTD SVG 1.1//EN" "http://www.w3.org/Graphics/SVG/1.1/DTD/svg11.dtd" >
<svg xmlns="http://www.w3.org/2000/svg" xmlns:xlink="http://www.w3.org/1999/xlink" version="1.1">
<metadata>
Created by FontForge 20170731 at Fri May  5 14:18:55 2017
 By Aleksey,,,
Copyright (c) 2015, Cadson Demak (info@cadsondemak.com)
</metadata>
<defs>
<font id="Pridi-Regular" horiz-adv-x="0" >
  <font-face 
    font-family="Pridi"
    font-weight="400"
    font-stretch="normal"
    units-per-em="1000"
    panose-1="0 0 5 0 0 0 0 0 0 0"
    ascent="750"
    descent="-250"
    x-height="480"
    cap-height="647"
    bbox="-608 -411 1194 1049"
    underline-thickness="50"
    underline-position="-150"
    unicode-range="U+000D-FB02"
  />
<missing-glyph horiz-adv-x="600" 
d="M94 714h411v-714h-411v714zM454 51v612h-309v-612h309z" />
    <glyph glyph-name="fi" unicode="fi" horiz-adv-x="568" 
d="M38 74h25q20 0 29 8.5t9 28.5v296h-78v73h78v31q0 78 51.5 122t143.5 44q62 0 103.5 -14t75.5 -44v-78h-100v42q-30 22 -79 22q-89 0 -89 -84v-41h272v-369q0 -19 9 -28t28 -9h29v-74h-173v407h-165v-296q0 -20 8 -28.5t28 -8.5h24v-74h-229v74z" />
    <glyph glyph-name="fl" unicode="fl" horiz-adv-x="568" 
d="M38 74h25q20 0 29 8.5t9 28.5v296h-78v73h78v31q0 78 50 122t141 44q63 0 108 -14.5t79 -43.5v-508q0 -19 9 -28t28 -9h29v-74h-173v407h-165v-296q0 -20 8 -28.5t28 -8.5h24v-74h-229v74zM373 480v108q-28 17 -80 17q-45 0 -65.5 -20.5t-20.5 -63.5v-41h166z" />
    <glyph glyph-name="ru_lakkhangyaothai" unicode="&#xe24;&#xe45;" horiz-adv-x="868" 
d="M405 360q0 54 -33 81.5t-96 27.5q-84 0 -142 -45v-13l81 -51v-47q-31 -12 -42 -32.5t-11 -61.5v-49q9 1 23 1q38 0 59 -22.5t21 -67.5q0 -50 -23.5 -73t-81.5 -23q-60 0 -83 22.5t-23 78.5v131q0 42 13 70.5t45 46.5l-79 47v71q47 44 109 68t134 24q115 0 178 -52
q66 52 164 52q109 0 153 -49.5t44 -141.5v-554h-108v555q0 61 -21 88t-78 27q-29 0 -57.5 -10.5t-50.5 -29.5q13 -36 13 -72v-558h-108v561zM196 48.5q9 8.5 9 32.5q0 23 -9 31.5t-34 8.5q-24 0 -33.5 -9t-9.5 -31q0 -24 9 -32.5t34 -8.5t34 8.5z" />
    <glyph glyph-name="lu_lakkhangyaothai" unicode="&#xe26;&#xe45;" horiz-adv-x="913" 
d="M450 360q0 54 -33 81.5t-96 27.5q-42 0 -80 -12t-64 -33v-13l98 -59v-47q-20 -13 -25.5 -28.5t-5.5 -55.5v-136q0 -56 -23 -78.5t-83 -22.5q-58 0 -81.5 23t-23.5 73q0 45 21 67.5t59 22.5q14 0 23 -1v53q0 37 6.5 58.5t28.5 43.5l-95 57v71q47 44 110 68t136 24
q116 0 177 -52q66 52 164 52q109 0 153 -49.5t44 -141.5v-554h-108v555q0 61 -21 88t-78 27q-29 0 -57.5 -10.5t-50.5 -29.5q13 -36 13 -72v-558h-108v561zM170 47.5q9 8.5 9 32.5q0 22 -9.5 31t-33.5 9q-25 0 -34 -8.5t-9 -31.5q0 -24 9 -32.5t34 -8.5t34 8.5z" />
    <glyph glyph-name=".notdef" horiz-adv-x="600" 
d="M94 714h411v-714h-411v714zM454 51v612h-309v-612h309z" />
    <glyph glyph-name=".null" 
 />
    <glyph glyph-name="nonmarkingreturn" unicode="&#xd;" horiz-adv-x="350" 
 />
    <glyph glyph-name="space" unicode=" " horiz-adv-x="350" 
 />
    <glyph glyph-name="exclam" unicode="!" horiz-adv-x="203" 
d="M45 647h114l-7 -467h-101zM43 91h117v-91h-117v91z" />
    <glyph glyph-name="quotedbl" unicode="&#x22;" horiz-adv-x="345" 
d="M43 721h102l-12 -196h-78zM200 721h102l-12 -196h-77z" />
    <glyph glyph-name="numbersign" unicode="#" horiz-adv-x="748" 
d="M155 174h-112v74h128l38 168h-137v74h153l34 157h94l-34 -157h187l34 157h94l-35 -157h106v-74h-122l-38 -168h131v-74h-147l-38 -174h-93l37 174h-187l-37 -174h-94zM452 248l37 168h-187l-37 -168h187z" />
    <glyph glyph-name="dollar" unicode="$" horiz-adv-x="554" 
d="M225 -11q-52 7 -99.5 25.5t-82.5 44.5v97h106v-64q25 -15 62 -24t75 -9q60 0 91 25.5t31 72.5q0 33 -16.5 55t-46.5 38t-83 37q-74 29 -119 55t-69.5 61.5t-24.5 86.5q0 72 48 114.5t128 52.5v110h98v-108q52 -5 97 -22.5t79 -43.5v-92h-106v61q-44 26 -117 26
q-58 0 -91 -23t-33 -72q0 -34 21 -57t48 -36t84 -36q76 -30 117 -53t65 -58.5t24 -91.5q0 -70 -49 -117.5t-139 -55.5v-108h-98v109z" />
    <glyph glyph-name="percent" unicode="%" horiz-adv-x="771" 
d="M119.5 374.5q-35.5 20.5 -56 56t-20.5 77.5t20.5 77.5t56 56t77.5 20.5t77.5 -20.5t56 -56t20.5 -77.5t-20.5 -77.5t-56 -56t-77.5 -20.5t-77.5 20.5zM523 647h106l-377 -647h-106zM254.5 450.5q23.5 23.5 23.5 57.5t-23.5 57.5t-57.5 23.5t-57.5 -23.5t-23.5 -57.5
t23.5 -57.5t57.5 -23.5t57.5 23.5zM496.5 5.5q-35.5 20.5 -56 56t-20.5 77.5t20.5 77.5t56 56t77.5 20.5t77.5 -20.5t56 -56t20.5 -77.5t-20.5 -77.5t-56 -56t-77.5 -20.5t-77.5 20.5zM631.5 81.5q23.5 23.5 23.5 57.5t-23.5 57.5t-57.5 23.5t-57.5 -23.5t-23.5 -57.5
t23.5 -57.5t57.5 -23.5t57.5 23.5z" />
    <glyph glyph-name="ampersand" unicode="&#x26;" horiz-adv-x="682" 
d="M106.5 31.5q-63.5 46.5 -63.5 129.5q0 69 32 114t103 85q-39 38 -63 74.5t-24 78.5q0 74 46.5 111.5t124.5 37.5q85 0 129 -42.5t44 -109.5v-32h-105v41q0 34 -17 52t-50 18q-35 0 -52.5 -17.5t-17.5 -58.5q0 -28 14.5 -49.5t52.5 -61.5l30 -32l174 -184q18 42 18 106v80
h157v-72h-34q-17 0 -23.5 -6.5t-6.5 -24.5q0 -102 -38 -164l101 -105h-120l-45 47q-42 -35 -87.5 -48.5t-110.5 -13.5q-105 0 -168.5 46.5zM356 68q33 10 63 36l-181 193q-49 -26 -70 -57t-21 -79q0 -50 38 -76.5t90 -26.5q48 0 81 10z" />
    <glyph glyph-name="quotesingle" unicode="'" horiz-adv-x="196" 
d="M43 721h110l-12 -196h-86z" />
    <glyph glyph-name="parenleft" unicode="(" horiz-adv-x="351" 
d="M43 316q0 250 142 391h123q-82 -70 -122 -169.5t-40 -221.5q0 -256 162 -391h-123q-142 141 -142 391z" />
    <glyph glyph-name="parenright" unicode=")" horiz-adv-x="351" 
d="M165 94.5q40 99.5 40 221.5q0 256 -162 391h123q142 -141 142 -391t-142 -391h-123q82 70 122 169.5z" />
    <glyph glyph-name="asterisk" unicode="*" horiz-adv-x="417" 
d="M77 456l72 91l-106 28l28 82l94 -40l-4 104h96l-6 -104l95 40l28 -82l-107 -28l73 -91l-74 -49l-58 92l-58 -92z" />
    <glyph glyph-name="plus" unicode="+" horiz-adv-x="412" 
d="M161 270h-118v73h118v106h88v-106h120v-73h-120v-106h-88v106z" />
    <glyph glyph-name="comma" unicode="," horiz-adv-x="226" 
d="M75 88h108l-63 -206h-77z" />
    <glyph glyph-name="hyphen" unicode="-" horiz-adv-x="375" 
d="M43 339h289v-73h-289v73z" />
    <glyph glyph-name="period" unicode="." horiz-adv-x="179" 
d="M43 88h93v-88h-93v88z" />
    <glyph glyph-name="slash" unicode="/" horiz-adv-x="443" 
d="M294 676h106l-250 -676h-107z" />
    <glyph glyph-name="zero" unicode="0" horiz-adv-x="621" 
d="M101 69.5q-68 84.5 -68 254.5q0 169 68 253t209 84q142 0 210 -84t68 -253q0 -170 -68.5 -254.5t-209.5 -84.5t-209 84.5zM439 121.5q45 62.5 45 202.5t-45 201.5t-129 61.5t-128.5 -61.5t-44.5 -201.5t44.5 -202.5t128.5 -62.5t129 62.5z" />
    <glyph glyph-name="one" unicode="1" horiz-adv-x="406" 
d="M72 73h59q22 0 30.5 9t8.5 29v434l-97 -59l-40 66l151 95h91v-536q0 -20 9 -29t31 -9h58v-73h-301v73z" />
    <glyph glyph-name="two" unicode="2" horiz-adv-x="536" 
d="M43 53q0 91 55 156t160 116q74 36 102.5 69.5t28.5 93.5q0 51 -32.5 75.5t-91.5 24.5q-67 0 -115 -24v-59h-104v94q42 28 100 45.5t118 17.5q104 0 166.5 -43.5t62.5 -130.5q0 -53 -19.5 -92t-62 -71.5t-116.5 -68.5q-72 -35 -108.5 -78t-36.5 -105h336v-73h-443v53z" />
    <glyph glyph-name="three" unicode="3" horiz-adv-x="553" 
d="M143.5 4q-58.5 19 -100.5 55v94h105v-60q54 -34 125 -34t102.5 30t31.5 102q0 110 -123 110h-80v74h83q113 0 113 114q0 50 -33 74.5t-91 24.5q-64 0 -115 -23v-60h-105v93q40 29 99 46.5t120 17.5q102 0 165.5 -42.5t63.5 -127.5q0 -101 -87 -153q93 -43 93 -145
q0 -109 -58.5 -159t-181.5 -50q-68 0 -126.5 19z" />
    <glyph glyph-name="four" unicode="4" horiz-adv-x="554" 
d="M228 73h51q22 0 30.5 9t8.5 29v60h-295v68l299 408h99v-402h110v-74h-110v-60q0 -20 9 -29t31 -9h50v-73h-283v73zM324 245v268l-196 -268h196z" />
    <glyph glyph-name="five" unicode="5" horiz-adv-x="556" 
d="M146.5 3.5q-56.5 18.5 -103.5 55.5v94h105v-61q24 -16 58.5 -24.5t73.5 -8.5q68 0 99 40t31 118q0 77 -36 108t-115 31h-193v55l20 236h406v-74h-311l-12 -142h104q113 0 176.5 -50t63.5 -164q0 -112 -58.5 -172t-178.5 -60q-73 0 -129.5 18.5z" />
    <glyph glyph-name="six" unicode="6" horiz-adv-x="564" 
d="M108.5 56q-65.5 71 -65.5 223q0 206 79 294.5t197 88.5q58 0 98 -13t79 -41l-40 -64q-30 20 -58.5 28.5t-70.5 8.5q-78 0 -121.5 -49.5t-61.5 -148.5q35 39 73.5 56t95.5 17q110 0 169 -58t59 -167q0 -122 -63.5 -184t-188.5 -62q-115 0 -180.5 71zM403 98.5
q35 39.5 35 132.5q0 79 -35 116.5t-110 37.5q-61 0 -103.5 -38t-42.5 -107q0 -181 142 -181q79 0 114 39.5z" />
    <glyph glyph-name="seven" unicode="7" horiz-adv-x="511" 
d="M373 573h-244v-70h-106v144h465v-51l-240 -596h-106z" />
    <glyph glyph-name="eight" unicode="8" horiz-adv-x="581" 
d="M106 33.5q-63 48.5 -63 148.5q0 55 25 94t69 61q-44 26 -64 63t-20 85q0 86 65 131.5t172 45.5q108 0 173 -45.5t65 -131.5q0 -49 -19.5 -85t-64.5 -63q44 -22 69 -61t25 -94q0 -100 -63.5 -148.5t-184.5 -48.5t-184 48.5zM300 372q64 0 94 27t30 86q0 52 -35 77.5
t-99 25.5q-63 0 -98 -25.5t-35 -77.5q0 -59 30.5 -86t93.5 -27h19zM399 89.5q35 30.5 35 96.5q0 56 -34 86.5t-101 30.5h-17q-67 0 -101.5 -30.5t-34.5 -86.5q0 -66 35 -96.5t109 -30.5t109 30.5z" />
    <glyph glyph-name="nine" unicode="9" horiz-adv-x="584" 
d="M172 -3q-43 12 -81 38l42 68q30 -21 59 -29.5t69 -8.5q77 0 119 47.5t60 147.5q-33 -37 -72.5 -53t-95.5 -16q-110 0 -169.5 59t-59.5 168q0 121 65.5 182.5t189.5 61.5q114 0 178.5 -71t64.5 -223q0 -207 -76 -295t-192 -88q-58 0 -101 12zM395.5 300.5
q41.5 38.5 41.5 108.5q0 95 -36 137t-103 42q-79 0 -115.5 -40t-36.5 -132q0 -79 35.5 -116.5t110.5 -37.5q62 0 103.5 38.5z" />
    <glyph glyph-name="colon" unicode=":" horiz-adv-x="181" 
d="M43 494h95v-98h-95v98zM43 99h95v-99h-95v99z" />
    <glyph glyph-name="semicolon" unicode=";" horiz-adv-x="222" 
d="M72 494h103v-98h-103v98zM74 88h105l-63 -206h-73z" />
    <glyph glyph-name="less" unicode="&#x3c;" horiz-adv-x="624" 
d="M43 294v61l538 237v-91l-417 -176l417 -177v-91z" />
    <glyph glyph-name="equal" unicode="=" horiz-adv-x="410" 
d="M43 416h324v-73h-324v73zM43 263h324v-74h-324v74z" />
    <glyph glyph-name="greater" unicode="&#x3e;" horiz-adv-x="624" 
d="M43 148l417 177l-417 176v91l538 -237v-61l-538 -237v91z" />
    <glyph glyph-name="question" unicode="?" horiz-adv-x="535" 
d="M174 186q0 65 27.5 109.5t92.5 78.5q52 25 73.5 50t21.5 70q0 94 -127 94q-34 0 -66 -8t-57 -22v-58h-96v96q40 30 98.5 48t122.5 18q107 0 167.5 -42t60.5 -126q0 -45 -14 -75t-43.5 -54t-83.5 -53q-44 -23 -57.5 -51t-13.5 -79v-26h-106v30zM166 95h121v-95h-121v95z
" />
    <glyph glyph-name="at" unicode="@" horiz-adv-x="860" 
d="M140.5 -5.5q-97.5 104.5 -97.5 283.5q0 113 47.5 197.5t136 130.5t207.5 46q195 0 289 -94t94 -266q0 -106 -38 -167.5t-123 -61.5q-36 0 -64.5 19.5t-36.5 47.5q-23 -33 -63.5 -51.5t-95.5 -18.5q-69 0 -105.5 29.5t-36.5 82.5q0 56 34 86.5t98 35.5l125 8v31
q0 37 -15 52.5t-52 15.5q-23 0 -38.5 -3.5t-31.5 -10.5v-28h-92v63q32 22 74 33.5t88 11.5q84 0 123.5 -35t39.5 -105v-136q0 -54 43 -54q36 0 54.5 37.5t18.5 119.5q0 93 -28 153t-91 90t-170 30q-144 0 -220.5 -74t-76.5 -215q0 -155 76.5 -230.5t220.5 -75.5q57 0 117 9
t111 29v-81q-57 -20 -111 -29.5t-117 -9.5q-196 0 -293.5 104.5zM482.5 146.5q28.5 20.5 28.5 61.5v29l-103 -7q-33 -2 -48.5 -14.5t-15.5 -42.5q0 -25 16 -36t48 -11q46 0 74.5 20.5z" />
    <glyph glyph-name="A" unicode="A" horiz-adv-x="719" 
d="M33 73h31q23 0 35.5 8t19.5 28l191 538h101l189 -538q7 -20 20 -28t36 -8h30v-73h-228v73h50l-44 128h-208l-44 -128h50v-73h-229v73zM444 264l-83 244l-85 -244h168z" />
    <glyph glyph-name="B" unicode="B" horiz-adv-x="591" 
d="M33 73h29q20 0 28.5 9t8.5 29v426q0 19 -8.5 27.5t-28.5 8.5h-29v74h336q86 0 132 -45t46 -127q0 -49 -23 -87.5t-67 -58.5q50 -17 75.5 -55.5t25.5 -94.5q0 -78 -46 -128.5t-127 -50.5h-352v73zM334 363q51 0 80 28t29 79q0 53 -24.5 78.5t-79.5 25.5h-134v-211h129z
M356 73q46 0 72 27.5t26 81.5q0 56 -28 81t-86 25h-135v-215h151z" />
    <glyph glyph-name="C" unicode="C" horiz-adv-x="599" 
d="M183.5 27.5q-74.5 42.5 -112.5 118t-38 174.5q0 100 35 177t106 121t177 44q71 0 123.5 -13.5t91.5 -42.5v-102h-105v64q-45 20 -110 20q-102 0 -158.5 -71t-56.5 -197q0 -123 61.5 -192t169.5 -69q48 0 85.5 9t72.5 31l39 -62q-44 -29 -90.5 -40.5t-110.5 -11.5
q-105 0 -179.5 42.5z" />
    <glyph glyph-name="D" unicode="D" horiz-adv-x="628" 
d="M33 72h23q20 0 28.5 9t8.5 29v428q0 19 -8.5 27.5t-28.5 8.5h-23v73h288q139 0 206.5 -85t67.5 -241q0 -146 -69.5 -233.5t-204.5 -87.5h-288v72zM307 72q98 0 141 62t43 187q0 128 -43 191t-141 63h-108v-503h108z" />
    <glyph glyph-name="E" unicode="E" horiz-adv-x="545" 
d="M33 73h29q20 0 28.5 9t8.5 29v426q0 19 -8.5 27.5t-28.5 8.5h-29v74h479v-129h-96v20q0 19 -9 27.5t-29 8.5h-173v-213h173v-74h-173v-214h173q20 0 29 8.5t9 28.5v20h96v-130h-479v73z" />
    <glyph glyph-name="F" unicode="F" horiz-adv-x="545" 
d="M33 73h29q20 0 28.5 9t8.5 29v426q0 19 -8.5 27.5t-28.5 8.5h-29v74h479v-129h-96v20q0 19 -9 27.5t-29 8.5h-173v-213h173v-74h-173v-177q0 -20 8.5 -28.5t27.5 -8.5h30v-73h-238v73z" />
    <glyph glyph-name="G" unicode="G" horiz-adv-x="618" 
d="M178 27.5q-72 42.5 -108.5 118t-36.5 174.5q0 100 34 177t104.5 121t175.5 44q72 0 124.5 -13.5t92.5 -42.5v-102h-106v62q-43 22 -111 22q-100 0 -155 -71t-55 -197q0 -123 58 -192t162 -69q70 0 123 21v187h-139v74h244v-293q-49 -33 -105 -48t-127 -15
q-103 0 -175 42.5z" />
    <glyph glyph-name="H" unicode="H" horiz-adv-x="682" 
d="M33 73h29q20 0 28.5 9t8.5 29v426q0 19 -8.5 27.5t-28.5 8.5h-29v74h233v-74h-25q-19 0 -27.5 -8.5t-8.5 -27.5v-176h272v175q0 20 -8 28.5t-28 8.5h-26v74h234v-74h-29q-20 0 -28.5 -8.5t-8.5 -27.5v-426q0 -20 8.5 -29t28.5 -9h29v-73h-234v73h26q19 0 27.5 9t8.5 29
v177h-272v-177q0 -20 8.5 -29t27.5 -9h25v-73h-233v73z" />
    <glyph glyph-name="I" unicode="I" horiz-adv-x="303" 
d="M33 73h29q20 0 28.5 9t8.5 29v426q0 19 -8.5 27.5t-28.5 8.5h-29v74h237v-74h-29q-19 0 -27.5 -8.5t-8.5 -27.5v-427q0 -20 8.5 -28.5t27.5 -8.5h29v-73h-237v73z" />
    <glyph glyph-name="J" unicode="J" horiz-adv-x="496" 
d="M3 61v80h96v-48q33 -34 93 -34q52 0 76 26.5t24 80.5v371q0 19 -9 27.5t-28 8.5h-30v74h238v-74h-29q-19 0 -28 -8.5t-9 -27.5v-356q0 -93 -51 -144.5t-147 -51.5q-128 0 -196 76z" />
    <glyph glyph-name="K" unicode="K" horiz-adv-x="648" 
d="M33 74h29q20 0 28.5 8.5t8.5 27.5v428q0 19 -8.5 27.5t-28.5 8.5h-23v73h217v-73h-18q-18 0 -25.5 -9t-7.5 -27v-212l231 248h-51v73h220v-77h-37q-19 0 -30 -6t-25 -21l-162 -171l177 -268q11 -16 23 -23t31 -7h33v-74h-230v74h56l-153 232l-83 -89v-107q0 -18 7.5 -27
t27.5 -9h22v-74h-229v74z" />
    <glyph glyph-name="L" unicode="L" horiz-adv-x="509" 
d="M33 72h21q22 0 30.5 9t8.5 29v428q0 19 -8.5 27.5t-28.5 8.5h-23v73h226v-73h-24q-19 0 -27.5 -8.5t-8.5 -27.5v-466h173q20 0 29 8.5t9 28.5v32h96v-141h-473v72z" />
    <glyph glyph-name="M" unicode="M" horiz-adv-x="775" 
d="M33 73h29q20 0 28.5 9t8.5 29v425q0 20 -8.5 29t-28.5 9h-29v73h179l176 -407l175 407h179v-73h-30q-19 0 -27.5 -9t-8.5 -29v-425q0 -20 8.5 -29t27.5 -9h30v-73h-237v73h30q19 0 27.5 8.5t8.5 28.5v362l-143 -333h-81l-144 333v-362q0 -19 9 -28t28 -9h30v-73h-237v73z
" />
    <glyph glyph-name="N" unicode="N" horiz-adv-x="691" 
d="M33 74h29q20 0 28.5 8.5t8.5 27.5v427q0 19 -8.5 27.5t-28.5 8.5h-29v74h149l305 -473v363q0 19 -9 27.5t-28 8.5h-30v74h238v-74h-30q-19 0 -27.5 -8.5t-8.5 -27.5v-537h-83l-305 472v-362q0 -19 9 -27.5t28 -8.5h29v-74h-237v74z" />
    <glyph glyph-name="O" unicode="O" horiz-adv-x="659" 
d="M106 68.5q-73 83.5 -73 252.5q0 171 71.5 256t225.5 85q153 0 224.5 -85t71.5 -256q0 -169 -73 -252.5t-223 -83.5q-151 0 -224 83.5zM475 120q47 61 47 201q0 143 -46.5 205t-145.5 62q-100 0 -146.5 -62t-46.5 -205q0 -140 47 -201t146 -61q98 0 145 61z" />
    <glyph glyph-name="P" unicode="P" horiz-adv-x="622" 
d="M33 73h27q22 0 30.5 9t8.5 28v427q0 19 -8.5 27.5t-30.5 8.5h-27v74h343q100 0 156.5 -51.5t56.5 -147.5t-57.5 -151.5t-156.5 -55.5h-170v-131q0 -19 8.5 -28t30.5 -9h26v-73h-237v73zM361 315q63 0 93.5 32.5t30.5 100.5q0 69 -29 97t-95 28h-156v-258h156z" />
    <glyph glyph-name="Q" unicode="Q" horiz-adv-x="659" 
d="M337.5 -108q-40.5 37 -49.5 95q-127 11 -191 98.5t-64 235.5q0 161 72.5 250.5t224.5 89.5q151 0 223.5 -89.5t72.5 -250.5q0 -147 -63.5 -234.5t-189.5 -99.5q5 -32 24.5 -45t53.5 -13q25 0 40 4.5t27 15.5v27h82v-59q-45 -62 -150 -62q-72 0 -112.5 37zM522 321
q0 266 -192 266q-193 0 -193 -266q0 -262 193 -262q192 0 192 262z" />
    <glyph glyph-name="R" unicode="R" horiz-adv-x="622" 
d="M33 73h27q22 0 30.5 9t8.5 28v427q0 19 -8.5 27.5t-30.5 8.5h-27v74h327q101 0 157 -49.5t56 -140.5q0 -75 -41 -124.5t-116 -63.5l88 -164q10 -18 23.5 -25t34.5 -7h27v-73h-219v73h48l-100 186h-113v-151q0 -19 7.5 -27t27.5 -8h23v-73h-230v73zM344 333q63 0 94.5 32
t31.5 92q0 62 -30 89t-96 27h-139v-240h139z" />
    <glyph glyph-name="S" unicode="S" horiz-adv-x="534" 
d="M141 5q-63 20 -108 54v98h107v-65q25 -15 61.5 -24t74.5 -9q60 0 91 25.5t31 72.5q0 33 -16.5 55t-46.5 38t-83 37q-74 29 -119 55t-69.5 61.5t-24.5 86.5q0 85 65 128.5t167 43.5q67 0 122.5 -19t95.5 -50v-93h-107v62q-44 26 -116 26q-58 0 -91 -23t-33 -72
q0 -34 21 -57t48 -36t84 -36q76 -30 117 -53t65 -58.5t24 -91.5q0 -51 -26.5 -90.5t-77.5 -62.5t-123 -23q-70 0 -133 20z" />
    <glyph glyph-name="T" unicode="T" horiz-adv-x="569" 
d="M166 74h27q22 0 30.5 8.5t8.5 27.5v462h-92q-20 0 -29 -8.5t-9 -27.5v-32h-79v142h523v-142h-79v32q0 20 -8.5 28t-29.5 8h-91v-462q0 -19 8.5 -27.5t30.5 -8.5h27v-74h-238v74z" />
    <glyph glyph-name="U" unicode="U" horiz-adv-x="661" 
d="M145 38q-62 53 -62 144v357q0 19 -8.5 27.5t-28.5 8.5h-23v72h221v-72h-19q-19 0 -27.5 -9t-8.5 -29v-361q0 -60 35.5 -89t105.5 -29q141 0 141 118v361q0 20 -8.5 29t-28.5 9h-19v72h223v-72h-24q-19 0 -28 -8.5t-9 -27.5v-357q0 -91 -62 -144t-185 -53t-185 53z" />
    <glyph glyph-name="V" unicode="V" horiz-adv-x="707" 
d="M115 534q-9 25 -21 33t-40 8h-21v72h154l167 -508l165 508h155v-72h-21q-28 0 -40 -8t-21 -33l-187 -534h-101z" />
    <glyph glyph-name="W" unicode="W" horiz-adv-x="871" 
d="M112 532q-5 24 -17 32.5t-41 8.5h-21v74h154l98 -464l108 355h84l109 -355l99 464h153v-74h-22q-29 0 -41 -8.5t-17 -32.5l-119 -532h-87l-117 368l-115 -368h-88z" />
    <glyph glyph-name="X" unicode="X" horiz-adv-x="675" 
d="M33 74h31q27 0 42 7.5t29 27.5l147 216l-144 213q-14 21 -29 28t-42 7h-27v74h226v-74h-46l117 -182l118 182h-47v74h226v-74h-27q-27 0 -41.5 -7t-28.5 -28l-145 -213l148 -216q14 -20 28.5 -27.5t41.5 -7.5h32v-74h-231v73h47l-121 186l-120 -186h46v-73h-230v74z" />
    <glyph glyph-name="Y" unicode="Y" horiz-adv-x="666" 
d="M221 72h23q20 0 28.5 9t8.5 28v128l-162 298q-13 23 -26 31.5t-37 8.5h-23v72h218v-72h-14q-22 0 -22 -13q0 -9 8 -23l111 -215l110 215q7 13 7 23q0 13 -21 13h-15v72h218v-72h-23q-24 0 -37 -8.5t-26 -31.5l-161 -298v-128q0 -19 9 -28t28 -9h23v-72h-225v72z" />
    <glyph glyph-name="Z" unicode="Z" horiz-adv-x="562" 
d="M33 62l362 513h-216q-21 0 -29.5 -8.5t-8.5 -27.5v-20h-96v128h469v-62l-357 -513h238q20 0 29 8.5t9 28.5v19h96v-128h-496v62z" />
    <glyph glyph-name="bracketleft" unicode="[" horiz-adv-x="297" 
d="M53 750h201v-74h-95v-686h95v-73h-201v833z" />
    <glyph glyph-name="backslash" unicode="\" horiz-adv-x="442" 
d="M43 676h106l250 -676h-106z" />
    <glyph glyph-name="bracketright" unicode="]" horiz-adv-x="297" 
d="M43 -10h95v686h-95v74h201v-833h-201v73z" />
    <glyph glyph-name="asciicircum" unicode="^" horiz-adv-x="596" 
d="M254 719h88l211 -355h-110l-145 254l-145 -254h-110z" />
    <glyph glyph-name="underscore" unicode="_" horiz-adv-x="467" 
d="M43 0h381v-74h-381v74z" />
    <glyph glyph-name="grave" unicode="`" horiz-adv-x="297" 
d="M43 713h125l86 -188h-91z" />
    <glyph glyph-name="a" unicode="a" horiz-adv-x="523" 
d="M64.5 20q-41.5 35 -41.5 99q0 72 45.5 105.5t131.5 39.5l140 9v61q0 47 -20 68t-68 21q-33 0 -54.5 -5.5t-39.5 -17.5v-36h-93v79q84 52 189 52q192 0 192 -170v-219q0 -20 7.5 -29t24.5 -9h22v-68h-115l-13 63q-32 -41 -74.5 -59.5t-111.5 -18.5q-80 0 -121.5 35z
M305 83q35 26 35 79v48l-132 -10q-49 -3 -68 -20.5t-19 -55.5q0 -33 21 -50t68 -17q60 0 95 26z" />
    <glyph glyph-name="b" unicode="b" horiz-adv-x="588" 
d="M170 68l-8 -68h-82v545q0 23 -7.5 33.5t-30.5 10.5h-19v73h160v-240q26 37 69 55t97 18q101 0 153.5 -65t52.5 -190q0 -120 -58.5 -187.5t-158.5 -67.5q-118 0 -168 83zM421 105q30 42 30 137q0 96 -30.5 136t-102.5 40q-57 0 -94.5 -39t-37.5 -110v-58
q0 -65 38.5 -106.5t99.5 -41.5q67 0 97 42z" />
    <glyph glyph-name="c" unicode="c" horiz-adv-x="516" 
d="M159.5 14q-58.5 29 -92.5 86t-34 136q0 126 67.5 192.5t186.5 66.5q65 0 109 -14t85 -45v-96h-93v55q-23 13 -44 18t-57 5q-67 0 -108.5 -44.5t-41.5 -137.5q0 -88 47.5 -130.5t121.5 -42.5q46 0 78.5 8t61.5 27l37 -61q-42 -29 -85.5 -40.5t-107.5 -11.5
q-72 0 -130.5 29z" />
    <glyph glyph-name="d" unicode="d" horiz-adv-x="584" 
d="M88.5 49q-55.5 64 -55.5 183q0 125 55 194t159 69q61 0 97.5 -15t60.5 -50v115q0 24 -8 34t-31 10h-17v73h159v-555q0 -22 7 -30.5t26 -8.5h20v-68h-134l-9 70q-30 -45 -71 -65t-104 -20q-99 0 -154.5 64zM367 104.5q36 41.5 36 111.5v51q0 73 -34.5 112t-97.5 39
q-71 0 -102.5 -44t-31.5 -141q0 -92 30 -131t100 -39q64 0 100 41.5z" />
    <glyph glyph-name="e" unicode="e" horiz-adv-x="539" 
d="M101.5 48.5q-68.5 63.5 -68.5 185.5q0 130 63.5 195.5t180.5 65.5q113 0 171 -64t58 -173v-46h-367q0 -81 39.5 -119.5t106.5 -38.5q38 0 64 5.5t47 18.5v36h93v-70q-42 -30 -90.5 -44.5t-114.5 -14.5q-114 0 -182.5 63.5zM403 277q0 146 -127 146q-67 0 -102 -39
t-35 -107h264z" />
    <glyph glyph-name="f" unicode="f" horiz-adv-x="418" 
d="M38 74h25q20 0 29 8.5t9 28.5v296h-78v73h78v26q0 80 45.5 125.5t132.5 45.5q103 0 164 -53v-77h-88v38q-25 20 -69 20q-39 0 -59 -23t-20 -66v-36h144v-73h-144v-296q0 -20 8 -28.5t28 -8.5h24v-74h-229v74z" />
    <glyph glyph-name="g" unicode="g" horiz-adv-x="584" 
d="M116 -130v69h92v-36q19 -14 40.5 -19.5t52.5 -5.5q104 0 104 105v80q-27 -37 -66 -54t-93 -17q-102 0 -157.5 65t-55.5 189q0 119 58.5 184t158.5 65q58 0 98 -20.5t70 -65.5l9 72h134v-69h-21q-18 0 -25 -9.5t-7 -31.5v-372q0 -90 -54.5 -144.5t-145.5 -54.5
q-119 0 -192 70zM368.5 107.5q33.5 37.5 33.5 110.5v46q0 71 -34 112.5t-98 41.5q-70 0 -101.5 -40.5t-31.5 -131.5q0 -95 31 -135.5t103 -40.5q64 0 97.5 37.5z" />
    <glyph glyph-name="h" unicode="h" horiz-adv-x="604" 
d="M33 74h25q20 0 28.5 8.5t8.5 28.5v440q0 19 -8.5 28t-28.5 9h-20v74h154v-232q36 36 73.5 50.5t94.5 14.5q78 0 117.5 -43t39.5 -123v-218q0 -20 8.5 -28.5t27.5 -8.5h28v-74h-173v328q0 50 -22 73t-67 23q-51 0 -84 -29.5t-33 -81.5v-202q0 -20 7.5 -28.5t25.5 -8.5h27
v-74h-229v74z" />
    <glyph glyph-name="i" unicode="i" horiz-adv-x="285" 
d="M86 648h113v-92h-113v92zM23 74h29q20 0 28.5 9t8.5 29v257q0 19 -8.5 27.5t-28.5 8.5h-29v75h173v-369q0 -19 9 -28t28 -9h29v-74h-239v74z" />
    <glyph glyph-name="j" unicode="j" horiz-adv-x="373" 
d="M210 648h113v-92h-113v92zM47 -158.5q-41 14.5 -74 43.5v83h90v-44q16 -14 32.5 -19.5t40.5 -5.5q39 0 58 20.5t19 68.5v381q0 19 -8.5 27.5t-28.5 8.5h-29v75h173v-480q0 -86 -45.5 -129.5t-132.5 -43.5q-54 0 -95 14.5z" />
    <glyph glyph-name="k" unicode="k" horiz-adv-x="579" 
d="M33 71h27q20 0 27.5 7.5t7.5 26.5v454q0 19 -7 26.5t-26 7.5h-23v69h215v-69h-28q-18 0 -25 -7.5t-7 -26.5v-294l162 145h-49v70h228v-70h-46q-16 0 -24 -4t-22 -16l-99 -87l121 -205q10 -16 19.5 -21.5t29.5 -5.5h42v-71h-134l-148 245l-80 -71v-69q0 -19 7.5 -26.5
t27.5 -7.5h31v-71h-227v71z" />
    <glyph glyph-name="l" unicode="l" horiz-adv-x="295" 
d="M33 74h29q20 0 28.5 9t8.5 29v439q0 19 -8.5 27.5t-28.5 8.5h-29v75h173v-551q0 -19 9 -28t28 -9h29v-74h-239v74z" />
    <glyph glyph-name="m" unicode="m" horiz-adv-x="856" 
d="M33 74h25q20 0 28.5 8.5t8.5 28.5v258q0 19 -8.5 27.5t-28.5 8.5h-20v75h125l7 -68q27 42 67.5 62.5t98.5 20.5q44 0 76 -20t48 -57q25 40 61.5 58.5t91.5 18.5q82 0 118.5 -41t36.5 -123v-220q0 -19 9 -28t28 -9h28v-74h-170v331q0 50 -19 71t-64 21q-46 0 -72.5 -26
t-26.5 -76v-210q0 -20 7.5 -28.5t26.5 -8.5h27v-74h-160v328q0 49 -19 72t-60 23q-50 0 -77 -28t-27 -82v-202q0 -20 7.5 -28.5t26.5 -8.5h27v-74h-227v74z" />
    <glyph glyph-name="n" unicode="n" horiz-adv-x="603" 
d="M33 74h25q20 0 28.5 8.5t8.5 28.5v257q0 20 -8 28.5t-28 8.5h-21v75h128l6 -67q34 43 77.5 62.5t105.5 19.5q160 0 160 -166v-218q0 -20 8.5 -28.5t28.5 -8.5h28v-74h-172v328q0 50 -21 72.5t-68 22.5q-51 0 -84 -29t-33 -81v-202q0 -20 7.5 -28.5t26.5 -8.5h26v-74h-229
v74z" />
    <glyph glyph-name="o" unicode="o" horiz-adv-x="558" 
d="M95 52q-62 67 -62 187q0 121 61.5 188.5t184.5 67.5t184.5 -67.5t61.5 -188.5q0 -120 -62 -187t-184 -67t-184 67zM386 104q35 44 35 135q0 92 -35 136.5t-107 44.5t-106.5 -44.5t-34.5 -136.5q0 -91 34.5 -135t106.5 -44t107 44z" />
    <glyph glyph-name="p" unicode="p" horiz-adv-x="588" 
d="M23 -136h17q23 0 31.5 10.5t8.5 34.5v461q0 20 -8.5 29.5t-27.5 9.5h-21v71h138l10 -72q60 87 171 87q100 0 156.5 -65t56.5 -185q0 -124 -55 -192t-157 -68q-54 0 -90.5 16t-69.5 55v-147q0 -24 8.5 -34.5t31.5 -10.5h17v-72h-217v72zM419.5 105.5q31.5 42.5 31.5 138.5
q0 93 -30 133.5t-100 40.5q-63 0 -99 -41.5t-36 -110.5v-56q0 -71 36 -109t95 -38q71 0 102.5 42.5z" />
    <glyph glyph-name="q" unicode="q" horiz-adv-x="588" 
d="M405 56q-33 -39 -69.5 -55t-90.5 -16q-103 0 -157.5 63t-54.5 185q0 80 26.5 139t75.5 91t115 32q58 0 97 -21t70 -66l10 72h138v-71h-21q-19 0 -27.5 -9.5t-8.5 -29.5v-461q0 -24 8.5 -34.5t31.5 -10.5h17v-72h-160v264zM366 101q36 38 36 109v56q0 69 -36 110.5
t-99 41.5q-68 0 -99 -46t-31 -140q0 -64 13.5 -100.5t42.5 -52.5t78 -16q59 0 95 38z" />
    <glyph glyph-name="r" unicode="r" horiz-adv-x="386" 
d="M33 74h25q20 0 28.5 8.5t8.5 28.5v258q0 19 -8 28t-27 9h-21v74h138l14 -55q20 31 51.5 43t74.5 12h46v-74h-56q-57 0 -81 -25.5t-24 -78.5v-191q0 -20 8 -28.5t27 -8.5h25v-74h-229v74z" />
    <glyph glyph-name="s" unicode="s" horiz-adv-x="462" 
d="M33 43v78h98v-40q41 -24 100 -24q45 0 67.5 14t22.5 46q0 21 -11.5 34.5t-31.5 23t-79 33.5t-90.5 41.5t-51 44.5t-19.5 68q0 66 51 99.5t139 33.5q56 0 105 -14.5t85 -41.5v-75h-96v37q-36 22 -86 22q-45 0 -67.5 -14t-22.5 -47q0 -30 24 -46.5t74 -34.5q14 -4 31 -11
q52 -20 83 -37t51 -45t20 -71q0 -64 -48.5 -98t-146.5 -34q-121 0 -201 58z" />
    <glyph glyph-name="t" unicode="t" horiz-adv-x="435" 
d="M143 26q-42 41 -42 120v262h-78v72h78v108l106 34v-142h144v-72h-144v-269q0 -44 16.5 -63t50.5 -19q44 0 67 19v43h91v-76q-33 -28 -72 -43t-92 -15q-83 0 -125 41z" />
    <glyph glyph-name="u" unicode="u" horiz-adv-x="588" 
d="M130 28q-42 43 -42 123v218q0 19 -8.5 28t-27.5 9h-29v74h172v-328q0 -97 94 -97q51 0 82 30t31 86v198q0 19 -7.5 28t-25.5 9h-28v74h167v-369q0 -19 9 -27.5t28 -8.5h20v-75h-127l-6 65q-32 -42 -74.5 -61t-103.5 -19q-82 0 -124 43z" />
    <glyph glyph-name="v" unicode="v" horiz-adv-x="572" 
d="M93 384q-5 16 -14.5 21.5t-34.5 5.5h-21v69h139l124 -375l124 375h139v-69h-22q-24 0 -33.5 -5.5t-15.5 -21.5l-137 -384h-110z" />
    <glyph glyph-name="w" unicode="w" horiz-adv-x="767" 
d="M92 383q-4 16 -13.5 22t-30.5 6h-25v69h139l84 -360l98 317h78l98 -317l86 360h138v-69h-25q-21 0 -30.5 -6t-13.5 -22l-92 -383h-104l-95 305l-96 -305h-104z" />
    <glyph glyph-name="x" unicode="x" horiz-adv-x="568" 
d="M23 62h29q23 0 35.5 6.5t26.5 24.5l113 149l-110 145q-13 18 -25.5 24.5t-35.5 6.5h-26v62h207v-62h-42l89 -121l89 121h-42v62h207v-62h-26q-23 0 -35.5 -6.5t-25.5 -24.5l-111 -145l114 -149q14 -18 26.5 -24.5t35.5 -6.5h29v-62h-210v61h42l-93 125l-93 -125h42v-61
h-210v62z" />
    <glyph glyph-name="y" unicode="y" horiz-adv-x="566" 
d="M117 -131v72h93v-36q33 -36 97 -36q52 0 78.5 30t26.5 88v71q-28 -28 -62 -40.5t-79 -12.5q-86 0 -134 44.5t-48 125.5v194q0 19 -9 28t-28 9h-29v74h172v-308q0 -98 97 -98q52 0 83 29.5t31 85.5v180q0 20 -7.5 28.5t-26.5 8.5h-26v74h167v-471q0 -95 -54.5 -152
t-147.5 -57q-122 0 -194 69z" />
    <glyph glyph-name="z" unicode="z" horiz-adv-x="496" 
d="M33 57l293 350h-172q-20 0 -29 -8.5t-9 -27.5v-20h-72v129h409v-58l-292 -349h192q21 0 29.5 8.5t8.5 27.5v20h72v-129h-430v57z" />
    <glyph glyph-name="braceleft" unicode="{" horiz-adv-x="342" 
d="M135 -41.5q-33 43.5 -33 137.5v132q0 40 -20 55t-59 15v74q39 0 59 15t20 54v128q0 94 33 137.5t122 43.5h42v-74h-26q-36 0 -51 -17.5t-15 -55.5v-167q0 -33 -16.5 -60.5t-44.5 -41.5q29 -14 45 -40.5t16 -60.5v-171q0 -38 15 -55.5t51 -17.5h26v-74h-42
q-89 0 -122 43.5z" />
    <glyph glyph-name="bar" unicode="|" horiz-adv-x="192" 
d="M43 767h106v-887h-106v887z" />
    <glyph glyph-name="braceright" unicode="}" horiz-adv-x="342" 
d="M43 -11h26q36 0 51 17.5t15 55.5v171q0 34 16 60.5t45 40.5q-28 14 -44.5 41.5t-16.5 60.5v167q0 38 -15 55.5t-51 17.5h-26v74h42q89 0 122 -43.5t33 -137.5v-128q0 -39 20 -54t59 -15v-74q-39 0 -59 -15t-20 -55v-132q0 -94 -33 -137.5t-122 -43.5h-42v74z" />
    <glyph glyph-name="asciitilde" unicode="~" horiz-adv-x="563" 
d="M75.5 345.5q32.5 38.5 97.5 38.5q31 0 55.5 -9t55.5 -26q29 -16 48.5 -23.5t42.5 -7.5q35 0 48 16.5t13 49.5h84q0 -149 -128 -149q-34 0 -60.5 10t-60.5 28q-29 15 -45.5 21.5t-36.5 6.5q-34 0 -48 -16.5t-14 -49.5h-84q0 72 32.5 110.5z" />
    <glyph glyph-name="uni00A0" unicode="&#xa0;" horiz-adv-x="350" 
 />
    <glyph glyph-name="exclamdown" unicode="&#xa1;" horiz-adv-x="203" 
d="M43 495h117v-91h-117v91zM51 315h101l7 -467h-114z" />
    <glyph glyph-name="cent" unicode="&#xa2;" horiz-adv-x="520" 
d="M235 -9q-91 14 -146.5 77.5t-55.5 167.5q0 110 53.5 175t148.5 79v80h98v-78q47 -4 84 -17.5t70 -38.5v-96h-93v55q-22 12 -45.5 17.5t-58.5 5.5q-67 0 -110 -44.5t-43 -137.5q0 -88 47.5 -130.5t121.5 -42.5q46 0 78.5 8t61.5 27l37 -61q-36 -24 -70.5 -35.5
t-79.5 -14.5v-77h-98v81z" />
    <glyph glyph-name="sterling" unicode="&#xa3;" horiz-adv-x="503" 
d="M45 74h25q52 0 52 74v201h-79v73h79v74q0 78 49.5 122t138.5 44q100 0 164 -54v-78h-89v38q-25 22 -67 22t-66 -22.5t-24 -64.5v-81h163v-73h-163v-196q0 -27 -5.5 -46t-20.5 -33h278v-74h-435v74z" />
    <glyph glyph-name="currency" unicode="&#xa4;" horiz-adv-x="621" 
d="M53 120l83 76q-46 59 -46 134q0 68 37 122l-84 77l61 63l84 -79q57 39 123 39q64 0 122 -38l84 78l61 -63l-84 -77q38 -54 38 -122q0 -76 -47 -134l84 -76l-61 -63l-89 81q-47 -29 -108 -29q-60 0 -109 30l-89 -82zM378.5 212.5q30.5 18.5 48 49.5t17.5 68q0 57 -38 96.5
t-95 39.5t-95 -39.5t-38 -96.5q0 -37 17.5 -68t48 -49.5t67.5 -18.5t67.5 18.5z" />
    <glyph glyph-name="yen" unicode="&#xa5;" horiz-adv-x="666" 
d="M221 72h23q20 0 28.5 9t8.5 28v23h-146v73h146v31h-146v73h107l-123 226q-13 23 -26 31.5t-37 8.5h-23v72h218v-72h-14q-21 0 -21 -13q0 -10 7 -23l111 -220l110 220q7 13 7 23q0 13 -21 13h-15v72h218v-72h-23q-24 0 -37 -8.5t-26 -31.5l-122 -226h107v-73h-146v-31h146
v-73h-146v-23q0 -19 9 -28t28 -9h23v-72h-225v72z" />
    <glyph glyph-name="brokenbar" unicode="&#xa6;" horiz-adv-x="191" 
d="M43 767h105v-349h-105v349zM43 228h105v-348h-105v348z" />
    <glyph glyph-name="section" unicode="&#xa7;" horiz-adv-x="514" 
d="M131 -136q-63 20 -108 54v97h106v-64q25 -15 62 -24t75 -9q58 0 90.5 25.5t32.5 73.5q0 33 -14 53.5t-37 33.5t-68 31l-28 11q-76 32 -120 57.5t-68.5 60.5t-24.5 85q0 57 32 95q-32 38 -32 96q0 85 65 128.5t167 43.5q67 0 122.5 -19t95.5 -50v-92h-106v61
q-44 26 -117 26q-58 0 -91 -23t-33 -72q0 -34 20 -56.5t46.5 -35.5t86.5 -37q76 -30 117 -53t65 -58.5t24 -91.5q0 -55 -30 -94q30 -37 30 -97q0 -51 -26.5 -90.5t-77.5 -62.5t-123 -23q-70 0 -133 20zM394 193q2 9 2 24q0 28 -19 48.5t-48 34.5t-78 34q-71 28 -109 51
q-16 -13 -16 -38q0 -29 19.5 -50.5t49.5 -37t84 -38.5q64 -25 107 -49q6 12 8 21z" />
    <glyph glyph-name="dieresis" unicode="&#xa8;" horiz-adv-x="398" 
d="M43 656h90v-96h-90v96zM264 656h91v-96h-91v96z" />
    <glyph glyph-name="copyright" unicode="&#xa9;" horiz-adv-x="803" 
d="M221 34q-82 48 -130 130t-48 179q0 98 48 180t130.5 130t180.5 48q97 0 179.5 -48t130.5 -130t48 -180q0 -97 -48 -179t-130.5 -130t-180.5 -48t-180 48zM548 91q65 38 101 104.5t36 147.5t-36 147.5t-101 105t-147 38.5t-146.5 -38.5t-100.5 -104.5t-36 -148t36 -148
t100.5 -104t146.5 -38t147 38zM281.5 125q-53.5 29 -84.5 84t-31 128q0 116 63 181.5t170 65.5q61 0 101 -13t78 -42v-86h-81v50q-21 12 -43 17.5t-55 5.5q-62 0 -102.5 -44.5t-40.5 -134.5q0 -85 44 -129t111 -44q41 0 72 10.5t59 30.5l33 -53q-35 -28 -77 -42t-98 -14
q-65 0 -118.5 29z" />
    <glyph glyph-name="ordfeminine" unicode="&#xaa;" horiz-adv-x="395" 
d="M69 357.5q-26 22.5 -26 64.5q0 88 114 96l84 6v35q0 27 -11 37t-41 10q-19 0 -30.5 -3t-25.5 -11v-24h-64v60q54 34 122 34q64 0 95.5 -29.5t31.5 -79.5v-133q0 -14 4.5 -19.5t15.5 -5.5h14v-50h-77l-11 38q-21 -25 -48.5 -36.5t-70.5 -11.5q-50 0 -76 22.5zM241 452v25
l-74 -6q-26 -2 -37 -12.5t-11 -31.5q0 -37 49 -37q73 0 73 62z" />
    <glyph glyph-name="guillemotleft" unicode="&#xab;" horiz-adv-x="599" 
d="M43 298v53l286 242v-107l-185 -162l185 -161v-107zM270 298v53l286 242v-107l-186 -162l186 -161v-107z" />
    <glyph glyph-name="logicalnot" unicode="&#xac;" horiz-adv-x="505" 
d="M373 269h-330v74h419v-207h-89v133z" />
    <glyph glyph-name="uni00AD" unicode="&#xad;" horiz-adv-x="375" 
d="M43 339h289v-73h-289v73z" />
    <glyph glyph-name="registered" unicode="&#xae;" horiz-adv-x="803" 
d="M221 34q-82 48 -130 130t-48 179q0 98 48 180t130.5 130t180.5 48q97 0 179.5 -48t130.5 -130t48 -180q0 -97 -48 -179t-130.5 -130t-180.5 -48t-180 48zM548 91q65 38 101 104.5t36 147.5t-36 147.5t-101 105t-147 38.5t-146.5 -38.5t-100.5 -104.5t-36 -148t36 -148
t100.5 -104t146.5 -38t147 38zM219 192h14q15 0 20.5 6.5t5.5 21.5v53v197q0 15 -5.5 21t-20.5 6h-14v59h212q69 0 107.5 -32t38.5 -88q0 -48 -27 -80.5t-77 -39.5l46 -88q19 -36 49 -36h24v-55h-190v55h53l-58 118h-65v-90q0 -16 5 -22t20 -6h15v-55h-153v55zM424 366
q74 0 74 69q0 34 -18 48t-56 14h-84v-131h84z" />
    <glyph glyph-name="macron" unicode="&#xaf;" horiz-adv-x="428" 
d="M43 635h342v-69h-342v69z" />
    <glyph glyph-name="degree" unicode="&#xb0;" horiz-adv-x="346" 
d="M107.5 426.5q-29.5 17.5 -47 47t-17.5 64.5q0 36 17.5 66t47 47.5t64.5 17.5t65.5 -17.5t48 -47.5t17.5 -66q0 -35 -17.5 -64.5t-48 -47t-65.5 -17.5t-64.5 17.5zM217.5 494q17.5 18 17.5 44q0 28 -17.5 46t-45.5 18q-26 0 -44 -18t-18 -46q0 -26 18 -44t44 -18
q28 0 45.5 18z" />
    <glyph glyph-name="plusminus" unicode="&#xb1;" horiz-adv-x="412" 
d="M161 278h-118v73h118v106h88v-106h120v-73h-120v-106h-88v106zM43 102h326v-73h-326v73z" />
    <glyph glyph-name="uni00B2" unicode="&#xb2;" horiz-adv-x="331" 
d="M43 377q0 39 24 64.5t77 56.5q40 23 54 36.5t14 36.5q0 21 -12.5 30.5t-39.5 9.5q-30 0 -50 -11v-28h-67v56q21 15 55.5 24.5t65.5 9.5q57 0 89.5 -23.5t32.5 -66.5q0 -34 -18.5 -55t-70.5 -52q-40 -25 -54.5 -37t-14.5 -28h160v-55h-245v32z" />
    <glyph glyph-name="uni00B3" unicode="&#xb3;" horiz-adv-x="342" 
d="M95.5 346q-32.5 11 -52.5 31v53h66v-29q20 -15 55 -15q31 0 47 11t16 37q0 25 -13 34.5t-44 9.5h-37v50h38q28 0 39.5 10.5t11.5 35.5q0 37 -53 37q-30 0 -54 -13v-28h-66v56q19 15 51 25.5t65 10.5q63 0 95.5 -22.5t32.5 -63.5q0 -23 -9.5 -43t-31.5 -30q47 -17 47 -68
q0 -100 -134 -100q-37 0 -69.5 11z" />
    <glyph glyph-name="acute" unicode="&#xb4;" horiz-adv-x="297" 
d="M129 713h125l-120 -188h-91z" />
    <glyph glyph-name="paragraph" unicode="&#xb6;" horiz-adv-x="658" 
d="M166 -82h27q22 0 30.5 9t8.5 28v351q-90 0 -139.5 45t-49.5 118q0 178 212 178h354v-71h-21q-22 0 -30.5 -9t-8.5 -29v-583q0 -19 8.5 -28t30.5 -9h27v-74h-171v732h-107v-732h-171v74z" />
    <glyph glyph-name="periodcentered" unicode="&#xb7;" horiz-adv-x="179" 
d="M43 351h93v-88h-93v88z" />
    <glyph glyph-name="cedilla" unicode="&#xb8;" horiz-adv-x="297" 
d="M43 -215v62q31 -13 65 -13q57 0 57 36q0 26 -18.5 37t-72.5 11l12 82h95l-7 -46q43 -7 61.5 -28.5t18.5 -58.5q0 -46 -34 -70.5t-102 -24.5q-40 0 -75 13z" />
    <glyph glyph-name="uni00B9" unicode="&#xb9;" horiz-adv-x="280" 
d="M57 399h33q18 0 23 5.5t5 20.5v163l-55 -36l-30 47l91 58h63v-232q0 -16 5 -21t22 -5h33v-54h-190v54z" />
    <glyph glyph-name="ordmasculine" unicode="&#xba;" horiz-adv-x="402" 
d="M83.5 378q-40.5 43 -40.5 120t40.5 120.5t117.5 43.5t117.5 -43.5t40.5 -120.5t-41 -120t-117 -43q-77 0 -117.5 43zM262 418.5q20 25.5 20 79.5q0 55 -20 80.5t-61 25.5q-42 0 -61.5 -25.5t-19.5 -80.5q0 -54 19.5 -79.5t61.5 -25.5q41 0 61 25.5z" />
    <glyph glyph-name="guillemotright" unicode="&#xbb;" horiz-adv-x="599" 
d="M43 163l185 161l-185 162v107l286 -242v-53l-286 -242v107zM270 163l185 161l-185 162v107l286 -242v-53l-286 -242v107z" />
    <glyph glyph-name="onequarter" unicode="&#xbc;" horiz-adv-x="632" 
d="M67 399h33q18 0 23 5.5t5 20.5v163l-55 -36l-30 47l91 58h63v-232q0 -16 5 -21t22 -5h33v-54h-190v54zM483 647h98l-397 -647h-99zM426 47h23q11 0 15 4t4 14v20h-146v47l140 180h74v-177h53v-50h-53v-20q0 -10 4 -14t16 -4h23v-47h-153v47zM475 135v107l-83 -107h83z
" />
    <glyph glyph-name="onehalf" unicode="&#xbd;" horiz-adv-x="677" 
d="M67 399h33q18 0 23 5.5t5 20.5v163l-55 -36l-30 47l91 58h63v-232q0 -16 5 -21t22 -5h33v-54h-190v54zM483 647h98l-397 -647h-99zM389 32q0 39 24 64.5t76 56.5q40 23 54 36.5t14 36.5q0 21 -12.5 30.5t-39.5 9.5q-30 0 -49 -11v-28h-67v56q21 15 55.5 24.5t65.5 9.5
q57 0 89.5 -23.5t32.5 -66.5q0 -34 -18.5 -55t-70.5 -52q-40 -25 -54.5 -37t-14.5 -28h160v-55h-245v32z" />
    <glyph glyph-name="threequarters" unicode="&#xbe;" horiz-adv-x="642" 
d="M95.5 346q-32.5 11 -52.5 31v53h66v-29q20 -15 55 -15q31 0 47 11t16 37q0 25 -13 34.5t-44 9.5h-37v50h38q28 0 39.5 10.5t11.5 35.5q0 37 -53 37q-30 0 -54 -13v-28h-66v56q19 15 51 25.5t65 10.5q63 0 95.5 -22.5t32.5 -63.5q0 -23 -9.5 -43t-31.5 -30q47 -17 47 -68
q0 -100 -134 -100q-37 0 -69.5 11zM492 647h99l-398 -647h-98zM435 47h24q10 0 14.5 4t4.5 14v20h-147v47l141 180h74v-177h53v-50h-53v-20q0 -10 4 -14t15 -4h23v-47h-153v47zM484 135v107l-83 -107h83z" />
    <glyph glyph-name="questiondown" unicode="&#xbf;" horiz-adv-x="535" 
d="M248 495h121v-95h-121v95zM104 -125q-61 42 -61 126q0 45 14 75t44 54t84 53q44 23 57.5 51.5t13.5 78.5v26h105v-30q0 -65 -27.5 -109.5t-92.5 -78.5q-52 -25 -73.5 -50t-21.5 -70q0 -94 128 -94q34 0 66 8.5t56 21.5v58h96v-96q-40 -30 -98 -48t-122 -18
q-107 0 -168 42z" />
    <glyph glyph-name="Agrave" unicode="&#xc0;" horiz-adv-x="719" 
d="M196 880h126l80 -179h-92zM33 73h31q23 0 35.5 8t19.5 28l191 538h101l189 -538q7 -20 20 -28t36 -8h30v-73h-228v73h50l-44 128h-208l-44 -128h50v-73h-229v73zM444 264l-83 244l-85 -244h168z" />
    <glyph glyph-name="Aacute" unicode="&#xc1;" horiz-adv-x="719" 
d="M383 880h125l-114 -179h-91zM33 73h31q23 0 35.5 8t19.5 28l191 538h101l189 -538q7 -20 20 -28t36 -8h30v-73h-228v73h50l-44 128h-208l-44 -128h50v-73h-229v73zM444 264l-83 244l-85 -244h168z" />
    <glyph glyph-name="Acircumflex" unicode="&#xc2;" horiz-adv-x="719" 
d="M310 889h103l125 -188h-100l-77 126l-77 -126h-99zM33 73h31q23 0 35.5 8t19.5 28l191 538h101l189 -538q7 -20 20 -28t36 -8h30v-73h-228v73h50l-44 128h-208l-44 -128h50v-73h-229v73zM444 264l-83 244l-85 -244h168z" />
    <glyph glyph-name="Atilde" unicode="&#xc3;" horiz-adv-x="719" 
d="M192.5 804.5q26.5 33.5 82.5 33.5q26 0 48 -8t47 -23q22 -12 35.5 -17.5t28.5 -5.5q23 0 33.5 12t10.5 42h78q0 -72 -26 -104.5t-81 -32.5q-26 0 -47 8t-46 22q-21 11 -36 17t-31 6q-23 0 -34 -12t-11 -41h-78q0 70 26.5 103.5zM33 73h31q23 0 35.5 8t19.5 28l191 538
h101l189 -538q7 -20 20 -28t36 -8h30v-73h-228v73h50l-44 128h-208l-44 -128h50v-73h-229v73zM444 264l-83 244l-85 -244h168z" />
    <glyph glyph-name="Adieresis" unicode="&#xc4;" horiz-adv-x="719" 
d="M208 816h92v-96h-92v96zM421 816h93v-96h-93v96zM33 73h31q23 0 35.5 8t19.5 28l191 538h101l189 -538q7 -20 20 -28t36 -8h30v-73h-228v73h50l-44 128h-208l-44 -128h50v-73h-229v73zM444 264l-83 244l-85 -244h168z" />
    <glyph glyph-name="Aring" unicode="&#xc5;" horiz-adv-x="719" 
d="M686 73v-73h-228v73h50l-44 128h-208l-44 -128h50v-73h-229v73h31q23 0 35.5 8t19.5 28l181 510q-24 15 -38 40.5t-14 54.5q0 47 33 80.5t80 33.5t80.5 -33.5t33.5 -80.5q0 -30 -14.5 -55.5t-39.5 -40.5l179 -509q7 -20 20 -28t36 -8h30zM323.5 752.5
q-15.5 -15.5 -15.5 -38.5q0 -22 15.5 -37.5t37.5 -15.5q23 0 38 15.5t15 37.5q0 23 -15.5 38.5t-37.5 15.5t-37.5 -15.5zM444 264l-83 244l-85 -244h168z" />
    <glyph glyph-name="AE" unicode="&#xc6;" horiz-adv-x="838" 
d="M33 73h31q23 0 35.5 8t19.5 28l204 538h482v-129h-96v19q0 20 -9 28.5t-29 8.5h-167v-213h167v-74h-167v-214h167q20 0 29 8.5t9 28.5v20h96v-130h-469v73h29q20 0 28.5 9t8.5 29v90h-143l-47 -128h50v-73h-229v73zM402 274v299h-7l-113 -299h120z" />
    <glyph glyph-name="Ccedilla" unicode="&#xc7;" horiz-adv-x="599" 
d="M461 504v64q-45 20 -110 20q-102 0 -158.5 -71t-56.5 -197q0 -123 61.5 -192t169.5 -69q48 0 85.5 9t72.5 31l39 -62q-39 -26 -78.5 -37.5t-90.5 -13.5l-6 -32q43 -7 62 -28.5t19 -58.5q0 -46 -34 -70.5t-102 -24.5q-42 0 -75 13v62q29 -13 65 -13q57 0 57 36
q0 26 -18.5 37t-73.5 11l11 71q-128 18 -197.5 107.5t-69.5 223.5q0 100 35 177t106 121t177 44q71 0 123.5 -13.5t91.5 -42.5v-102h-105z" />
    <glyph glyph-name="Egrave" unicode="&#xc8;" horiz-adv-x="545" 
d="M120 880h126l80 -179h-92zM33 73h29q20 0 28.5 9t8.5 29v426q0 19 -8.5 27.5t-28.5 8.5h-29v74h479v-129h-96v20q0 19 -9 27.5t-29 8.5h-173v-213h173v-74h-173v-214h173q20 0 29 8.5t9 28.5v20h96v-130h-479v73z" />
    <glyph glyph-name="Eacute" unicode="&#xc9;" horiz-adv-x="545" 
d="M285 880h125l-114 -179h-91zM33 73h29q20 0 28.5 9t8.5 29v426q0 19 -8.5 27.5t-28.5 8.5h-29v74h479v-129h-96v20q0 19 -9 27.5t-29 8.5h-173v-213h173v-74h-173v-214h173q20 0 29 8.5t9 28.5v20h96v-130h-479v73z" />
    <glyph glyph-name="Ecircumflex" unicode="&#xca;" horiz-adv-x="545" 
d="M207 889h103l125 -188h-100l-77 126l-77 -126h-99zM33 73h29q20 0 28.5 9t8.5 29v426q0 19 -8.5 27.5t-28.5 8.5h-29v74h479v-129h-96v20q0 19 -9 27.5t-29 8.5h-173v-213h173v-74h-173v-214h173q20 0 29 8.5t9 28.5v20h96v-130h-479v73z" />
    <glyph glyph-name="Edieresis" unicode="&#xcb;" horiz-adv-x="545" 
d="M107 816h92v-96h-92v96zM320 816h93v-96h-93v96zM33 73h29q20 0 28.5 9t8.5 29v426q0 19 -8.5 27.5t-28.5 8.5h-29v74h479v-129h-96v20q0 19 -9 27.5t-29 8.5h-173v-213h173v-74h-173v-214h173q20 0 29 8.5t9 28.5v20h96v-130h-479v73z" />
    <glyph glyph-name="Igrave" unicode="&#xcc;" horiz-adv-x="303" 
d="M-1 880h126l80 -179h-92zM33 73h29q20 0 28.5 9t8.5 29v426q0 19 -8.5 27.5t-28.5 8.5h-29v74h237v-74h-29q-19 0 -27.5 -8.5t-8.5 -27.5v-427q0 -20 8.5 -28.5t27.5 -8.5h29v-73h-237v73z" />
    <glyph glyph-name="Iacute" unicode="&#xcd;" horiz-adv-x="303" 
d="M185 880h125l-114 -179h-91zM33 73h29q20 0 28.5 9t8.5 29v426q0 19 -8.5 27.5t-28.5 8.5h-29v74h237v-74h-29q-19 0 -27.5 -8.5t-8.5 -27.5v-427q0 -20 8.5 -28.5t27.5 -8.5h29v-73h-237v73z" />
    <glyph glyph-name="Icircumflex" unicode="&#xce;" horiz-adv-x="303" 
d="M100 889h103l125 -188h-100l-77 126l-77 -126h-99zM33 73h29q20 0 28.5 9t8.5 29v426q0 19 -8.5 27.5t-28.5 8.5h-29v74h237v-74h-29q-19 0 -27.5 -8.5t-8.5 -27.5v-427q0 -20 8.5 -28.5t27.5 -8.5h29v-73h-237v73z" />
    <glyph glyph-name="Idieresis" unicode="&#xcf;" horiz-adv-x="303" 
d="M-2 826h92v-96h-92v96zM211 826h93v-96h-93v96zM33 73h29q20 0 28.5 9t8.5 29v426q0 19 -8.5 27.5t-28.5 8.5h-29v74h237v-74h-29q-19 0 -27.5 -8.5t-8.5 -27.5v-427q0 -20 8.5 -28.5t27.5 -8.5h29v-73h-237v73z" />
    <glyph glyph-name="Eth" unicode="&#xd0;" horiz-adv-x="628" 
d="M33 72h23q20 0 28.5 9t8.5 29v176h-60v74h60v178q0 19 -8.5 27.5t-28.5 8.5h-23v73h288q139 0 206.5 -85t67.5 -241q0 -146 -69.5 -233.5t-204.5 -87.5h-288v72zM307 72q98 0 141 62t43 187q0 128 -43 191t-141 63h-108v-215h137v-74h-137v-214h108z" />
    <glyph glyph-name="Ntilde" unicode="&#xd1;" horiz-adv-x="691" 
d="M179.5 804.5q26.5 33.5 82.5 33.5q26 0 48 -8t47 -23q22 -12 35.5 -17.5t28.5 -5.5q23 0 33.5 12t10.5 42h78q0 -72 -26 -104.5t-81 -32.5q-26 0 -47 8t-46 22q-21 11 -36 17t-31 6q-23 0 -34 -12t-11 -41h-78q0 70 26.5 103.5zM33 74h29q20 0 28.5 8.5t8.5 27.5v427
q0 19 -8.5 27.5t-28.5 8.5h-29v74h149l305 -473v363q0 19 -9 27.5t-28 8.5h-30v74h238v-74h-30q-19 0 -27.5 -8.5t-8.5 -27.5v-537h-83l-305 472v-362q0 -19 9 -27.5t28 -8.5h29v-74h-237v74z" />
    <glyph glyph-name="Ograve" unicode="&#xd2;" horiz-adv-x="659" 
d="M164 880h126l80 -179h-92zM106 68.5q-73 83.5 -73 252.5q0 171 71.5 256t225.5 85q153 0 224.5 -85t71.5 -256q0 -169 -73 -252.5t-223 -83.5q-151 0 -224 83.5zM475 120q47 61 47 201q0 143 -46.5 205t-145.5 62q-100 0 -146.5 -62t-46.5 -205q0 -140 47 -201t146 -61
q98 0 145 61z" />
    <glyph glyph-name="Oacute" unicode="&#xd3;" horiz-adv-x="659" 
d="M340 880h125l-114 -179h-91zM106 68.5q-73 83.5 -73 252.5q0 171 71.5 256t225.5 85q153 0 224.5 -85t71.5 -256q0 -169 -73 -252.5t-223 -83.5q-151 0 -224 83.5zM475 120q47 61 47 201q0 143 -46.5 205t-145.5 62q-100 0 -146.5 -62t-46.5 -205q0 -140 47 -201t146 -61
q98 0 145 61z" />
    <glyph glyph-name="Ocircumflex" unicode="&#xd4;" horiz-adv-x="659" 
d="M277 889h103l125 -188h-100l-77 126l-77 -126h-99zM106 68.5q-73 83.5 -73 252.5q0 171 71.5 256t225.5 85q153 0 224.5 -85t71.5 -256q0 -169 -73 -252.5t-223 -83.5q-151 0 -224 83.5zM475 120q47 61 47 201q0 143 -46.5 205t-145.5 62q-100 0 -146.5 -62t-46.5 -205
q0 -140 47 -201t146 -61q98 0 145 61z" />
    <glyph glyph-name="Otilde" unicode="&#xd5;" horiz-adv-x="659" 
d="M159.5 804.5q26.5 33.5 82.5 33.5q26 0 48 -8t47 -23q22 -12 35.5 -17.5t28.5 -5.5q23 0 33.5 12t10.5 42h78q0 -72 -26 -104.5t-81 -32.5q-26 0 -47 8t-46 22q-21 11 -36 17t-31 6q-23 0 -34 -12t-11 -41h-78q0 70 26.5 103.5zM106 68.5q-73 83.5 -73 252.5
q0 171 71.5 256t225.5 85q153 0 224.5 -85t71.5 -256q0 -169 -73 -252.5t-223 -83.5q-151 0 -224 83.5zM475 120q47 61 47 201q0 143 -46.5 205t-145.5 62q-100 0 -146.5 -62t-46.5 -205q0 -140 47 -201t146 -61q98 0 145 61z" />
    <glyph glyph-name="Odieresis" unicode="&#xd6;" horiz-adv-x="659" 
d="M176 816h92v-96h-92v96zM389 816h93v-96h-93v96zM106 68.5q-73 83.5 -73 252.5q0 171 71.5 256t225.5 85q153 0 224.5 -85t71.5 -256q0 -169 -73 -252.5t-223 -83.5q-151 0 -224 83.5zM475 120q47 61 47 201q0 143 -46.5 205t-145.5 62q-100 0 -146.5 -62t-46.5 -205
q0 -140 47 -201t146 -61q98 0 145 61z" />
    <glyph glyph-name="multiply" unicode="&#xd7;" horiz-adv-x="367" 
d="M44 226l80 80l-81 82l60 58l80 -81l82 81l59 -58l-81 -82l81 -80l-60 -59l-80 80l-81 -81z" />
    <glyph glyph-name="Oslash" unicode="&#xd8;" horiz-adv-x="659" 
d="M180 14q-75 34 -111 110.5t-36 196.5q0 171 71.5 256t225.5 85q47 0 86 -9l14 36h55l-19 -50q82 -33 121 -112t39 -206q0 -169 -73 -252.5t-223 -83.5q-57 0 -102 12l-14 -40h-55zM390 581q-32 7 -60 7q-100 0 -146.5 -62t-46.5 -205q0 -86 18 -141t55 -84zM475 120
q47 61 47 201q0 96 -21 154.5t-64 85.5l-182 -491q30 -11 75 -11q98 0 145 61z" />
    <glyph glyph-name="Ugrave" unicode="&#xd9;" horiz-adv-x="661" 
d="M159 880h126l80 -179h-92zM145 38q-62 53 -62 144v357q0 19 -8.5 27.5t-28.5 8.5h-23v72h221v-72h-19q-19 0 -27.5 -9t-8.5 -29v-361q0 -60 35.5 -89t105.5 -29q141 0 141 118v361q0 20 -8.5 29t-28.5 9h-19v72h223v-72h-24q-19 0 -28 -8.5t-9 -27.5v-357q0 -91 -62 -144
t-185 -53t-185 53z" />
    <glyph glyph-name="Uacute" unicode="&#xda;" horiz-adv-x="661" 
d="M339 880h125l-114 -179h-91zM145 38q-62 53 -62 144v357q0 19 -8.5 27.5t-28.5 8.5h-23v72h221v-72h-19q-19 0 -27.5 -9t-8.5 -29v-361q0 -60 35.5 -89t105.5 -29q141 0 141 118v361q0 20 -8.5 29t-28.5 9h-19v72h223v-72h-24q-19 0 -28 -8.5t-9 -27.5v-357
q0 -91 -62 -144t-185 -53t-185 53z" />
    <glyph glyph-name="Ucircumflex" unicode="&#xdb;" horiz-adv-x="661" 
d="M279 889h103l125 -188h-100l-77 126l-77 -126h-99zM145 38q-62 53 -62 144v357q0 19 -8.5 27.5t-28.5 8.5h-23v72h221v-72h-19q-19 0 -27.5 -9t-8.5 -29v-361q0 -60 35.5 -89t105.5 -29q141 0 141 118v361q0 20 -8.5 29t-28.5 9h-19v72h223v-72h-24q-19 0 -28 -8.5
t-9 -27.5v-357q0 -91 -62 -144t-185 -53t-185 53z" />
    <glyph glyph-name="Udieresis" unicode="&#xdc;" horiz-adv-x="662" 
d="M178 816h92v-96h-92v96zM391 816h93v-96h-93v96zM145 38q-62 53 -62 144v357q0 19 -8.5 27.5t-28.5 8.5h-23v72h221v-72h-19q-19 0 -27.5 -9t-8.5 -29v-361q0 -60 35.5 -89t105.5 -29q141 0 141 118v361q0 20 -8.5 29t-28.5 9h-19v72h223v-72h-24q-19 0 -28 -8.5
t-9 -27.5v-357q0 -91 -62 -144t-185 -53t-185 53z" />
    <glyph glyph-name="Yacute" unicode="&#xdd;" horiz-adv-x="666" 
d="M356 880h125l-114 -179h-91zM221 72h23q20 0 28.5 9t8.5 28v128l-162 298q-13 23 -26 31.5t-37 8.5h-23v72h218v-72h-14q-22 0 -22 -13q0 -9 8 -23l111 -215l110 215q7 13 7 23q0 13 -21 13h-15v72h218v-72h-23q-24 0 -37 -8.5t-26 -31.5l-161 -298v-128q0 -19 9 -28
t28 -9h23v-72h-225v72z" />
    <glyph glyph-name="Thorn" unicode="&#xde;" horiz-adv-x="621" 
d="M33 73h27q19 0 27.5 8t10 20t1.5 38v398q0 19 -8.5 28t-30.5 9h-27v73h172v-105h156q115 0 171 -48.5t56 -150.5q0 -95 -55.5 -150.5t-157.5 -55.5h-170v-28q0 -19 8.5 -27.5t30.5 -8.5h26v-73h-237v73zM361 211q63 0 93.5 32t30.5 100q0 69 -29 97t-95 28h-156v-257h156
z" />
    <glyph glyph-name="germandbls" unicode="&#xdf;" horiz-adv-x="637" 
d="M260 20l35 61q25 -13 49 -18.5t53 -5.5q49 0 76 32t27 99q0 65 -29 96.5t-97 31.5h-58v70h51q118 0 118 130q0 122 -141 122q-139 0 -139 -132v-506h-172v73h29q20 0 28.5 9t8.5 29v388q0 98 60.5 155.5t182.5 57.5t184.5 -53.5t62.5 -142.5q0 -54 -22.5 -99.5
t-66.5 -63.5q56 -20 80 -62t24 -104q0 -93 -51 -147.5t-150 -54.5q-86 0 -143 35z" />
    <glyph glyph-name="agrave" unicode="&#xe0;" horiz-adv-x="523" 
d="M88 705h126l80 -179h-92zM64.5 20q-41.5 35 -41.5 99q0 72 45.5 105.5t131.5 39.5l140 9v61q0 47 -20 68t-68 21q-33 0 -54.5 -5.5t-39.5 -17.5v-36h-93v79q84 52 189 52q192 0 192 -170v-219q0 -20 7.5 -29t24.5 -9h22v-68h-115l-13 63q-32 -41 -74.5 -59.5
t-111.5 -18.5q-80 0 -121.5 35zM305 83q35 26 35 79v48l-132 -10q-49 -3 -68 -20.5t-19 -55.5q0 -33 21 -50t68 -17q60 0 95 26z" />
    <glyph glyph-name="aacute" unicode="&#xe1;" horiz-adv-x="523" 
d="M263 705h125l-114 -179h-91zM64.5 20q-41.5 35 -41.5 99q0 72 45.5 105.5t131.5 39.5l140 9v61q0 47 -20 68t-68 21q-33 0 -54.5 -5.5t-39.5 -17.5v-36h-93v79q84 52 189 52q192 0 192 -170v-219q0 -20 7.5 -29t24.5 -9h22v-68h-115l-13 63q-32 -41 -74.5 -59.5
t-111.5 -18.5q-80 0 -121.5 35zM305 83q35 26 35 79v48l-132 -10q-49 -3 -68 -20.5t-19 -55.5q0 -33 21 -50t68 -17q60 0 95 26z" />
    <glyph glyph-name="acircumflex" unicode="&#xe2;" horiz-adv-x="523" 
d="M184 713h103l125 -188h-100l-77 126l-77 -126h-99zM64.5 20q-41.5 35 -41.5 99q0 72 45.5 105.5t131.5 39.5l140 9v61q0 47 -20 68t-68 21q-33 0 -54.5 -5.5t-39.5 -17.5v-36h-93v79q84 52 189 52q192 0 192 -170v-219q0 -20 7.5 -29t24.5 -9h22v-68h-115l-13 63
q-32 -41 -74.5 -59.5t-111.5 -18.5q-80 0 -121.5 35zM305 83q35 26 35 79v48l-132 -10q-49 -3 -68 -20.5t-19 -55.5q0 -33 21 -50t68 -17q60 0 95 26z" />
    <glyph glyph-name="atilde" unicode="&#xe3;" horiz-adv-x="523" 
d="M80.5 629.5q26.5 33.5 82.5 33.5q26 0 48 -8t47 -23q22 -12 35.5 -17.5t28.5 -5.5q23 0 33.5 12t10.5 42h78q0 -72 -26 -104.5t-81 -32.5q-26 0 -47 8t-46 22q-21 11 -36 17t-31 6q-23 0 -34 -12t-11 -41h-78q0 70 26.5 103.5zM64.5 20q-41.5 35 -41.5 99
q0 72 45.5 105.5t131.5 39.5l140 9v61q0 47 -20 68t-68 21q-33 0 -54.5 -5.5t-39.5 -17.5v-36h-93v79q84 52 189 52q192 0 192 -170v-219q0 -20 7.5 -29t24.5 -9h22v-68h-115l-13 63q-32 -41 -74.5 -59.5t-111.5 -18.5q-80 0 -121.5 35zM305 83q35 26 35 79v48l-132 -10
q-49 -3 -68 -20.5t-19 -55.5q0 -33 21 -50t68 -17q60 0 95 26z" />
    <glyph glyph-name="adieresis" unicode="&#xe4;" horiz-adv-x="523" 
d="M88 641h92v-96h-92v96zM301 641h93v-96h-93v96zM64.5 20q-41.5 35 -41.5 99q0 72 45.5 105.5t131.5 39.5l140 9v61q0 47 -20 68t-68 21q-33 0 -54.5 -5.5t-39.5 -17.5v-36h-93v79q84 52 189 52q192 0 192 -170v-219q0 -20 7.5 -29t24.5 -9h22v-68h-115l-13 63
q-32 -41 -74.5 -59.5t-111.5 -18.5q-80 0 -121.5 35zM305 83q35 26 35 79v48l-132 -10q-49 -3 -68 -20.5t-19 -55.5q0 -33 21 -50t68 -17q60 0 95 26z" />
    <glyph glyph-name="aring" unicode="&#xe5;" horiz-adv-x="523" 
d="M164 558q-33 33 -33 80t33 80.5t80 33.5t80.5 -33.5t33.5 -80.5t-33.5 -80t-80.5 -33t-80 33zM282 600.5q15 15.5 15 37.5q0 23 -15.5 38.5t-37.5 15.5t-37.5 -15.5t-15.5 -38.5q0 -22 15.5 -37.5t37.5 -15.5q23 0 38 15.5zM64.5 20q-41.5 35 -41.5 99q0 72 45.5 105.5
t131.5 39.5l140 9v61q0 47 -20 68t-68 21q-33 0 -54.5 -5.5t-39.5 -17.5v-36h-93v79q84 52 189 52q192 0 192 -170v-219q0 -20 7.5 -29t24.5 -9h22v-68h-115l-13 63q-32 -41 -74.5 -59.5t-111.5 -18.5q-80 0 -121.5 35zM305 83q35 26 35 79v48l-132 -10q-49 -3 -68 -20.5
t-19 -55.5q0 -33 21 -50t68 -17q60 0 95 26z" />
    <glyph glyph-name="ae" unicode="&#xe6;" horiz-adv-x="846" 
d="M64.5 20q-41.5 35 -41.5 99q0 72 45.5 105.5t131.5 39.5l140 9v61q0 47 -20 68t-68 21q-30 0 -52 -5.5t-42 -17.5v-36h-93v79q84 52 187 52q61 0 97 -19t58 -59q28 39 75 58.5t105 19.5q113 0 169.5 -62.5t56.5 -174.5v-46h-364q0 -78 42 -118t104 -40q37 0 63 6t48 18
v37h90v-70q-39 -31 -87 -45.5t-115 -14.5q-65 0 -114 24.5t-77 72.5q-29 -50 -85.5 -73.5t-131.5 -23.5q-80 0 -121.5 35zM713 277q0 77 -31 111.5t-96 34.5q-67 0 -102 -37t-35 -109h264zM305 83.5q35 26.5 35 79.5v48l-132 -10q-49 -3 -68 -20.5t-19 -55.5q0 -33 21 -50.5
t68 -17.5q60 0 95 26.5z" />
    <glyph glyph-name="ccedilla" unicode="&#xe7;" horiz-adv-x="516" 
d="M393 -74.5q19 -21.5 19 -58.5q0 -46 -34 -70.5t-102 -24.5q-42 0 -75 13v62q29 -13 65 -13q57 0 57 36q0 26 -18.5 37t-73.5 11l11 70q-93 14 -151 78.5t-58 169.5q0 126 67.5 192.5t186.5 66.5q65 0 109 -14t85 -45v-96h-93v55q-23 12 -45 17.5t-56 5.5
q-67 0 -108.5 -44.5t-41.5 -137.5q0 -88 47.5 -130.5t121.5 -42.5q46 0 78.5 8t61.5 27l37 -61q-34 -23 -68 -35t-78 -15l-6 -33q43 -7 62 -28.5z" />
    <glyph glyph-name="egrave" unicode="&#xe8;" horiz-adv-x="539" 
d="M128 705h126l80 -179h-92zM101.5 48.5q-68.5 63.5 -68.5 185.5q0 130 63.5 195.5t180.5 65.5q113 0 171 -64t58 -173v-46h-367q0 -81 39.5 -119.5t106.5 -38.5q38 0 64 5.5t47 18.5v36h93v-70q-42 -30 -90.5 -44.5t-114.5 -14.5q-114 0 -182.5 63.5zM403 277
q0 146 -127 146q-67 0 -102 -39t-35 -107h264z" />
    <glyph glyph-name="eacute" unicode="&#xe9;" horiz-adv-x="539" 
d="M282 705h125l-114 -179h-91zM101.5 48.5q-68.5 63.5 -68.5 185.5q0 130 63.5 195.5t180.5 65.5q113 0 171 -64t58 -173v-46h-367q0 -81 39.5 -119.5t106.5 -38.5q38 0 64 5.5t47 18.5v36h93v-70q-42 -30 -90.5 -44.5t-114.5 -14.5q-114 0 -182.5 63.5zM403 277
q0 146 -127 146q-67 0 -102 -39t-35 -107h264z" />
    <glyph glyph-name="ecircumflex" unicode="&#xea;" horiz-adv-x="539" 
d="M214 713h103l125 -188h-100l-77 126l-77 -126h-99zM101.5 48.5q-68.5 63.5 -68.5 185.5q0 130 63.5 195.5t180.5 65.5q113 0 171 -64t58 -173v-46h-367q0 -81 39.5 -119.5t106.5 -38.5q38 0 64 5.5t47 18.5v36h93v-70q-42 -30 -90.5 -44.5t-114.5 -14.5
q-114 0 -182.5 63.5zM403 277q0 146 -127 146q-67 0 -102 -39t-35 -107h264z" />
    <glyph glyph-name="edieresis" unicode="&#xeb;" horiz-adv-x="539" 
d="M112 633h92v-96h-92v96zM325 633h93v-96h-93v96zM101.5 48.5q-68.5 63.5 -68.5 185.5q0 130 63.5 195.5t180.5 65.5q113 0 171 -64t58 -173v-46h-367q0 -81 39.5 -119.5t106.5 -38.5q38 0 64 5.5t47 18.5v36h93v-70q-42 -30 -90.5 -44.5t-114.5 -14.5q-114 0 -182.5 63.5
zM403 277q0 146 -127 146q-67 0 -102 -39t-35 -107h264z" />
    <glyph glyph-name="igrave" unicode="&#xec;" horiz-adv-x="285" 
d="M-16 705h126l80 -179h-92zM23 74h29q20 0 28.5 9t8.5 29v257q0 19 -8.5 27.5t-28.5 8.5h-29v75h173v-369q0 -19 9 -28t28 -9h29v-74h-239v74z" />
    <glyph glyph-name="iacute" unicode="&#xed;" horiz-adv-x="285" 
d="M157 705h125l-114 -179h-91zM23 74h29q20 0 28.5 9t8.5 29v257q0 19 -8.5 27.5t-28.5 8.5h-29v75h173v-369q0 -19 9 -28t28 -9h29v-74h-239v74z" />
    <glyph glyph-name="icircumflex" unicode="&#xee;" horiz-adv-x="285" 
d="M73 714h103l125 -188h-100l-77 126l-77 -126h-99zM23 74h29q20 0 28.5 9t8.5 29v257q0 19 -8.5 27.5t-28.5 8.5h-29v75h173v-369q0 -19 9 -28t28 -9h29v-74h-239v74z" />
    <glyph glyph-name="idieresis" unicode="&#xef;" horiz-adv-x="285" 
d="M-36 641h92v-96h-92v96zM177 641h93v-96h-93v96zM23 74h29q20 0 28.5 9t8.5 29v257q0 19 -8.5 27.5t-28.5 8.5h-29v75h173v-369q0 -19 9 -28t28 -9h29v-74h-239v74z" />
    <glyph glyph-name="eth" unicode="&#xf0;" horiz-adv-x="578" 
d="M93.5 37.5q-60.5 52.5 -60.5 161.5q0 82 32.5 143t93 94t141.5 33q45 0 80.5 -16.5t59.5 -48.5q-5 104 -41 146l-97 -54l-7 47l63 35q-19 10 -56 10q-68 0 -134 -35l-32 66q73 43 184 43q76 0 125 -34l76 44l7 -48l-47 -27q63 -73 63 -224q0 -190 -71.5 -289t-211.5 -99
q-107 0 -167.5 52.5zM379 107.5q42 48.5 49 148.5q5 69 -30 103.5t-93 34.5q-76 0 -116.5 -39t-49.5 -115q-3 -25 -3 -48q0 -10 2 -30q6 -52 35.5 -77.5t92.5 -25.5q71 0 113 48.5z" />
    <glyph glyph-name="ntilde" unicode="&#xf1;" horiz-adv-x="603" 
d="M119.5 629.5q26.5 33.5 82.5 33.5q26 0 48 -8t47 -23q22 -12 35.5 -17.5t28.5 -5.5q23 0 33.5 12t10.5 42h78q0 -72 -26 -104.5t-81 -32.5q-26 0 -47 8t-46 22q-21 11 -36 17t-31 6q-23 0 -34 -12t-11 -41h-78q0 70 26.5 103.5zM33 74h25q20 0 28.5 8.5t8.5 28.5v257
q0 20 -8 28.5t-28 8.5h-21v75h128l6 -67q34 43 77.5 62.5t105.5 19.5q160 0 160 -166v-218q0 -20 8.5 -28.5t28.5 -8.5h28v-74h-172v328q0 50 -21 72.5t-68 22.5q-51 0 -84 -29t-33 -81v-202q0 -20 7.5 -28.5t26.5 -8.5h26v-74h-229v74z" />
    <glyph glyph-name="ograve" unicode="&#xf2;" horiz-adv-x="558" 
d="M126 705h126l80 -179h-92zM95 52q-62 67 -62 187q0 121 61.5 188.5t184.5 67.5t184.5 -67.5t61.5 -188.5q0 -120 -62 -187t-184 -67t-184 67zM386 104q35 44 35 135q0 92 -35 136.5t-107 44.5t-106.5 -44.5t-34.5 -136.5q0 -91 34.5 -135t106.5 -44t107 44z" />
    <glyph glyph-name="oacute" unicode="&#xf3;" horiz-adv-x="558" 
d="M292 705h125l-114 -179h-91zM95 52q-62 67 -62 187q0 121 61.5 188.5t184.5 67.5t184.5 -67.5t61.5 -188.5q0 -120 -62 -187t-184 -67t-184 67zM386 104q35 44 35 135q0 92 -35 136.5t-107 44.5t-106.5 -44.5t-34.5 -136.5q0 -91 34.5 -135t106.5 -44t107 44z" />
    <glyph glyph-name="ocircumflex" unicode="&#xf4;" horiz-adv-x="558" 
d="M216 713h103l125 -188h-100l-77 126l-77 -126h-99zM95 52q-62 67 -62 187q0 121 61.5 188.5t184.5 67.5t184.5 -67.5t61.5 -188.5q0 -120 -62 -187t-184 -67t-184 67zM386 104q35 44 35 135q0 92 -35 136.5t-107 44.5t-106.5 -44.5t-34.5 -136.5q0 -91 34.5 -135
t106.5 -44t107 44z" />
    <glyph glyph-name="otilde" unicode="&#xf5;" horiz-adv-x="558" 
d="M99.5 629.5q26.5 33.5 82.5 33.5q26 0 48 -8t47 -23q22 -12 35.5 -17.5t28.5 -5.5q23 0 33.5 12t10.5 42h78q0 -72 -26 -104.5t-81 -32.5q-26 0 -47 8t-46 22q-21 11 -36 17t-31 6q-23 0 -34 -12t-11 -41h-78q0 70 26.5 103.5zM95 52q-62 67 -62 187q0 121 61.5 188.5
t184.5 67.5t184.5 -67.5t61.5 -188.5q0 -120 -62 -187t-184 -67t-184 67zM386 104q35 44 35 135q0 92 -35 136.5t-107 44.5t-106.5 -44.5t-34.5 -136.5q0 -91 34.5 -135t106.5 -44t107 44z" />
    <glyph glyph-name="odieresis" unicode="&#xf6;" horiz-adv-x="558" 
d="M115 641h92v-96h-92v96zM328 641h93v-96h-93v96zM95 52q-62 67 -62 187q0 121 61.5 188.5t184.5 67.5t184.5 -67.5t61.5 -188.5q0 -120 -62 -187t-184 -67t-184 67zM386 104q35 44 35 135q0 92 -35 136.5t-107 44.5t-106.5 -44.5t-34.5 -136.5q0 -91 34.5 -135t106.5 -44
t107 44z" />
    <glyph glyph-name="divide" unicode="&#xf7;" horiz-adv-x="412" 
d="M166 462h79v-76h-79v76zM43 343h326v-73h-326v73zM166 227h79v-76h-79v76z" />
    <glyph glyph-name="oslash" unicode="&#xf8;" horiz-adv-x="558" 
d="M168 3q-67 26 -101 86.5t-34 149.5q0 121 61.5 188.5t184.5 67.5q25 0 65 -6l17 46h54l-22 -60q66 -27 99 -87t33 -149q0 -120 -62 -187t-184 -67q-29 0 -62 5l-15 -42h-55zM318 416q-24 4 -39 4q-72 0 -106.5 -44.5t-34.5 -136.5q0 -113 59 -154zM386 104q35 44 35 135
q0 110 -58 153l-120 -329q17 -3 36 -3q72 0 107 44z" />
    <glyph glyph-name="ugrave" unicode="&#xf9;" horiz-adv-x="588" 
d="M116 705h126l80 -179h-92zM130 28q-42 43 -42 123v218q0 19 -8.5 28t-27.5 9h-29v74h172v-328q0 -97 94 -97q51 0 82 30t31 86v198q0 19 -7.5 28t-25.5 9h-28v74h167v-369q0 -19 9 -27.5t28 -8.5h20v-75h-127l-6 65q-32 -42 -74.5 -61t-103.5 -19q-82 0 -124 43z" />
    <glyph glyph-name="uacute" unicode="&#xfa;" horiz-adv-x="588" 
d="M294 705h125l-114 -179h-91zM130 28q-42 43 -42 123v218q0 19 -8.5 28t-27.5 9h-29v74h172v-328q0 -97 94 -97q51 0 82 30t31 86v198q0 19 -7.5 28t-25.5 9h-28v74h167v-369q0 -19 9 -27.5t28 -8.5h20v-75h-127l-6 65q-32 -42 -74.5 -61t-103.5 -19q-82 0 -124 43z" />
    <glyph glyph-name="ucircumflex" unicode="&#xfb;" horiz-adv-x="588" 
d="M218 713h103l125 -188h-100l-77 126l-77 -126h-99zM130 28q-42 43 -42 123v218q0 19 -8.5 28t-27.5 9h-29v74h172v-328q0 -97 94 -97q51 0 82 30t31 86v198q0 19 -7.5 28t-25.5 9h-28v74h167v-369q0 -19 9 -27.5t28 -8.5h20v-75h-127l-6 65q-32 -42 -74.5 -61t-103.5 -19
q-82 0 -124 43z" />
    <glyph glyph-name="udieresis" unicode="&#xfc;" horiz-adv-x="588" 
d="M116 641h92v-96h-92v96zM329 641h93v-96h-93v96zM130 28q-42 43 -42 123v218q0 19 -8.5 28t-27.5 9h-29v74h172v-328q0 -97 94 -97q51 0 82 30t31 86v198q0 19 -7.5 28t-25.5 9h-28v74h167v-369q0 -19 9 -27.5t28 -8.5h20v-75h-127l-6 65q-32 -42 -74.5 -61t-103.5 -19
q-82 0 -124 43z" />
    <glyph glyph-name="yacute" unicode="&#xfd;" horiz-adv-x="566" 
d="M289 705h125l-114 -179h-91zM117 -131v72h93v-36q33 -36 97 -36q52 0 78.5 30t26.5 88v71q-28 -28 -62 -40.5t-79 -12.5q-86 0 -134 44.5t-48 125.5v194q0 19 -9 28t-28 9h-29v74h172v-308q0 -98 97 -98q52 0 83 29.5t31 85.5v180q0 20 -7.5 28.5t-26.5 8.5h-26v74h167
v-471q0 -95 -54.5 -152t-147.5 -57q-122 0 -194 69z" />
    <glyph glyph-name="thorn" unicode="&#xfe;" horiz-adv-x="598" 
d="M33 -136h17q23 0 31.5 10.5t8.5 34.5v641q0 39 -36 39h-21v73h153v-247q29 41 69 60.5t97 19.5q100 0 156.5 -65t56.5 -185q0 -124 -55 -192t-157 -68q-54 0 -90.5 16t-69.5 55v-147q0 -24 8.5 -34.5t31.5 -10.5h17v-72h-217v72zM429.5 105.5q31.5 42.5 31.5 138.5
q0 93 -30 133.5t-100 40.5q-63 0 -99 -41.5t-36 -110.5v-56q0 -71 36 -109t95 -38q71 0 102.5 42.5z" />
    <glyph glyph-name="ydieresis" unicode="&#xff;" horiz-adv-x="566" 
d="M119 641h92v-96h-92v96zM332 641h93v-96h-93v96zM117 -131v72h93v-36q33 -36 97 -36q52 0 78.5 30t26.5 88v71q-28 -28 -62 -40.5t-79 -12.5q-86 0 -134 44.5t-48 125.5v194q0 19 -9 28t-28 9h-29v74h172v-308q0 -98 97 -98q52 0 83 29.5t31 85.5v180q0 20 -7.5 28.5
t-26.5 8.5h-26v74h167v-471q0 -95 -54.5 -152t-147.5 -57q-122 0 -194 69z" />
    <glyph glyph-name="Amacron" unicode="&#x100;" horiz-adv-x="719" 
d="M217 790h289v-69h-289v69zM33 73h31q23 0 35.5 8t19.5 28l191 538h101l189 -538q7 -20 20 -28t36 -8h30v-73h-228v73h50l-44 128h-208l-44 -128h50v-73h-229v73zM444 264l-83 244l-85 -244h168z" />
    <glyph glyph-name="amacron" unicode="&#x101;" horiz-adv-x="523" 
d="M99 615h289v-69h-289v69zM64.5 20q-41.5 35 -41.5 99q0 72 45.5 105.5t131.5 39.5l140 9v61q0 47 -20 68t-68 21q-33 0 -54.5 -5.5t-39.5 -17.5v-36h-93v79q84 52 189 52q192 0 192 -170v-219q0 -20 7.5 -29t24.5 -9h22v-68h-115l-13 63q-32 -41 -74.5 -59.5
t-111.5 -18.5q-80 0 -121.5 35zM305 83q35 26 35 79v48l-132 -10q-49 -3 -68 -20.5t-19 -55.5q0 -33 21 -50t68 -17q60 0 95 26z" />
    <glyph glyph-name="Abreve" unicode="&#x102;" horiz-adv-x="719" 
d="M245 740q-43 39 -43 104h87q0 -36 19 -55.5t53 -19.5q35 0 53.5 19.5t18.5 55.5h87q0 -65 -43 -104t-116 -39t-116 39zM33 73h31q23 0 35.5 8t19.5 28l191 538h101l189 -538q7 -20 20 -28t36 -8h30v-73h-228v73h50l-44 128h-208l-44 -128h50v-73h-229v73zM444 264
l-83 244l-85 -244h168z" />
    <glyph glyph-name="abreve" unicode="&#x103;" horiz-adv-x="523" 
d="M140 565q-43 39 -43 104h87q0 -36 19 -55.5t53 -19.5q35 0 53.5 19.5t18.5 55.5h87q0 -65 -43 -104t-116 -39t-116 39zM64.5 20q-41.5 35 -41.5 99q0 72 45.5 105.5t131.5 39.5l140 9v61q0 47 -20 68t-68 21q-33 0 -54.5 -5.5t-39.5 -17.5v-36h-93v79q84 52 189 52
q192 0 192 -170v-219q0 -20 7.5 -29t24.5 -9h22v-68h-115l-13 63q-32 -41 -74.5 -59.5t-111.5 -18.5q-80 0 -121.5 35zM305 83q35 26 35 79v48l-132 -10q-49 -3 -68 -20.5t-19 -55.5q0 -33 21 -50t68 -17q60 0 95 26z" />
    <glyph glyph-name="Aogonek" unicode="&#x104;" horiz-adv-x="719" 
d="M568.5 -43q-12.5 -22 -12.5 -48q0 -46 37 -46q20 0 42 8v-62q-25 -18 -66 -18q-46 0 -74 24.5t-28 73.5q0 32 13.5 61t37.5 50h-60v73h50l-44 128h-208l-44 -128h50v-73h-229v73h31q23 0 35.5 8t19.5 28l191 538h101l189 -538q7 -20 20 -28t36 -8h30v-73h-80
q-25 -21 -37.5 -43zM444 264l-83 244l-85 -244h168z" />
    <glyph glyph-name="aogonek" unicode="&#x105;" horiz-adv-x="523" 
d="M418.5 -43q-12.5 -22 -12.5 -48q0 -46 37 -46q20 0 42 8v-62q-25 -18 -66 -18q-46 0 -74 24.5t-28 73.5q0 32 13.5 61t37.5 50h17l-13 63q-32 -41 -74.5 -59.5t-111.5 -18.5q-80 0 -121.5 35t-41.5 99q0 72 45.5 105.5t131.5 39.5l140 9v61q0 47 -20 68t-68 21
q-33 0 -54.5 -5.5t-39.5 -17.5v-36h-93v79q84 52 189 52q192 0 192 -170v-219q0 -20 7.5 -29t24.5 -9h22v-68h-44q-25 -21 -37.5 -43zM340 210l-132 -10q-49 -3 -68 -20.5t-19 -55.5q0 -33 21 -50t68 -17q60 0 95 26t35 79v48z" />
    <glyph glyph-name="Cacute" unicode="&#x106;" horiz-adv-x="599" 
d="M365 880h125l-114 -179h-91zM183.5 27.5q-74.5 42.5 -112.5 118t-38 174.5q0 100 35 177t106 121t177 44q71 0 123.5 -13.5t91.5 -42.5v-102h-105v64q-45 20 -110 20q-102 0 -158.5 -71t-56.5 -197q0 -123 61.5 -192t169.5 -69q48 0 85.5 9t72.5 31l39 -62
q-44 -29 -90.5 -40.5t-110.5 -11.5q-105 0 -179.5 42.5z" />
    <glyph glyph-name="cacute" unicode="&#x107;" horiz-adv-x="516" 
d="M291 705h125l-114 -179h-91zM159.5 14q-58.5 29 -92.5 86t-34 136q0 126 67.5 192.5t186.5 66.5q65 0 109 -14t85 -45v-96h-93v55q-23 13 -44 18t-57 5q-67 0 -108.5 -44.5t-41.5 -137.5q0 -88 47.5 -130.5t121.5 -42.5q46 0 78.5 8t61.5 27l37 -61q-42 -29 -85.5 -40.5
t-107.5 -11.5q-72 0 -130.5 29z" />
    <glyph glyph-name="Ccircumflex" unicode="&#x108;" horiz-adv-x="599" 
d="M289 889h103l125 -188h-100l-77 126l-77 -126h-99zM183.5 27.5q-74.5 42.5 -112.5 118t-38 174.5q0 100 35 177t106 121t177 44q71 0 123.5 -13.5t91.5 -42.5v-102h-105v64q-45 20 -110 20q-102 0 -158.5 -71t-56.5 -197q0 -123 61.5 -192t169.5 -69q48 0 85.5 9t72.5 31
l39 -62q-44 -29 -90.5 -40.5t-110.5 -11.5q-105 0 -179.5 42.5z" />
    <glyph glyph-name="ccircumflex" unicode="&#x109;" horiz-adv-x="516" 
d="M220 713h103l125 -188h-100l-77 126l-77 -126h-99zM159.5 14q-58.5 29 -92.5 86t-34 136q0 126 67.5 192.5t186.5 66.5q65 0 109 -14t85 -45v-96h-93v55q-23 13 -44 18t-57 5q-67 0 -108.5 -44.5t-41.5 -137.5q0 -88 47.5 -130.5t121.5 -42.5q46 0 78.5 8t61.5 27l37 -61
q-42 -29 -85.5 -40.5t-107.5 -11.5q-72 0 -130.5 29z" />
    <glyph glyph-name="Cdotaccent" unicode="&#x10a;" horiz-adv-x="599" 
d="M300 816h92v-96h-92v96zM183.5 27.5q-74.5 42.5 -112.5 118t-38 174.5q0 100 35 177t106 121t177 44q71 0 123.5 -13.5t91.5 -42.5v-102h-105v64q-45 20 -110 20q-102 0 -158.5 -71t-56.5 -197q0 -123 61.5 -192t169.5 -69q48 0 85.5 9t72.5 31l39 -62
q-44 -29 -90.5 -40.5t-110.5 -11.5q-105 0 -179.5 42.5z" />
    <glyph glyph-name="cdotaccent" unicode="&#x10b;" horiz-adv-x="516" 
d="M233 648h92v-96h-92v96zM159.5 14q-58.5 29 -92.5 86t-34 136q0 126 67.5 192.5t186.5 66.5q65 0 109 -14t85 -45v-96h-93v55q-23 13 -44 18t-57 5q-67 0 -108.5 -44.5t-41.5 -137.5q0 -88 47.5 -130.5t121.5 -42.5q46 0 78.5 8t61.5 27l37 -61q-42 -29 -85.5 -40.5
t-107.5 -11.5q-72 0 -130.5 29z" />
    <glyph glyph-name="Ccaron" unicode="&#x10c;" horiz-adv-x="599" 
d="M162 889h99l77 -126l77 126h100l-125 -188h-103zM183.5 27.5q-74.5 42.5 -112.5 118t-38 174.5q0 100 35 177t106 121t177 44q71 0 123.5 -13.5t91.5 -42.5v-102h-105v64q-45 20 -110 20q-102 0 -158.5 -71t-56.5 -197q0 -123 61.5 -192t169.5 -69q48 0 85.5 9t72.5 31
l39 -62q-44 -29 -90.5 -40.5t-110.5 -11.5q-105 0 -179.5 42.5z" />
    <glyph glyph-name="ccaron" unicode="&#x10d;" horiz-adv-x="516" 
d="M103 713h99l77 -126l77 126h100l-125 -188h-103zM159.5 14q-58.5 29 -92.5 86t-34 136q0 126 67.5 192.5t186.5 66.5q65 0 109 -14t85 -45v-96h-93v55q-23 13 -44 18t-57 5q-67 0 -108.5 -44.5t-41.5 -137.5q0 -88 47.5 -130.5t121.5 -42.5q46 0 78.5 8t61.5 27l37 -61
q-42 -29 -85.5 -40.5t-107.5 -11.5q-72 0 -130.5 29z" />
    <glyph glyph-name="Dcaron" unicode="&#x10e;" horiz-adv-x="628" 
d="M80 889h99l77 -126l77 126h100l-125 -188h-103zM33 72h23q20 0 28.5 9t8.5 29v428q0 19 -8.5 27.5t-28.5 8.5h-23v73h288q139 0 206.5 -85t67.5 -241q0 -146 -69.5 -233.5t-204.5 -87.5h-288v72zM307 72q98 0 141 62t43 187q0 128 -43 191t-141 63h-108v-503h108z" />
    <glyph glyph-name="dcaron" unicode="&#x10f;" horiz-adv-x="737" 
d="M601 721h123l-80 -200h-90zM88.5 49q-55.5 64 -55.5 183q0 125 55 194t159 69q61 0 97.5 -15t60.5 -50v115q0 24 -8 34t-31 10h-17v73h159v-555q0 -22 7 -30.5t26 -8.5h20v-68h-134l-9 70q-30 -45 -71 -65t-104 -20q-99 0 -154.5 64zM367 104.5q36 41.5 36 111.5v51
q0 73 -34.5 112t-97.5 39q-71 0 -102.5 -44t-31.5 -141q0 -92 30 -131t100 -39q64 0 100 41.5z" />
    <glyph glyph-name="Dcroat" unicode="&#x110;" horiz-adv-x="628" 
d="M33 72h23q20 0 28.5 9t8.5 29v176h-60v74h60v178q0 19 -8.5 27.5t-28.5 8.5h-23v73h288q139 0 206.5 -85t67.5 -241q0 -146 -69.5 -233.5t-204.5 -87.5h-288v72zM307 72q98 0 141 62t43 187q0 128 -43 191t-141 63h-108v-215h137v-74h-137v-214h108z" />
    <glyph glyph-name="dcroat" unicode="&#x111;" horiz-adv-x="585" 
d="M88.5 49q-55.5 64 -55.5 183q0 125 55 194t159 69q61 0 97.5 -15t60.5 -50v79h-136v58h133q-6 22 -36 22h-17v73h159v-95h54v-58h-54v-402q0 -22 7 -30.5t26 -8.5h20v-68h-134l-9 70q-30 -45 -71 -65t-104 -20q-99 0 -154.5 64zM367 104.5q36 41.5 36 111.5v51
q0 73 -34.5 112t-97.5 39q-71 0 -102.5 -44t-31.5 -141q0 -92 30 -131t100 -39q64 0 100 41.5z" />
    <glyph glyph-name="Emacron" unicode="&#x112;" horiz-adv-x="545" 
d="M128 790h289v-69h-289v69zM33 73h29q20 0 28.5 9t8.5 29v426q0 19 -8.5 27.5t-28.5 8.5h-29v74h479v-129h-96v20q0 19 -9 27.5t-29 8.5h-173v-213h173v-74h-173v-214h173q20 0 29 8.5t9 28.5v20h96v-130h-479v73z" />
    <glyph glyph-name="emacron" unicode="&#x113;" horiz-adv-x="539" 
d="M126 615h289v-69h-289v69zM101.5 48.5q-68.5 63.5 -68.5 185.5q0 130 63.5 195.5t180.5 65.5q113 0 171 -64t58 -173v-46h-367q0 -81 39.5 -119.5t106.5 -38.5q38 0 64 5.5t47 18.5v36h93v-70q-42 -30 -90.5 -44.5t-114.5 -14.5q-114 0 -182.5 63.5zM403 277
q0 146 -127 146q-67 0 -102 -39t-35 -107h264z" />
    <glyph glyph-name="Ebreve" unicode="&#x114;" horiz-adv-x="545" 
d="M162 740q-43 39 -43 104h87q0 -36 19 -55.5t53 -19.5q35 0 53.5 19.5t18.5 55.5h87q0 -65 -43 -104t-116 -39t-116 39zM33 73h29q20 0 28.5 9t8.5 29v426q0 19 -8.5 27.5t-28.5 8.5h-29v74h479v-129h-96v20q0 19 -9 27.5t-29 8.5h-173v-213h173v-74h-173v-214h173
q20 0 29 8.5t9 28.5v20h96v-130h-479v73z" />
    <glyph glyph-name="ebreve" unicode="&#x115;" horiz-adv-x="539" 
d="M151 565q-43 39 -43 104h87q0 -36 19 -55.5t53 -19.5q35 0 53.5 19.5t18.5 55.5h87q0 -65 -43 -104t-116 -39t-116 39zM101.5 48.5q-68.5 63.5 -68.5 185.5q0 130 63.5 195.5t180.5 65.5q113 0 171 -64t58 -173v-46h-367q0 -81 39.5 -119.5t106.5 -38.5q38 0 64 5.5
t47 18.5v36h93v-70q-42 -30 -90.5 -44.5t-114.5 -14.5q-114 0 -182.5 63.5zM403 277q0 146 -127 146q-67 0 -102 -39t-35 -107h264z" />
    <glyph glyph-name="Edotaccent" unicode="&#x116;" horiz-adv-x="545" 
d="M222 816h92v-96h-92v96zM33 73h29q20 0 28.5 9t8.5 29v426q0 19 -8.5 27.5t-28.5 8.5h-29v74h479v-129h-96v20q0 19 -9 27.5t-29 8.5h-173v-213h173v-74h-173v-214h173q20 0 29 8.5t9 28.5v20h96v-130h-479v73z" />
    <glyph glyph-name="edotaccent" unicode="&#x117;" horiz-adv-x="539" 
d="M223 641h92v-96h-92v96zM101.5 48.5q-68.5 63.5 -68.5 185.5q0 130 63.5 195.5t180.5 65.5q113 0 171 -64t58 -173v-46h-367q0 -81 39.5 -119.5t106.5 -38.5q38 0 64 5.5t47 18.5v36h93v-70q-42 -30 -90.5 -44.5t-114.5 -14.5q-114 0 -182.5 63.5zM403 277
q0 146 -127 146q-67 0 -102 -39t-35 -107h264z" />
    <glyph glyph-name="Eogonek" unicode="&#x118;" horiz-adv-x="545" 
d="M416 518v20q0 19 -9 27.5t-29 8.5h-173v-213h173v-74h-173v-214h173q20 0 29 8.5t9 28.5v20h96v-130h-43q-25 -21 -37.5 -43t-12.5 -48q0 -46 37 -46q20 0 42 8v-62q-25 -18 -66 -18q-46 0 -74 24.5t-28 73.5q0 32 13.5 61t37.5 50h-348v73h29q20 0 28.5 9t8.5 29v426
q0 19 -8.5 27.5t-28.5 8.5h-29v74h479v-129h-96z" />
    <glyph glyph-name="eogonek" unicode="&#x119;" horiz-adv-x="539" 
d="M506 212h-367q0 -81 39.5 -119.5t106.5 -38.5q38 0 64 5.5t47 18.5v36h93v-70q-43 -30 -88 -44q-25 -21 -37.5 -43t-12.5 -48q0 -46 37 -46q21 0 43 8v-62q-25 -15 -60 -18l-25 1q-38 4 -61 28.5t-23 68.5q0 54 37 96h-15q-114 0 -182.5 63.5t-68.5 185.5
q0 130 63.5 195.5t180.5 65.5q113 0 171 -64t58 -173v-46zM403 277q0 146 -127 146q-67 0 -102 -39t-35 -107h264z" />
    <glyph glyph-name="Ecaron" unicode="&#x11a;" horiz-adv-x="545" 
d="M96 889h99l77 -126l77 126h100l-125 -188h-103zM33 73h29q20 0 28.5 9t8.5 29v426q0 19 -8.5 27.5t-28.5 8.5h-29v74h479v-129h-96v20q0 19 -9 27.5t-29 8.5h-173v-213h173v-74h-173v-214h173q20 0 29 8.5t9 28.5v20h96v-130h-479v73z" />
    <glyph glyph-name="ecaron" unicode="&#x11b;" horiz-adv-x="539" 
d="M93 713h99l77 -126l77 126h100l-125 -188h-103zM101.5 48.5q-68.5 63.5 -68.5 185.5q0 130 63.5 195.5t180.5 65.5q113 0 171 -64t58 -173v-46h-367q0 -81 39.5 -119.5t106.5 -38.5q38 0 64 5.5t47 18.5v36h93v-70q-42 -30 -90.5 -44.5t-114.5 -14.5q-114 0 -182.5 63.5z
M403 277q0 146 -127 146q-67 0 -102 -39t-35 -107h264z" />
    <glyph glyph-name="Gcircumflex" unicode="&#x11c;" horiz-adv-x="618" 
d="M279 889h103l125 -188h-100l-77 126l-77 -126h-99zM178 27.5q-72 42.5 -108.5 118t-36.5 174.5q0 100 34 177t104.5 121t175.5 44q72 0 124.5 -13.5t92.5 -42.5v-102h-106v62q-43 22 -111 22q-100 0 -155 -71t-55 -197q0 -123 58 -192t162 -69q70 0 123 21v187h-139v74
h244v-293q-49 -33 -105 -48t-127 -15q-103 0 -175 42.5z" />
    <glyph glyph-name="gcircumflex" unicode="&#x11d;" horiz-adv-x="584" 
d="M235 713h103l125 -188h-100l-77 126l-77 -126h-99zM116 -130v69h92v-36q19 -14 40.5 -19.5t52.5 -5.5q104 0 104 105v80q-27 -37 -66 -54t-93 -17q-102 0 -157.5 65t-55.5 189q0 119 58.5 184t158.5 65q58 0 98 -20.5t70 -65.5l9 72h134v-69h-21q-18 0 -25 -9.5t-7 -31.5
v-372q0 -90 -54.5 -144.5t-145.5 -54.5q-119 0 -192 70zM368.5 107.5q33.5 37.5 33.5 110.5v46q0 71 -34 112.5t-98 41.5q-70 0 -101.5 -40.5t-31.5 -131.5q0 -95 31 -135.5t103 -40.5q64 0 97.5 37.5z" />
    <glyph glyph-name="Gbreve" unicode="&#x11e;" horiz-adv-x="618" 
d="M217 740q-43 39 -43 104h87q0 -36 19 -55.5t53 -19.5q35 0 53.5 19.5t18.5 55.5h87q0 -65 -43 -104t-116 -39t-116 39zM178 27.5q-72 42.5 -108.5 118t-36.5 174.5q0 100 34 177t104.5 121t175.5 44q72 0 124.5 -13.5t92.5 -42.5v-102h-106v62q-43 22 -111 22
q-100 0 -155 -71t-55 -197q0 -123 58 -192t162 -69q70 0 123 21v187h-139v74h244v-293q-49 -33 -105 -48t-127 -15q-103 0 -175 42.5z" />
    <glyph glyph-name="gbreve" unicode="&#x11f;" horiz-adv-x="584" 
d="M171 565q-43 39 -43 104h87q0 -36 19 -55.5t53 -19.5q35 0 53.5 19.5t18.5 55.5h87q0 -65 -43 -104t-116 -39t-116 39zM116 -130v69h92v-36q19 -14 40.5 -19.5t52.5 -5.5q104 0 104 105v80q-27 -37 -66 -54t-93 -17q-102 0 -157.5 65t-55.5 189q0 119 58.5 184t158.5 65
q58 0 98 -20.5t70 -65.5l9 72h134v-69h-21q-18 0 -25 -9.5t-7 -31.5v-372q0 -90 -54.5 -144.5t-145.5 -54.5q-119 0 -192 70zM368.5 107.5q33.5 37.5 33.5 110.5v46q0 71 -34 112.5t-98 41.5q-70 0 -101.5 -40.5t-31.5 -131.5q0 -95 31 -135.5t103 -40.5q64 0 97.5 37.5z
" />
    <glyph glyph-name="Gdotaccent" unicode="&#x120;" horiz-adv-x="618" 
d="M299 804h92v-96h-92v96zM178 27.5q-72 42.5 -108.5 118t-36.5 174.5q0 100 34 177t104.5 121t175.5 44q72 0 124.5 -13.5t92.5 -42.5v-102h-106v62q-43 22 -111 22q-100 0 -155 -71t-55 -197q0 -123 58 -192t162 -69q70 0 123 21v187h-139v74h244v-293q-49 -33 -105 -48
t-127 -15q-103 0 -175 42.5z" />
    <glyph glyph-name="gdotaccent" unicode="&#x121;" horiz-adv-x="584" 
d="M236 633h92v-96h-92v96zM116 -130v69h92v-36q19 -14 40.5 -19.5t52.5 -5.5q104 0 104 105v80q-27 -37 -66 -54t-93 -17q-102 0 -157.5 65t-55.5 189q0 119 58.5 184t158.5 65q58 0 98 -20.5t70 -65.5l9 72h134v-69h-21q-18 0 -25 -9.5t-7 -31.5v-372q0 -90 -54.5 -144.5
t-145.5 -54.5q-119 0 -192 70zM368.5 107.5q33.5 37.5 33.5 110.5v46q0 71 -34 112.5t-98 41.5q-70 0 -101.5 -40.5t-31.5 -131.5q0 -95 31 -135.5t103 -40.5q64 0 97.5 37.5z" />
    <glyph glyph-name="Gcommaaccent" unicode="&#x122;" horiz-adv-x="618" 
d="M178 27.5q-72 42.5 -108.5 118t-36.5 174.5q0 100 34 177t104.5 121t175.5 44q72 0 124.5 -13.5t92.5 -42.5v-102h-106v62q-43 22 -111 22q-100 0 -155 -71t-55 -197q0 -123 58 -192t162 -69q70 0 123 21v187h-139v74h244v-293q-49 -33 -105 -48t-127 -15
q-103 0 -175 42.5zM315 -49h116l-62 -204h-85z" />
    <glyph glyph-name="gcommaaccent" unicode="&#x123;" horiz-adv-x="584" 
d="M296 761h85l-31 -204h-116zM116 -130v69h92v-36q19 -14 40.5 -19.5t52.5 -5.5q104 0 104 105v80q-27 -37 -66 -54t-93 -17q-102 0 -157.5 65t-55.5 189q0 119 58.5 184t158.5 65q58 0 98 -20.5t70 -65.5l9 72h134v-69h-21q-18 0 -25 -9.5t-7 -31.5v-372
q0 -90 -54.5 -144.5t-145.5 -54.5q-119 0 -192 70zM368.5 107.5q33.5 37.5 33.5 110.5v46q0 71 -34 112.5t-98 41.5q-70 0 -101.5 -40.5t-31.5 -131.5q0 -95 31 -135.5t103 -40.5q64 0 97.5 37.5z" />
    <glyph glyph-name="Hcircumflex" unicode="&#x124;" horiz-adv-x="682" 
d="M290 889h103l125 -188h-100l-77 126l-77 -126h-99zM33 73h29q20 0 28.5 9t8.5 29v426q0 19 -8.5 27.5t-28.5 8.5h-29v74h233v-74h-25q-19 0 -27.5 -8.5t-8.5 -27.5v-176h272v175q0 20 -8 28.5t-28 8.5h-26v74h234v-74h-29q-20 0 -28.5 -8.5t-8.5 -27.5v-426
q0 -20 8.5 -29t28.5 -9h29v-73h-234v73h26q19 0 27.5 9t8.5 29v177h-272v-177q0 -20 8.5 -29t27.5 -9h25v-73h-233v73z" />
    <glyph glyph-name="hcircumflex" unicode="&#x125;" horiz-adv-x="604" 
d="M169 889h103l125 -188h-100l-77 126l-77 -126h-99zM33 74h25q20 0 28.5 8.5t8.5 28.5v440q0 19 -8.5 28t-28.5 9h-20v74h154v-232q36 36 73.5 50.5t94.5 14.5q78 0 117.5 -43t39.5 -123v-218q0 -20 8.5 -28.5t27.5 -8.5h28v-74h-173v328q0 50 -22 73t-67 23
q-51 0 -84 -29.5t-33 -81.5v-202q0 -20 7.5 -28.5t25.5 -8.5h27v-74h-229v74z" />
    <glyph glyph-name="Hbar" unicode="&#x126;" horiz-adv-x="682" 
d="M591.5 564.5q-8.5 -8.5 -8.5 -27.5v-44h66v-73h-66v-309q0 -20 8.5 -29t28.5 -9h29v-73h-234v73h26q19 0 27.5 9t8.5 29v177h-272v-177q0 -20 8.5 -29t27.5 -9h25v-73h-233v73h29q20 0 28.5 9t8.5 29v309h-65v73h65v44q0 19 -8.5 27.5t-28.5 8.5h-29v74h233v-74h-25
q-19 0 -27.5 -8.5t-8.5 -27.5v-44h272v43q0 20 -8 28.5t-28 8.5h-26v74h234v-74h-29q-20 0 -28.5 -8.5zM477 420h-272v-59h272v59z" />
    <glyph glyph-name="hbar" unicode="&#x127;" horiz-adv-x="604" 
d="M33 74h25q20 0 28.5 8.5t8.5 28.5v412h-62v73h62v66h97v-66h132v-73h-132v-93q36 36 73.5 50.5t94.5 14.5q78 0 117.5 -43t39.5 -123v-218q0 -20 8.5 -28.5t27.5 -8.5h28v-74h-173v328q0 50 -22 73t-67 23q-51 0 -84 -29.5t-33 -81.5v-202q0 -20 7.5 -28.5t25.5 -8.5h27
v-74h-229v74z" />
    <glyph glyph-name="Itilde" unicode="&#x128;" horiz-adv-x="303" 
d="M-17.5 804.5q26.5 33.5 82.5 33.5q26 0 48 -8t47 -23q22 -12 35.5 -17.5t28.5 -5.5q23 0 33.5 12t10.5 42h78q0 -72 -26 -104.5t-81 -32.5q-26 0 -47 8t-46 22q-21 11 -36 17t-31 6q-23 0 -34 -12t-11 -41h-78q0 70 26.5 103.5zM33 73h29q20 0 28.5 9t8.5 29v426
q0 19 -8.5 27.5t-28.5 8.5h-29v74h237v-74h-29q-19 0 -27.5 -8.5t-8.5 -27.5v-427q0 -20 8.5 -28.5t27.5 -8.5h29v-73h-237v73z" />
    <glyph glyph-name="itilde" unicode="&#x129;" horiz-adv-x="285" 
d="M-46.5 635.5q26.5 33.5 82.5 33.5q26 0 48 -8t47 -23q22 -12 35.5 -17.5t28.5 -5.5q23 0 33.5 12t10.5 42h78q0 -72 -26 -104.5t-81 -32.5q-26 0 -47 8t-46 22q-21 11 -36 17t-31 6q-23 0 -34 -12t-11 -41h-78q0 70 26.5 103.5zM23 74h29q20 0 28.5 9t8.5 29v257
q0 19 -8.5 27.5t-28.5 8.5h-29v75h173v-369q0 -19 9 -28t28 -9h29v-74h-239v74z" />
    <glyph glyph-name="Imacron" unicode="&#x12a;" horiz-adv-x="303" 
d="M6 790h290v-69h-290v69zM33 73h29q20 0 28.5 9t8.5 29v426q0 19 -8.5 27.5t-28.5 8.5h-29v74h237v-74h-29q-19 0 -27.5 -8.5t-8.5 -27.5v-427q0 -20 8.5 -28.5t27.5 -8.5h29v-73h-237v73z" />
    <glyph glyph-name="imacron" unicode="&#x12b;" horiz-adv-x="285" 
d="M-14 615h290v-69h-290v69zM23 74h29q20 0 28.5 9t8.5 29v257q0 19 -8.5 27.5t-28.5 8.5h-29v75h173v-369q0 -19 9 -28t28 -9h29v-74h-239v74z" />
    <glyph glyph-name="Ibreve" unicode="&#x12c;" horiz-adv-x="303" 
d="M35 740q-43 39 -43 104h87q0 -36 19 -55.5t53 -19.5q35 0 53.5 19.5t18.5 55.5h87q0 -65 -43 -104t-116 -39t-116 39zM33 73h29q20 0 28.5 9t8.5 29v426q0 19 -8.5 27.5t-28.5 8.5h-29v74h237v-74h-29q-19 0 -27.5 -8.5t-8.5 -27.5v-427q0 -20 8.5 -28.5t27.5 -8.5h29
v-73h-237v73z" />
    <glyph glyph-name="ibreve" unicode="&#x12d;" horiz-adv-x="285" 
d="M12 565q-43 39 -43 104h87q0 -36 19 -55.5t53 -19.5q35 0 53.5 19.5t18.5 55.5h87q0 -65 -43 -104t-116 -39t-116 39zM23 74h29q20 0 28.5 9t8.5 29v257q0 19 -8.5 27.5t-28.5 8.5h-29v75h173v-369q0 -19 9 -28t28 -9h29v-74h-239v74z" />
    <glyph glyph-name="Iogonek" unicode="&#x12e;" horiz-adv-x="303" 
d="M213.5 564.5q-8.5 -8.5 -8.5 -27.5v-427q0 -20 8.5 -28.5t27.5 -8.5h29v-73h-69q-25 -21 -37.5 -43t-12.5 -48q0 -46 37 -46q20 0 42 8v-62q-25 -18 -66 -18q-46 0 -74 24.5t-28 73.5q0 32 13.5 61t37.5 50h-80v73h29q20 0 28.5 9t8.5 29v426q0 19 -8.5 27.5t-28.5 8.5
h-29v74h237v-74h-29q-19 0 -27.5 -8.5z" />
    <glyph glyph-name="iogonek" unicode="&#x12f;" horiz-adv-x="285" 
d="M199 556h-113v92h113v-92zM157.5 -43q-12.5 -22 -12.5 -48q0 -46 37 -46q20 0 42 8v-62q-25 -18 -66 -18q-46 0 -74 24.5t-28 73.5q0 32 13.5 61t37.5 50h-84v74h29q20 0 28.5 9t8.5 29v257q0 19 -8.5 27.5t-28.5 8.5h-29v75h173v-369q0 -19 9 -28t28 -9h29v-74h-67
q-25 -21 -37.5 -43z" />
    <glyph glyph-name="Idotaccent" unicode="&#x130;" horiz-adv-x="303" 
d="M105 817h92v-96h-92v96zM33 73h29q20 0 28.5 9t8.5 29v426q0 19 -8.5 27.5t-28.5 8.5h-29v74h237v-74h-29q-19 0 -27.5 -8.5t-8.5 -27.5v-427q0 -20 8.5 -28.5t27.5 -8.5h29v-73h-237v73z" />
    <glyph glyph-name="dotlessi" unicode="&#x131;" horiz-adv-x="285" 
d="M23 74h29q20 0 28.5 9t8.5 29v257q0 19 -8.5 27.5t-28.5 8.5h-29v75h173v-369q0 -19 9 -28t28 -9h29v-74h-239v74z" />
    <glyph glyph-name="IJ" unicode="&#x132;" horiz-adv-x="764" 
d="M33 73h29q20 0 28.5 9t8.5 29v426q0 19 -8.5 27.5t-28.5 8.5h-29v74h237v-74h-29q-19 0 -27.5 -8.5t-8.5 -27.5v-427q0 -20 8.5 -28.5t27.5 -8.5h29v-73h-237v73zM281 61v80h96v-48q33 -34 93 -34q52 0 76 26.5t24 80.5v371q0 19 -9 27.5t-28 8.5h-30v74h238v-74h-29
q-19 0 -28 -8.5t-9 -27.5v-356q0 -93 -51 -144.5t-147 -51.5q-128 0 -196 76z" />
    <glyph glyph-name="ij" unicode="&#x133;" horiz-adv-x="549" 
d="M86 648h113v-92h-113v92zM383 648h113v-92h-113v92zM23 74h29q20 0 28.5 9t8.5 29v257q0 19 -8.5 27.5t-28.5 8.5h-29v75h173v-369q0 -19 9 -28t28 -9h29v-74h-239v74zM220 -158.5q-41 14.5 -74 43.5v83h90v-44q16 -14 32.5 -19.5t40.5 -5.5q39 0 58 20.5t19 68.5v381
q0 19 -8.5 27.5t-28.5 8.5h-29v75h173v-480q0 -86 -45.5 -129.5t-132.5 -43.5q-54 0 -95 14.5z" />
    <glyph glyph-name="Jcircumflex" unicode="&#x134;" horiz-adv-x="496" 
d="M278 889h103l125 -188h-100l-77 126l-77 -126h-99zM3 61v80h96v-48q33 -34 93 -34q52 0 76 26.5t24 80.5v371q0 19 -9 27.5t-28 8.5h-30v74h238v-74h-29q-19 0 -28 -8.5t-9 -27.5v-356q0 -93 -51 -144.5t-147 -51.5q-128 0 -196 76z" />
    <glyph glyph-name="jcircumflex" unicode="&#x135;" horiz-adv-x="373" 
d="M190 721h103l125 -188h-100l-77 126l-77 -126h-99zM47 -158.5q-41 14.5 -74 43.5v83h90v-44q16 -14 32.5 -19.5t40.5 -5.5q39 0 58 20.5t19 68.5v381q0 19 -8.5 27.5t-28.5 8.5h-29v75h173v-480q0 -86 -45.5 -129.5t-132.5 -43.5q-54 0 -95 14.5z" />
    <glyph glyph-name="Kcommaaccent" unicode="&#x136;" horiz-adv-x="648" 
d="M33 74h29q20 0 28.5 8.5t8.5 27.5v428q0 19 -8.5 27.5t-28.5 8.5h-23v73h217v-73h-18q-18 0 -25.5 -9t-7.5 -27v-212l231 248h-51v73h220v-77h-37q-19 0 -30 -6t-25 -21l-162 -171l177 -268q11 -16 23 -23t31 -7h33v-74h-230v74h56l-153 232l-83 -89v-107q0 -18 7.5 -27
t27.5 -9h22v-74h-229v74zM270 -49h116l-62 -204h-85z" />
    <glyph glyph-name="kcommaaccent" unicode="&#x137;" horiz-adv-x="579" 
d="M33 71h27q20 0 27.5 7.5t7.5 26.5v454q0 19 -7 26.5t-26 7.5h-23v69h215v-69h-28q-18 0 -25 -7.5t-7 -26.5v-294l162 145h-49v70h228v-70h-46q-16 0 -24 -4t-22 -16l-99 -87l121 -205q10 -16 19.5 -21.5t29.5 -5.5h42v-71h-134l-148 245l-80 -71v-69q0 -19 7.5 -26.5
t27.5 -7.5h31v-71h-227v71zM249 -49h116l-62 -204h-85z" />
    <glyph glyph-name="kgreenlandic" unicode="&#x138;" horiz-adv-x="582" 
d="M33 71h27q17 0 24.5 6t9 16t1.5 34v250q0 19 -7 26.5t-26 7.5h-23v69h207v-69h-20q-22 0 -27 -10.5t-5 -42.5v-104l159 156h-42v70h222v-70h-44q-19 0 -31.5 -8t-35.5 -31l-85 -79l120 -193q10 -15 20.5 -21.5t29.5 -6.5h42v-71h-175l-12 27h38l-129 207l-77 -72v-57
q0 -19 7.5 -26.5t27.5 -7.5h31v-71h-227v71z" />
    <glyph glyph-name="Lacute" unicode="&#x139;" horiz-adv-x="509" 
d="M153 880h125l-114 -179h-91zM33 72h21q22 0 30.5 9t8.5 29v428q0 19 -8.5 27.5t-28.5 8.5h-23v73h226v-73h-24q-19 0 -27.5 -8.5t-8.5 -27.5v-466h173q20 0 29 8.5t9 28.5v32h96v-141h-473v72z" />
    <glyph glyph-name="lacute" unicode="&#x13a;" horiz-adv-x="295" 
d="M172 880h125l-114 -179h-91zM33 74h29q20 0 28.5 9t8.5 29v439q0 19 -8.5 27.5t-28.5 8.5h-29v75h173v-551q0 -19 9 -28t28 -9h29v-74h-239v74z" />
    <glyph glyph-name="Lcommaaccent" unicode="&#x13b;" horiz-adv-x="509" 
d="M33 72h21q22 0 30.5 9t8.5 29v428q0 19 -8.5 27.5t-28.5 8.5h-23v73h226v-73h-24q-19 0 -27.5 -8.5t-8.5 -27.5v-466h173q20 0 29 8.5t9 28.5v32h96v-141h-473v72zM238 -49h116l-62 -204h-85z" />
    <glyph glyph-name="lcommaaccent" unicode="&#x13c;" horiz-adv-x="295" 
d="M33 74h29q20 0 28.5 9t8.5 29v439q0 19 -8.5 27.5t-28.5 8.5h-29v75h173v-551q0 -19 9 -28t28 -9h29v-74h-239v74zM104 -49h116l-62 -204h-85z" />
    <glyph glyph-name="Lcaron" unicode="&#x13d;" horiz-adv-x="509" 
d="M385 714h116l-62 -204h-85zM33 72h21q22 0 30.5 9t8.5 29v428q0 19 -8.5 27.5t-28.5 8.5h-23v73h226v-73h-24q-19 0 -27.5 -8.5t-8.5 -27.5v-466h173q20 0 29 8.5t9 28.5v32h96v-141h-473v72z" />
    <glyph glyph-name="lcaron" unicode="&#x13e;" horiz-adv-x="404" 
d="M307 760h116l-62 -204h-85zM33 74h29q20 0 28.5 9t8.5 29v439q0 19 -8.5 27.5t-28.5 8.5h-29v75h173v-551q0 -19 9 -28t28 -9h29v-74h-239v74z" />
    <glyph glyph-name="Ldot" unicode="&#x13f;" horiz-adv-x="509" 
d="M33 72h21q22 0 30.5 9t8.5 29v428q0 19 -8.5 27.5t-28.5 8.5h-23v73h226v-73h-24q-19 0 -27.5 -8.5t-8.5 -27.5v-466h173q20 0 29 8.5t9 28.5v32h96v-141h-473v72zM305 383h93v-96h-93v96z" />
    <glyph glyph-name="ldot" unicode="&#x140;" horiz-adv-x="377" 
d="M33 74h29q20 0 28.5 9t8.5 29v439q0 19 -8.5 27.5t-28.5 8.5h-29v75h173v-551q0 -19 9 -28t28 -9h29v-74h-239v74zM291 380h93v-96h-93v96z" />
    <glyph glyph-name="Lslash" unicode="&#x141;" horiz-adv-x="509" 
d="M506 141v-141h-473v72h21q22 0 30.5 9t8.5 29v121l-59 -34v80l59 34v227q0 19 -8.5 27.5t-27.5 8.5h-24v73h226v-73h-23q-20 0 -28.5 -8.5t-8.5 -27.5v-166l108 62v-80l-108 -62v-220h173q21 0 29.5 8.5t8.5 28.5v32h96z" />
    <glyph glyph-name="lslash" unicode="&#x142;" horiz-adv-x="309" 
d="M37 74h29q20 0 28.5 9t8.5 29v154l-80 -46v80l80 46v205q0 19 -8.5 27.5t-28.5 8.5h-29v75h173v-254l86 50v-80l-86 -50v-217q0 -19 9 -28t28 -9h29v-74h-239v74z" />
    <glyph glyph-name="Nacute" unicode="&#x143;" horiz-adv-x="691" 
d="M356 880h125l-114 -179h-91zM33 74h29q20 0 28.5 8.5t8.5 27.5v427q0 19 -8.5 27.5t-28.5 8.5h-29v74h149l305 -473v363q0 19 -9 27.5t-28 8.5h-30v74h238v-74h-30q-19 0 -27.5 -8.5t-8.5 -27.5v-537h-83l-305 472v-362q0 -19 9 -27.5t28 -8.5h29v-74h-237v74z" />
    <glyph glyph-name="nacute" unicode="&#x144;" horiz-adv-x="603" 
d="M298 705h125l-114 -179h-91zM33 74h25q20 0 28.5 8.5t8.5 28.5v257q0 20 -8 28.5t-28 8.5h-21v75h128l6 -67q34 43 77.5 62.5t105.5 19.5q160 0 160 -166v-218q0 -20 8.5 -28.5t28.5 -8.5h28v-74h-172v328q0 50 -21 72.5t-68 22.5q-51 0 -84 -29t-33 -81v-202
q0 -20 7.5 -28.5t26.5 -8.5h26v-74h-229v74z" />
    <glyph glyph-name="Ncommaaccent" unicode="&#x145;" horiz-adv-x="691" 
d="M33 74h29q20 0 28.5 8.5t8.5 27.5v427q0 19 -8.5 27.5t-28.5 8.5h-29v74h149l305 -473v363q0 19 -9 27.5t-28 8.5h-30v74h238v-74h-30q-19 0 -27.5 -8.5t-8.5 -27.5v-537h-83l-305 472v-362q0 -19 9 -27.5t28 -8.5h29v-74h-237v74zM327 -49h116l-62 -204h-85z" />
    <glyph glyph-name="ncommaaccent" unicode="&#x146;" horiz-adv-x="603" 
d="M33 74h25q20 0 28.5 8.5t8.5 28.5v257q0 20 -8 28.5t-28 8.5h-21v75h128l6 -67q34 43 77.5 62.5t105.5 19.5q160 0 160 -166v-218q0 -20 8.5 -28.5t28.5 -8.5h28v-74h-172v328q0 50 -21 72.5t-68 22.5q-51 0 -84 -29t-33 -81v-202q0 -20 7.5 -28.5t26.5 -8.5h26v-74h-229
v74zM299 -49h116l-62 -204h-85z" />
    <glyph glyph-name="Ncaron" unicode="&#x147;" horiz-adv-x="691" 
d="M158 889h99l77 -126l77 126h100l-125 -188h-103zM33 74h29q20 0 28.5 8.5t8.5 27.5v427q0 19 -8.5 27.5t-28.5 8.5h-29v74h149l305 -473v363q0 19 -9 27.5t-28 8.5h-30v74h238v-74h-30q-19 0 -27.5 -8.5t-8.5 -27.5v-537h-83l-305 472v-362q0 -19 9 -27.5t28 -8.5h29v-74
h-237v74z" />
    <glyph glyph-name="ncaron" unicode="&#x148;" horiz-adv-x="603" 
d="M113 713h99l77 -126l77 126h100l-125 -188h-103zM33 74h25q20 0 28.5 8.5t8.5 28.5v257q0 20 -8 28.5t-28 8.5h-21v75h128l6 -67q34 43 77.5 62.5t105.5 19.5q160 0 160 -166v-218q0 -20 8.5 -28.5t28.5 -8.5h28v-74h-172v328q0 50 -21 72.5t-68 22.5q-51 0 -84 -29
t-33 -81v-202q0 -20 7.5 -28.5t26.5 -8.5h26v-74h-229v74z" />
    <glyph glyph-name="napostrophe" unicode="&#x149;" horiz-adv-x="728" 
d="M76 714h116l-62 -204h-85zM158 74h25q20 0 28.5 8.5t8.5 28.5v257q0 20 -8 28.5t-28 8.5h-21v75h128l6 -67q34 43 77.5 62.5t105.5 19.5q160 0 160 -166v-218q0 -20 8.5 -28.5t28.5 -8.5h28v-74h-172v328q0 50 -21 72.5t-68 22.5q-51 0 -84 -29t-33 -81v-202
q0 -20 7.5 -28.5t26.5 -8.5h26v-74h-229v74z" />
    <glyph glyph-name="Eng" unicode="&#x14a;" horiz-adv-x="691" 
d="M208 -222v84h91v-43q32 -32 90 -32q96 0 96 99v151l-281 435v-362q0 -19 9 -27.5t28 -8.5h29v-74h-237v74h29q20 0 28.5 8.5t8.5 27.5v427q0 19 -8.5 27.5t-28.5 8.5h-29v74h149l305 -473v363q0 19 -9 27.5t-28 8.5h-30v74h238v-74h-30q-19 0 -27.5 -8.5t-8.5 -27.5v-638
q0 -88 -50 -136t-147 -48q-116 0 -187 63z" />
    <glyph glyph-name="eng" unicode="&#x14b;" horiz-adv-x="575" 
d="M241.5 -245.5q-40.5 14.5 -73.5 43.5v83h90v-46q17 -14 32.5 -18.5t40.5 -4.5q39 0 58 20.5t19 68.5v427q0 50 -21 72.5t-68 22.5q-51 0 -84 -29t-33 -81v-202q0 -20 7.5 -28.5t26.5 -8.5h26v-74h-229v74h25q20 0 28.5 8.5t8.5 28.5v257q0 20 -8 28.5t-28 8.5h-21v75h128
l6 -67q34 43 77.5 62.5t105.5 19.5q160 0 160 -166v-416q0 -86 -45.5 -129.5t-132.5 -43.5q-55 0 -95.5 14.5z" />
    <glyph glyph-name="Omacron" unicode="&#x14c;" horiz-adv-x="659" 
d="M184 790h289v-69h-289v69zM106 68.5q-73 83.5 -73 252.5q0 171 71.5 256t225.5 85q153 0 224.5 -85t71.5 -256q0 -169 -73 -252.5t-223 -83.5q-151 0 -224 83.5zM475 120q47 61 47 201q0 143 -46.5 205t-145.5 62q-100 0 -146.5 -62t-46.5 -205q0 -140 47 -201t146 -61
q98 0 145 61z" />
    <glyph glyph-name="omacron" unicode="&#x14d;" horiz-adv-x="558" 
d="M136 615h289v-69h-289v69zM95 52q-62 67 -62 187q0 121 61.5 188.5t184.5 67.5t184.5 -67.5t61.5 -188.5q0 -120 -62 -187t-184 -67t-184 67zM386 104q35 44 35 135q0 92 -35 136.5t-107 44.5t-106.5 -44.5t-34.5 -136.5q0 -91 34.5 -135t106.5 -44t107 44z" />
    <glyph glyph-name="Obreve" unicode="&#x14e;" horiz-adv-x="659" 
d="M213 740q-43 39 -43 104h87q0 -36 19 -55.5t53 -19.5q35 0 53.5 19.5t18.5 55.5h87q0 -65 -43 -104t-116 -39t-116 39zM106 68.5q-73 83.5 -73 252.5q0 171 71.5 256t225.5 85q153 0 224.5 -85t71.5 -256q0 -169 -73 -252.5t-223 -83.5q-151 0 -224 83.5zM475 120
q47 61 47 201q0 143 -46.5 205t-145.5 62q-100 0 -146.5 -62t-46.5 -205q0 -140 47 -201t146 -61q98 0 145 61z" />
    <glyph glyph-name="obreve" unicode="&#x14f;" horiz-adv-x="558" 
d="M165 565q-43 39 -43 104h87q0 -36 19 -55.5t53 -19.5q35 0 53.5 19.5t18.5 55.5h87q0 -65 -43 -104t-116 -39t-116 39zM95 52q-62 67 -62 187q0 121 61.5 188.5t184.5 67.5t184.5 -67.5t61.5 -188.5q0 -120 -62 -187t-184 -67t-184 67zM386 104q35 44 35 135
q0 92 -35 136.5t-107 44.5t-106.5 -44.5t-34.5 -136.5q0 -91 34.5 -135t106.5 -44t107 44z" />
    <glyph glyph-name="Ohungarumlaut" unicode="&#x150;" horiz-adv-x="659" 
d="M244 888h128l-120 -188h-95zM443 888h129l-121 -188h-94zM106 68.5q-73 83.5 -73 252.5q0 171 71.5 256t225.5 85q153 0 224.5 -85t71.5 -256q0 -169 -73 -252.5t-223 -83.5q-151 0 -224 83.5zM475 120q47 61 47 201q0 143 -46.5 205t-145.5 62q-100 0 -146.5 -62
t-46.5 -205q0 -140 47 -201t146 -61q98 0 145 61z" />
    <glyph glyph-name="ohungarumlaut" unicode="&#x151;" horiz-adv-x="558" 
d="M187 713h128l-120 -188h-95zM386 713h129l-121 -188h-94zM95 52q-62 67 -62 187q0 121 61.5 188.5t184.5 67.5t184.5 -67.5t61.5 -188.5q0 -120 -62 -187t-184 -67t-184 67zM386 104q35 44 35 135q0 92 -35 136.5t-107 44.5t-106.5 -44.5t-34.5 -136.5q0 -91 34.5 -135
t106.5 -44t107 44z" />
    <glyph glyph-name="OE" unicode="&#x152;" horiz-adv-x="808" 
d="M112 77.5q-79 77.5 -79 243.5q0 168 77 247t236 79h429v-129h-96v20q0 19 -9 27.5t-29 8.5h-157v-213h156v-74h-156v-214h157q20 0 29 8.5t9 28.5v20h96v-130h-429q-155 0 -234 77.5zM378 72v502h-57q-89 0 -136.5 -60.5t-47.5 -192.5q0 -249 184 -249h57z" />
    <glyph glyph-name="oe" unicode="&#x153;" horiz-adv-x="926" 
d="M95 52q-62 67 -62 187q0 121 61.5 188.5t184.5 67.5q134 0 194 -96q61 96 191 96q113 0 171 -63t58 -174v-46h-367q0 -78 41 -118t105 -40q38 0 64 5.5t47 18.5v36h93v-70q-42 -30 -90.5 -44.5t-114.5 -14.5q-65 0 -114.5 24.5t-81.5 71.5q-66 -96 -196 -96
q-122 0 -184 67zM790 277q0 76 -31.5 111t-95.5 35q-66 0 -101.5 -37.5t-35.5 -108.5h264zM386 103.5q35 43.5 35 135.5t-35.5 136.5t-106.5 44.5q-72 0 -106.5 -44.5t-34.5 -136.5q0 -91 34.5 -135t106.5 -44t107 43.5z" />
    <glyph glyph-name="Racute" unicode="&#x154;" horiz-adv-x="622" 
d="M301 880h125l-114 -179h-91zM33 73h27q22 0 30.5 9t8.5 28v427q0 19 -8.5 27.5t-30.5 8.5h-27v74h327q101 0 157 -49.5t56 -140.5q0 -75 -41 -124.5t-116 -63.5l88 -164q10 -18 23.5 -25t34.5 -7h27v-73h-219v73h48l-100 186h-113v-151q0 -19 7.5 -27t27.5 -8h23v-73
h-230v73zM344 333q63 0 94.5 32t31.5 92q0 62 -30 89t-96 27h-139v-240h139z" />
    <glyph glyph-name="racute" unicode="&#x155;" horiz-adv-x="386" 
d="M196 705h125l-114 -179h-91zM33 74h25q20 0 28.5 8.5t8.5 28.5v258q0 19 -8 28t-27 9h-21v74h138l14 -55q20 31 51.5 43t74.5 12h46v-74h-56q-57 0 -81 -25.5t-24 -78.5v-191q0 -20 8 -28.5t27 -8.5h25v-74h-229v74z" />
    <glyph glyph-name="Rcommaaccent" unicode="&#x156;" horiz-adv-x="622" 
d="M33 73h27q22 0 30.5 9t8.5 28v427q0 19 -8.5 27.5t-30.5 8.5h-27v74h327q101 0 157 -49.5t56 -140.5q0 -75 -41 -124.5t-116 -63.5l88 -164q10 -18 23.5 -25t34.5 -7h27v-73h-219v73h48l-100 186h-113v-151q0 -19 7.5 -27t27.5 -8h23v-73h-230v73zM344 333q63 0 94.5 32
t31.5 92q0 62 -30 89t-96 27h-139v-240h139zM285 -49h116l-62 -204h-85z" />
    <glyph glyph-name="rcommaaccent" unicode="&#x157;" horiz-adv-x="386" 
d="M33 74h25q20 0 28.5 8.5t8.5 28.5v258q0 19 -8 28t-27 9h-21v74h138l14 -55q20 31 51.5 43t74.5 12h46v-74h-56q-57 0 -81 -25.5t-24 -78.5v-191q0 -20 8 -28.5t27 -8.5h25v-74h-229v74zM127 -49h116l-62 -204h-85z" />
    <glyph glyph-name="Rcaron" unicode="&#x158;" horiz-adv-x="622" 
d="M125 889h99l77 -126l77 126h100l-125 -188h-103zM33 73h27q22 0 30.5 9t8.5 28v427q0 19 -8.5 27.5t-30.5 8.5h-27v74h327q101 0 157 -49.5t56 -140.5q0 -75 -41 -124.5t-116 -63.5l88 -164q10 -18 23.5 -25t34.5 -7h27v-73h-219v73h48l-100 186h-113v-151q0 -19 7.5 -27
t27.5 -8h23v-73h-230v73zM344 333q63 0 94.5 32t31.5 92q0 62 -30 89t-96 27h-139v-240h139z" />
    <glyph glyph-name="rcaron" unicode="&#x159;" horiz-adv-x="386" 
d="M29 713h99l77 -126l77 126h100l-125 -188h-103zM33 74h25q20 0 28.5 8.5t8.5 28.5v258q0 19 -8 28t-27 9h-21v74h138l14 -55q20 31 51.5 43t74.5 12h46v-74h-56q-57 0 -81 -25.5t-24 -78.5v-191q0 -20 8 -28.5t27 -8.5h25v-74h-229v74z" />
    <glyph glyph-name="Sacute" unicode="&#x15a;" horiz-adv-x="534" 
d="M283 880h125l-114 -179h-91zM141 5q-63 20 -108 54v98h107v-65q25 -15 61.5 -24t74.5 -9q60 0 91 25.5t31 72.5q0 33 -16.5 55t-46.5 38t-83 37q-74 29 -119 55t-69.5 61.5t-24.5 86.5q0 85 65 128.5t167 43.5q67 0 122.5 -19t95.5 -50v-93h-107v62q-44 26 -116 26
q-58 0 -91 -23t-33 -72q0 -34 21 -57t48 -36t84 -36q76 -30 117 -53t65 -58.5t24 -91.5q0 -51 -26.5 -90.5t-77.5 -62.5t-123 -23q-70 0 -133 20z" />
    <glyph glyph-name="sacute" unicode="&#x15b;" horiz-adv-x="462" 
d="M240 705h125l-114 -179h-91zM33 43v78h98v-40q41 -24 100 -24q45 0 67.5 14t22.5 46q0 21 -11.5 34.5t-31.5 23t-79 33.5t-90.5 41.5t-51 44.5t-19.5 68q0 66 51 99.5t139 33.5q56 0 105 -14.5t85 -41.5v-75h-96v37q-36 22 -86 22q-45 0 -67.5 -14t-22.5 -47
q0 -30 24 -46.5t74 -34.5q14 -4 31 -11q52 -20 83 -37t51 -45t20 -71q0 -64 -48.5 -98t-146.5 -34q-121 0 -201 58z" />
    <glyph glyph-name="Scircumflex" unicode="&#x15c;" horiz-adv-x="534" 
d="M219 889h103l125 -188h-100l-77 126l-77 -126h-99zM141 5q-63 20 -108 54v98h107v-65q25 -15 61.5 -24t74.5 -9q60 0 91 25.5t31 72.5q0 33 -16.5 55t-46.5 38t-83 37q-74 29 -119 55t-69.5 61.5t-24.5 86.5q0 85 65 128.5t167 43.5q67 0 122.5 -19t95.5 -50v-93h-107v62
q-44 26 -116 26q-58 0 -91 -23t-33 -72q0 -34 21 -57t48 -36t84 -36q76 -30 117 -53t65 -58.5t24 -91.5q0 -51 -26.5 -90.5t-77.5 -62.5t-123 -23q-70 0 -133 20z" />
    <glyph glyph-name="scircumflex" unicode="&#x15d;" horiz-adv-x="462" 
d="M169 713h103l125 -188h-100l-77 126l-77 -126h-99zM33 43v78h98v-40q41 -24 100 -24q45 0 67.5 14t22.5 46q0 21 -11.5 34.5t-31.5 23t-79 33.5t-90.5 41.5t-51 44.5t-19.5 68q0 66 51 99.5t139 33.5q56 0 105 -14.5t85 -41.5v-75h-96v37q-36 22 -86 22q-45 0 -67.5 -14
t-22.5 -47q0 -30 24 -46.5t74 -34.5q14 -4 31 -11q52 -20 83 -37t51 -45t20 -71q0 -64 -48.5 -98t-146.5 -34q-121 0 -201 58z" />
    <glyph glyph-name="Scedilla" unicode="&#x15e;" horiz-adv-x="534" 
d="M452 43.5q-49 -47.5 -139 -56.5l-5 -33q43 -7 61.5 -28.5t18.5 -58.5q0 -46 -34 -70.5t-102 -24.5q-40 0 -75 13v62q31 -13 66 -13q56 0 56 36q0 26 -18.5 37t-72.5 11l10 70q-54 7 -102 25.5t-83 45.5v98h107v-65q25 -15 61.5 -24t74.5 -9q60 0 91 25.5t31 72.5
q0 33 -16.5 55t-46.5 38t-83 37q-74 29 -119 55t-69.5 61.5t-24.5 86.5q0 85 65 128.5t167 43.5q67 0 122.5 -19t95.5 -50v-93h-107v62q-44 26 -116 26q-58 0 -91 -23t-33 -72q0 -34 21 -57t48 -36t84 -36q76 -30 117 -53t65 -58.5t24 -91.5q0 -70 -49 -117.5z" />
    <glyph glyph-name="scedilla" unicode="&#x15f;" horiz-adv-x="462" 
d="M392.5 28q-36.5 -33 -109.5 -41l-5 -33q43 -7 61.5 -28.5t18.5 -58.5q0 -46 -34 -70.5t-102 -24.5q-40 0 -75 13v62q31 -13 65 -13q57 0 57 36q0 26 -18.5 37t-72.5 11l10 69q-90 9 -155 56v78h98v-40q41 -24 100 -24q45 0 67.5 14t22.5 46q0 21 -11.5 34.5t-31.5 23
t-79 33.5t-90.5 41.5t-51 44.5t-19.5 68q0 66 51 99.5t139 33.5q56 0 105 -14.5t85 -41.5v-75h-96v37q-36 22 -86 22q-45 0 -67.5 -14t-22.5 -47q0 -30 24 -46.5t74 -34.5q14 -4 31 -11q52 -20 83 -37t51 -45t20 -71q0 -56 -36.5 -89z" />
    <glyph glyph-name="Scaron" unicode="&#x160;" horiz-adv-x="534" 
d="M97 889h99l77 -126l77 126h100l-125 -188h-103zM141 5q-63 20 -108 54v98h107v-65q25 -15 61.5 -24t74.5 -9q60 0 91 25.5t31 72.5q0 33 -16.5 55t-46.5 38t-83 37q-74 29 -119 55t-69.5 61.5t-24.5 86.5q0 85 65 128.5t167 43.5q67 0 122.5 -19t95.5 -50v-93h-107v62
q-44 26 -116 26q-58 0 -91 -23t-33 -72q0 -34 21 -57t48 -36t84 -36q76 -30 117 -53t65 -58.5t24 -91.5q0 -51 -26.5 -90.5t-77.5 -62.5t-123 -23q-70 0 -133 20z" />
    <glyph glyph-name="scaron" unicode="&#x161;" horiz-adv-x="462" 
d="M41 713h99l77 -126l77 126h100l-125 -188h-103zM33 43v78h98v-40q41 -24 100 -24q45 0 67.5 14t22.5 46q0 21 -11.5 34.5t-31.5 23t-79 33.5t-90.5 41.5t-51 44.5t-19.5 68q0 66 51 99.5t139 33.5q56 0 105 -14.5t85 -41.5v-75h-96v37q-36 22 -86 22q-45 0 -67.5 -14
t-22.5 -47q0 -30 24 -46.5t74 -34.5q14 -4 31 -11q52 -20 83 -37t51 -45t20 -71q0 -64 -48.5 -98t-146.5 -34q-121 0 -201 58z" />
    <glyph glyph-name="uni0162" unicode="&#x162;" horiz-adv-x="569" 
d="M546 646v-142h-79v32q0 20 -8.5 28t-29.5 8h-91v-462q0 -19 8.5 -27.5t30.5 -8.5h27v-74h-90l-7 -46q43 -7 62 -28.5t19 -58.5q0 -46 -34 -70.5t-102 -24.5q-41 0 -76 13v62q31 -13 66 -13q57 0 57 36q0 26 -18.5 37t-73.5 11l12 82h-53v74h27q22 0 30.5 8.5t8.5 27.5
v462h-92q-20 0 -29 -8.5t-9 -27.5v-32h-79v142h523z" />
    <glyph glyph-name="uni0163" unicode="&#x163;" horiz-adv-x="435" 
d="M305 -13l-5 -33q43 -7 62 -28.5t19 -58.5q0 -46 -34 -70.5t-102 -24.5q-41 0 -76 13v62q31 -13 66 -13q57 0 57 36q0 26 -18.5 37t-73.5 11l11 73q-54 13 -82 52.5t-28 102.5v262h-78v72h78v108l106 34v-142h144v-72h-144v-269q0 -44 16.5 -63t50.5 -19q44 0 67 19v43h91
v-76q-55 -47 -127 -56z" />
    <glyph glyph-name="Tcaron" unicode="&#x164;" horiz-adv-x="569" 
d="M108 889h99l77 -126l77 126h100l-125 -188h-103zM166 74h27q22 0 30.5 8.5t8.5 27.5v462h-92q-20 0 -29 -8.5t-9 -27.5v-32h-79v142h523v-142h-79v32q0 20 -8.5 28t-29.5 8h-91v-462q0 -19 8.5 -27.5t30.5 -8.5h27v-74h-238v74z" />
    <glyph glyph-name="tcaron" unicode="&#x165;" horiz-adv-x="435" 
d="M325 758h116l-62 -204h-85zM143 26q-42 41 -42 120v262h-78v72h78v108l106 34v-142h144v-72h-144v-269q0 -44 16.5 -63t50.5 -19q44 0 67 19v43h91v-76q-33 -28 -72 -43t-92 -15q-83 0 -125 41z" />
    <glyph glyph-name="Tbar" unicode="&#x166;" horiz-adv-x="569" 
d="M546 646v-142h-79v32q0 20 -8.5 28t-29.5 8h-91v-210h126v-69h-126v-183q0 -19 8.5 -27.5t30.5 -8.5h27v-74h-238v74h27q22 0 30.5 8.5t8.5 27.5v183h-110v69h110v210h-92q-20 0 -29 -8.5t-9 -27.5v-32h-79v142h523z" />
    <glyph glyph-name="tbar" unicode="&#x167;" horiz-adv-x="435" 
d="M432 119v-76q-33 -28 -72 -43t-92 -15q-83 0 -125 41t-42 120v79h-69v69h69v114h-78v72h78v108l106 34v-142h145v-72h-145v-114h167v-69h-167v-86q0 -44 16.5 -63t50.5 -19q44 0 67 19v43h91z" />
    <glyph glyph-name="Utilde" unicode="&#x168;" horiz-adv-x="661" 
d="M144.5 804.5q26.5 33.5 82.5 33.5q26 0 48 -8t47 -23q22 -12 35.5 -17.5t28.5 -5.5q23 0 33.5 12t10.5 42h78q0 -72 -26 -104.5t-81 -32.5q-26 0 -47 8t-46 22q-21 11 -36 17t-31 6q-23 0 -34 -12t-11 -41h-78q0 70 26.5 103.5zM145 38q-62 53 -62 144v357
q0 19 -8.5 27.5t-28.5 8.5h-23v72h221v-72h-19q-19 0 -27.5 -9t-8.5 -29v-361q0 -60 35.5 -89t105.5 -29q141 0 141 118v361q0 20 -8.5 29t-28.5 9h-19v72h223v-72h-24q-19 0 -28 -8.5t-9 -27.5v-357q0 -91 -62 -144t-185 -53t-185 53z" />
    <glyph glyph-name="utilde" unicode="&#x169;" horiz-adv-x="588" 
d="M109.5 629.5q26.5 33.5 82.5 33.5q26 0 48 -8t47 -23q22 -12 35.5 -17.5t28.5 -5.5q23 0 33.5 12t10.5 42h78q0 -72 -26 -104.5t-81 -32.5q-26 0 -47 8t-46 22q-21 11 -36 17t-31 6q-23 0 -34 -12t-11 -41h-78q0 70 26.5 103.5zM130 28q-42 43 -42 123v218q0 19 -8.5 28
t-27.5 9h-29v74h172v-328q0 -97 94 -97q51 0 82 30t31 86v198q0 19 -7.5 28t-25.5 9h-28v74h167v-369q0 -19 9 -27.5t28 -8.5h20v-75h-127l-6 65q-32 -42 -74.5 -61t-103.5 -19q-82 0 -124 43z" />
    <glyph glyph-name="Umacron" unicode="&#x16a;" horiz-adv-x="661" 
d="M166 790h289v-69h-289v69zM145 38q-62 53 -62 144v357q0 19 -8.5 27.5t-28.5 8.5h-23v72h221v-72h-19q-19 0 -27.5 -9t-8.5 -29v-361q0 -60 35.5 -89t105.5 -29q141 0 141 118v361q0 20 -8.5 29t-28.5 9h-19v72h223v-72h-24q-19 0 -28 -8.5t-9 -27.5v-357q0 -91 -62 -144
t-185 -53t-185 53z" />
    <glyph glyph-name="umacron" unicode="&#x16b;" horiz-adv-x="588" 
d="M124 615h289v-69h-289v69zM130 28q-42 43 -42 123v218q0 19 -8.5 28t-27.5 9h-29v74h172v-328q0 -97 94 -97q51 0 82 30t31 86v198q0 19 -7.5 28t-25.5 9h-28v74h167v-369q0 -19 9 -27.5t28 -8.5h20v-75h-127l-6 65q-32 -42 -74.5 -61t-103.5 -19q-82 0 -124 43z" />
    <glyph glyph-name="Ubreve" unicode="&#x16c;" horiz-adv-x="661" 
d="M213 740q-43 39 -43 104h87q0 -36 19 -55.5t53 -19.5q35 0 53.5 19.5t18.5 55.5h87q0 -65 -43 -104t-116 -39t-116 39zM145 38q-62 53 -62 144v357q0 19 -8.5 27.5t-28.5 8.5h-23v72h221v-72h-19q-19 0 -27.5 -9t-8.5 -29v-361q0 -60 35.5 -89t105.5 -29q141 0 141 118
v361q0 20 -8.5 29t-28.5 9h-19v72h223v-72h-24q-19 0 -28 -8.5t-9 -27.5v-357q0 -91 -62 -144t-185 -53t-185 53z" />
    <glyph glyph-name="ubreve" unicode="&#x16d;" horiz-adv-x="588" 
d="M157 573q-43 39 -43 104h87q0 -36 19 -55.5t53 -19.5q35 0 53.5 19.5t18.5 55.5h87q0 -65 -43 -104t-116 -39t-116 39zM130 28q-42 43 -42 123v218q0 19 -8.5 28t-27.5 9h-29v74h172v-328q0 -97 94 -97q51 0 82 30t31 86v198q0 19 -7.5 28t-25.5 9h-28v74h167v-369
q0 -19 9 -27.5t28 -8.5h20v-75h-127l-6 65q-32 -42 -74.5 -61t-103.5 -19q-82 0 -124 43z" />
    <glyph glyph-name="Uring" unicode="&#x16e;" horiz-adv-x="661" 
d="M251 733q-33 33 -33 80t33 80.5t80 33.5t80.5 -33.5t33.5 -80.5t-33.5 -80t-80.5 -33t-80 33zM369 775.5q15 15.5 15 37.5q0 23 -15.5 38.5t-37.5 15.5t-37.5 -15.5t-15.5 -38.5q0 -22 15.5 -37.5t37.5 -15.5q23 0 38 15.5zM145 38q-62 53 -62 144v357q0 19 -8.5 27.5
t-28.5 8.5h-23v72h221v-72h-19q-19 0 -27.5 -9t-8.5 -29v-361q0 -60 35.5 -89t105.5 -29q141 0 141 118v361q0 20 -8.5 29t-28.5 9h-19v72h223v-72h-24q-19 0 -28 -8.5t-9 -27.5v-357q0 -91 -62 -144t-185 -53t-185 53z" />
    <glyph glyph-name="uring" unicode="&#x16f;" horiz-adv-x="588" 
d="M185 558q-33 33 -33 80t33 80.5t80 33.5t80.5 -33.5t33.5 -80.5t-33.5 -80t-80.5 -33t-80 33zM303 600.5q15 15.5 15 37.5q0 23 -15.5 38.5t-37.5 15.5t-37.5 -15.5t-15.5 -38.5q0 -22 15.5 -37.5t37.5 -15.5q23 0 38 15.5zM130 28q-42 43 -42 123v218q0 19 -8.5 28
t-27.5 9h-29v74h172v-328q0 -97 94 -97q51 0 82 30t31 86v198q0 19 -7.5 28t-25.5 9h-28v74h167v-369q0 -19 9 -27.5t28 -8.5h20v-75h-127l-6 65q-32 -42 -74.5 -61t-103.5 -19q-82 0 -124 43z" />
    <glyph glyph-name="Uhungarumlaut" unicode="&#x170;" horiz-adv-x="661" 
d="M244 888h128l-120 -188h-95zM443 888h129l-121 -188h-94zM145 38q-62 53 -62 144v357q0 19 -8.5 27.5t-28.5 8.5h-23v72h221v-72h-19q-19 0 -27.5 -9t-8.5 -29v-361q0 -60 35.5 -89t105.5 -29q141 0 141 118v361q0 20 -8.5 29t-28.5 9h-19v72h223v-72h-24q-19 0 -28 -8.5
t-9 -27.5v-357q0 -91 -62 -144t-185 -53t-185 53z" />
    <glyph glyph-name="uhungarumlaut" unicode="&#x171;" horiz-adv-x="588" 
d="M185 713h128l-120 -188h-95zM384 713h129l-121 -188h-94zM130 28q-42 43 -42 123v218q0 19 -8.5 28t-27.5 9h-29v74h172v-328q0 -97 94 -97q51 0 82 30t31 86v198q0 19 -7.5 28t-25.5 9h-28v74h167v-369q0 -19 9 -27.5t28 -8.5h20v-75h-127l-6 65q-32 -42 -74.5 -61
t-103.5 -19q-82 0 -124 43z" />
    <glyph glyph-name="Uogonek" unicode="&#x172;" horiz-adv-x="660" 
d="M637 647v-72h-24q-19 0 -28 -8.5t-9 -27.5v-357q0 -81 -49 -132.5t-147 -61.5q-36 -36 -36 -79q0 -46 37 -46q21 0 42 8v-62q-23 -15 -59 -18l-25 1q-38 4 -61 28.5t-23 68.5q0 56 38 97q-105 8 -157.5 60t-52.5 136v357q0 19 -8.5 27.5t-28.5 8.5h-23v72h221v-72h-19
q-19 0 -27.5 -9t-8.5 -29v-361q0 -60 35.5 -89t105.5 -29q141 0 141 118v361q0 20 -8.5 29t-28.5 9h-19v72h222z" />
    <glyph glyph-name="uogonek" unicode="&#x173;" horiz-adv-x="588" 
d="M478.5 -43q-12.5 -22 -12.5 -48q0 -46 37 -46q20 0 42 8v-62q-25 -18 -66 -18q-46 0 -74 24.5t-28 73.5q0 32 13.5 61t37.5 50h10l-6 65q-32 -42 -74.5 -61t-103.5 -19q-82 0 -124 43t-42 123v218q0 19 -8.5 28t-27.5 9h-29v74h172v-328q0 -97 94 -97q51 0 82 30t31 86
v198q0 19 -7.5 28t-25.5 9h-28v74h167v-369q0 -19 9 -27.5t28 -8.5h20v-75h-49q-25 -21 -37.5 -43z" />
    <glyph glyph-name="Wcircumflex" unicode="&#x174;" horiz-adv-x="871" 
d="M384 889h103l125 -188h-100l-77 126l-77 -126h-99zM112 532q-5 24 -17 32.5t-41 8.5h-21v74h154l98 -464l108 355h84l109 -355l99 464h153v-74h-22q-29 0 -41 -8.5t-17 -32.5l-119 -532h-87l-117 368l-115 -368h-88z" />
    <glyph glyph-name="wcircumflex" unicode="&#x175;" horiz-adv-x="767" 
d="M333 713h103l125 -188h-100l-77 126l-77 -126h-99zM92 383q-4 16 -13.5 22t-30.5 6h-25v69h139l84 -360l98 317h78l98 -317l86 360h138v-69h-25q-21 0 -30.5 -6t-13.5 -22l-92 -383h-104l-95 305l-96 -305h-104z" />
    <glyph glyph-name="Ycircumflex" unicode="&#x176;" horiz-adv-x="666" 
d="M284 889h103l125 -188h-100l-77 126l-77 -126h-99zM221 72h23q20 0 28.5 9t8.5 28v128l-162 298q-13 23 -26 31.5t-37 8.5h-23v72h218v-72h-14q-22 0 -22 -13q0 -9 8 -23l111 -215l110 215q7 13 7 23q0 13 -21 13h-15v72h218v-72h-23q-24 0 -37 -8.5t-26 -31.5l-161 -298
v-128q0 -19 9 -28t28 -9h23v-72h-225v72z" />
    <glyph glyph-name="ycircumflex" unicode="&#x177;" horiz-adv-x="566" 
d="M225 713h103l125 -188h-100l-77 126l-77 -126h-99zM117 -131v72h93v-36q33 -36 97 -36q52 0 78.5 30t26.5 88v71q-28 -28 -62 -40.5t-79 -12.5q-86 0 -134 44.5t-48 125.5v194q0 19 -9 28t-28 9h-29v74h172v-308q0 -98 97 -98q52 0 83 29.5t31 85.5v180q0 20 -7.5 28.5
t-26.5 8.5h-26v74h167v-471q0 -95 -54.5 -152t-147.5 -57q-122 0 -194 69z" />
    <glyph glyph-name="Ydieresis" unicode="&#x178;" horiz-adv-x="666" 
d="M180 816h92v-96h-92v96zM393 816h93v-96h-93v96zM221 72h23q20 0 28.5 9t8.5 28v128l-162 298q-13 23 -26 31.5t-37 8.5h-23v72h218v-72h-14q-22 0 -22 -13q0 -9 8 -23l111 -215l110 215q7 13 7 23q0 13 -21 13h-15v72h218v-72h-23q-24 0 -37 -8.5t-26 -31.5l-161 -298
v-128q0 -19 9 -28t28 -9h23v-72h-225v72z" />
    <glyph glyph-name="Zacute" unicode="&#x179;" horiz-adv-x="562" 
d="M283 880h125l-114 -179h-91zM33 62l362 513h-216q-21 0 -29.5 -8.5t-8.5 -27.5v-20h-96v128h469v-62l-357 -513h238q20 0 29 8.5t9 28.5v19h96v-128h-496v62z" />
    <glyph glyph-name="zacute" unicode="&#x17a;" horiz-adv-x="496" 
d="M259 705h125l-114 -179h-91zM33 57l293 350h-172q-20 0 -29 -8.5t-9 -27.5v-20h-72v129h409v-58l-292 -349h192q21 0 29.5 8.5t8.5 27.5v20h72v-129h-430v57z" />
    <glyph glyph-name="Zdotaccent" unicode="&#x17b;" horiz-adv-x="562" 
d="M230 808h92v-96h-92v96zM33 62l362 513h-216q-21 0 -29.5 -8.5t-8.5 -27.5v-20h-96v128h469v-62l-357 -513h238q20 0 29 8.5t9 28.5v19h96v-128h-496v62z" />
    <glyph glyph-name="zdotaccent" unicode="&#x17c;" horiz-adv-x="496" 
d="M197 641h92v-96h-92v96zM33 57l293 350h-172q-20 0 -29 -8.5t-9 -27.5v-20h-72v129h409v-58l-292 -349h192q21 0 29.5 8.5t8.5 27.5v20h72v-129h-430v57z" />
    <glyph glyph-name="Zcaron" unicode="&#x17d;" horiz-adv-x="562" 
d="M98 889h99l77 -126l77 126h100l-125 -188h-103zM33 62l362 513h-216q-21 0 -29.5 -8.5t-8.5 -27.5v-20h-96v128h469v-62l-357 -513h238q20 0 29 8.5t9 28.5v19h96v-128h-496v62z" />
    <glyph glyph-name="zcaron" unicode="&#x17e;" horiz-adv-x="496" 
d="M68 713h99l77 -126l77 126h100l-125 -188h-103zM33 57l293 350h-172q-20 0 -29 -8.5t-9 -27.5v-20h-72v129h409v-58l-292 -349h192q21 0 29.5 8.5t8.5 27.5v20h72v-129h-430v57z" />
    <glyph glyph-name="uni018F" unicode="&#x18f;" horiz-adv-x="676" 
d="M109 71q-76 86 -76 229v64h506q0 109 -57.5 166.5t-153.5 57.5q-109 0 -166 -31v-64h-107v92q53 40 120.5 58.5t152.5 18.5q92 0 163 -35.5t111.5 -108.5t40.5 -183q0 -172 -78.5 -261t-230.5 -89q-149 0 -225 86zM489 123q50 64 50 166h-397q0 -111 48 -170.5t144 -59.5
q105 0 155 64z" />
    <glyph glyph-name="florin" unicode="&#x192;" horiz-adv-x="592" 
d="M-161 -106l17 78h88l-9 -42q12 -9 25 -13t34 -4q38 0 59 20t30 64l87 410h-78l16 73h77l7 31q19 83 68.5 124.5t139.5 41.5q97 0 149 -54l-16 -77h-89l9 41q-10 10 -23 14t-35 4q-40 0 -63.5 -20.5t-31.5 -63.5l-8 -41h145l-16 -73h-145l-85 -400q-18 -82 -64 -124
t-138 -42q-99 0 -150 53z" />
    <glyph glyph-name="Ohorn" unicode="&#x1a0;" horiz-adv-x="710" 
d="M106 68.5q-73 83.5 -73 252.5q0 171 71.5 256t225.5 85q150 0 222 -84q32 4 44.5 22t12.5 53v36h103v-37q0 -121 -118 -142q32 -73 32 -189q0 -169 -73 -252.5t-223 -83.5q-151 0 -224 83.5zM475 120q47 61 47 201q0 143 -46.5 205t-145.5 62q-100 0 -146.5 -62
t-46.5 -205q0 -140 47 -201t146 -61q98 0 145 61z" />
    <glyph glyph-name="ohorn" unicode="&#x1a1;" horiz-adv-x="619" 
d="M95 52q-62 67 -62 187q0 121 61.5 188.5t184.5 67.5q119 0 183 -67q32 4 44.5 21.5t12.5 52.5v36h102v-37q0 -59 -27.5 -94.5t-88.5 -46.5q20 -50 20 -121q0 -120 -62 -187t-184 -67t-184 67zM386 104q35 44 35 135q0 92 -35 136.5t-107 44.5t-106.5 -44.5t-34.5 -136.5
q0 -91 34.5 -135t106.5 -44t107 44z" />
    <glyph glyph-name="Uhorn" unicode="&#x1af;" horiz-adv-x="733" 
d="M145 38q-62 53 -62 144v357q0 19 -8.5 27.5t-28.5 8.5h-23v72h221v-72h-19q-19 0 -27.5 -9t-8.5 -29v-361q0 -60 35.5 -89t105.5 -29q141 0 141 118v361q0 20 -8.5 29t-28.5 9h-19v72h161v-67q32 2 44.5 19.5t12.5 53.5v36h102v-37q0 -67 -37.5 -105.5t-121.5 -42.5v-322
q0 -91 -61.5 -144t-184.5 -53t-185 53z" />
    <glyph glyph-name="uhorn" unicode="&#x1b0;" horiz-adv-x="662" 
d="M130 28q-42 43 -42 123v218q0 19 -8.5 28t-27.5 9h-29v74h172v-328q0 -97 94 -97q51 0 82 30t31 86v198q0 19 -7.5 28t-25.5 9h-28v74h167v-51q31 3 42.5 20.5t11.5 52.5v36h102v-37q0 -67 -36.5 -105t-119.5 -43v-242q0 -19 9 -27.5t28 -8.5h20v-75h-127l-6 65
q-35 -42 -76 -61t-102 -19q-82 0 -124 43z" />
    <glyph glyph-name="uni01CD" unicode="&#x1cd;" horiz-adv-x="719" 
d="M186 888h99l77 -126l77 126h100l-125 -188h-103zM33 73h31q23 0 35.5 8t19.5 28l191 538h101l189 -538q7 -20 20 -28t36 -8h30v-73h-228v73h50l-44 128h-208l-44 -128h50v-73h-229v73zM444 264l-83 244l-85 -244h168z" />
    <glyph glyph-name="uni01CE" unicode="&#x1ce;" horiz-adv-x="523" 
d="M72 713h99l77 -126l77 126h100l-125 -188h-103zM64.5 20q-41.5 35 -41.5 99q0 72 45.5 105.5t131.5 39.5l140 9v61q0 47 -20 68t-68 21q-33 0 -54.5 -5.5t-39.5 -17.5v-36h-93v79q84 52 189 52q192 0 192 -170v-219q0 -20 7.5 -29t24.5 -9h22v-68h-115l-13 63
q-32 -41 -74.5 -59.5t-111.5 -18.5q-80 0 -121.5 35zM305 83q35 26 35 79v48l-132 -10q-49 -3 -68 -20.5t-19 -55.5q0 -33 21 -50t68 -17q60 0 95 26z" />
    <glyph glyph-name="uni01CF" unicode="&#x1cf;" horiz-adv-x="303" 
d="M-25 889h99l77 -126l77 126h100l-125 -188h-103zM33 73h29q20 0 28.5 9t8.5 29v426q0 19 -8.5 27.5t-28.5 8.5h-29v74h237v-74h-29q-19 0 -27.5 -8.5t-8.5 -27.5v-427q0 -20 8.5 -28.5t27.5 -8.5h29v-73h-237v73z" />
    <glyph glyph-name="uni01D0" unicode="&#x1d0;" horiz-adv-x="285" 
d="M-47 713h99l77 -126l77 126h100l-125 -188h-103zM23 74h29q20 0 28.5 9t8.5 29v257q0 19 -8.5 27.5t-28.5 8.5h-29v75h173v-369q0 -19 9 -28t28 -9h29v-74h-239v74z" />
    <glyph glyph-name="uni01D1" unicode="&#x1d1;" horiz-adv-x="659" 
d="M152 889h99l77 -126l77 126h100l-125 -188h-103zM106 68.5q-73 83.5 -73 252.5q0 171 71.5 256t225.5 85q153 0 224.5 -85t71.5 -256q0 -169 -73 -252.5t-223 -83.5q-151 0 -224 83.5zM475 120q47 61 47 201q0 143 -46.5 205t-145.5 62q-100 0 -146.5 -62t-46.5 -205
q0 -140 47 -201t146 -61q98 0 145 61z" />
    <glyph glyph-name="uni01D2" unicode="&#x1d2;" horiz-adv-x="558" 
d="M103 713h99l77 -126l77 126h100l-125 -188h-103zM95 52q-62 67 -62 187q0 121 61.5 188.5t184.5 67.5t184.5 -67.5t61.5 -188.5q0 -120 -62 -187t-184 -67t-184 67zM386 104q35 44 35 135q0 92 -35 136.5t-107 44.5t-106.5 -44.5t-34.5 -136.5q0 -91 34.5 -135t106.5 -44
t107 44z" />
    <glyph glyph-name="uni01D3" unicode="&#x1d3;" horiz-adv-x="661" 
d="M154 889h99l77 -126l77 126h100l-125 -188h-103zM145 38q-62 53 -62 144v357q0 19 -8.5 27.5t-28.5 8.5h-23v72h221v-72h-19q-19 0 -27.5 -9t-8.5 -29v-361q0 -60 35.5 -89t105.5 -29q141 0 141 118v361q0 20 -8.5 29t-28.5 9h-19v72h223v-72h-24q-19 0 -28 -8.5
t-9 -27.5v-357q0 -91 -62 -144t-185 -53t-185 53z" />
    <glyph glyph-name="uni01D4" unicode="&#x1d4;" horiz-adv-x="588" 
d="M101 713h99l77 -126l77 126h100l-125 -188h-103zM130 28q-42 43 -42 123v218q0 19 -8.5 28t-27.5 9h-29v74h172v-328q0 -97 94 -97q51 0 82 30t31 86v198q0 19 -7.5 28t-25.5 9h-28v74h167v-369q0 -19 9 -27.5t28 -8.5h20v-75h-127l-6 65q-32 -42 -74.5 -61t-103.5 -19
q-82 0 -124 43z" />
    <glyph glyph-name="uni01D5" unicode="&#x1d5;" horiz-adv-x="661" 
d="M185 949h289v-69h-289v69zM176 808h92v-96h-92v96zM389 808h93v-96h-93v96zM145 38q-62 53 -62 144v357q0 19 -8.5 27.5t-28.5 8.5h-23v72h221v-72h-19q-19 0 -27.5 -9t-8.5 -29v-361q0 -60 35.5 -89t105.5 -29q141 0 141 118v361q0 20 -8.5 29t-28.5 9h-19v72h223v-72
h-24q-19 0 -28 -8.5t-9 -27.5v-357q0 -91 -62 -144t-185 -53t-185 53z" />
    <glyph glyph-name="uni01D6" unicode="&#x1d6;" horiz-adv-x="588" 
d="M128 757h289v-69h-289v69zM119 632h92v-96h-92v96zM332 632h93v-96h-93v96zM130 28q-42 43 -42 123v218q0 19 -8.5 28t-27.5 9h-29v74h172v-328q0 -97 94 -97q51 0 82 30t31 86v198q0 19 -7.5 28t-25.5 9h-28v74h167v-369q0 -19 9 -27.5t28 -8.5h20v-75h-127l-6 65
q-32 -42 -74.5 -61t-103.5 -19q-82 0 -124 43z" />
    <glyph glyph-name="uni01D7" unicode="&#x1d7;" horiz-adv-x="661" 
d="M357 968h113l-98 -127h-78zM179 820h92v-96h-92v96zM392 820h93v-96h-93v96zM145 38q-62 53 -62 144v357q0 19 -8.5 27.5t-28.5 8.5h-23v72h221v-72h-19q-19 0 -27.5 -9t-8.5 -29v-361q0 -60 35.5 -89t105.5 -29q141 0 141 118v361q0 20 -8.5 29t-28.5 9h-19v72h223v-72
h-24q-19 0 -28 -8.5t-9 -27.5v-357q0 -91 -62 -144t-185 -53t-185 53z" />
    <glyph glyph-name="uni01D8" unicode="&#x1d8;" horiz-adv-x="588" 
d="M292 793h113l-98 -127h-78zM114 645h92v-96h-92v96zM327 645h93v-96h-93v96zM130 28q-42 43 -42 123v218q0 19 -8.5 28t-27.5 9h-29v74h172v-328q0 -97 94 -97q51 0 82 30t31 86v198q0 19 -7.5 28t-25.5 9h-28v74h167v-369q0 -19 9 -27.5t28 -8.5h20v-75h-127l-6 65
q-32 -42 -74.5 -61t-103.5 -19q-82 0 -124 43z" />
    <glyph glyph-name="uni01D9" unicode="&#x1d9;" horiz-adv-x="661" 
d="M172 976h94l62 -85l64 85h94l-107 -135h-101zM175 820h93v-96h-93v96zM389 820h92v-96h-92v96zM145 38q-62 53 -62 144v357q0 19 -8.5 27.5t-28.5 8.5h-23v72h221v-72h-19q-19 0 -27.5 -9t-8.5 -29v-361q0 -60 35.5 -89t105.5 -29q141 0 141 118v361q0 20 -8.5 29
t-28.5 9h-19v72h223v-72h-24q-19 0 -28 -8.5t-9 -27.5v-357q0 -91 -62 -144t-185 -53t-185 53z" />
    <glyph glyph-name="uni01DA" unicode="&#x1da;" horiz-adv-x="588" 
d="M115 801h94l62 -85l64 85h94l-107 -135h-101zM118 645h93v-96h-93v96zM332 645h92v-96h-92v96zM130 28q-42 43 -42 123v218q0 19 -8.5 28t-27.5 9h-29v74h172v-328q0 -97 94 -97q51 0 82 30t31 86v198q0 19 -7.5 28t-25.5 9h-28v74h167v-369q0 -19 9 -27.5t28 -8.5h20
v-75h-127l-6 65q-32 -42 -74.5 -61t-103.5 -19q-82 0 -124 43z" />
    <glyph glyph-name="uni01DB" unicode="&#x1db;" horiz-adv-x="661" 
d="M190 968h113l63 -127h-78zM175 820h93v-96h-93v96zM389 820h92v-96h-92v96zM145 38q-62 53 -62 144v357q0 19 -8.5 27.5t-28.5 8.5h-23v72h221v-72h-19q-19 0 -27.5 -9t-8.5 -29v-361q0 -60 35.5 -89t105.5 -29q141 0 141 118v361q0 20 -8.5 29t-28.5 9h-19v72h223v-72
h-24q-19 0 -28 -8.5t-9 -27.5v-357q0 -91 -62 -144t-185 -53t-185 53z" />
    <glyph glyph-name="uni01DC" unicode="&#x1dc;" horiz-adv-x="588" 
d="M129 793h113l63 -127h-78zM114 645h93v-96h-93v96zM328 645h92v-96h-92v96zM130 28q-42 43 -42 123v218q0 19 -8.5 28t-27.5 9h-29v74h172v-328q0 -97 94 -97q51 0 82 30t31 86v198q0 19 -7.5 28t-25.5 9h-28v74h167v-369q0 -19 9 -27.5t28 -8.5h20v-75h-127l-6 65
q-32 -42 -74.5 -61t-103.5 -19q-82 0 -124 43z" />
    <glyph glyph-name="Gcaron" unicode="&#x1e6;" horiz-adv-x="618" 
d="M174 889h99l77 -126l77 126h100l-125 -188h-103zM178 27.5q-72 42.5 -108.5 118t-36.5 174.5q0 100 34 177t104.5 121t175.5 44q72 0 124.5 -13.5t92.5 -42.5v-102h-106v62q-43 22 -111 22q-100 0 -155 -71t-55 -197q0 -123 58 -192t162 -69q70 0 123 21v187h-139v74h244
v-293q-49 -33 -105 -48t-127 -15q-103 0 -175 42.5z" />
    <glyph glyph-name="gcaron" unicode="&#x1e7;" horiz-adv-x="584" 
d="M125 713h99l77 -126l77 126h100l-125 -188h-103zM116 -130v69h92v-36q19 -14 40.5 -19.5t52.5 -5.5q104 0 104 105v80q-27 -37 -66 -54t-93 -17q-102 0 -157.5 65t-55.5 189q0 119 58.5 184t158.5 65q58 0 98 -20.5t70 -65.5l9 72h134v-69h-21q-18 0 -25 -9.5t-7 -31.5
v-372q0 -90 -54.5 -144.5t-145.5 -54.5q-119 0 -192 70zM368.5 107.5q33.5 37.5 33.5 110.5v46q0 71 -34 112.5t-98 41.5q-70 0 -101.5 -40.5t-31.5 -131.5q0 -95 31 -135.5t103 -40.5q64 0 97.5 37.5z" />
    <glyph glyph-name="Aringacute" unicode="&#x1fa;" horiz-adv-x="719" 
d="M394 856h-91l80 179h125zM686 73v-73h-228v73h50l-44 128h-208l-44 -128h50v-73h-229v73h31q23 0 35.5 8t19.5 28l181 511q-24 15 -38 40.5t-14 55.5q0 47 33 80.5t80 33.5t80.5 -33.5t33.5 -80.5q0 -30 -15 -55.5t-39 -40.5l179 -511q7 -20 20 -28t36 -8h30z
M323.5 754.5q-15.5 -15.5 -15.5 -38.5q0 -22 15.5 -37.5t37.5 -15.5q23 0 38 15.5t15 37.5q0 23 -15.5 38.5t-37.5 15.5t-37.5 -15.5zM444 264l-83 244l-85 -244h168z" />
    <glyph glyph-name="aringacute" unicode="&#x1fb;" horiz-adv-x="523" 
d="M268 919h125l-114 -143h-91zM170 555q-33 33 -33 80t33 80.5t80 33.5t80.5 -33.5t33.5 -80.5t-33.5 -80t-80.5 -33t-80 33zM288 597.5q15 15.5 15 37.5q0 23 -15.5 38.5t-37.5 15.5t-37.5 -15.5t-15.5 -38.5q0 -22 15.5 -37.5t37.5 -15.5q23 0 38 15.5zM64.5 20
q-41.5 35 -41.5 99q0 72 45.5 105.5t131.5 39.5l140 9v61q0 47 -20 68t-68 21q-33 0 -54.5 -5.5t-39.5 -17.5v-36h-93v79q84 52 189 52q192 0 192 -170v-219q0 -20 7.5 -29t24.5 -9h22v-68h-115l-13 63q-32 -41 -74.5 -59.5t-111.5 -18.5q-80 0 -121.5 35zM305 83
q35 26 35 79v48l-132 -10q-49 -3 -68 -20.5t-19 -55.5q0 -33 21 -50t68 -17q60 0 95 26z" />
    <glyph glyph-name="AEacute" unicode="&#x1fc;" horiz-adv-x="838" 
d="M506 880h125l-114 -179h-91zM33 73h31q23 0 35.5 8t19.5 28l204 538h482v-129h-96v19q0 20 -9 28.5t-29 8.5h-167v-213h167v-74h-167v-214h167q20 0 29 8.5t9 28.5v20h96v-130h-469v73h29q20 0 28.5 9t8.5 29v90h-143l-47 -128h50v-73h-229v73zM402 274v299h-7l-113 -299
h120z" />
    <glyph glyph-name="aeacute" unicode="&#x1fd;" horiz-adv-x="846" 
d="M429 705h125l-114 -179h-91zM64.5 20q-41.5 35 -41.5 99q0 72 45.5 105.5t131.5 39.5l140 9v61q0 47 -20 68t-68 21q-30 0 -52 -5.5t-42 -17.5v-36h-93v79q84 52 187 52q61 0 97 -19t58 -59q28 39 75 58.5t105 19.5q113 0 169.5 -62.5t56.5 -174.5v-46h-364
q0 -78 42 -118t104 -40q37 0 63 6t48 18v37h90v-70q-39 -31 -87 -45.5t-115 -14.5q-65 0 -114 24.5t-77 72.5q-29 -50 -85.5 -73.5t-131.5 -23.5q-80 0 -121.5 35zM713 277q0 77 -31 111.5t-96 34.5q-67 0 -102 -37t-35 -109h264zM305 83.5q35 26.5 35 79.5v48l-132 -10
q-49 -3 -68 -20.5t-19 -55.5q0 -33 21 -50.5t68 -17.5q60 0 95 26.5z" />
    <glyph glyph-name="Oslashacute" unicode="&#x1fe;" horiz-adv-x="659" 
d="M363 880h126l-115 -179h-90zM180 14q-75 34 -111 110.5t-36 196.5q0 171 71.5 256t225.5 85q47 0 86 -9l14 36h55l-19 -50q82 -33 121 -112t39 -206q0 -169 -73 -252.5t-223 -83.5q-57 0 -102 12l-14 -40h-55zM390 581q-32 7 -60 7q-100 0 -146.5 -62t-46.5 -205
q0 -86 18 -141t55 -84zM475 120q47 61 47 201q0 96 -21 154.5t-64 85.5l-182 -491q30 -11 75 -11q98 0 145 61z" />
    <glyph glyph-name="oslashacute" unicode="&#x1ff;" horiz-adv-x="558" 
d="M300 701h126l-114 -179h-91zM168 3q-67 26 -101 86.5t-34 149.5q0 121 61.5 188.5t184.5 67.5q25 0 65 -6l17 46h54l-22 -60q66 -27 99 -87t33 -149q0 -120 -62 -187t-184 -67q-29 0 -62 5l-15 -42h-55zM318 416q-24 4 -39 4q-72 0 -106.5 -44.5t-34.5 -136.5
q0 -113 59 -154zM386 104q35 44 35 135q0 110 -58 153l-120 -329q17 -3 36 -3q72 0 107 44z" />
    <glyph glyph-name="Scommaaccent" unicode="&#x218;" horiz-adv-x="534" 
d="M141 5q-63 20 -108 54v98h107v-65q25 -15 61.5 -24t74.5 -9q60 0 91 25.5t31 72.5q0 33 -16.5 55t-46.5 38t-83 37q-74 29 -119 55t-69.5 61.5t-24.5 86.5q0 85 65 128.5t167 43.5q67 0 122.5 -19t95.5 -50v-93h-107v62q-44 26 -116 26q-58 0 -91 -23t-33 -72
q0 -34 21 -57t48 -36t84 -36q76 -30 117 -53t65 -58.5t24 -91.5q0 -51 -26.5 -90.5t-77.5 -62.5t-123 -23q-70 0 -133 20zM212 -49h133l-95 -195h-99z" />
    <glyph glyph-name="scommaaccent" unicode="&#x219;" horiz-adv-x="462" 
d="M33 43v78h98v-40q41 -24 100 -24q45 0 67.5 14t22.5 46q0 21 -11.5 34.5t-31.5 23t-79 33.5t-90.5 41.5t-51 44.5t-19.5 68q0 66 51 99.5t139 33.5q56 0 105 -14.5t85 -41.5v-75h-96v37q-36 22 -86 22q-45 0 -67.5 -14t-22.5 -47q0 -30 24 -46.5t74 -34.5q14 -4 31 -11
q52 -20 83 -37t51 -45t20 -71q0 -64 -48.5 -98t-146.5 -34q-121 0 -201 58zM173 -49h133l-95 -195h-99z" />
    <glyph glyph-name="uni021A" unicode="&#x21a;" horiz-adv-x="569" 
d="M166 74h27q22 0 30.5 8.5t8.5 27.5v462h-92q-20 0 -29 -8.5t-9 -27.5v-32h-79v142h523v-142h-79v32q0 20 -8.5 28t-29.5 8h-91v-462q0 -19 8.5 -27.5t30.5 -8.5h27v-74h-238v74zM242 -49h116l-62 -204h-85z" />
    <glyph glyph-name="uni021B" unicode="&#x21b;" horiz-adv-x="435" 
d="M143 26q-42 41 -42 120v262h-78v72h78v108l106 34v-142h144v-72h-144v-269q0 -44 16.5 -63t50.5 -19q44 0 67 19v43h91v-76q-33 -28 -72 -43t-92 -15q-83 0 -125 41zM216 -49h116l-62 -204h-85z" />
    <glyph glyph-name="uni0237" unicode="&#x237;" horiz-adv-x="373" 
d="M47 -158.5q-41 14.5 -74 43.5v83h90v-44q16 -14 32.5 -19.5t40.5 -5.5q39 0 58 20.5t19 68.5v381q0 19 -8.5 27.5t-28.5 8.5h-29v75h173v-480q0 -86 -45.5 -129.5t-132.5 -43.5q-54 0 -95 14.5z" />
    <glyph glyph-name="uni0251" unicode="&#x251;" horiz-adv-x="586" 
d="M90.5 48.5q-57.5 62.5 -57.5 180.5q0 81 27 141t76.5 92.5t116.5 32.5q64 0 104.5 -18.5t69.5 -61.5l5 65h78v-373q0 -22 7 -30.5t26 -8.5h20v-68h-128l-9 69q-29 -44 -73 -63.5t-105 -19.5q-100 0 -157.5 62.5zM373 99q38 46 38 117v51q0 74 -36 116t-99 42
q-139 0 -139 -195q0 -92 32.5 -134.5t102.5 -42.5q63 0 101 46z" />
    <glyph glyph-name="uni0259" unicode="&#x259;" horiz-adv-x="539" 
d="M90.5 48.5q-57.5 63.5 -57.5 172.5v47h366q0 82 -39 120t-107 38q-37 0 -62.5 -6t-47.5 -18v-37h-93v70q42 31 90 45.5t115 14.5q113 0 182 -63.5t69 -185.5q0 -131 -63.5 -196t-181.5 -65q-113 0 -170.5 63.5zM364.5 95q34.5 39 34.5 107h-264q0 -146 128 -146
q67 0 101.5 39z" />
    <glyph glyph-name="uni02BB" unicode="&#x2bb;" horiz-adv-x="290" 
d="M147 653h100l-70 -220h-134z" />
    <glyph glyph-name="uni02BC" unicode="&#x2bc;" horiz-adv-x="290" 
d="M113 653h134l-104 -220h-100z" />
    <glyph glyph-name="uni02BE" unicode="&#x2be;" 
d="M-91 542q40 0 57 14.5t17 48.5t-17 48t-57 14v65q80 0 117 -33.5t37 -93.5q0 -61 -37.5 -94.5t-116.5 -33.5v65z" />
    <glyph glyph-name="uni02BF" unicode="&#x2bf;" 
d="M-53.5 510.5q-37.5 33.5 -37.5 94.5q0 60 37 93.5t117 33.5v-65q-40 0 -57 -14t-17 -48t17 -48.5t57 -14.5v-65q-79 0 -116.5 33.5z" />
    <glyph glyph-name="circumflex" unicode="&#x2c6;" horiz-adv-x="458" 
d="M174 729h110l131 -197h-116l-71 114l-71 -114h-114z" />
    <glyph glyph-name="caron" unicode="&#x2c7;" horiz-adv-x="439" 
d="M43 717h99l77 -126l77 126h100l-125 -188h-103z" />
    <glyph glyph-name="uni02C8" unicode="&#x2c8;" 
d="M-55 718h109v-180h-109v180z" />
    <glyph glyph-name="uni02C9" unicode="&#x2c9;" horiz-adv-x="589" 
d="M150 623h290v-69h-290v69z" />
    <glyph glyph-name="uni02CA" unicode="&#x2ca;" 
d="M18 701h126l-114 -179h-91z" />
    <glyph glyph-name="uni02CB" unicode="&#x2cb;" 
d="M-93 701h126l79 -179h-91z" />
    <glyph glyph-name="uni02CC" unicode="&#x2cc;" 
d="M-55 -39h109v-180h-109v180z" />
    <glyph glyph-name="breve" unicode="&#x2d8;" horiz-adv-x="404" 
d="M86 589q-43 39 -43 104h87q0 -36 19 -55.5t53 -19.5q35 0 53.5 19.5t18.5 55.5h87q0 -65 -43 -104t-116 -39t-116 39z" />
    <glyph glyph-name="dotaccent" unicode="&#x2d9;" horiz-adv-x="179" 
d="M43 656h93v-96h-93v96z" />
    <glyph glyph-name="ring" unicode="&#x2da;" horiz-adv-x="313" 
d="M76 547q-33 33 -33 80t33 80.5t80 33.5t80.5 -33.5t33.5 -80.5t-33.5 -80t-80.5 -33t-80 33zM194 589.5q15 15.5 15 37.5q0 23 -15.5 38.5t-37.5 15.5t-37.5 -15.5t-15.5 -38.5q0 -22 15.5 -37.5t37.5 -15.5q23 0 38 15.5z" />
    <glyph glyph-name="ogonek" unicode="&#x2db;" horiz-adv-x="254" 
d="M71 -184.5q-28 24.5 -28 73.5q0 32 13.5 61t37.5 50h88q-25 -21 -37.5 -43t-12.5 -48q0 -46 37 -46q20 0 42 8v-62q-25 -18 -66 -18q-46 0 -74 24.5z" />
    <glyph glyph-name="tilde" unicode="&#x2dc;" horiz-adv-x="477" 
d="M70 657.5q27 33.5 82 33.5q26 0 48 -8t47 -23q22 -12 35.5 -17.5t28.5 -5.5q23 0 33.5 12t10.5 42h79q0 -72 -26 -104.5t-82 -32.5q-25 0 -45 7.5t-46 21.5q-21 12 -36.5 18t-32.5 6q-23 0 -34 -12t-11 -41h-78q0 70 27 103.5z" />
    <glyph glyph-name="hungarumlaut" unicode="&#x2dd;" horiz-adv-x="500" 
d="M130 721h128l-121 -188h-94zM329 721h128l-120 -188h-94z" />
    <glyph glyph-name="gravecomb" unicode="&#x300;" 
d="M-430 701h126l80 -179h-92z" />
    <glyph glyph-name="acutecomb" unicode="&#x301;" 
d="M-317 701h125l-114 -179h-91z" />
    <glyph glyph-name="uni0302" unicode="&#x302;" 
d="M-51 701h103l125 -188h-100l-77 126l-77 -126h-99z" />
    <glyph glyph-name="tildecomb" unicode="&#x303;" 
d="M-478.5 645.5q26.5 33.5 82.5 33.5q26 0 48 -8t47 -23q22 -12 35.5 -17.5t28.5 -5.5q23 0 33.5 12t10.5 42h78q0 -72 -26 -104.5t-81 -32.5q-26 0 -47 8t-46 22q-21 11 -36 17t-31 6q-23 0 -34 -12t-11 -41h-78q0 70 26.5 103.5z" />
    <glyph glyph-name="uni0304" unicode="&#x304;" 
d="M-143 623h289v-69h-289v69z" />
    <glyph glyph-name="uni0306" unicode="&#x306;" 
d="M-116 577q-43 39 -43 104h87q0 -36 19 -55.5t53 -19.5q35 0 53.5 19.5t18.5 55.5h87q0 -65 -43 -104t-116 -39t-116 39z" />
    <glyph glyph-name="uni0307" unicode="&#x307;" 
d="M-46 644h92v-96h-92v96z" />
    <glyph glyph-name="uni0308" unicode="&#x308;" 
d="M-152 652h92v-96h-92v96zM61 652h93v-96h-93v96z" />
    <glyph glyph-name="hookabovecomb" unicode="&#x309;" 
d="M-355 576q34 0 48 11t14 32q0 19 -11 27t-38 8q-26 0 -49 -9v59q29 11 72 11q115 0 115 -84q0 -62 -65 -80v-40h-86v65z" />
    <glyph glyph-name="uni030A" unicode="&#x30a;" 
d="M-80 543q-33 33 -33 80t33 80.5t80 33.5t80.5 -33.5t33.5 -80.5t-33.5 -80t-80.5 -33t-80 33zM38 585.5q15 15.5 15 37.5q0 23 -15.5 38.5t-37.5 15.5t-37.5 -15.5t-15.5 -38.5q0 -22 15 -37.5t38 -15.5t38 15.5z" />
    <glyph glyph-name="uni030B" unicode="&#x30b;" 
d="M-150 709h128l-120 -188h-95zM49 709h129l-121 -188h-94z" />
    <glyph glyph-name="uni030C" unicode="&#x30c;" 
d="M-176 705h99l77 -126l77 126h100l-125 -188h-103z" />
    <glyph glyph-name="uni031B" unicode="&#x31b;" 
d="M-126 561q46 0 63.5 19t17.5 61v36h106v-37q0 -72 -44 -110t-143 -38v69z" />
    <glyph glyph-name="dotbelowcomb" unicode="&#x323;" 
d="M-349 -62h92v-96h-92v96z" />
    <glyph glyph-name="uni0324" unicode="&#x324;" 
d="M-151 -62h92v-96h-92v96zM61 -62h92v-96h-92v96z" />
    <glyph glyph-name="uni0326" unicode="&#x326;" 
d="M-36 -49h133l-95 -195h-99z" />
    <glyph glyph-name="uni0327" unicode="&#x327;" 
d="M-113 -215v62q31 -13 66 -13q57 0 57 36q0 26 -18.5 37t-73.5 11l12 82h95l-7 -46q43 -7 62 -28.5t19 -58.5q0 -46 -34 -70.5t-102 -24.5q-41 0 -76 13z" />
    <glyph glyph-name="uni0328" unicode="&#x328;" 
d="M-61 -184.5q-28 24.5 -28 73.5q0 32 13.5 61t37.5 50h88q-25 -21 -37.5 -43t-12.5 -48q0 -46 37 -46q20 0 42 8v-62q-25 -18 -66 -18q-46 0 -74 24.5z" />
    <glyph glyph-name="uni032E" unicode="&#x32e;" 
d="M-116 -152.5q-43 39.5 -43 104.5h87q0 -36 19 -55.5t53 -19.5q35 0 53.5 19.5t18.5 55.5h87q0 -65 -43 -104.5t-116 -39.5t-116 39.5z" />
    <glyph glyph-name="uni0331" unicode="&#x331;" 
d="M-143 -63h289v-69h-289v69z" />
    <glyph glyph-name="uni0394" unicode="&#x394;" horiz-adv-x="726" 
d="M43 79l271 594h98l271 -594v-79h-640v79zM569 81l-206 466l-206 -466h412z" />
    <glyph glyph-name="uni03A9" unicode="&#x3a9;" horiz-adv-x="795" 
d="M43 126h79v-19q0 -20 7.5 -27t28.5 -7h92q-78 58 -123 129.5t-45 164.5q0 147 78 237.5t238 90.5q158 0 236.5 -90.5t78.5 -237.5q0 -93 -45 -164.5t-123 -129.5h92q20 0 28 7.5t8 26.5v19h79v-126h-306v90q85 56 124 121.5t39 155.5q0 120 -52 187t-159 67
q-106 0 -159 -67.5t-53 -186.5q0 -90 39 -155.5t124 -121.5v-90h-306v126z" />
    <glyph glyph-name="uni03BC" unicode="&#x3bc;" horiz-adv-x="588" 
d="M88 369q0 19 -8.5 28t-27.5 9h-29v74h172v-328q0 -97 94 -97q51 0 82 30t31 86v198q0 19 -7.5 28t-25.5 9h-28v74h167v-369q0 -19 9 -27.5t28 -8.5h20v-75h-127l-6 65q-33 -43 -71.5 -61.5t-98.5 -18.5q-17 0 -35.5 5.5t-31.5 15.5v-214h-107v577z" />
    <glyph glyph-name="pi" unicode="&#x3c0;" horiz-adv-x="698" 
d="M420 22.5q-37 37.5 -37 110.5v274h-163v-296q0 -20 9 -29t30 -9h26v-73h-237v73h28q21 0 30 9t9 29v296h-92v73h563v-73h-96v-284q0 -37 10 -51.5t39 -14.5q32 0 45 21v42h91v-74q-30 -30 -62.5 -45.5t-77.5 -15.5q-78 0 -115 37.5z" />
    <glyph glyph-name="uni0E01" unicode="&#xe01;" horiz-adv-x="566" 
d="M54 217q0 42 13 70.5t45 46.5l-79 47v71q47 44 109 68t134 24q117 0 177 -50.5t60 -136.5v-357h-108v360q0 54 -33 81.5t-96 27.5q-84 0 -142 -45v-13l81 -51v-47q-31 -12 -42 -32.5t-11 -61.5v-219h-108v217z" />
    <glyph glyph-name="uni0E02" unicode="&#xe02;" horiz-adv-x="528" 
d="M98 37.5q-45 52.5 -45 143.5v39q0 41 16.5 75.5t45.5 61.5q-46 2 -64 23.5t-18 69.5q0 49 23.5 71.5t81.5 22.5q59 0 82 -21t23 -74v-33q0 -19 -8.5 -34.5t-26.5 -37.5q-23 -29 -35 -53t-12 -59v-55q0 -42 6.5 -65.5t28.5 -37.5t68 -14t68.5 13.5t28.5 37.5t6 66v352h108
v-344q0 -95 -46 -147.5t-165 -52.5q-121 0 -166 52.5zM169.5 417q9.5 9 9.5 31q0 24 -9 32.5t-34 8.5t-34 -8.5t-9 -32.5q0 -23 9 -31.5t34 -8.5q24 0 33.5 9z" />
    <glyph glyph-name="uni0E03" unicode="&#xe03;" horiz-adv-x="557" 
d="M162.5 6.5q-46.5 21.5 -63.5 60t-17 95.5v19q0 43 24.5 78.5t68.5 79.5q28 28 40.5 44t12.5 30v29l-25 -15q0 -70 -89 -70q-50 0 -70.5 23t-20.5 70q0 51 19 72.5t76 21.5q39 0 56.5 -8.5t26.5 -32.5l43 26h78v-112q0 -29 -16.5 -54.5t-50.5 -64.5q-33 -37 -49 -61.5
t-16 -51.5v-27q0 -48 22.5 -73t80.5 -25q46 0 68.5 13.5t28.5 37.5t6 66v352h108v-344q0 -95 -46 -147.5t-165 -52.5q-84 0 -130.5 21.5zM152.5 420q9.5 9 9.5 31q0 24 -9 32.5t-34 8.5t-34 -8.5t-9 -32.5q0 -23 9 -31.5t34 -8.5q24 0 33.5 9z" />
    <glyph glyph-name="uni0E04" unicode="&#xe04;" horiz-adv-x="582" 
d="M53 330q0 99 54 156.5t184 57.5t184 -57.5t54 -156.5v-330h-108v341q0 64 -28 96t-102 32q-73 0 -101.5 -32t-28.5 -96v-90l34 31q31 29 51 39.5t55 10.5q52 0 73.5 -21t21.5 -73q0 -49 -24 -71.5t-75 -22.5q-39 0 -61 12t-26 35l-49 -43v-148h-108v330zM330 205.5
q9 9.5 9 32.5q0 24 -8.5 32t-33.5 8t-34 -8t-9 -32q0 -23 9.5 -32.5t33.5 -9.5t33 9.5z" />
    <glyph glyph-name="uni0E05" unicode="&#xe05;" horiz-adv-x="582" 
d="M53 396q0 73 35 110.5t97 37.5q87 0 106 -62q23 62 109 62q129 0 129 -148v-396h-108v388q0 49 -8 66t-37 17q-24 0 -34.5 -14t-10.5 -43v-11h-81v11q0 30 -8.5 43.5t-32.5 13.5q-29 0 -38.5 -17.5t-9.5 -64.5v-138l34 31q31 29 51 39.5t55 10.5q52 0 73.5 -21t21.5 -73
q0 -49 -24 -71.5t-75 -22.5q-39 0 -61 12t-26 35l-49 -43v-148h-108v396zM330 205.5q9 9.5 9 32.5q0 24 -8.5 32t-33.5 8t-34 -8t-9 -32q0 -23 9.5 -32.5t33.5 -9.5t33 9.5z" />
    <glyph glyph-name="uni0E06" unicode="&#xe06;" horiz-adv-x="581" 
d="M66 7.5q-24 22.5 -24 71.5q0 92 96 92v38q0 37 16 67t46 67q21 27 29.5 41t8.5 29v29l-25 -15q0 -70 -89 -70q-50 0 -70.5 23t-20.5 70q0 51 19 72.5t76 21.5q39 0 56.5 -8.5t26.5 -32.5l43 26h78v-120q0 -29 -11 -50.5t-33 -50.5q-21 -29 -31.5 -48.5t-10.5 -46.5v-53
l174 -67v436h108v-529h-79l-196 79q0 -47 -25 -70.5t-84 -23.5q-54 0 -78 22.5zM162.5 420q9.5 9 9.5 31q0 24 -9 32.5t-34 8.5t-34 -8.5t-9 -32.5q0 -23 9 -31.5t34 -8.5q24 0 33.5 9zM182 47.5q9 9.5 9 31.5q0 24 -9 32.5t-33 8.5q-25 0 -34 -8.5t-9 -32.5q0 -23 9.5 -32
t33.5 -9t33 9.5z" />
    <glyph glyph-name="uni0E07" unicode="&#xe07;" horiz-adv-x="501" 
d="M13 359h106l104 -284h56q31 0 46 12.5t15 40.5v231q-9 -1 -23 -1q-38 0 -59 22.5t-21 67.5q0 50 23.5 73t81.5 23q60 0 83 -22.5t23 -78.5v-274q0 -44 -8.5 -79.5t-41 -62.5t-98.5 -27h-155zM373.5 417q9.5 9 9.5 31q0 24 -9 32.5t-34 8.5t-34 -8.5t-9 -32.5
q0 -23 9 -31.5t34 -8.5q24 0 33.5 9z" />
    <glyph glyph-name="uni0E08" unicode="&#xe08;" horiz-adv-x="523" 
d="M169 169q-15 -4 -37 -4q-89 0 -89 90q0 49 23 71.5t79 22.5q40 0 60 -9.5t29 -29.5t17 -62l35 -173h20q29 0 42.5 13t13.5 41v224q0 60 -33 88t-103 28q-90 0 -156 -57l-47 60q85 72 214 72q125 0 179 -49t54 -140v-195q0 -160 -154 -160h-112zM178 222q9 9 9 31
q0 24 -9 32.5t-33 8.5q-25 0 -34 -8.5t-9 -32.5q0 -23 9 -31.5t34 -8.5q24 0 33 9z" />
    <glyph glyph-name="uni0E09" unicode="&#xe09;" horiz-adv-x="569" 
d="M343 5.5q-28 20.5 -26 64.5l-83 -70h-98v149q-9 -1 -23 -1q-38 0 -59 22.5t-21 67.5q0 50 23.5 73t81.5 23q60 0 83 -22.5t23 -78.5v-131l142 116q12 10 17 18t5 23v92q0 58 -38.5 88t-108.5 30q-47 0 -93 -14t-82 -43l-47 60q42 36 102 54t125 18q123 0 186.5 -50.5
t63.5 -138.5v-83q0 -30 -14 -53t-48 -46q43 -4 61 -26t18 -64q0 -53 -24.5 -75.5t-85.5 -22.5q-52 0 -80 20.5zM169.5 207q9.5 9 9.5 31q0 24 -9 32.5t-34 8.5t-34 -8.5t-9 -32.5q0 -23 9 -31.5t34 -8.5q24 0 33.5 9zM459 51.5q9 8.5 9 32.5q0 23 -9.5 32t-33.5 9t-33.5 -9
t-9.5 -32q0 -24 9.5 -32.5t33.5 -8.5q25 0 34 8.5z" />
    <glyph glyph-name="uni0E0A" unicode="&#xe0a;" horiz-adv-x="528" 
d="M98 37.5q-45 52.5 -45 143.5v39q0 41 16.5 75.5t45.5 61.5q-46 2 -64 23.5t-18 69.5q0 49 23.5 71.5t81.5 22.5q59 0 82 -21t23 -74v-33q0 -19 -8.5 -34.5t-26.5 -37.5q-23 -29 -35 -53t-12 -59v-55q0 -42 6.5 -65.5t28.5 -37.5t68 -14t68.5 13.5t28.5 37.5t6 66v81
q0 39 -14 57t-48 18h-21v77h24q38 0 49.5 16.5t11.5 58.5v59h108v-56q0 -44 -13.5 -73t-46.5 -45q32 -17 45 -46.5t13 -72.5v-66q0 -95 -46 -147.5t-165 -52.5q-121 0 -166 52.5zM169.5 417q9.5 9 9.5 31q0 24 -9 32.5t-34 8.5t-34 -8.5t-9 -32.5q0 -23 9 -31.5t34 -8.5
q24 0 33.5 9z" />
    <glyph glyph-name="uni0E0B" unicode="&#xe0b;" horiz-adv-x="557" 
d="M162.5 6.5q-46.5 21.5 -63.5 60t-17 95.5v19q0 43 23.5 77.5t66.5 80.5q28 29 40 44.5t12 29.5v29l-21 -15q0 -70 -89 -70q-50 0 -70.5 23t-20.5 70q0 51 19 72.5t76 21.5q39 0 56.5 -8.5t26.5 -32.5l39 26h76v-112q0 -29 -16 -55t-48 -64t-47 -62t-15 -51v-27
q0 -48 22.5 -73t80.5 -25q46 0 68.5 13.5t28.5 37.5t6 66v81q0 40 -11 57.5t-43 17.5h-8v77h11q33 0 43 14.5t10 55.5v64h108v-56q0 -44 -13.5 -73t-46.5 -45q32 -17 45 -46.5t13 -72.5v-66q0 -95 -46 -147.5t-165 -52.5q-84 0 -130.5 21.5zM152.5 420q9.5 9 9.5 31
q0 24 -9 32.5t-34 8.5t-34 -8.5t-9 -32.5q0 -23 9 -31.5t34 -8.5q24 0 33.5 9z" />
    <glyph glyph-name="uni0E0C" unicode="&#xe0c;" horiz-adv-x="818" 
d="M77 9.5q-23 24.5 -23 80.5v103q0 55 10.5 88t47.5 53l-79 47v71q98 92 235 92q115 0 170.5 -50t55.5 -137v-188l164 -67v427h107v-529h-82l-180 78q0 -47 -24.5 -70t-83.5 -23q-54 0 -78 22.5t-24 71.5q0 92 96 92v189q0 56 -28.5 82.5t-92.5 26.5q-41 0 -73.5 -11.5
t-60.5 -33.5v-13l81 -51v-47q-32 -12 -43 -30.5t-11 -56.5v-56q9 1 23 1q38 0 59 -22.5t21 -67.5q0 -50 -23.5 -73t-81.5 -23q-59 0 -82 24.5zM195 48.5q9 8.5 9 32.5q0 23 -9 31.5t-34 8.5q-24 0 -33.5 -9t-9.5 -31q0 -24 9 -32.5t34 -8.5t34 8.5zM432 46.5q9 9.5 9 31.5
q0 24 -9 32.5t-33 8.5q-25 0 -34 -8.5t-9 -32.5q0 -23 9.5 -32t33.5 -9t33 9.5z" />
    <glyph glyph-name="uni0E0D" unicode="&#xe0d;" horiz-adv-x="876" 
d="M77 9.5q-23 24.5 -23 80.5v103q0 55 10.5 88t47.5 53l-79 47v71q98 92 235 92q115 0 170.5 -50t55.5 -137v-125q0 -63 23.5 -92t87.5 -29q47 0 71 15t31.5 44t7.5 79v280h108v-292q0 -202 -217 -202q-120 0 -168.5 52.5t-48.5 149.5v123q0 56 -28.5 82.5t-92.5 26.5
q-41 0 -73.5 -11.5t-60.5 -33.5v-13l81 -51v-47q-32 -12 -43 -30.5t-11 -56.5v-56q9 1 23 1q38 0 59 -22.5t21 -67.5q0 -50 -23.5 -73t-81.5 -23q-59 0 -82 24.5zM195 48.5q9 8.5 9 32.5q0 23 -9 31.5t-34 8.5q-24 0 -33.5 -9t-9.5 -31q0 -24 9 -32.5t34 -8.5t34 8.5z
M454 -176q-67 34 -67 101q0 54 23.5 77t78.5 23t80 -21t25 -71q0 -19 -6 -31.5t-18 -21.5q17 -10 58 -10q105 0 162 64l47 -60q-33 -43 -90 -63.5t-126 -20.5q-100 0 -167 34zM520 -101q9 9 9 31q0 23 -9 31.5t-33 8.5t-33 -8.5t-9 -31.5q0 -22 9.5 -31t32.5 -9q24 0 33 9z
" />
    <glyph glyph-name="uni0E0E" unicode="&#xe0e;" horiz-adv-x="611" 
d="M158 -205q13 67 56.5 94t108.5 27q81 0 127 -35v479q0 54 -33 81.5t-96 27.5q-42 0 -80 -12t-64 -33v-13l98 -59v-47q-20 -13 -25.5 -28.5t-5.5 -55.5v-136q0 -56 -23 -78.5t-83 -22.5q-58 0 -81.5 23t-23.5 73q0 45 21 67.5t59 22.5q14 0 23 -1v53q0 37 6.5 58.5
t28.5 43.5l-95 57v71q47 44 110 68t136 24q116 0 176 -50.5t60 -136.5v-578h-102q-14 28 -44 45t-70 17q-44 0 -66.5 -13t-34.5 -49zM170 47.5q9 8.5 9 32.5q0 22 -9.5 31t-33.5 9q-25 0 -34 -8.5t-9 -31.5q0 -24 9 -32.5t34 -8.5t34 8.5z" />
    <glyph glyph-name="uni0E0F" unicode="&#xe0f;" horiz-adv-x="611" 
d="M161 -193.5q-34 30.5 -45 86.5l82 19q8 -32 23 -46t42 -14q41 0 70 55l117 -51v504q0 54 -33 81.5t-96 27.5q-42 0 -80 -12t-64 -33v-13l98 -59v-47q-20 -13 -25.5 -28.5t-5.5 -55.5v-136q0 -56 -23 -78.5t-83 -22.5q-58 0 -81.5 23t-23.5 73q0 45 21 67.5t59 22.5
q14 0 23 -1v53q0 37 6.5 58.5t28.5 43.5l-95 57v71q47 44 110 68t136 24q116 0 176 -50.5t60 -136.5v-578h-108l-101 44q-15 -22 -41.5 -34.5t-60.5 -12.5q-52 0 -86 30.5zM170 47.5q9 8.5 9 32.5q0 22 -9.5 31t-33.5 9q-25 0 -34 -8.5t-9 -31.5q0 -24 9 -32.5t34 -8.5
t34 8.5z" />
    <glyph glyph-name="uni0E10" unicode="&#xe10;" horiz-adv-x="542" 
d="M174 169q-15 -4 -37 -4q-89 0 -89 90q0 49 23 71.5t79 22.5q40 0 60 -9.5t29 -29.5t17 -62l35 -173h20q29 0 42.5 13t13.5 41v224q0 60 -33 88t-103 28q-90 0 -156 -57l-47 60q85 72 214 72q84 0 141 -26q14 9 21.5 22.5t10.5 34.5l87 -19q-2 -25 -17 -50.5t-41 -40.5
q31 -42 31 -110v-195q0 -160 -154 -160h-112zM183 222q9 9 9 31q0 24 -9 32.5t-33 8.5q-25 0 -34 -8.5t-9 -32.5q0 -23 9 -31.5t34 -8.5q24 0 33 9zM110.5 -248q-33.5 28 -44.5 83l82 19q8 -32 23 -46t42 -14q23 0 39 10.5t29 30.5l119 -37v34q-7 -2 -24 -2q-80 0 -80 75
q0 42 22 60.5t73 18.5q50 0 70 -19.5t20 -65.5v-172h-81l-106 35q-19 -20 -42 -29t-55 -9q-53 0 -86.5 28zM420 -123q9 8 9 26q0 20 -8.5 28t-30.5 8q-23 0 -32 -8t-9 -28q0 -19 9 -26.5t32 -7.5q21 0 30 8z" />
    <glyph glyph-name="uni0E11" unicode="&#xe11;" horiz-adv-x="609" 
d="M132 178q0 36 14.5 68t41.5 76q20 32 30 52t10 38v30l-25 -15q0 -70 -89 -70q-50 0 -70.5 23t-20.5 70q0 51 19 72.5t76 21.5q39 0 56.5 -8.5t26.5 -32.5l43 26h78v-54q35 38 65.5 53.5t74.5 15.5q53 0 73.5 -28.5t20.5 -84.5v-431h-107v433q0 22 -23 22q-34 0 -97 -90
l-12 -17q-43 -60 -60.5 -96.5t-17.5 -83.5v-168h-107v178zM152.5 420q9.5 9 9.5 31q0 24 -9 32.5t-34 8.5t-34 -8.5t-9 -32.5q0 -23 9 -31.5t34 -8.5q24 0 33.5 9z" />
    <glyph glyph-name="uni0E12" unicode="&#xe12;" horiz-adv-x="855" 
d="M354 7.5q-24 22.5 -24 71.5q0 92 96 92v218q0 47 -10 64.5t-42 17.5q-53 0 -53 -57v-11h-72v11q0 28 -11.5 42.5t-37.5 14.5q-30 0 -42 -19t-12 -64v-304l80 82q-27 8 -37 25.5t-10 54.5q0 50 24 71.5t73 21.5q58 0 80 -21t22 -71q0 -30 -12.5 -51t-39.5 -48l-144 -148
h-129v396q0 74 33 111t94 37q85 0 104 -62q23 62 109 62q65 0 101.5 -37t36.5 -111v-227l164 -67v427h107v-529h-82l-180 78q0 -47 -24.5 -70t-83.5 -23q-54 0 -78 22.5zM311.5 215.5q9.5 9.5 9.5 31.5q0 24 -9.5 32.5t-33.5 8.5q-25 0 -34 -8.5t-9 -32.5q0 -23 9.5 -32
t33.5 -9t33.5 9.5zM469 46.5q9 9.5 9 31.5q0 24 -9 32.5t-33 8.5q-25 0 -34 -8.5t-9 -32.5q0 -23 9.5 -32t33.5 -9t33 9.5z" />
    <glyph glyph-name="uni0E13" unicode="&#xe13;" horiz-adv-x="840" 
d="M77 9.5q-23 24.5 -23 80.5v103q0 55 10.5 88t47.5 53l-79 47v71q98 92 235 92q115 0 170.5 -50t55.5 -137v-256l163 117q13 9 17.5 17.5t4.5 23.5v270h107v-269q0 -26 -13 -44t-48 -43q43 -4 61 -26t18 -64q0 -53 -24.5 -75.5t-85.5 -22.5q-58 0 -81 20.5t-23 73.5
l-105 -79h-96v360q0 56 -28.5 82.5t-92.5 26.5q-41 0 -73.5 -11.5t-60.5 -33.5v-13l81 -51v-47q-32 -12 -43 -30.5t-11 -56.5v-56q9 1 23 1q38 0 59 -22.5t21 -67.5q0 -50 -23.5 -73t-81.5 -23q-59 0 -82 24.5zM730 51.5q9 8.5 9 32.5q0 23 -9.5 32t-33.5 9t-33.5 -9
t-9.5 -32q0 -24 9.5 -32.5t33.5 -8.5q25 0 34 8.5zM195 48.5q9 8.5 9 32.5q0 23 -9 31.5t-34 8.5q-24 0 -33.5 -9t-9.5 -31q0 -24 9 -32.5t34 -8.5t34 8.5z" />
    <glyph glyph-name="uni0E14" unicode="&#xe14;" horiz-adv-x="582" 
d="M53 339q0 96 55 150.5t184 54.5t183 -54t54 -151v-339h-108v345q0 43 -10.5 69.5t-38.5 40.5t-80 14q-53 0 -81.5 -14t-39 -40.5t-10.5 -69.5v-261l80 82q-27 8 -37 25.5t-10 54.5q0 50 24 71.5t73 21.5q58 0 80 -21t22 -71q0 -30 -12.5 -51t-39.5 -48l-144 -148h-144
v339zM326.5 215.5q9.5 9.5 9.5 31.5q0 24 -9.5 32.5t-33.5 8.5q-25 0 -34 -8.5t-9 -32.5q0 -23 9.5 -32t33.5 -9t33.5 9.5z" />
    <glyph glyph-name="uni0E15" unicode="&#xe15;" horiz-adv-x="582" 
d="M53 396q0 73 35 110.5t97 37.5q87 0 106 -62q23 62 109 62q129 0 129 -148v-396h-108v388q0 49 -8 66t-37 17q-24 0 -34.5 -14t-10.5 -43v-11h-81v11q0 30 -8.5 43.5t-32.5 13.5q-29 0 -38.5 -17.5t-9.5 -64.5v-305l80 82q-27 8 -37 25.5t-10 54.5q0 50 24 71.5t73 21.5
q58 0 80 -21t22 -71q0 -30 -12.5 -51t-39.5 -48l-144 -148h-144v396zM326.5 215.5q9.5 9.5 9.5 31.5q0 24 -9.5 32.5t-33.5 8.5q-25 0 -34 -8.5t-9 -32.5q0 -23 9.5 -32t33.5 -9t33.5 9.5z" />
    <glyph glyph-name="uni0E16" unicode="&#xe16;" horiz-adv-x="566" 
d="M77 7.5q-23 22.5 -23 78.5v131q0 42 13 70.5t45 46.5l-79 47v71q47 44 109 68t134 24q117 0 177 -50.5t60 -136.5v-357h-108v360q0 54 -33 81.5t-96 27.5q-84 0 -142 -45v-13l81 -51v-47q-31 -12 -42 -32.5t-11 -61.5v-49q9 1 23 1q38 0 59 -22.5t21 -67.5
q0 -50 -23.5 -73t-81.5 -23q-60 0 -83 22.5zM196 48.5q9 8.5 9 32.5q0 23 -9 31.5t-34 8.5q-24 0 -33.5 -9t-9.5 -31q0 -24 9 -32.5t34 -8.5t34 8.5z" />
    <glyph glyph-name="uni0E17" unicode="&#xe17;" horiz-adv-x="602" 
d="M126 359q-9 -1 -23 -1q-38 0 -59 22.5t-21 67.5q0 50 23.5 73t81.5 23q60 0 83 -22.5t23 -78.5v-157l96 176q25 47 50.5 64.5t72.5 17.5t71.5 -22.5t24.5 -65.5v-456h-108v439q0 9 -3 12.5t-11 3.5q-9 0 -15.5 -8.5t-24.5 -40.5l-153 -280v-126h-108v359zM159.5 417
q9.5 9 9.5 31q0 24 -9 32.5t-34 8.5t-34 -8.5t-9 -32.5q0 -23 9 -31.5t34 -8.5q24 0 33.5 9z" />
    <glyph glyph-name="uni0E18" unicode="&#xe18;" horiz-adv-x="510" 
d="M90.5 37.5q-46.5 52.5 -46.5 141.5v52h108v-54q0 -42 8 -68t31.5 -40t68.5 -14q53 0 81 19t28 64v52q0 32 -13 45.5t-50 21.5l-273 60v74q0 68 60.5 110.5t166.5 42.5q131 0 205 -60l-45 -58q-28 21 -68.5 32t-87.5 11q-58 0 -90.5 -19.5t-32.5 -54.5v-24l213 -47
q67 -16 95 -47t28 -86v-53q0 -73 -57 -113t-160 -40q-123 0 -169.5 52.5z" />
    <glyph glyph-name="uni0E19" unicode="&#xe19;" horiz-adv-x="589" 
d="M364 2.5q-28 17.5 -28 60.5q0 11 1 17l-113 -80h-98v359q-9 -1 -23 -1q-38 0 -59 22.5t-21 67.5q0 50 23.5 73t81.5 23q60 0 83 -22.5t23 -78.5v-341l172 116q13 8 17.5 16.5t4.5 24.5v270h108v-269q0 -26 -13.5 -44.5t-48.5 -42.5q43 -4 61 -26t18 -64
q0 -53 -24.5 -75.5t-85.5 -22.5q-51 0 -79 17.5zM159.5 417q9.5 9 9.5 31q0 24 -9 32.5t-34 8.5t-34 -8.5t-9 -32.5q0 -23 9 -31.5t34 -8.5q24 0 33.5 9zM479 51.5q9 8.5 9 32.5q0 23 -9.5 32t-33.5 9t-33.5 -9t-9.5 -32q0 -24 9.5 -32.5t33.5 -8.5q25 0 34 8.5z" />
    <glyph glyph-name="uni0E1A" unicode="&#xe1a;" horiz-adv-x="632" 
d="M177.5 37q-51.5 52 -51.5 148v174q-9 -1 -23 -1q-38 0 -59 22.5t-21 67.5q0 50 23.5 73t81.5 23q60 0 83 -22.5t23 -78.5v-262q0 -62 25.5 -91.5t93.5 -29.5q52 0 77 16t33 45.5t8 83.5v324h108v-344q0 -97 -50 -148.5t-175 -51.5t-176.5 52zM159.5 417q9.5 9 9.5 31
q0 24 -9 32.5t-34 8.5t-34 -8.5t-9 -32.5q0 -23 9 -31.5t34 -8.5q24 0 33.5 9z" />
    <glyph glyph-name="uni0E1B" unicode="&#xe1b;" horiz-adv-x="632" 
d="M177.5 37q-51.5 52 -51.5 148v174q-9 -1 -23 -1q-38 0 -59 22.5t-21 67.5q0 50 23.5 73t81.5 23q60 0 83 -22.5t23 -78.5v-262q0 -62 25.5 -91.5t93.5 -29.5q52 0 77 16t33 45.5t8 83.5v509h108v-529q0 -97 -50 -148.5t-175 -51.5t-176.5 52zM159.5 417q9.5 9 9.5 31
q0 24 -9 32.5t-34 8.5t-34 -8.5t-9 -32.5q0 -23 9 -31.5t34 -8.5q24 0 33.5 9z" />
    <glyph glyph-name="uni0E1C" unicode="&#xe1c;" horiz-adv-x="580" 
d="M53 443q0 56 23 78.5t83 22.5q58 0 81.5 -23t23.5 -73q0 -45 -21 -67.5t-59 -22.5q-14 0 -23 1v-238l103 139h51l104 -139v408h108v-529h-114l-123 172l-122 -172h-115v443zM195 416.5q9 8.5 9 31.5q0 24 -9 32.5t-34 8.5t-34 -8.5t-9 -32.5q0 -22 9.5 -31t33.5 -9
q25 0 34 8.5z" />
    <glyph glyph-name="uni0E1D" unicode="&#xe1d;" horiz-adv-x="580" 
d="M53 443q0 56 23 78.5t83 22.5q58 0 81.5 -23t23.5 -73q0 -45 -21 -67.5t-59 -22.5q-14 0 -23 1v-238l103 139h51l104 -139v593h108v-714h-114l-123 172l-122 -172h-115v443zM195 416.5q9 8.5 9 31.5q0 24 -9 32.5t-34 8.5t-34 -8.5t-9 -32.5q0 -22 9.5 -31t33.5 -9
q25 0 34 8.5z" />
    <glyph glyph-name="uni0E1E" unicode="&#xe1e;" horiz-adv-x="636" 
d="M126 359q-9 -1 -23 -1q-38 0 -59 22.5t-21 67.5q0 50 23.5 73t81.5 23q60 0 83 -22.5t23 -78.5v-277l94 222h51l96 -222v363h108v-529h-110l-119 273l-118 -273h-110v359zM159.5 417q9.5 9 9.5 31q0 24 -9 32.5t-34 8.5t-34 -8.5t-9 -32.5q0 -23 9 -31.5t34 -8.5
q24 0 33.5 9z" />
    <glyph glyph-name="uni0E1F" unicode="&#xe1f;" horiz-adv-x="636" 
d="M126 359q-9 -1 -23 -1q-38 0 -59 22.5t-21 67.5q0 50 23.5 73t81.5 23q60 0 83 -22.5t23 -78.5v-277l94 222h51l96 -222v548h108v-714h-110l-119 273l-118 -273h-110v359zM159.5 417q9.5 9 9.5 31q0 24 -9 32.5t-34 8.5t-34 -8.5t-9 -32.5q0 -23 9 -31.5t34 -8.5
q24 0 33.5 9z" />
    <glyph glyph-name="uni0E20" unicode="&#xe20;" horiz-adv-x="611" 
d="M56.5 7q-23.5 23 -23.5 73q0 45 21 67.5t59 22.5q14 0 23 -1v53q0 37 6.5 58.5t28.5 43.5l-95 57v71q47 44 110 68t136 24q116 0 176 -50.5t60 -136.5v-357h-108v360q0 54 -33 81.5t-96 27.5q-42 0 -80 -12t-64 -33v-13l98 -59v-47q-20 -13 -25.5 -28.5t-5.5 -55.5v-136
q0 -56 -23 -78.5t-83 -22.5q-58 0 -81.5 23zM170 47.5q9 8.5 9 32.5q0 22 -9.5 31t-33.5 9q-25 0 -34 -8.5t-9 -31.5q0 -24 9 -32.5t34 -8.5t34 8.5z" />
    <glyph glyph-name="uni0E21" unicode="&#xe21;" horiz-adv-x="579" 
d="M64 7.5q-24 22.5 -24 71.5q0 92 96 92v188q-9 -1 -23 -1q-38 0 -59 22.5t-21 67.5q0 50 23.5 73t81.5 23q60 0 83 -22.5t23 -78.5v-283l174 -67v436h108v-529h-79l-196 79q0 -47 -25 -70.5t-84 -23.5q-54 0 -78 22.5zM169.5 417q9.5 9 9.5 31q0 24 -9 32.5t-34 8.5
t-34 -8.5t-9 -32.5q0 -23 9 -31.5t34 -8.5q24 0 33.5 9zM180 47.5q9 9.5 9 31.5q0 24 -9 32.5t-33 8.5q-25 0 -34 -8.5t-9 -32.5q0 -23 9.5 -32t33.5 -9t33 9.5z" />
    <glyph glyph-name="uni0E22" unicode="&#xe22;" horiz-adv-x="540" 
d="M90 26q-57 41 -57 118q0 39 13 67.5t44 45.5q-56 40 -56 127v57q0 54 26 78.5t86 24.5q59 0 82.5 -22.5t23.5 -71.5q0 -40 -21.5 -65.5t-55.5 -25.5q-22 0 -33 2q0 -34 14.5 -49.5t50.5 -15.5h39v-76h-37q-71 0 -71 -75q0 -43 34 -64t88 -21q60 0 89.5 27t29.5 84v358
h108v-328q0 -109 -54 -162.5t-172 -53.5q-114 0 -171 41zM178 416.5q9 8.5 9 31.5q0 24 -8.5 32.5t-33.5 8.5t-34 -8.5t-9 -32.5q0 -22 9.5 -31t33.5 -9t33 8.5z" />
    <glyph glyph-name="uni0E23" unicode="&#xe23;" horiz-adv-x="467" 
d="M168.5 8q-23.5 23 -23.5 73q0 45 21 67.5t59 22.5q14 0 23 -1v53q0 25 -4.5 35.5t-17.5 16.5t-50 16l-143 40v58q0 79 54 117t150 38q69 0 115.5 -14t81.5 -43l-44 -58q-61 40 -141 40q-54 0 -81 -19t-27 -53v-18l146 -41q41 -11 55 -36.5t14 -75.5v-140q0 -56 -23 -78.5
t-83 -22.5q-58 0 -81.5 23zM282 48.5q9 8.5 9 32.5q0 22 -9.5 31t-33.5 9q-25 0 -34 -8.5t-9 -31.5q0 -24 9 -32.5t34 -8.5t34 8.5z" />
    <glyph glyph-name="uni0E24" unicode="&#xe24;" horiz-adv-x="566" 
d="M405 360q0 54 -33 81.5t-96 27.5q-84 0 -142 -45v-13l81 -51v-47q-31 -12 -42 -32.5t-11 -61.5v-49q9 1 23 1q38 0 59 -22.5t21 -67.5q0 -50 -23.5 -73t-81.5 -23q-60 0 -83 22.5t-23 78.5v131q0 42 13 70.5t45 46.5l-79 47v71q47 44 109 68t134 24q117 0 177 -50.5
t60 -136.5v-558h-108v561zM196 48.5q9 8.5 9 32.5q0 23 -9 31.5t-34 8.5q-24 0 -33.5 -9t-9.5 -31q0 -24 9 -32.5t34 -8.5t34 8.5z" />
    <glyph glyph-name="uni0E25" unicode="&#xe25;" horiz-adv-x="532" 
d="M57 16.5q-24 31.5 -24 96.5q0 212 195 212q48 0 86 -15.5t57 -46.5v90q0 58 -29.5 87t-95.5 29q-50 0 -88.5 -14t-71.5 -45l-48 62q82 72 215 72q112 0 169 -50.5t57 -138.5v-355h-105q0 90 -14 144.5t-45.5 80t-85.5 25.5q-47 0 -69.5 -17.5t-27.5 -60.5q8 1 22 1
q46 0 67.5 -23.5t21.5 -70.5q0 -49 -24 -71.5t-81 -22.5t-81 31.5zM174 48q9 9 9 33q0 23 -9 31.5t-34 8.5q-24 0 -33.5 -9t-9.5 -31q0 -23 10 -32.5t33 -9.5q25 0 34 9z" />
    <glyph glyph-name="uni0E26" unicode="&#xe26;" horiz-adv-x="611" 
d="M450 360q0 54 -33 81.5t-96 27.5q-42 0 -80 -12t-64 -33v-13l98 -59v-47q-20 -13 -25.5 -28.5t-5.5 -55.5v-136q0 -56 -23 -78.5t-83 -22.5q-58 0 -81.5 23t-23.5 73q0 45 21 67.5t59 22.5q14 0 23 -1v53q0 37 6.5 58.5t28.5 43.5l-95 57v71q47 44 110 68t136 24
q116 0 176 -50.5t60 -136.5v-558h-108v561zM170 47.5q9 8.5 9 32.5q0 22 -9.5 31t-33.5 9q-25 0 -34 -8.5t-9 -31.5q0 -24 9 -32.5t34 -8.5t34 8.5z" />
    <glyph glyph-name="uni0E27" unicode="&#xe27;" horiz-adv-x="464" 
d="M223.5 8q-23.5 23 -23.5 73q0 45 21 67.5t59 22.5q14 0 23 -1v190q0 57 -23.5 83t-81.5 26q-35 0 -71 -14.5t-67 -41.5l-47 60q44 37 90 54t102 17q112 0 159 -49t47 -141v-268q0 -56 -23 -78.5t-83 -22.5q-58 0 -81.5 23zM337 48.5q9 8.5 9 32.5q0 22 -9.5 31t-33.5 9
q-25 0 -34 -8.5t-9 -31.5q0 -24 9 -32.5t34 -8.5t34 8.5z" />
    <glyph glyph-name="uni0E28" unicode="&#xe28;" horiz-adv-x="586" 
d="M53 330q0 99 54 156.5t184 57.5q78 0 126 -24q28 19 34 55l87 -19q-2 -23 -15.5 -48t-34.5 -41q41 -45 41 -137v-330h-108v341q0 64 -28 96t-102 32q-73 0 -101.5 -32t-28.5 -96v-90l34 31q31 29 51 39.5t55 10.5q52 0 73.5 -21t21.5 -73q0 -49 -24 -71.5t-75 -22.5
q-39 0 -61 12t-26 35l-49 -43v-148h-108v330zM330 205.5q9 9.5 9 32.5q0 24 -8.5 32t-33.5 8t-34 -8t-9 -32q0 -23 9.5 -32.5t33.5 -9.5t33 9.5z" />
    <glyph glyph-name="uni0E29" unicode="&#xe29;" horiz-adv-x="632" 
d="M177.5 37q-51.5 52 -51.5 148v174q-9 -1 -23 -1q-38 0 -59 22.5t-21 67.5q0 50 23.5 73t81.5 23q60 0 83 -22.5t23 -78.5v-262q0 -62 25.5 -91.5t93.5 -29.5q51 0 76 14t33.5 43.5t8.5 84.5q-22 -2 -48 -2q-82 0 -124.5 29t-42.5 84q0 47 24 67.5t73 20.5q51 0 73 -19
t22 -63q0 -16 -2.5 -27t-9.5 -23h8q16 0 27 3v257h108v-344q0 -97 -50 -148.5t-175 -51.5t-176.5 52zM159.5 417q9.5 9 9.5 31q0 24 -9 32.5t-34 8.5t-34 -8.5t-9 -32.5q0 -23 9 -31.5t34 -8.5q24 0 33.5 9zM387 280.5q9 8.5 9 30.5q0 23 -9 31.5t-33 8.5t-33 -8.5t-9 -31.5
q0 -21 9 -30t33 -9t33 8.5z" />
    <glyph glyph-name="uni0E2A" unicode="&#xe2a;" horiz-adv-x="532" 
d="M57 16.5q-24 31.5 -24 96.5q0 212 195 212q48 0 86 -15.5t57 -46.5v90q0 60 -29 88t-96 28q-50 0 -88.5 -14t-71.5 -45l-48 62q82 72 215 72q82 0 124 -26q12 8 20 23.5t11 33.5l88 -19q-2 -23 -16 -47.5t-37 -41.5q36 -36 36 -112v-355h-105q0 90 -14 144.5t-45.5 80
t-85.5 25.5q-47 0 -69.5 -17.5t-27.5 -60.5q8 1 22 1q46 0 67.5 -23.5t21.5 -70.5q0 -49 -24 -71.5t-81 -22.5t-81 31.5zM174 48q9 9 9 33q0 23 -9 31.5t-34 8.5q-24 0 -33.5 -9t-9.5 -31q0 -23 10 -32.5t33 -9.5q25 0 34 9z" />
    <glyph glyph-name="uni0E2B" unicode="&#xe2b;" horiz-adv-x="582" 
d="M126 359q-9 -1 -23 -1q-38 0 -59 22.5t-21 67.5q0 50 23.5 73t81.5 23q60 0 83 -22.5t23 -78.5v-296l116 176q13 20 21 29t21 14q-52 17 -52 80q0 51 23 74.5t81 23.5q57 0 81 -23.5t24 -77.5q0 -27 -14 -49t-38 -29q18 -8 25.5 -24.5t7.5 -42.5v-298h-108v262
q0 18 -7 18q-5 0 -10.5 -6t-8.5 -11.5t-5 -7.5l-168 -255h-97v359zM159.5 417q9.5 9 9.5 31q0 24 -9 32.5t-34 8.5t-34 -8.5t-9 -32.5q0 -23 9 -31.5t34 -8.5q24 0 33.5 9zM479.5 417q9.5 9 9.5 31q0 24 -9 32.5t-34 8.5t-34 -8.5t-9 -32.5q0 -23 9 -31.5t34 -8.5
q24 0 33.5 9z" />
    <glyph glyph-name="uni0E2C" unicode="&#xe2c;" horiz-adv-x="636" 
d="M126 359q-9 -1 -23 -1q-38 0 -59 22.5t-21 67.5q0 50 23.5 73t81.5 23q60 0 83 -22.5t23 -78.5v-277l94 222h51l96 -222v262q0 41 -14 59.5t-51 18.5h-22v75h20q42 0 55.5 18t13.5 63v52h106v-55q0 -91 -56 -117q31 -16 43.5 -45t12.5 -69v-428h-110l-119 273l-118 -273
h-110v359zM159.5 417q9.5 9 9.5 31q0 24 -9 32.5t-34 8.5t-34 -8.5t-9 -32.5q0 -23 9 -31.5t34 -8.5q24 0 33.5 9z" />
    <glyph glyph-name="uni0E2D" unicode="&#xe2d;" horiz-adv-x="534" 
d="M87.5 33.5q-46.5 48.5 -46.5 127.5v75q0 54 26 78.5t86 24.5q59 0 82.5 -22.5t23.5 -71.5q0 -40 -21.5 -65.5t-55.5 -25.5q-22 0 -33 2v-20q0 -38 26 -57t81 -19t86 20.5t31 59.5v216q0 58 -32.5 85.5t-103.5 27.5q-48 0 -86 -13.5t-71 -43.5l-47 60q42 35 98 53.5
t118 18.5q123 0 177.5 -49t54.5 -140v-209q0 -39 -21 -75.5t-71.5 -61t-132.5 -24.5q-122 0 -168.5 48.5zM185 211.5q9 8.5 9 31.5q0 24 -8.5 32.5t-33.5 8.5t-34 -8.5t-9 -32.5q0 -22 9.5 -31t33.5 -9t33 8.5z" />
    <glyph glyph-name="uni0E2E" unicode="&#xe2e;" horiz-adv-x="547" 
d="M87.5 33.5q-46.5 48.5 -46.5 127.5v75q0 54 26 78.5t86 24.5q59 0 82.5 -22.5t23.5 -71.5q0 -40 -21.5 -65.5t-55.5 -25.5q-22 0 -33 2v-20q0 -38 26 -57t81 -19t86 20.5t31 59.5v216q0 58 -32.5 85.5t-103.5 27.5q-48 0 -86 -13.5t-71 -43.5l-47 60q42 35 98 53.5
t118 18.5q81 0 133 -26q12 8 20.5 23t10.5 34l88 -19q-2 -24 -16.5 -49.5t-37.5 -38.5q34 -42 34 -113v-209q0 -39 -21 -75.5t-71.5 -61t-132.5 -24.5q-122 0 -168.5 48.5zM185 211.5q9 8.5 9 31.5q0 24 -8.5 32.5t-33.5 8.5t-34 -8.5t-9 -32.5q0 -22 9.5 -31t33.5 -9
t33 8.5z" />
    <glyph glyph-name="uni0E2F" unicode="&#xe2f;" horiz-adv-x="504" 
d="M344 328q-23 -21 -51 -30.5t-74 -9.5q-80 0 -133 40t-53 112q0 55 24 79.5t81 24.5t81 -22.5t24 -71.5q0 -36 -13 -54.5t-46 -26.5q15 -6 39 -6q61 0 91.5 40.5t30.5 125.5h106v-529h-107v328zM174 416.5q9 8.5 9 31.5q0 24 -9 33t-34 9q-23 0 -33 -9.5t-10 -32.5
q0 -22 9.5 -31t33.5 -9q25 0 34 8.5z" />
    <glyph glyph-name="uni0E30" unicode="&#xe30;" horiz-adv-x="412" 
d="M88 328q-55 25 -55 91q0 51 25.5 76t81.5 25t78 -21.5t22 -66.5q0 -15 -5.5 -29.5t-14.5 -21.5q5 -1 15 -1q62 0 102 38l42 -56q-23 -30 -65.5 -44.5t-99.5 -14.5q-71 0 -126 25zM170.5 391.5q9.5 9.5 9.5 30.5q0 24 -9 32.5t-33 8.5t-33 -8.5t-9 -32.5q0 -21 9.5 -30.5
t32.5 -9.5t32.5 9.5zM88 51q-55 25 -55 91q0 51 25.5 76t81.5 25t78 -21.5t22 -66.5q0 -15 -5.5 -29.5t-14.5 -21.5q5 -1 15 -1q62 0 102 38l42 -56q-23 -30 -65.5 -44.5t-99.5 -14.5q-71 0 -126 25zM170.5 114.5q9.5 9.5 9.5 30.5q0 24 -9 32.5t-33 8.5t-33 -8.5t-9 -32.5
q0 -21 9.5 -30.5t32.5 -9.5t32.5 9.5z" />
    <glyph glyph-name="uni0E31" unicode="&#xe31;" 
d="M-275.5 627.5q-55.5 28.5 -55.5 91.5q0 51 26.5 75.5t82.5 24.5q55 0 79 -21.5t24 -65.5q0 -33 -18 -54q18 -3 38 -3q35 0 74 15t63 39l44 -58q-38 -37 -89 -54.5t-120 -17.5q-93 0 -148.5 28.5zM-190.5 689q9.5 9 9.5 31q0 24 -9 32.5t-34 8.5t-33.5 -8.5t-8.5 -32.5
q0 -23 9 -31.5t33 -8.5t33.5 9z" />
    <glyph glyph-name="uni0E32" unicode="&#xe32;" horiz-adv-x="439" 
d="M278 354q0 61 -21 88t-78 27q-34 0 -66.5 -14.5t-56.5 -38.5l-48 62q38 34 82 50t99 16q109 0 153 -49.5t44 -141.5v-353h-108v354z" />
    <glyph glyph-name="uni0E33" unicode="&#xe33;" horiz-adv-x="439" 
d="M-185 624q-29 25 -29 75t29 75t79 25t78.5 -25t28.5 -75t-28.5 -75t-78.5 -25t-79 25zM-65 699q0 38 -41 38q-22 0 -32 -9t-10 -29q0 -37 42 -37q41 0 41 37zM278 354q0 61 -21 88t-78 27q-34 0 -66.5 -14.5t-56.5 -38.5l-48 62q38 34 82 50t99 16q109 0 153 -49.5
t44 -141.5v-353h-108v354z" />
    <glyph glyph-name="uni0E34" unicode="&#xe34;" 
d="M-446.5 731q64.5 46 160.5 46q97 0 162 -46t72 -132h-467q8 86 72.5 132zM-157 657q-9 27 -44 42t-84 15t-84.5 -15t-43.5 -42h256z" />
    <glyph glyph-name="uni0E35" unicode="&#xe35;" 
d="M-448.5 731q63.5 46 159.5 46q41 0 79 -11.5t61 -32.5v83h96v-217h-466q7 86 70.5 132zM-156 657q-15 28 -50 42.5t-83 14.5t-82.5 -14.5t-42.5 -42.5h258z" />
    <glyph glyph-name="uni0E36" unicode="&#xe36;" 
d="M-446.5 731q64.5 46 161.5 46q39 0 72 -11q6 61 85 61q53 0 72.5 -20t19.5 -66q0 -28 -10 -44.5t-32 -24.5q22 -29 26 -73h-466q7 86 71.5 132zM-98 716.5q8 8.5 8 27.5q0 20 -8 27.5t-29 7.5t-29 -7.5t-8 -27.5q0 -17 10 -26.5t27 -9.5q21 0 29 8.5zM-157 657
q-13 24 -47.5 40.5t-80.5 16.5q-49 0 -84.5 -15t-43.5 -42h256z" />
    <glyph glyph-name="uni0E37" unicode="&#xe37;" 
d="M-446 727q64 45 156 45q10 0 28 -2v46h85v-61q26 -11 39 -24v85h85v-217h-466q9 83 73 128zM-155 657q-33 57 -134 57q-48 0 -82.5 -14.5t-42.5 -42.5h259z" />
    <glyph glyph-name="uni0E38" unicode="&#xe38;" 
d="M-161 -236q-9 -1 -23 -1q-38 0 -59 22.5t-21 67.5q0 50 23.5 73t81.5 23q60 0 83 -22.5t23 -78.5v-174h-108v90zM-127.5 -178q9.5 9 9.5 31q0 24 -9 32.5t-34 8.5t-34 -8.5t-9 -32.5q0 -23 9 -31.5t34 -8.5q24 0 33.5 9z" />
    <glyph glyph-name="uni0E39" unicode="&#xe39;" 
d="M-298 -229v8q-12 -3 -29 -3q-85 0 -85 87q0 47 24 66.5t79 19.5q57 0 79 -21t22 -75v-62q0 -20 6.5 -27t24.5 -7q20 0 26.5 7t6.5 27v152h91v-145q0 -56 -29 -83.5t-94 -27.5q-122 0 -122 84zM-278.5 -166.5q9.5 8.5 9.5 29.5q0 22 -9.5 30.5t-31.5 8.5t-31.5 -8.5
t-9.5 -30.5q0 -21 10 -29.5t31 -8.5q22 0 31.5 8.5z" />
    <glyph glyph-name="uni0E3A" unicode="&#xe3a;" 
d="M-154.5 -166q-12.5 12 -12.5 45q0 34 12.5 46t48.5 12q34 0 47 -12.5t13 -45.5q0 -31 -13.5 -44t-46.5 -13q-36 0 -48.5 12z" />
    <glyph glyph-name="uni0E3F" unicode="&#xe3f;" horiz-adv-x="581" 
d="M225 0h-202v73h29q20 0 28.5 9t8.5 29v426q0 19 -8.5 27.5t-28.5 8.5h-29v74h202v120h98v-120h36q86 0 132 -45t46 -127q0 -49 -23 -87.5t-67 -58.5q50 -17 75.5 -55.5t25.5 -94.5q0 -78 -46 -128.5t-127 -50.5h-52v-120h-98v120zM324 363q51 0 80 28t29 79
q0 53 -24.5 78.5t-79.5 25.5h-134v-211h129zM346 73q46 0 72 27.5t26 81.5q0 56 -28 81t-86 25h-135v-215h151z" />
    <glyph glyph-name="uni0E40" unicode="&#xe40;" horiz-adv-x="272" 
d="M76 7.5q-23 22.5 -23 78.5v443h107v-359q9 1 24 1q38 0 59 -22.5t21 -67.5q0 -50 -23.5 -73t-81.5 -23q-60 0 -83 22.5zM195 48.5q9 8.5 9 32.5q0 23 -9 31.5t-34 8.5q-24 0 -33.5 -9t-9.5 -31q0 -24 9 -32.5t34 -8.5t34 8.5z" />
    <glyph glyph-name="uni0E41" unicode="&#xe41;" horiz-adv-x="530" 
d="M76 7.5q-23 22.5 -23 78.5v443h107v-359q9 1 24 1q38 0 59 -22.5t21 -67.5q0 -50 -23.5 -73t-81.5 -23q-60 0 -83 22.5zM334 7.5q-23 22.5 -23 78.5v443h107v-359q9 1 24 1q38 0 59 -22.5t21 -67.5q0 -50 -23.5 -73t-81.5 -23q-60 0 -83 22.5zM195 48.5q9 8.5 9 32.5
q0 23 -9 31.5t-34 8.5q-24 0 -33.5 -9t-9.5 -31q0 -24 9 -32.5t34 -8.5t34 8.5zM453 48.5q9 8.5 9 32.5q0 23 -9 31.5t-34 8.5q-24 0 -33.5 -9t-9.5 -31q0 -24 9 -32.5t34 -8.5t34 8.5z" />
    <glyph glyph-name="uni0E42" unicode="&#xe42;" horiz-adv-x="333" 
d="M111 7.5q-23 22.5 -23 78.5v403q0 38 -5.5 52t-28.5 26l-91 48v83q34 28 87.5 46t103.5 18q56 0 98.5 -10t77.5 -33l-40 -64q-51 32 -134 32q-26 0 -50.5 -7t-39.5 -18v-13l70 -36q28 -14 40 -29.5t15.5 -37t3.5 -63.5v-313q9 1 24 1q38 0 59 -22.5t21 -67.5
q0 -50 -23.5 -73t-81.5 -23q-60 0 -83 22.5zM230 48.5q9 8.5 9 32.5q0 23 -9 31.5t-34 8.5q-24 0 -33.5 -9t-9.5 -31q0 -24 9 -32.5t34 -8.5t34 8.5z" />
    <glyph glyph-name="uni0E43" unicode="&#xe43;" horiz-adv-x="345" 
d="M133 7.5q-23 22.5 -23 78.5v288q0 33 17 61t50 66q31 38 45.5 61t14.5 49q0 32 -18 48t-56 16t-60.5 -16t-22.5 -48v-35h-107v32q0 67 54.5 104.5t135.5 37.5q91 0 135 -37t44 -101q0 -35 -17 -64t-50 -69q-29 -35 -43.5 -59t-14.5 -50v-200q9 1 24 1q38 0 59 -22.5
t21 -67.5q0 -50 -23.5 -73t-81.5 -23q-60 0 -83 22.5zM252 48.5q9 8.5 9 32.5q0 23 -9 31.5t-34 8.5q-24 0 -33.5 -9t-9.5 -31q0 -24 9 -32.5t34 -8.5t34 8.5z" />
    <glyph glyph-name="uni0E44" unicode="&#xe44;" horiz-adv-x="303" 
d="M90 7.5q-23 22.5 -23 78.5v407q0 95 46 141l49 48h-199v75h337v-57l-81 -80q-25 -24 -35 -52t-10 -73v-325q9 1 24 1q38 0 59 -22.5t21 -67.5q0 -50 -23.5 -73t-81.5 -23q-60 0 -83 22.5zM209 48.5q9 8.5 9 32.5q0 23 -9 31.5t-34 8.5q-24 0 -33.5 -9t-9.5 -31
q0 -24 9 -32.5t34 -8.5t34 8.5z" />
    <glyph glyph-name="uni0E45" unicode="&#xe45;" horiz-adv-x="439" 
d="M278 354q0 61 -21 88t-78 27q-34 0 -66.5 -14.5t-56.5 -38.5l-48 62q38 34 82 50t99 16q109 0 153 -49.5t44 -141.5v-554h-108v555z" />
    <glyph glyph-name="uni0E46" unicode="&#xe46;" horiz-adv-x="526" 
d="M366 406q0 34 -8 48.5t-31 14.5q-40 0 -40 -49v-10h-87v10q0 49 -37 49q-22 0 -31.5 -20t-9.5 -61q12 3 25 3q88 0 88 -92q0 -49 -25 -71.5t-83 -22.5q-59 0 -81.5 33t-22.5 97v65q0 69 34 106.5t93 37.5q40 0 62.5 -15t31.5 -47q19 62 103 62q61 0 93.5 -32.5
t32.5 -105.5v-406h-107v406zM163.5 268q8.5 8 8.5 32t-8.5 32.5t-33.5 8.5q-24 0 -33.5 -9t-9.5 -32q0 -24 9 -32t34 -8t33.5 8z" />
    <glyph glyph-name="uni0E47" unicode="&#xe47;" 
d="M-226 598.5q-22 7.5 -42 26.5l-27 27l-56 -53h-78v127q0 118 122 118h221v-64h-207q-31 0 -45 -13t-14 -45v-47l41 40h34l26 -28q0 36 21 52.5t61 16.5q44 0 64.5 -18.5t20.5 -59.5q0 -45 -20.5 -66t-69.5 -21q-30 0 -52 7.5zM-139.5 646q7.5 7 7.5 27q0 19 -8 27t-28 8
q-21 0 -28.5 -8t-7.5 -27q0 -20 7.5 -27t28.5 -7t28.5 7z" />
    <glyph glyph-name="uni0E48" unicode="&#xe48;" 
d="M-161 770h108v-171h-108v171z" />
    <glyph glyph-name="uni0E49" unicode="&#xe49;" 
d="M-301 659q24 0 36 4t16 16l-12 -1l-11 1q-58 5 -58 67q0 41 20.5 58t66.5 17q47 0 66.5 -18t19.5 -60q0 -52 -25 -77q48 3 71 31t23 81v16h83v-19q0 -48 -20.5 -88t-60 -64t-95.5 -24h-120v60zM-214.5 720.5q7.5 7.5 7.5 26.5t-8 26t-28 7q-21 0 -28.5 -7t-7.5 -26
t7.5 -26.5t28.5 -7.5t28.5 7.5z" />
    <glyph glyph-name="uni0E4A" unicode="&#xe4a;" 
d="M-380 620q-22 21 -22 68q0 48 21.5 69.5t72.5 21.5q28 0 44 -7.5t26 -22.5q22 30 63 30q65 0 65 -65v-30h9q17 0 24 12t7 39v42h69v-48q0 -63 -29 -86t-80 -23h-67v71q0 13 -4 18.5t-14 5.5q-9 0 -15 -6t-6 -18q0 -46 -22 -69t-72 -23q-48 0 -70 21zM-278.5 659.5
q8.5 8.5 8.5 29.5q0 22 -8 29.5t-31 7.5q-22 0 -30.5 -8t-8.5 -29t8.5 -29.5t29.5 -8.5q23 0 31.5 8.5z" />
    <glyph glyph-name="uni0E4B" unicode="&#xe4b;" 
d="M-226 647h-65v70h65v50h108v-50h65v-70h-65v-48h-108v48z" />
    <glyph glyph-name="uni0E4C" unicode="&#xe4c;" 
d="M-305 622q-24 23 -24 74q0 60 48 89t146 29h134v-70h-97q-31 0 -54 -3q20 -21 20 -53q0 -89 -95 -89q-54 0 -78 23zM-197 662.5q9 8.5 9 30.5t-9 30.5t-32 8.5t-32 -8.5t-9 -30.5t9 -30.5t32 -8.5t32 8.5z" />
    <glyph glyph-name="uni0E4D" unicode="&#xe4d;" 
d="M-185 623q-29 25 -29 75t29 75t79 25t78.5 -25t28.5 -75t-28.5 -75t-78.5 -25t-79 25zM-65 698q0 38 -41 38q-22 0 -32 -9t-10 -29q0 -37 42 -37q41 0 41 37z" />
    <glyph glyph-name="uni0E4E" unicode="&#xe4e;" 
d="M-234 609q-26 20 -26 56q0 43 36 63q-36 20 -36 62q0 33 23.5 52.5t60.5 19.5h83v-62h-57q-28 0 -28 -23t28 -23h37v-53h-37q-32 0 -32 -28q0 -26 36 -26q25 0 41 16l33 -40q-28 -34 -91 -34q-45 0 -71 20z" />
    <glyph glyph-name="uni0E4F" unicode="&#xe4f;" horiz-adv-x="578" 
d="M99.5 54.5q-66.5 69.5 -66.5 184.5q0 75 29.5 133t87 90.5t139.5 32.5t139.5 -32.5t87 -90.5t29.5 -133q0 -115 -66.5 -184.5t-189.5 -69.5t-189.5 69.5zM420.5 100.5q49.5 47.5 49.5 138.5q0 92 -49.5 140t-131.5 48t-131.5 -48t-49.5 -140q0 -91 49.5 -138.5
t131.5 -47.5t131.5 47.5zM182 134.5q-37 39.5 -37 104.5q0 66 37 106t107 40t107 -40t37 -106q0 -65 -37 -104.5t-107 -39.5t-107 39.5zM344.5 181.5q20.5 19.5 20.5 57.5q0 39 -20.5 59t-55.5 20t-55.5 -20t-20.5 -59q0 -38 20.5 -57.5t55.5 -19.5t55.5 19.5z" />
    <glyph glyph-name="uni0E50" unicode="&#xe50;" horiz-adv-x="600" 
d="M101 53.5q-68 68.5 -68 185.5t68 186.5t199 69.5q132 0 199.5 -69t67.5 -187q0 -117 -67.5 -185.5t-199.5 -68.5q-131 0 -199 68.5zM462 239q0 92 -42 136.5t-120 44.5t-120 -44.5t-42 -136.5q0 -91 42 -135t120 -44q162 0 162 179z" />
    <glyph glyph-name="uni0E51" unicode="&#xe51;" horiz-adv-x="601" 
d="M214 14q129 16 190.5 66.5t61.5 149.5q0 174 -174 174q-79 0 -118.5 -40t-39.5 -110q0 -52 23.5 -80t58.5 -28q30 0 51 12q-34 4 -54 27t-20 65q0 49 24 71.5t81 22.5q58 0 81.5 -28t23.5 -91q0 -43 -22.5 -78t-65.5 -55.5t-101 -20.5q-82 0 -131.5 48.5t-49.5 130.5
q0 108 68 168.5t195 60.5q144 0 208 -70t64 -179q0 -125 -83 -200t-254 -95zM329.5 217q9.5 9 9.5 31q0 23 -10 32.5t-33 9.5q-25 0 -34 -9t-9 -33q0 -23 9 -31.5t34 -8.5q24 0 33.5 9z" />
    <glyph glyph-name="uni0E52" unicode="&#xe52;" horiz-adv-x="672" 
d="M127.5 45q-74.5 60 -74.5 183v316h106v-333q0 -73 43.5 -112t126.5 -39q95 0 139.5 39t44.5 132v115q0 45 -7.5 59.5t-32.5 14.5q-22 0 -30.5 -12.5t-8.5 -40.5v-18h-77v18q0 28 -7.5 40.5t-27.5 12.5q-25 0 -33 -17t-8 -64v-24q18 2 23 2q9 0 14 -1q37 -3 54.5 -24
t17.5 -62q0 -48 -22 -69t-76 -21q-52 0 -77.5 27t-25.5 83v97q0 73 30 110.5t90 37.5q38 0 58.5 -14.5t30.5 -46.5q23 61 104 61q64 0 90.5 -34t26.5 -110v-114q0 -118 -62.5 -185t-227.5 -67q-127 0 -201.5 60zM327 199q9 8 9 31q0 22 -9 30.5t-33 8.5q-23 0 -32 -9t-9 -30
q0 -23 8.5 -31t32.5 -8t33 8z" />
    <glyph glyph-name="uni0E53" unicode="&#xe53;" horiz-adv-x="614" 
d="M76 7.5q-23 22.5 -23 78.5v261q0 73 38.5 110.5t102.5 37.5q42 0 72 -15.5t39 -46.5q12 31 43.5 46.5t74.5 15.5q138 0 138 -148v-347h-104v346q0 42 -11 58t-42 16q-26 0 -40.5 -15t-14.5 -42v-122h-88v122q0 28 -13.5 42.5t-38.5 14.5q-29 0 -42.5 -17t-13.5 -59v-175
q18 2 31 2q38 0 59 -22.5t21 -67.5q0 -50 -23.5 -73t-81.5 -23q-60 0 -83 22.5zM195 48.5q9 8.5 9 32.5q0 23 -9 31.5t-34 8.5q-24 0 -33.5 -9t-9.5 -31q0 -24 9 -32.5t34 -8.5t34 8.5z" />
    <glyph glyph-name="uni0E54" unicode="&#xe54;" horiz-adv-x="607" 
d="M79.5 46.5q-46.5 46.5 -46.5 127.5v93q0 96 58.5 154.5t172.5 58.5h124q51 0 82.5 11t65.5 51l58 -50q-27 -36 -57 -54.5t-70 -25.5t-106 -7h-85q-70 0 -104.5 -37.5t-34.5 -103.5v-88q0 -100 79 -100h88q-14 16 -21.5 42.5t-7.5 57.5v45q0 41 8.5 64.5t30.5 35t64 11.5
q58 0 81.5 -21.5t23.5 -71.5q0 -42 -19.5 -66t-55.5 -24q-26 0 -38 3v-9q0 -31 19.5 -49t55.5 -18h94v-76h-327q-86 0 -132.5 46.5zM412 206q9 9 9 32q0 24 -8.5 32.5t-33.5 8.5t-34 -8.5t-9 -32.5q0 -23 9.5 -32t33.5 -9t33 9z" />
    <glyph glyph-name="uni0E55" unicode="&#xe55;" horiz-adv-x="607" 
d="M79.5 46.5q-46.5 46.5 -46.5 127.5v93q0 96 58.5 154t172.5 59q-5 13 -5 30q0 45 22 66.5t76 21.5q50 0 73 -19t25 -61v-9q0 -9 -2 -23q23 5 42.5 18t40.5 38l58 -50q-27 -36 -57 -54.5t-70 -25.5t-106 -7h-85q-70 0 -104.5 -37.5t-34.5 -103.5v-88q0 -100 79 -100h88
q-14 16 -21.5 42.5t-7.5 57.5v45q0 41 8.5 64.5t30.5 35t64 11.5q58 0 81.5 -21.5t23.5 -71.5q0 -42 -19.5 -66t-55.5 -24q-26 0 -38 3v-9q0 -31 19.5 -49t55.5 -18h94v-76h-327q-86 0 -132.5 46.5zM394 470.5q9 8.5 9 31.5q0 24 -9 32.5t-34 8.5t-34 -8.5t-9 -32.5
q0 -22 9.5 -31t33.5 -9q25 0 34 8.5zM412 206q9 9 9 32q0 24 -8.5 32.5t-33.5 8.5t-34 -8.5t-9 -32.5q0 -23 9.5 -32t33.5 -9t33 9z" />
    <glyph glyph-name="uni0E56" unicode="&#xe56;" horiz-adv-x="592" 
d="M141 23q-59 38 -59 104q0 63 23.5 91t81.5 28q57 0 81 -22.5t24 -71.5q0 -44 -14 -63t-47 -23q20 -4 37.5 -5t42.5 -1q76 0 115 45.5t39 126.5q0 87 -38.5 135t-111.5 48q-93 0 -137 -67h-86l-79 181l90 30l53 -125q27 28 71 44.5t96 16.5q123 0 184.5 -72.5t61.5 -190.5
q0 -112 -66.5 -179.5t-192.5 -67.5q-110 0 -169 38zM223 118.5q9 8.5 9 31.5q0 24 -9 33t-34 9q-23 0 -33 -9.5t-10 -32.5q0 -22 9.5 -31t33.5 -9q25 0 34 8.5z" />
    <glyph glyph-name="uni0E57" unicode="&#xe57;" horiz-adv-x="783" 
d="M76 7.5q-23 22.5 -23 78.5v261q0 73 36.5 110.5t97.5 37.5q87 0 106 -62q12 31 41 46.5t72 15.5q129 0 129 -148v-272q39 0 59.5 11t28 35t7.5 67v356h100v-345q0 -97 -39.5 -148t-144.5 -51h-109v338q0 46 -10.5 64t-42.5 18q-34 0 -44.5 -16.5t-10.5 -48.5v-114h-72
v114q0 29 -13.5 47t-38.5 18q-30 0 -43 -19t-13 -64v-168q18 2 35 2q38 0 59 -22.5t21 -67.5q0 -50 -23.5 -73t-81.5 -23q-60 0 -83 22.5zM195 48.5q9 8.5 9 32.5q0 23 -9 31.5t-34 8.5q-24 0 -33.5 -9t-9.5 -31q0 -24 9 -32.5t34 -8.5t34 8.5z" />
    <glyph glyph-name="uni0E58" unicode="&#xe58;" horiz-adv-x="576" 
d="M33 133v146q0 94 51 147.5t150 53.5h85q52 0 81 4t52 17.5t46 40.5l58 -50q-32 -46 -76.5 -66.5t-116.5 -20.5h-102q-69 0 -96.5 -37.5t-27.5 -119.5v-106q0 -44 10.5 -63t43.5 -19q27 0 38 18t11 43v32h96v-41q0 -28 12 -40t38 -12q30 0 44.5 16.5t14.5 55.5v28
q-14 -2 -25 -2q-38 0 -59 21.5t-21 64.5q0 48 23 70t79 22q58 0 82.5 -24t24.5 -78v-101q0 -72 -42 -110t-107 -38q-43 0 -75 15.5t-41 46.5q-12 -31 -41 -46.5t-72 -15.5q-138 0 -138 148zM474.5 212.5q9.5 9.5 9.5 31.5q0 24 -9 32.5t-34 8.5t-33.5 -8.5t-8.5 -32.5
q0 -23 9 -32t33 -9t33.5 9.5z" />
    <glyph glyph-name="uni0E59" unicode="&#xe59;" horiz-adv-x="648" 
d="M76 7.5q-23 22.5 -23 78.5v255q0 77 34.5 115.5t108.5 38.5q43 0 67.5 -13.5t40.5 -39.5q14 24 42.5 38.5t64.5 14.5q51 0 78.5 -22.5t27.5 -61.5q25 0 34 19.5t9 64.5h75q0 -79 -30.5 -121.5t-100.5 -42.5h-52q0 5 0.5 31.5t-11 42t-33.5 15.5q-23 0 -36.5 -13
t-13.5 -35q0 -8 1 -12l70 -360h-95l-68 354q-7 34 -19 50t-39 16q-33 0 -46.5 -18t-13.5 -63v-170q11 2 36 2q38 0 59 -22.5t21 -67.5q0 -50 -23.5 -73t-81.5 -23q-60 0 -83 22.5zM195 48.5q9 8.5 9 32.5q0 23 -9 31.5t-34 8.5q-24 0 -33.5 -9t-9.5 -31q0 -24 9 -32.5
t34 -8.5t34 8.5z" />
    <glyph glyph-name="uni0E5A" unicode="&#xe5a;" horiz-adv-x="742" 
d="M344 328q-23 -21 -51 -30.5t-74 -9.5q-80 0 -133 40t-53 112q0 55 24 79.5t81 24.5t81 -22.5t24 -71.5q0 -36 -13 -54.5t-46 -26.5q15 -6 39 -6q61 0 91.5 40.5t30.5 125.5h106v-166q132 5 132 166h106v-529h-107v328q-49 -39 -131 -40v-288h-107v328zM174 416.5
q9 8.5 9 31.5q0 24 -9 33t-34 9q-23 0 -33 -9.5t-10 -32.5q0 -22 9.5 -31t33.5 -9q25 0 34 8.5z" />
    <glyph glyph-name="uni0E5B" unicode="&#xe5b;" horiz-adv-x="1124" 
d="M161.5 16.5q-63.5 31.5 -96 88t-32.5 129.5q0 114 57 182.5t188 68.5q112 0 166.5 -53t54.5 -145q0 -85 -40.5 -131t-120.5 -46t-120 34t-40 97q0 47 21 70.5t70 23.5q46 0 69.5 -21t23.5 -68q0 -57 -55 -71q19 -5 39 -5q37 0 54.5 25.5t17.5 82.5q0 51 -13 80
t-43.5 41.5t-83.5 12.5q-89 0 -125 -45.5t-36 -132.5q0 -83 53 -130t147 -47q105 0 164.5 55.5t59.5 154.5q0 80 26.5 113.5t91.5 33.5q61 0 85 -32.5t24 -86.5v-52q0 -39 5 -51t23 -12q19 0 25.5 11.5t6.5 37.5v45q0 59 25.5 83t77.5 24q96 0 96 -99v-15h84v-73h-157v62
q0 31 -4 42t-21 11q-18 0 -22.5 -11t-4.5 -48v-23q0 -53 -25 -86t-80 -33q-58 0 -83.5 30.5t-25.5 102.5v39q0 28 -6.5 40t-26.5 12q-22 0 -29 -16.5t-7 -62.5q0 -76 -35.5 -137t-104.5 -96t-165 -35q-89 0 -152.5 31.5zM301.5 216q8.5 9 8.5 30q0 22 -8.5 30t-31.5 8
t-32 -8t-9 -30q0 -21 9.5 -30t31.5 -9q23 0 31.5 9z" />
    <glyph glyph-name="uni1E0C" unicode="&#x1e0c;" horiz-adv-x="628" 
d="M33 72h23q20 0 28.5 9t8.5 29v428q0 19 -8.5 27.5t-28.5 8.5h-23v73h288q139 0 206.5 -85t67.5 -241q0 -146 -69.5 -233.5t-204.5 -87.5h-288v72zM307 72q98 0 141 62t43 187q0 128 -43 191t-141 63h-108v-503h108zM216 -62h92v-96h-92v96z" />
    <glyph glyph-name="uni1E0D" unicode="&#x1e0d;" horiz-adv-x="584" 
d="M88.5 49q-55.5 64 -55.5 183q0 125 55 194t159 69q61 0 97.5 -15t60.5 -50v115q0 24 -8 34t-31 10h-17v73h159v-555q0 -22 7 -30.5t26 -8.5h20v-68h-134l-9 70q-30 -45 -71 -65t-104 -20q-99 0 -154.5 64zM367 104.5q36 41.5 36 111.5v51q0 73 -34.5 112t-97.5 39
q-71 0 -102.5 -44t-31.5 -141q0 -92 30 -131t100 -39q64 0 100 41.5zM230 -62h92v-96h-92v96z" />
    <glyph glyph-name="uni1E0E" unicode="&#x1e0e;" horiz-adv-x="628" 
d="M33 72h23q20 0 28.5 9t8.5 29v428q0 19 -8.5 27.5t-28.5 8.5h-23v73h288q139 0 206.5 -85t67.5 -241q0 -146 -69.5 -233.5t-204.5 -87.5h-288v72zM307 72q98 0 141 62t43 187q0 128 -43 191t-141 63h-108v-503h108zM121 -63h289v-69h-289v69z" />
    <glyph glyph-name="uni1E0F" unicode="&#x1e0f;" horiz-adv-x="584" 
d="M88.5 49q-55.5 64 -55.5 183q0 125 55 194t159 69q61 0 97.5 -15t60.5 -50v115q0 24 -8 34t-31 10h-17v73h159v-555q0 -22 7 -30.5t26 -8.5h20v-68h-134l-9 70q-30 -45 -71 -65t-104 -20q-99 0 -154.5 64zM367 104.5q36 41.5 36 111.5v51q0 73 -34.5 112t-97.5 39
q-71 0 -102.5 -44t-31.5 -141q0 -92 30 -131t100 -39q64 0 100 41.5zM158 -63h289v-69h-289v69z" />
    <glyph glyph-name="uni1E20" unicode="&#x1e20;" horiz-adv-x="618" 
d="M191 790h289v-69h-289v69zM178 27.5q-72 42.5 -108.5 118t-36.5 174.5q0 100 34 177t104.5 121t175.5 44q72 0 124.5 -13.5t92.5 -42.5v-102h-106v62q-43 22 -111 22q-100 0 -155 -71t-55 -197q0 -123 58 -192t162 -69q70 0 123 21v187h-139v74h244v-293
q-49 -33 -105 -48t-127 -15q-103 0 -175 42.5z" />
    <glyph glyph-name="uni1E21" unicode="&#x1e21;" horiz-adv-x="584" 
d="M135 615h289v-69h-289v69zM116 -130v69h92v-36q19 -14 40.5 -19.5t52.5 -5.5q104 0 104 105v80q-27 -37 -66 -54t-93 -17q-102 0 -157.5 65t-55.5 189q0 119 58.5 184t158.5 65q58 0 98 -20.5t70 -65.5l9 72h134v-69h-21q-18 0 -25 -9.5t-7 -31.5v-372
q0 -90 -54.5 -144.5t-145.5 -54.5q-119 0 -192 70zM368.5 107.5q33.5 37.5 33.5 110.5v46q0 71 -34 112.5t-98 41.5q-70 0 -101.5 -40.5t-31.5 -131.5q0 -95 31 -135.5t103 -40.5q64 0 97.5 37.5z" />
    <glyph glyph-name="uni1E24" unicode="&#x1e24;" horiz-adv-x="682" 
d="M33 73h29q20 0 28.5 9t8.5 29v426q0 19 -8.5 27.5t-28.5 8.5h-29v74h233v-74h-25q-19 0 -27.5 -8.5t-8.5 -27.5v-176h272v175q0 20 -8 28.5t-28 8.5h-26v74h234v-74h-29q-20 0 -28.5 -8.5t-8.5 -27.5v-426q0 -20 8.5 -29t28.5 -9h29v-73h-234v73h26q19 0 27.5 9t8.5 29
v177h-272v-177q0 -20 8.5 -29t27.5 -9h25v-73h-233v73zM283 -62h92v-96h-92v96z" />
    <glyph glyph-name="uni1E25" unicode="&#x1e25;" horiz-adv-x="604" 
d="M33 74h25q20 0 28.5 8.5t8.5 28.5v440q0 19 -8.5 28t-28.5 9h-20v74h154v-232q36 36 73.5 50.5t94.5 14.5q78 0 117.5 -43t39.5 -123v-218q0 -20 8.5 -28.5t27.5 -8.5h28v-74h-173v328q0 50 -22 73t-67 23q-51 0 -84 -29.5t-33 -81.5v-202q0 -20 7.5 -28.5t25.5 -8.5h27
v-74h-229v74zM261 -62h92v-96h-92v96z" />
    <glyph glyph-name="uni1E2A" unicode="&#x1e2a;" horiz-adv-x="682" 
d="M33 73h29q20 0 28.5 9t8.5 29v426q0 19 -8.5 27.5t-28.5 8.5h-29v74h233v-74h-25q-19 0 -27.5 -8.5t-8.5 -27.5v-176h272v175q0 20 -8 28.5t-28 8.5h-26v74h234v-74h-29q-20 0 -28.5 -8.5t-8.5 -27.5v-426q0 -20 8.5 -29t28.5 -9h29v-73h-234v73h26q19 0 27.5 9t8.5 29
v177h-272v-177q0 -20 8.5 -29t27.5 -9h25v-73h-233v73zM225 -152.5q-43 39.5 -43 104.5h87q0 -36 19 -55.5t53 -19.5q35 0 53.5 19.5t18.5 55.5h87q0 -65 -43 -104.5t-116 -39.5t-116 39.5z" />
    <glyph glyph-name="uni1E2B" unicode="&#x1e2b;" horiz-adv-x="604" 
d="M33 74h25q20 0 28.5 8.5t8.5 28.5v440q0 19 -8.5 28t-28.5 9h-20v74h154v-232q36 36 73.5 50.5t94.5 14.5q78 0 117.5 -43t39.5 -123v-218q0 -20 8.5 -28.5t27.5 -8.5h28v-74h-173v328q0 50 -22 73t-67 23q-51 0 -84 -29.5t-33 -81.5v-202q0 -20 7.5 -28.5t25.5 -8.5h27
v-74h-229v74zM201 -152.5q-43 39.5 -43 104.5h87q0 -36 19 -55.5t53 -19.5q35 0 53.5 19.5t18.5 55.5h87q0 -65 -43 -104.5t-116 -39.5t-116 39.5z" />
    <glyph glyph-name="uni1E36" unicode="&#x1e36;" horiz-adv-x="509" 
d="M33 72h21q22 0 30.5 9t8.5 29v428q0 19 -8.5 27.5t-28.5 8.5h-23v73h226v-73h-24q-19 0 -27.5 -8.5t-8.5 -27.5v-466h173q20 0 29 8.5t9 28.5v32h96v-141h-473v72zM205 -62h92v-96h-92v96z" />
    <glyph glyph-name="uni1E37" unicode="&#x1e37;" horiz-adv-x="295" 
d="M33 74h29q20 0 28.5 9t8.5 29v439q0 19 -8.5 27.5t-28.5 8.5h-29v75h173v-551q0 -19 9 -28t28 -9h29v-74h-239v74zM106 -62h92v-96h-92v96z" />
    <glyph glyph-name="uni1E38" unicode="&#x1e38;" horiz-adv-x="509" 
d="M8 784h289v-69h-289v69zM33 72h21q22 0 30.5 9t8.5 29v428q0 19 -8.5 27.5t-28.5 8.5h-23v73h226v-73h-24q-19 0 -27.5 -8.5t-8.5 -27.5v-466h173q20 0 29 8.5t9 28.5v32h96v-141h-473v72zM207 -62h92v-96h-92v96z" />
    <glyph glyph-name="uni1E39" unicode="&#x1e39;" horiz-adv-x="295" 
d="M-19 774h289v-69h-289v69zM33 74h29q20 0 28.5 9t8.5 29v439q0 19 -8.5 27.5t-28.5 8.5h-29v75h173v-551q0 -19 9 -28t28 -9h29v-74h-239v74zM107 -62h92v-96h-92v96z" />
    <glyph glyph-name="uni1E3A" unicode="&#x1e3a;" horiz-adv-x="509" 
d="M33 72h21q22 0 30.5 9t8.5 29v428q0 19 -8.5 27.5t-28.5 8.5h-23v73h226v-73h-24q-19 0 -27.5 -8.5t-8.5 -27.5v-466h173q20 0 29 8.5t9 28.5v32h96v-141h-473v72zM112 -63h289v-69h-289v69z" />
    <glyph glyph-name="uni1E3B" unicode="&#x1e3b;" horiz-adv-x="295" 
d="M33 74h29q20 0 28.5 9t8.5 29v439q0 19 -8.5 27.5t-28.5 8.5h-29v75h173v-551q0 -19 9 -28t28 -9h29v-74h-239v74zM11 -63h289v-69h-289v69z" />
    <glyph glyph-name="uni1E42" unicode="&#x1e42;" horiz-adv-x="775" 
d="M33 73h29q20 0 28.5 9t8.5 29v425q0 20 -8.5 29t-28.5 9h-29v73h179l176 -407l175 407h179v-73h-30q-19 0 -27.5 -9t-8.5 -29v-425q0 -20 8.5 -29t27.5 -9h30v-73h-237v73h30q19 0 27.5 8.5t8.5 28.5v362l-143 -333h-81l-144 333v-362q0 -19 9 -28t28 -9h30v-73h-237v73z
M342 -62h92v-96h-92v96z" />
    <glyph glyph-name="uni1E43" unicode="&#x1e43;" horiz-adv-x="856" 
d="M33 74h25q20 0 28.5 8.5t8.5 28.5v258q0 19 -8.5 27.5t-28.5 8.5h-20v75h125l7 -68q27 42 67.5 62.5t98.5 20.5q44 0 76 -20t48 -57q25 40 61.5 58.5t91.5 18.5q82 0 118.5 -41t36.5 -123v-220q0 -19 9 -28t28 -9h28v-74h-170v331q0 50 -19 71t-64 21q-46 0 -72.5 -26
t-26.5 -76v-210q0 -20 7.5 -28.5t26.5 -8.5h27v-74h-160v328q0 49 -19 72t-60 23q-50 0 -77 -28t-27 -82v-202q0 -20 7.5 -28.5t26.5 -8.5h27v-74h-227v74zM389 -62h92v-96h-92v96z" />
    <glyph glyph-name="uni1E44" unicode="&#x1e44;" horiz-adv-x="691" 
d="M302 816h92v-96h-92v96zM33 74h29q20 0 28.5 8.5t8.5 27.5v427q0 19 -8.5 27.5t-28.5 8.5h-29v74h149l305 -473v363q0 19 -9 27.5t-28 8.5h-30v74h238v-74h-30q-19 0 -27.5 -8.5t-8.5 -27.5v-537h-83l-305 472v-362q0 -19 9 -27.5t28 -8.5h29v-74h-237v74z" />
    <glyph glyph-name="uni1E45" unicode="&#x1e45;" horiz-adv-x="603" 
d="M251 641h92v-96h-92v96zM33 74h25q20 0 28.5 8.5t8.5 28.5v257q0 20 -8 28.5t-28 8.5h-21v75h128l6 -67q34 43 77.5 62.5t105.5 19.5q160 0 160 -166v-218q0 -20 8.5 -28.5t28.5 -8.5h28v-74h-172v328q0 50 -21 72.5t-68 22.5q-51 0 -84 -29t-33 -81v-202
q0 -20 7.5 -28.5t26.5 -8.5h26v-74h-229v74z" />
    <glyph glyph-name="uni1E46" unicode="&#x1e46;" horiz-adv-x="691" 
d="M33 74h29q20 0 28.5 8.5t8.5 27.5v427q0 19 -8.5 27.5t-28.5 8.5h-29v74h149l305 -473v363q0 19 -9 27.5t-28 8.5h-30v74h238v-74h-30q-19 0 -27.5 -8.5t-8.5 -27.5v-537h-83l-305 472v-362q0 -19 9 -27.5t28 -8.5h29v-74h-237v74zM310 -62h92v-96h-92v96z" />
    <glyph glyph-name="uni1E47" unicode="&#x1e47;" horiz-adv-x="603" 
d="M33 74h25q20 0 28.5 8.5t8.5 28.5v257q0 20 -8 28.5t-28 8.5h-21v75h128l6 -67q34 43 77.5 62.5t105.5 19.5q160 0 160 -166v-218q0 -20 8.5 -28.5t28.5 -8.5h28v-74h-172v328q0 50 -21 72.5t-68 22.5q-51 0 -84 -29t-33 -81v-202q0 -20 7.5 -28.5t26.5 -8.5h26v-74h-229
v74zM254 -62h92v-96h-92v96z" />
    <glyph glyph-name="uni1E48" unicode="&#x1e48;" horiz-adv-x="691" 
d="M33 74h29q20 0 28.5 8.5t8.5 27.5v427q0 19 -8.5 27.5t-28.5 8.5h-29v74h149l305 -473v363q0 19 -9 27.5t-28 8.5h-30v74h238v-74h-30q-19 0 -27.5 -8.5t-8.5 -27.5v-537h-83l-305 472v-362q0 -19 9 -27.5t28 -8.5h29v-74h-237v74zM200 -63h289v-69h-289v69z" />
    <glyph glyph-name="uni1E49" unicode="&#x1e49;" horiz-adv-x="603" 
d="M33 74h25q20 0 28.5 8.5t8.5 28.5v257q0 20 -8 28.5t-28 8.5h-21v75h128l6 -67q34 43 77.5 62.5t105.5 19.5q160 0 160 -166v-218q0 -20 8.5 -28.5t28.5 -8.5h28v-74h-172v328q0 50 -21 72.5t-68 22.5q-51 0 -84 -29t-33 -81v-202q0 -20 7.5 -28.5t26.5 -8.5h26v-74h-229
v74zM160 -63h289v-69h-289v69z" />
    <glyph glyph-name="uni1E5A" unicode="&#x1e5a;" horiz-adv-x="622" 
d="M33 73h27q22 0 30.5 9t8.5 28v427q0 19 -8.5 27.5t-30.5 8.5h-27v74h327q101 0 157 -49.5t56 -140.5q0 -75 -41 -124.5t-116 -63.5l88 -164q10 -18 23.5 -25t34.5 -7h27v-73h-219v73h48l-100 186h-113v-151q0 -19 7.5 -27t27.5 -8h23v-73h-230v73zM344 333q63 0 94.5 32
t31.5 92q0 62 -30 89t-96 27h-139v-240h139zM259 -62h92v-96h-92v96z" />
    <glyph glyph-name="uni1E5B" unicode="&#x1e5b;" horiz-adv-x="386" 
d="M33 74h25q20 0 28.5 8.5t8.5 28.5v258q0 19 -8 28t-27 9h-21v74h138l14 -55q20 31 51.5 43t74.5 12h46v-74h-56q-57 0 -81 -25.5t-24 -78.5v-191q0 -20 8 -28.5t27 -8.5h25v-74h-229v74zM103 -62h92v-96h-92v96z" />
    <glyph glyph-name="uni1E5C" unicode="&#x1e5c;" horiz-adv-x="622" 
d="M145 790h289v-69h-289v69zM33 73h27q22 0 30.5 9t8.5 28v427q0 19 -8.5 27.5t-30.5 8.5h-27v74h327q101 0 157 -49.5t56 -140.5q0 -75 -41 -124.5t-116 -63.5l88 -164q10 -18 23.5 -25t34.5 -7h27v-73h-219v73h48l-100 186h-113v-151q0 -19 7.5 -27t27.5 -8h23v-73h-230
v73zM344 333q63 0 94.5 32t31.5 92q0 62 -30 89t-96 27h-139v-240h139zM259 -62h92v-96h-92v96z" />
    <glyph glyph-name="uni1E5D" unicode="&#x1e5d;" horiz-adv-x="386" 
d="M35 615h289v-69h-289v69zM33 74h25q20 0 28.5 8.5t8.5 28.5v258q0 19 -8 28t-27 9h-21v74h138l14 -55q20 31 51.5 43t74.5 12h46v-74h-56q-57 0 -81 -25.5t-24 -78.5v-191q0 -20 8 -28.5t27 -8.5h25v-74h-229v74zM94 -62h92v-96h-92v96z" />
    <glyph glyph-name="uni1E5E" unicode="&#x1e5e;" horiz-adv-x="622" 
d="M33 73h27q22 0 30.5 9t8.5 28v427q0 19 -8.5 27.5t-30.5 8.5h-27v74h327q101 0 157 -49.5t56 -140.5q0 -75 -41 -124.5t-116 -63.5l88 -164q10 -18 23.5 -25t34.5 -7h27v-73h-219v73h48l-100 186h-113v-151q0 -19 7.5 -27t27.5 -8h23v-73h-230v73zM344 333q63 0 94.5 32
t31.5 92q0 62 -30 89t-96 27h-139v-240h139zM156 -63h289v-69h-289v69z" />
    <glyph glyph-name="uni1E5F" unicode="&#x1e5f;" horiz-adv-x="386" 
d="M33 74h25q20 0 28.5 8.5t8.5 28.5v258q0 19 -8 28t-27 9h-21v74h138l14 -55q20 31 51.5 43t74.5 12h46v-74h-56q-57 0 -81 -25.5t-24 -78.5v-191q0 -20 8 -28.5t27 -8.5h25v-74h-229v74zM13 -63h289v-69h-289v69z" />
    <glyph glyph-name="uni1E60" unicode="&#x1e60;" horiz-adv-x="534" 
d="M224 816h92v-96h-92v96zM141 5q-63 20 -108 54v98h107v-65q25 -15 61.5 -24t74.5 -9q60 0 91 25.5t31 72.5q0 33 -16.5 55t-46.5 38t-83 37q-74 29 -119 55t-69.5 61.5t-24.5 86.5q0 85 65 128.5t167 43.5q67 0 122.5 -19t95.5 -50v-93h-107v62q-44 26 -116 26
q-58 0 -91 -23t-33 -72q0 -34 21 -57t48 -36t84 -36q76 -30 117 -53t65 -58.5t24 -91.5q0 -51 -26.5 -90.5t-77.5 -62.5t-123 -23q-70 0 -133 20z" />
    <glyph glyph-name="uni1E61" unicode="&#x1e61;" horiz-adv-x="462" 
d="M180 641h92v-96h-92v96zM33 43v78h98v-40q41 -24 100 -24q45 0 67.5 14t22.5 46q0 21 -11.5 34.5t-31.5 23t-79 33.5t-90.5 41.5t-51 44.5t-19.5 68q0 66 51 99.5t139 33.5q56 0 105 -14.5t85 -41.5v-75h-96v37q-36 22 -86 22q-45 0 -67.5 -14t-22.5 -47q0 -30 24 -46.5
t74 -34.5q14 -4 31 -11q52 -20 83 -37t51 -45t20 -71q0 -64 -48.5 -98t-146.5 -34q-121 0 -201 58z" />
    <glyph glyph-name="uni1E62" unicode="&#x1e62;" horiz-adv-x="534" 
d="M141 5q-63 20 -108 54v98h107v-65q25 -15 61.5 -24t74.5 -9q60 0 91 25.5t31 72.5q0 33 -16.5 55t-46.5 38t-83 37q-74 29 -119 55t-69.5 61.5t-24.5 86.5q0 85 65 128.5t167 43.5q67 0 122.5 -19t95.5 -50v-93h-107v62q-44 26 -116 26q-58 0 -91 -23t-33 -72
q0 -34 21 -57t48 -36t84 -36q76 -30 117 -53t65 -58.5t24 -91.5q0 -51 -26.5 -90.5t-77.5 -62.5t-123 -23q-70 0 -133 20zM212 -62h92v-96h-92v96z" />
    <glyph glyph-name="uni1E63" unicode="&#x1e63;" horiz-adv-x="462" 
d="M33 43v78h98v-40q41 -24 100 -24q45 0 67.5 14t22.5 46q0 21 -11.5 34.5t-31.5 23t-79 33.5t-90.5 41.5t-51 44.5t-19.5 68q0 66 51 99.5t139 33.5q56 0 105 -14.5t85 -41.5v-75h-96v37q-36 22 -86 22q-45 0 -67.5 -14t-22.5 -47q0 -30 24 -46.5t74 -34.5q14 -4 31 -11
q52 -20 83 -37t51 -45t20 -71q0 -64 -48.5 -98t-146.5 -34q-121 0 -201 58zM178 -62h92v-96h-92v96z" />
    <glyph glyph-name="uni1E6C" unicode="&#x1e6c;" horiz-adv-x="569" 
d="M166 74h27q22 0 30.5 8.5t8.5 27.5v462h-92q-20 0 -29 -8.5t-9 -27.5v-32h-79v142h523v-142h-79v32q0 20 -8.5 28t-29.5 8h-91v-462q0 -19 8.5 -27.5t30.5 -8.5h27v-74h-238v74zM227 -62h92v-96h-92v96z" />
    <glyph glyph-name="uni1E6D" unicode="&#x1e6d;" horiz-adv-x="435" 
d="M143 26q-42 41 -42 120v262h-78v72h78v108l106 34v-142h144v-72h-144v-269q0 -44 16.5 -63t50.5 -19q44 0 67 19v43h91v-76q-33 -28 -72 -43t-92 -15q-83 0 -125 41zM206 -62h92v-96h-92v96z" />
    <glyph glyph-name="uni1E6E" unicode="&#x1e6e;" horiz-adv-x="569" 
d="M166 74h27q22 0 30.5 8.5t8.5 27.5v462h-92q-20 0 -29 -8.5t-9 -27.5v-32h-79v142h523v-142h-79v32q0 20 -8.5 28t-29.5 8h-91v-462q0 -19 8.5 -27.5t30.5 -8.5h27v-74h-238v74zM131 -63h289v-69h-289v69z" />
    <glyph glyph-name="uni1E6F" unicode="&#x1e6f;" horiz-adv-x="435" 
d="M143 26q-42 41 -42 120v262h-78v72h78v108l106 34v-142h144v-72h-144v-269q0 -44 16.5 -63t50.5 -19q44 0 67 19v43h91v-76q-33 -28 -72 -43t-92 -15q-83 0 -125 41zM111 -63h289v-69h-289v69z" />
    <glyph glyph-name="Wgrave" unicode="&#x1e80;" horiz-adv-x="871" 
d="M270 880h126l80 -179h-92zM112 532q-5 24 -17 32.5t-41 8.5h-21v74h154l98 -464l108 355h84l109 -355l99 464h153v-74h-22q-29 0 -41 -8.5t-17 -32.5l-119 -532h-87l-117 368l-115 -368h-88z" />
    <glyph glyph-name="wgrave" unicode="&#x1e81;" horiz-adv-x="767" 
d="M224 705h126l80 -179h-92zM92 383q-4 16 -13.5 22t-30.5 6h-25v69h139l84 -360l98 317h78l98 -317l86 360h138v-69h-25q-21 0 -30.5 -6t-13.5 -22l-92 -383h-104l-95 305l-96 -305h-104z" />
    <glyph glyph-name="Wacute" unicode="&#x1e82;" horiz-adv-x="871" 
d="M479 880h125l-114 -179h-91zM112 532q-5 24 -17 32.5t-41 8.5h-21v74h154l98 -464l108 355h84l109 -355l99 464h153v-74h-22q-29 0 -41 -8.5t-17 -32.5l-119 -532h-87l-117 368l-115 -368h-88z" />
    <glyph glyph-name="wacute" unicode="&#x1e83;" horiz-adv-x="767" 
d="M420 705h125l-114 -179h-91zM92 383q-4 16 -13.5 22t-30.5 6h-25v69h139l84 -360l98 317h78l98 -317l86 360h138v-69h-25q-21 0 -30.5 -6t-13.5 -22l-92 -383h-104l-95 305l-96 -305h-104z" />
    <glyph glyph-name="Wdieresis" unicode="&#x1e84;" horiz-adv-x="871" 
d="M282 813h92v-96h-92v96zM495 813h93v-96h-93v96zM112 532q-5 24 -17 32.5t-41 8.5h-21v74h154l98 -464l108 355h84l109 -355l99 464h153v-74h-22q-29 0 -41 -8.5t-17 -32.5l-119 -532h-87l-117 368l-115 -368h-88z" />
    <glyph glyph-name="wdieresis" unicode="&#x1e85;" horiz-adv-x="767" 
d="M231 641h92v-96h-92v96zM444 641h93v-96h-93v96zM92 383q-4 16 -13.5 22t-30.5 6h-25v69h139l84 -360l98 317h78l98 -317l86 360h138v-69h-25q-21 0 -30.5 -6t-13.5 -22l-92 -383h-104l-95 305l-96 -305h-104z" />
    <glyph glyph-name="uni1E8E" unicode="&#x1e8e;" horiz-adv-x="666" 
d="M288 793h92v-96h-92v96zM221 72h23q20 0 28.5 9t8.5 28v128l-162 298q-13 23 -26 31.5t-37 8.5h-23v72h218v-72h-14q-22 0 -22 -13q0 -9 8 -23l111 -215l110 215q7 13 7 23q0 13 -21 13h-15v72h218v-72h-23q-24 0 -37 -8.5t-26 -31.5l-161 -298v-128q0 -19 9 -28t28 -9
h23v-72h-225v72z" />
    <glyph glyph-name="uni1E8F" unicode="&#x1e8f;" horiz-adv-x="566" 
d="M232 641h92v-96h-92v96zM117 -131v72h93v-36q33 -36 97 -36q52 0 78.5 30t26.5 88v71q-28 -28 -62 -40.5t-79 -12.5q-86 0 -134 44.5t-48 125.5v194q0 19 -9 28t-28 9h-29v74h172v-308q0 -98 97 -98q52 0 83 29.5t31 85.5v180q0 20 -7.5 28.5t-26.5 8.5h-26v74h167v-471
q0 -95 -54.5 -152t-147.5 -57q-122 0 -194 69z" />
    <glyph glyph-name="uni1E92" unicode="&#x1e92;" horiz-adv-x="562" 
d="M33 62l362 513h-216q-21 0 -29.5 -8.5t-8.5 -27.5v-20h-96v128h469v-62l-357 -513h238q20 0 29 8.5t9 28.5v19h96v-128h-496v62zM224 -62h92v-96h-92v96z" />
    <glyph glyph-name="uni1E93" unicode="&#x1e93;" horiz-adv-x="496" 
d="M33 57l293 350h-172q-20 0 -29 -8.5t-9 -27.5v-20h-72v129h409v-58l-292 -349h192q21 0 29.5 8.5t8.5 27.5v20h72v-129h-430v57zM192 -62h92v-96h-92v96z" />
    <glyph glyph-name="uni1E97" unicode="&#x1e97;" horiz-adv-x="440" 
d="M23 749h92v-96h-92v96zM236 749h93v-96h-93v96zM148 26q-42 41 -42 120v262h-78v72h78v108l106 34v-142h144v-72h-144v-269q0 -44 16.5 -63t50.5 -19q44 0 67 19v43h91v-76q-33 -28 -72 -43t-92 -15q-83 0 -125 41z" />
    <glyph glyph-name="uni1E9E" unicode="&#x1e9e;" horiz-adv-x="663" 
d="M281 20l35 61q25 -14 49 -19t55 -5q53 0 79.5 33t26.5 94q0 67 -27.5 94.5t-90.5 27.5h-92v55l147 181q0 29 -33.5 51.5t-90.5 22.5q-78 0 -113.5 -39.5t-35.5 -119.5v-457h-167v72h25q17 0 24.5 8t8.5 20t1 41v316q0 106 62.5 169.5t196.5 63.5q73 0 124.5 -23t78 -61
t26.5 -82l-123 -147q97 -4 140 -51t43 -141q0 -90 -51 -145t-152 -55q-87 0 -146 35z" />
    <glyph glyph-name="uni1EA0" unicode="&#x1ea0;" horiz-adv-x="719" 
d="M33 73h31q23 0 35.5 8t19.5 28l191 538h101l189 -538q7 -20 20 -28t36 -8h30v-73h-228v73h50l-44 128h-208l-44 -128h50v-73h-229v73zM444 264l-83 244l-85 -244h168zM304 -62h92v-96h-92v96z" />
    <glyph glyph-name="uni1EA1" unicode="&#x1ea1;" horiz-adv-x="523" 
d="M64.5 20q-41.5 35 -41.5 99q0 72 45.5 105.5t131.5 39.5l140 9v61q0 47 -20 68t-68 21q-33 0 -54.5 -5.5t-39.5 -17.5v-36h-93v79q84 52 189 52q192 0 192 -170v-219q0 -20 7.5 -29t24.5 -9h22v-68h-115l-13 63q-32 -41 -74.5 -59.5t-111.5 -18.5q-80 0 -121.5 35z
M305 83q35 26 35 79v48l-132 -10q-49 -3 -68 -20.5t-19 -55.5q0 -33 21 -50t68 -17q60 0 95 26zM195 -62h92v-96h-92v96z" />
    <glyph glyph-name="uni1EA2" unicode="&#x1ea2;" horiz-adv-x="719" 
d="M314 764q34 0 48 11t14 32q0 19 -11 27t-38 8q-26 0 -49 -9v59q29 11 72 11q115 0 115 -84q0 -62 -65 -80v-40h-86v65zM33 73h31q23 0 35.5 8t19.5 28l191 538h101l189 -538q7 -20 20 -28t36 -8h30v-73h-228v73h50l-44 128h-208l-44 -128h50v-73h-229v73zM444 264
l-83 244l-85 -244h168z" />
    <glyph glyph-name="uni1EA3" unicode="&#x1ea3;" horiz-adv-x="523" 
d="M208 590q34 0 48 11t14 32q0 19 -11 27t-38 8q-26 0 -49 -9v59q29 11 72 11q115 0 115 -84q0 -62 -65 -80v-40h-86v65zM64.5 20q-41.5 35 -41.5 99q0 72 45.5 105.5t131.5 39.5l140 9v61q0 47 -20 68t-68 21q-33 0 -54.5 -5.5t-39.5 -17.5v-36h-93v79q84 52 189 52
q192 0 192 -170v-219q0 -20 7.5 -29t24.5 -9h22v-68h-115l-13 63q-32 -41 -74.5 -59.5t-111.5 -18.5q-80 0 -121.5 35zM305 83q35 26 35 79v48l-132 -10q-49 -3 -68 -20.5t-19 -55.5q0 -33 21 -50t68 -17q60 0 95 26z" />
    <glyph glyph-name="uni1EA4" unicode="&#x1ea4;" horiz-adv-x="719" 
d="M524 939h113l-98 -127h-78zM312 838h100l107 -135h-95l-62 85l-64 -85h-93zM33 73h31q23 0 35.5 8t19.5 28l191 538h101l189 -538q7 -20 20 -28t36 -8h30v-73h-228v73h50l-44 128h-208l-44 -128h50v-73h-229v73zM444 264l-83 244l-85 -244h168z" />
    <glyph glyph-name="uni1EA5" unicode="&#x1ea5;" horiz-adv-x="523" 
d="M403 762h113l-98 -127h-78zM191 661h100l107 -135h-95l-62 85l-64 -85h-93zM64.5 20q-41.5 35 -41.5 99q0 72 45.5 105.5t131.5 39.5l140 9v61q0 47 -20 68t-68 21q-33 0 -54.5 -5.5t-39.5 -17.5v-36h-93v79q84 52 189 52q192 0 192 -170v-219q0 -20 7.5 -29t24.5 -9h22
v-68h-115l-13 63q-32 -41 -74.5 -59.5t-111.5 -18.5q-80 0 -121.5 35zM305 83q35 26 35 79v48l-132 -10q-49 -3 -68 -20.5t-19 -55.5q0 -33 21 -50t68 -17q60 0 95 26z" />
    <glyph glyph-name="uni1EA6" unicode="&#x1ea6;" horiz-adv-x="719" 
d="M86 939h113l63 -127h-78zM311 838h100l107 -135h-93l-64 85l-62 -85h-95zM33 73h31q23 0 35.5 8t19.5 28l191 538h101l189 -538q7 -20 20 -28t36 -8h30v-73h-228v73h50l-44 128h-208l-44 -128h50v-73h-229v73zM444 264l-83 244l-85 -244h168z" />
    <glyph glyph-name="uni1EA7" unicode="&#x1ea7;" horiz-adv-x="523" 
d="M-27 762h113l63 -127h-78zM209 661h100l107 -135h-93l-64 85l-62 -85h-95zM64.5 20q-41.5 35 -41.5 99q0 72 45.5 105.5t131.5 39.5l140 9v61q0 47 -20 68t-68 21q-33 0 -54.5 -5.5t-39.5 -17.5v-36h-93v79q84 52 189 52q192 0 192 -170v-219q0 -20 7.5 -29t24.5 -9h22
v-68h-115l-13 63q-32 -41 -74.5 -59.5t-111.5 -18.5q-80 0 -121.5 35zM305 83q35 26 35 79v48l-132 -10q-49 -3 -68 -20.5t-19 -55.5q0 -33 21 -50t68 -17q60 0 95 26z" />
    <glyph glyph-name="uni1EA8" unicode="&#x1ea8;" horiz-adv-x="719" 
d="M438 873q33 0 45 7.5t12 25.5q0 13 -9 19.5t-25 6.5q-19 0 -41 -8v51q25 9 61 9q87 0 87 -70q0 -27 -14 -42.5t-45 -21.5v-23h-71v46zM310 836h101l107 -135h-94l-64 85l-62 -85h-94zM33 73h31q23 0 35.5 8t19.5 28l191 538h101l189 -538q7 -20 20 -28t36 -8h30v-73h-228
v73h50l-44 128h-208l-44 -128h50v-73h-229v73zM444 264l-83 244l-85 -244h168z" />
    <glyph glyph-name="uni1EA9" unicode="&#x1ea9;" horiz-adv-x="523" 
d="M332 698q33 0 45 7.5t12 25.5q0 13 -9 19.5t-25 6.5q-19 0 -41 -8v51q25 9 61 9q87 0 87 -70q0 -27 -14 -42.5t-45 -21.5v-23h-71v46zM204 661h101l107 -135h-94l-64 85l-62 -85h-94zM64.5 20q-41.5 35 -41.5 99q0 72 45.5 105.5t131.5 39.5l140 9v61q0 47 -20 68t-68 21
q-33 0 -54.5 -5.5t-39.5 -17.5v-36h-93v79q84 52 189 52q192 0 192 -170v-219q0 -20 7.5 -29t24.5 -9h22v-68h-115l-13 63q-32 -41 -74.5 -59.5t-111.5 -18.5q-80 0 -121.5 35zM305 83q35 26 35 79v48l-132 -10q-49 -3 -68 -20.5t-19 -55.5q0 -33 21 -50t68 -17q60 0 95 26z
" />
    <glyph glyph-name="uni1EAA" unicode="&#x1eaa;" horiz-adv-x="719" 
d="M394 860q-17 6 -39 18q-14 7 -28 12.5t-25 5.5q-17 0 -24 -10t-7 -30h-59q0 52 20.5 75t63.5 23q19 0 35.5 -6t38.5 -18q3 -1 14 -7t20 -8.5t16 -2.5q17 0 24 10t7 30h59q0 -52 -19.5 -75t-61.5 -23q-18 0 -35 6zM310 836h101l107 -135h-94l-64 85l-62 -85h-94zM33 73h31
q23 0 35.5 8t19.5 28l191 538h101l189 -538q7 -20 20 -28t36 -8h30v-73h-228v73h50l-44 128h-208l-44 -128h50v-73h-229v73zM444 264l-83 244l-85 -244h168z" />
    <glyph glyph-name="uni1EAB" unicode="&#x1eab;" horiz-adv-x="523" 
d="M280 685q-17 6 -39 18q-14 7 -28 12.5t-25 5.5q-17 0 -24 -10t-7 -30h-59q0 52 20.5 75t63.5 23q19 0 35.5 -6t38.5 -18q3 -1 14 -7t20 -8.5t16 -2.5q17 0 24 10t7 30h59q0 -52 -19.5 -75t-61.5 -23q-18 0 -35 6zM196 661h101l107 -135h-94l-64 85l-62 -85h-94zM64.5 20
q-41.5 35 -41.5 99q0 72 45.5 105.5t131.5 39.5l140 9v61q0 47 -20 68t-68 21q-33 0 -54.5 -5.5t-39.5 -17.5v-36h-93v79q84 52 189 52q192 0 192 -170v-219q0 -20 7.5 -29t24.5 -9h22v-68h-115l-13 63q-32 -41 -74.5 -59.5t-111.5 -18.5q-80 0 -121.5 35zM305 83
q35 26 35 79v48l-132 -10q-49 -3 -68 -20.5t-19 -55.5q0 -33 21 -50t68 -17q60 0 95 26z" />
    <glyph glyph-name="uni1EAC" unicode="&#x1eac;" horiz-adv-x="719" 
d="M310 889h103l125 -188h-100l-77 126l-77 -126h-99zM33 73h31q23 0 35.5 8t19.5 28l191 538h101l189 -538q7 -20 20 -28t36 -8h30v-73h-228v73h50l-44 128h-208l-44 -128h50v-73h-229v73zM444 264l-83 244l-85 -244h168zM315 -62h92v-96h-92v96z" />
    <glyph glyph-name="uni1EAD" unicode="&#x1ead;" horiz-adv-x="523" 
d="M198 713h103l125 -188h-100l-77 126l-77 -126h-99zM64.5 20q-41.5 35 -41.5 99q0 72 45.5 105.5t131.5 39.5l140 9v61q0 47 -20 68t-68 21q-33 0 -54.5 -5.5t-39.5 -17.5v-36h-93v79q84 52 189 52q192 0 192 -170v-219q0 -20 7.5 -29t24.5 -9h22v-68h-115l-13 63
q-32 -41 -74.5 -59.5t-111.5 -18.5q-80 0 -121.5 35zM305 83q35 26 35 79v48l-132 -10q-49 -3 -68 -20.5t-19 -55.5q0 -33 21 -50t68 -17q60 0 95 26zM203 -62h92v-96h-92v96z" />
    <glyph glyph-name="uni1EAE" unicode="&#x1eae;" horiz-adv-x="719" 
d="M379 991h110l-102 -144h-74zM244.5 741q-46.5 40 -46.5 109h75q0 -40 23 -62t65 -22q44 0 66.5 22t22.5 62h75q0 -69 -46.5 -109t-117.5 -40q-70 0 -116.5 40zM33 73h31q23 0 35.5 8t19.5 28l191 538h101l189 -538q7 -20 20 -28t36 -8h30v-73h-228v73h50l-44 128h-208
l-44 -128h50v-73h-229v73zM444 264l-83 244l-85 -244h168z" />
    <glyph glyph-name="uni1EAF" unicode="&#x1eaf;" horiz-adv-x="523" 
d="M274 816h110l-102 -144h-74zM139.5 566q-46.5 40 -46.5 109h75q0 -40 23 -62t65 -22q44 0 66.5 22t22.5 62h75q0 -69 -46.5 -109t-117.5 -40q-70 0 -116.5 40zM64.5 20q-41.5 35 -41.5 99q0 72 45.5 105.5t131.5 39.5l140 9v61q0 47 -20 68t-68 21q-33 0 -54.5 -5.5
t-39.5 -17.5v-36h-93v79q84 52 189 52q192 0 192 -170v-219q0 -20 7.5 -29t24.5 -9h22v-68h-115l-13 63q-32 -41 -74.5 -59.5t-111.5 -18.5q-80 0 -121.5 35zM305 83q35 26 35 79v48l-132 -10q-49 -3 -68 -20.5t-19 -55.5q0 -33 21 -50t68 -17q60 0 95 26z" />
    <glyph glyph-name="uni1EB0" unicode="&#x1eb0;" horiz-adv-x="719" 
d="M235 991h110l66 -144h-74zM245.5 741q-46.5 40 -46.5 109h75q0 -40 22.5 -62t66.5 -22q42 0 65 22t23 62h75q0 -69 -46.5 -109t-116.5 -40q-71 0 -117.5 40zM33 73h31q23 0 35.5 8t19.5 28l191 538h101l189 -538q7 -20 20 -28t36 -8h30v-73h-228v73h50l-44 128h-208
l-44 -128h50v-73h-229v73zM444 264l-83 244l-85 -244h168z" />
    <glyph glyph-name="uni1EB1" unicode="&#x1eb1;" horiz-adv-x="523" 
d="M116 816h110l66 -144h-74zM126.5 566q-46.5 40 -46.5 109h75q0 -40 22.5 -62t66.5 -22q42 0 65 22t23 62h75q0 -69 -46.5 -109t-116.5 -40q-71 0 -117.5 40zM64.5 20q-41.5 35 -41.5 99q0 72 45.5 105.5t131.5 39.5l140 9v61q0 47 -20 68t-68 21q-33 0 -54.5 -5.5
t-39.5 -17.5v-36h-93v79q84 52 189 52q192 0 192 -170v-219q0 -20 7.5 -29t24.5 -9h22v-68h-115l-13 63q-32 -41 -74.5 -59.5t-111.5 -18.5q-80 0 -121.5 35zM305 83q35 26 35 79v48l-132 -10q-49 -3 -68 -20.5t-19 -55.5q0 -33 21 -50t68 -17q60 0 95 26z" />
    <glyph glyph-name="uni1EB2" unicode="&#x1eb2;" horiz-adv-x="719" 
d="M320 885q33 0 45 7.5t12 25.5q0 26 -34 26q-19 0 -41 -8v51q25 9 62 9q86 0 86 -70q0 -27 -14 -42.5t-45 -21.5v-23h-71v46zM244.5 741q-46.5 40 -46.5 109h75q0 -40 23 -62t65 -22q44 0 66.5 22t22.5 62h75q0 -69 -46.5 -109t-117.5 -40q-70 0 -116.5 40zM33 73h31
q23 0 35.5 8t19.5 28l191 538h101l189 -538q7 -20 20 -28t36 -8h30v-73h-228v73h50l-44 128h-208l-44 -128h50v-73h-229v73zM444 264l-83 244l-85 -244h168z" />
    <glyph glyph-name="uni1EB3" unicode="&#x1eb3;" horiz-adv-x="523" 
d="M204 710q33 0 45 7.5t12 25.5q0 26 -34 26q-19 0 -41 -8v51q25 9 62 9q86 0 86 -70q0 -27 -14 -42.5t-45 -21.5v-23h-71v46zM128.5 566q-46.5 40 -46.5 109h75q0 -40 23 -62t65 -22q44 0 66.5 22t22.5 62h75q0 -69 -46.5 -109t-117.5 -40q-70 0 -116.5 40zM64.5 20
q-41.5 35 -41.5 99q0 72 45.5 105.5t131.5 39.5l140 9v61q0 47 -20 68t-68 21q-33 0 -54.5 -5.5t-39.5 -17.5v-36h-93v79q84 52 189 52q192 0 192 -170v-219q0 -20 7.5 -29t24.5 -9h22v-68h-115l-13 63q-32 -41 -74.5 -59.5t-111.5 -18.5q-80 0 -121.5 35zM305 83
q35 26 35 79v48l-132 -10q-49 -3 -68 -20.5t-19 -55.5q0 -33 21 -50t68 -17q60 0 95 26z" />
    <glyph glyph-name="uni1EB4" unicode="&#x1eb4;" horiz-adv-x="719" 
d="M394 889q-17 6 -39 18q-14 7 -28 12.5t-25 5.5q-17 0 -24 -10t-7 -30h-59q0 52 20.5 75t63.5 23q19 0 35.5 -6t38.5 -18q3 -1 14 -7t20 -8.5t16 -2.5q17 0 23.5 10t6.5 30h59q0 -52 -19 -75t-61 -23q-18 0 -35 6zM244.5 741q-46.5 40 -46.5 109h75q0 -40 23 -62t65 -22
q43 0 66 22t23 62h75q0 -69 -46.5 -109t-117.5 -40q-70 0 -116.5 40zM33 73h31q23 0 35.5 8t19.5 28l191 538h101l189 -538q7 -20 20 -28t36 -8h30v-73h-228v73h50l-44 128h-208l-44 -128h50v-73h-229v73zM444 264l-83 244l-85 -244h168z" />
    <glyph glyph-name="uni1EB5" unicode="&#x1eb5;" horiz-adv-x="523" 
d="M282 714q-17 6 -39 18q-14 7 -28 12.5t-25 5.5q-17 0 -24 -10t-7 -30h-59q0 52 20.5 75t63.5 23q19 0 35.5 -6t38.5 -18q3 -1 14 -7t20 -8.5t16 -2.5q17 0 23.5 10t6.5 30h59q0 -52 -19 -75t-61 -23q-18 0 -35 6zM132.5 566q-46.5 40 -46.5 109h75q0 -40 23 -62t65 -22
q43 0 66 22t23 62h75q0 -69 -46.5 -109t-117.5 -40q-70 0 -116.5 40zM64.5 20q-41.5 35 -41.5 99q0 72 45.5 105.5t131.5 39.5l140 9v61q0 47 -20 68t-68 21q-33 0 -54.5 -5.5t-39.5 -17.5v-36h-93v79q84 52 189 52q192 0 192 -170v-219q0 -20 7.5 -29t24.5 -9h22v-68h-115
l-13 63q-32 -41 -74.5 -59.5t-111.5 -18.5q-80 0 -121.5 35zM305 83q35 26 35 79v48l-132 -10q-49 -3 -68 -20.5t-19 -55.5q0 -33 21 -50t68 -17q60 0 95 26z" />
    <glyph glyph-name="uni1EB6" unicode="&#x1eb6;" horiz-adv-x="719" 
d="M245 740q-43 39 -43 104h87q0 -36 19 -55.5t53 -19.5q35 0 53.5 19.5t18.5 55.5h87q0 -65 -43 -104t-116 -39t-116 39zM33 73h31q23 0 35.5 8t19.5 28l191 538h101l189 -538q7 -20 20 -28t36 -8h30v-73h-228v73h50l-44 128h-208l-44 -128h50v-73h-229v73zM444 264
l-83 244l-85 -244h168zM315 -62h92v-96h-92v96z" />
    <glyph glyph-name="uni1EB7" unicode="&#x1eb7;" horiz-adv-x="523" 
d="M140 565q-43 39 -43 104h87q0 -36 19 -55.5t53 -19.5q35 0 53.5 19.5t18.5 55.5h87q0 -65 -43 -104t-116 -39t-116 39zM64.5 20q-41.5 35 -41.5 99q0 72 45.5 105.5t131.5 39.5l140 9v61q0 47 -20 68t-68 21q-33 0 -54.5 -5.5t-39.5 -17.5v-36h-93v79q84 52 189 52
q192 0 192 -170v-219q0 -20 7.5 -29t24.5 -9h22v-68h-115l-13 63q-32 -41 -74.5 -59.5t-111.5 -18.5q-80 0 -121.5 35zM305 83q35 26 35 79v48l-132 -10q-49 -3 -68 -20.5t-19 -55.5q0 -33 21 -50t68 -17q60 0 95 26zM208 -62h92v-96h-92v96z" />
    <glyph glyph-name="uni1EB8" unicode="&#x1eb8;" horiz-adv-x="545" 
d="M33 73h29q20 0 28.5 9t8.5 29v426q0 19 -8.5 27.5t-28.5 8.5h-29v74h479v-129h-96v20q0 19 -9 27.5t-29 8.5h-173v-213h173v-74h-173v-214h173q20 0 29 8.5t9 28.5v20h96v-130h-479v73zM228 -62h92v-96h-92v96z" />
    <glyph glyph-name="uni1EB9" unicode="&#x1eb9;" horiz-adv-x="539" 
d="M101.5 48.5q-68.5 63.5 -68.5 185.5q0 130 63.5 195.5t180.5 65.5q113 0 171 -64t58 -173v-46h-367q0 -81 39.5 -119.5t106.5 -38.5q38 0 64 5.5t47 18.5v36h93v-70q-42 -30 -90.5 -44.5t-114.5 -14.5q-114 0 -182.5 63.5zM403 277q0 146 -127 146q-67 0 -102 -39
t-35 -107h264zM241 -62h92v-96h-92v96z" />
    <glyph glyph-name="uni1EBA" unicode="&#x1eba;" horiz-adv-x="545" 
d="M223 766q34 0 48 11t14 32q0 19 -11 27t-38 8q-26 0 -49 -9v59q29 11 72 11q115 0 115 -84q0 -62 -65 -80v-40h-86v65zM33 73h29q20 0 28.5 9t8.5 29v426q0 19 -8.5 27.5t-28.5 8.5h-29v74h479v-129h-96v20q0 19 -9 27.5t-29 8.5h-173v-213h173v-74h-173v-214h173
q20 0 29 8.5t9 28.5v20h96v-130h-479v73z" />
    <glyph glyph-name="uni1EBB" unicode="&#x1ebb;" horiz-adv-x="539" 
d="M238 590q34 0 48 11t14 32q0 19 -11 27t-38 8q-26 0 -49 -9v59q29 11 72 11q115 0 115 -84q0 -62 -65 -80v-40h-86v65zM101.5 48.5q-68.5 63.5 -68.5 185.5q0 130 63.5 195.5t180.5 65.5q113 0 171 -64t58 -173v-46h-367q0 -81 39.5 -119.5t106.5 -38.5q38 0 64 5.5
t47 18.5v36h93v-70q-42 -30 -90.5 -44.5t-114.5 -14.5q-114 0 -182.5 63.5zM403 277q0 146 -127 146q-67 0 -102 -39t-35 -107h264z" />
    <glyph glyph-name="uni1EBC" unicode="&#x1ebc;" horiz-adv-x="545" 
d="M111.5 804.5q26.5 33.5 82.5 33.5q26 0 48 -8t47 -23q22 -12 35.5 -17.5t28.5 -5.5q23 0 33.5 12t10.5 42h78q0 -72 -26 -104.5t-81 -32.5q-26 0 -47 8t-46 22q-21 11 -36 17t-31 6q-23 0 -34 -12t-11 -41h-78q0 70 26.5 103.5zM33 73h29q20 0 28.5 9t8.5 29v426
q0 19 -8.5 27.5t-28.5 8.5h-29v74h479v-129h-96v20q0 19 -9 27.5t-29 8.5h-173v-213h173v-74h-173v-214h173q20 0 29 8.5t9 28.5v20h96v-130h-479v73z" />
    <glyph glyph-name="uni1EBD" unicode="&#x1ebd;" horiz-adv-x="539" 
d="M113.5 629.5q26.5 33.5 82.5 33.5q26 0 48 -8t47 -23q22 -12 35.5 -17.5t28.5 -5.5q23 0 33.5 12t10.5 42h78q0 -72 -26 -104.5t-81 -32.5q-26 0 -47 8t-46 22q-21 11 -36 17t-31 6q-23 0 -34 -12t-11 -41h-78q0 70 26.5 103.5zM101.5 48.5q-68.5 63.5 -68.5 185.5
q0 130 63.5 195.5t180.5 65.5q113 0 171 -64t58 -173v-46h-367q0 -81 39.5 -119.5t106.5 -38.5q38 0 64 5.5t47 18.5v36h93v-70q-42 -30 -90.5 -44.5t-114.5 -14.5q-114 0 -182.5 63.5zM403 277q0 146 -127 146q-67 0 -102 -39t-35 -107h264z" />
    <glyph glyph-name="uni1EBE" unicode="&#x1ebe;" horiz-adv-x="545" 
d="M428 937h113l-98 -127h-78zM216 836h100l107 -135h-95l-62 85l-64 -85h-93zM33 73h29q20 0 28.5 9t8.5 29v426q0 19 -8.5 27.5t-28.5 8.5h-29v74h479v-129h-96v20q0 19 -9 27.5t-29 8.5h-173v-213h173v-74h-173v-214h173q20 0 29 8.5t9 28.5v20h96v-130h-479v73z" />
    <glyph glyph-name="uni1EBF" unicode="&#x1ebf;" horiz-adv-x="539" 
d="M431 762h113l-98 -127h-78zM219 661h100l107 -135h-95l-62 85l-64 -85h-93zM101.5 48.5q-68.5 63.5 -68.5 185.5q0 130 63.5 195.5t180.5 65.5q113 0 171 -64t58 -173v-46h-367q0 -81 39.5 -119.5t106.5 -38.5q38 0 64 5.5t47 18.5v36h93v-70q-42 -30 -90.5 -44.5
t-114.5 -14.5q-114 0 -182.5 63.5zM403 277q0 146 -127 146q-67 0 -102 -39t-35 -107h264z" />
    <glyph glyph-name="uni1EC0" unicode="&#x1ec0;" horiz-adv-x="545" 
d="M5 937h113l63 -127h-78zM225 836h100l107 -135h-93l-64 85l-62 -85h-95zM33 73h29q20 0 28.5 9t8.5 29v426q0 19 -8.5 27.5t-28.5 8.5h-29v74h479v-129h-96v20q0 19 -9 27.5t-29 8.5h-173v-213h173v-74h-173v-214h173q20 0 29 8.5t9 28.5v20h96v-130h-479v73z" />
    <glyph glyph-name="uni1EC1" unicode="&#x1ec1;" horiz-adv-x="539" 
d="M-31 762h113l63 -127h-78zM212 661h100l107 -135h-93l-64 85l-62 -85h-95zM101.5 48.5q-68.5 63.5 -68.5 185.5q0 130 63.5 195.5t180.5 65.5q113 0 171 -64t58 -173v-46h-367q0 -81 39.5 -119.5t106.5 -38.5q38 0 64 5.5t47 18.5v36h93v-70q-42 -30 -90.5 -44.5
t-114.5 -14.5q-114 0 -182.5 63.5zM403 277q0 146 -127 146q-67 0 -102 -39t-35 -107h264z" />
    <glyph glyph-name="uni1EC2" unicode="&#x1ec2;" horiz-adv-x="545" 
d="M342 873q33 0 45 7.5t12 25.5q0 13 -9 19.5t-25 6.5q-19 0 -41 -8v51q25 9 61 9q87 0 87 -70q0 -27 -14 -42.5t-45 -21.5v-23h-71v46zM214 836h101l107 -135h-94l-64 85l-62 -85h-94zM33 73h29q20 0 28.5 9t8.5 29v426q0 19 -8.5 27.5t-28.5 8.5h-29v74h479v-129h-96v20
q0 19 -9 27.5t-29 8.5h-173v-213h173v-74h-173v-214h173q20 0 29 8.5t9 28.5v20h96v-130h-479v73z" />
    <glyph glyph-name="uni1EC3" unicode="&#x1ec3;" horiz-adv-x="539" 
d="M355 698q33 0 45 7.5t12 25.5q0 13 -9 19.5t-25 6.5q-19 0 -41 -8v51q25 9 61 9q87 0 87 -70q0 -27 -14 -42.5t-45 -21.5v-23h-71v46zM227 661h101l107 -135h-94l-64 85l-62 -85h-94zM101.5 48.5q-68.5 63.5 -68.5 185.5q0 130 63.5 195.5t180.5 65.5q113 0 171 -64
t58 -173v-46h-367q0 -81 39.5 -119.5t106.5 -38.5q38 0 64 5.5t47 18.5v36h93v-70q-42 -30 -90.5 -44.5t-114.5 -14.5q-114 0 -182.5 63.5zM403 277q0 146 -127 146q-67 0 -102 -39t-35 -107h264z" />
    <glyph glyph-name="uni1EC4" unicode="&#x1ec4;" horiz-adv-x="545" 
d="M316 860q-17 6 -39 18q-14 7 -28 12.5t-25 5.5q-17 0 -24 -10t-7 -30h-59q0 52 20.5 75t63.5 23q19 0 35.5 -6t38.5 -18q3 -1 14 -7t20 -8.5t16 -2.5q17 0 24 10t7 30h59q0 -52 -19.5 -75t-61.5 -23q-18 0 -35 6zM232 836h101l107 -135h-94l-64 85l-62 -85h-94zM33 73h29
q20 0 28.5 9t8.5 29v426q0 19 -8.5 27.5t-28.5 8.5h-29v74h479v-129h-96v20q0 19 -9 27.5t-29 8.5h-173v-213h173v-74h-173v-214h173q20 0 29 8.5t9 28.5v20h96v-130h-479v73z" />
    <glyph glyph-name="uni1EC5" unicode="&#x1ec5;" horiz-adv-x="539" 
d="M301 685q-17 6 -39 18q-14 7 -28 12.5t-25 5.5q-17 0 -24 -10t-7 -30h-59q0 52 20.5 75t63.5 23q19 0 35.5 -6t38.5 -18q3 -1 14 -7t20 -8.5t16 -2.5q17 0 24 10t7 30h59q0 -52 -19.5 -75t-61.5 -23q-18 0 -35 6zM217 661h101l107 -135h-94l-64 85l-62 -85h-94z
M101.5 48.5q-68.5 63.5 -68.5 185.5q0 130 63.5 195.5t180.5 65.5q113 0 171 -64t58 -173v-46h-367q0 -81 39.5 -119.5t106.5 -38.5q38 0 64 5.5t47 18.5v36h93v-70q-42 -30 -90.5 -44.5t-114.5 -14.5q-114 0 -182.5 63.5zM403 277q0 146 -127 146q-67 0 -102 -39t-35 -107
h264z" />
    <glyph glyph-name="uni1EC6" unicode="&#x1ec6;" horiz-adv-x="545" 
d="M220 889h103l125 -188h-100l-77 126l-77 -126h-99zM33 73h29q20 0 28.5 9t8.5 29v426q0 19 -8.5 27.5t-28.5 8.5h-29v74h479v-129h-96v20q0 19 -9 27.5t-29 8.5h-173v-213h173v-74h-173v-214h173q20 0 29 8.5t9 28.5v20h96v-130h-479v73zM226 -62h92v-96h-92v96z" />
    <glyph glyph-name="uni1EC7" unicode="&#x1ec7;" horiz-adv-x="539" 
d="M229 713h103l125 -188h-100l-77 126l-77 -126h-99zM101.5 48.5q-68.5 63.5 -68.5 185.5q0 130 63.5 195.5t180.5 65.5q113 0 171 -64t58 -173v-46h-367q0 -81 39.5 -119.5t106.5 -38.5q38 0 64 5.5t47 18.5v36h93v-70q-42 -30 -90.5 -44.5t-114.5 -14.5
q-114 0 -182.5 63.5zM403 277q0 146 -127 146q-67 0 -102 -39t-35 -107h264zM234 -62h92v-96h-92v96z" />
    <glyph glyph-name="uni1EC8" unicode="&#x1ec8;" horiz-adv-x="303" 
d="M108 766q34 0 48 11t14 32q0 19 -11 27t-38 8q-26 0 -49 -9v59q29 11 72 11q115 0 115 -84q0 -62 -65 -80v-40h-86v65zM33 73h29q20 0 28.5 9t8.5 29v426q0 19 -8.5 27.5t-28.5 8.5h-29v74h237v-74h-29q-19 0 -27.5 -8.5t-8.5 -27.5v-427q0 -20 8.5 -28.5t27.5 -8.5h29
v-73h-237v73z" />
    <glyph glyph-name="uni1EC9" unicode="&#x1ec9;" horiz-adv-x="285" 
d="M88 576q34 0 48 11t14 32q0 19 -11 27t-38 8q-26 0 -49 -9v59q29 11 72 11q115 0 115 -84q0 -62 -65 -80v-40h-86v65zM23 74h29q20 0 28.5 9t8.5 29v257q0 19 -8.5 27.5t-28.5 8.5h-29v75h173v-369q0 -19 9 -28t28 -9h29v-74h-239v74z" />
    </font>
</defs>
</svg>
