<?xml version="1.0" standalone="no"?>
<!DOCTYPE svg PUBLIC "-//W3C//DTD SVG 1.1//EN" "http://www.w3.org/Graphics/SVG/1.1/DTD/svg11.dtd" >
<svg xmlns="http://www.w3.org/2000/svg">
<metadata>Generated by IcoMoon</metadata>
<defs>
<font id="icomoon" horiz-adv-x="1024">
<font-face units-per-em="1024" ascent="960" descent="-64" />
<missing-glyph horiz-adv-x="1024" />
<glyph unicode="&#x20;" horiz-adv-x="512" d="" />
<glyph unicode="&#xe900;" glyph-name="ic-setting" d="M497.532 280.816c-87.879 0-159.682 71.803-159.682 159.682s71.803 159.682 159.682 159.682v0c42.868 0 82.52-16.611 113.063-46.619 30.007-30.007 46.619-70.196 46.619-113.063v0c0-87.879-71.267-159.682-159.682-159.682zM497.532 544.988v0c-57.335 0-104.49-46.619-104.49-104.49 0-57.335 46.619-104.49 104.49-104.49s104.49 46.619 104.49 104.49c0 27.864-10.717 54.12-30.543 73.947-19.826 19.29-45.547 30.543-73.947 30.543zM860.299 307.073c6.966 16.611 23.041 27.328 45.011 27.328 63.766 0 115.743 51.977 115.743 115.743s-51.977 115.743-115.743 115.743h-7.502c-16.611 0-31.079 9.109-39.117 23.041-0.536 2.679-1.072 5.358-2.143 8.038-7.502 17.147-4.287 36.437 10.181 50.905 4.287 3.751 8.038 7.502 11.253 11.253 20.362 23.577 30.543 53.049 28.4 84.128s-16.075 58.943-39.653 79.305c-23.041 20.362-53.049 30.543-84.128 28.4-30.543-2.143-58.943-16.075-80.377-40.188-8.574-8.038-19.29-12.86-31.079-12.86 0 0-0.536 0-0.536 0-24.649 0-45.547 20.362-45.547 48.762 0 63.766-51.977 115.743-115.743 115.743s-115.207-51.977-115.207-115.743v-7.502c0-16.611-9.109-31.079-23.041-39.117-2.679-0.536-5.358-1.072-8.038-2.143-16.611-7.502-36.437-3.751-51.441 10.717-2.143 2.143-4.287 4.823-6.966 6.966-22.505 20.898-52.513 31.615-83.056 30.543-31.079-1.072-59.479-14.468-80.377-37.509-43.403-47.154-40.188-120.565 8.574-165.040 12.86-13.396 16.611-32.687 8.574-50.905-6.43-17.147-22.505-28.936-44.475-29.471-64.301-0.536-116.278-51.977-116.278-115.743s51.977-115.743 115.743-115.743h7.502c11.789 0 23.041-4.823 31.615-13.396s13.396-19.826 13.396-32.151c0-12.324-4.823-23.577-13.396-32.151 0 0-5.358-5.358-5.358-5.358-21.434-22.505-32.687-51.441-32.151-82.52s13.396-59.479 35.902-80.913c46.083-43.939 119.493-42.868 165.576 5.358 13.396 12.86 32.687 16.611 51.441 8.038 17.147-6.43 28.936-22.505 29.471-44.475 0-63.766 51.977-115.743 115.743-115.743s115.743 51.977 115.743 115.743v7.502c0 11.789 4.823 23.041 12.86 31.079 17.147 18.219 46.083 18.755 65.909-0.536 2.679-3.215 5.358-5.894 8.574-8.574 47.69-42.868 120.565-39.117 163.433 8.574 20.898 23.041 31.079 52.513 29.471 83.592s-15.004 59.479-39.653 81.448c-12.324 12.324-16.075 30.543-10.181 46.619 0.536 1.608 1.072 2.143 1.072 3.215zM829.22 207.941c11.789-10.717 19.29-25.721 19.826-41.796 1.072-16.075-4.823-31.615-15.54-43.403s-25.721-19.29-41.796-19.826c-16.611-1.072-31.615 4.823-43.939 15.54-1.608 1.072-2.679 2.679-4.287 4.287-0.536 0.536-3.751 3.751-3.751 4.287-40.188 38.581-103.954 37.509-142.535-2.143-18.219-18.755-27.864-43.403-28.4-69.66v-7.502c0-33.222-27.328-60.551-60.551-60.551s-60.551 27.328-60.551 64.837c-1.072 41.26-26.792 77.162-63.766 91.094-12.86 5.894-26.256 8.574-39.653 8.574-26.256 0-52.513-10.717-73.947-31.615-23.041-24.113-61.622-24.649-85.199-1.608-11.789 11.253-18.219 26.256-18.755 42.332s5.358 31.615 16.611 42.868v0c18.219 19.29 34.294 49.834 33.758 76.090 0 26.792-10.717 51.977-30.007 71.267-18.755 18.755-43.939 28.936-70.732 28.936h-7.502c-33.222 0-60.551 27.328-60.551 60.551s27.328 60.551 64.837 60.551c41.26 1.072 77.162 26.792 91.094 64.301 16.611 37.509 8.574 80.913-23.577 114.135-24.649 22.505-26.256 61.086-3.751 85.199 22.505 24.649 60.551 26.256 85.199 3.751v0c28.4-27.328 76.090-43.403 112.527-29.471 3.215 0 5.894 1.072 8.574 2.143 36.973 15.54 61.086 51.441 61.086 91.63v7.502c0 33.222 27.328 60.551 60.551 60.551s60.551-27.328 60.551-64.837c0.536-55.728 46.083-98.596 101.811-100.203 26.256 0.536 50.369 10.181 69.66 28.936 0.536 0.536 3.751 3.751 3.751 4.287 10.717 12.324 25.185 19.29 41.26 20.362 15.54 1.072 31.615-4.287 43.939-14.468 12.324-10.717 19.29-25.185 20.898-41.26 1.072-16.075-4.287-31.615-15.004-43.939-1.608-2.143-3.751-3.751-5.894-5.894-0.536-0.536-3.751-3.751-4.287-4.287-27.328-27.864-35.902-68.588-22.505-105.561 0.536-3.215 1.072-5.894 2.143-8.574 15.54-36.973 51.441-61.086 92.165-61.086h7.502c33.222 0 60.551-27.328 60.551-60.551s-27.328-60.551-64.301-60.551c-38.581 0-73.411-22.505-89.486-56.8-0.536-1.072-1.072-2.143-1.608-3.215-17.147-38.581-9.109-81.984 23.577-115.207z" />
<glyph unicode="&#xe901;" glyph-name="ic-share" d="M357.888 352.768l289.28-168.448c-8.704-19.456-13.312-40.96-13.312-63.488 0-87.552 71.168-159.232 159.232-159.232s159.232 71.168 159.232 159.232-71.168 159.232-159.232 159.232c-51.712 0-97.28-25.088-126.464-63.488l-289.28 168.448c8.704 19.456 13.312 40.96 13.312 63.488s-4.608 44.032-13.312 63.488l289.28 168.96c29.184-38.4 74.752-63.488 126.464-63.488 87.552 0 159.232 71.168 159.232 159.232s-71.68 158.208-159.744 158.208-158.72-71.168-158.72-159.232c0-22.528 4.608-44.032 13.312-63.488l-289.28-168.96c-29.184 38.4-74.752 63.488-126.464 63.488-87.552 0-159.232-71.168-159.232-159.232s71.168-158.208 159.232-158.208c51.712 0 97.28 25.088 126.464 63.488zM792.576 242.688c67.072 0 121.856-54.784 121.856-121.856s-54.784-121.856-121.856-121.856c-67.072 0-121.856 54.784-121.856 121.856 0.512 67.072 54.784 121.856 121.856 121.856zM792.576 897.536c67.072 0 121.856-54.784 121.856-121.856s-54.784-121.856-121.856-121.856c-67.072 0-121.856 54.784-121.856 121.856s54.784 121.856 121.856 121.856zM231.424 326.656c-67.072 0-121.856 54.784-121.856 121.856s54.784 121.856 121.856 121.856 121.856-54.784 121.856-121.856-54.784-121.856-121.856-121.856z" />
<glyph unicode="&#xe902;" glyph-name="ic-sort" d="M606.208 136.192h-123.392c-16.896 0-30.72-13.824-30.72-30.72v0-61.44c0-16.896 13.824-30.72 30.72-30.72 0 0 0 0 0 0h123.392c16.896 0 30.72 13.824 30.72 30.72v0 61.44c0 16.896-13.824 30.72-30.72 30.72 0 0 0 0 0 0zM359.424 259.584h-92.672v585.728c0 16.896-13.824 30.72-30.72 30.72 0 0 0 0 0 0h-61.44c-16.896 0-30.72-13.824-30.72-30.72v0-585.728h-92.672c-16.896 0-30.72-14.336-30.72-31.232 0-8.192 3.072-15.872 9.216-21.504l154.112-184.832c11.776-12.288 31.744-12.288 43.52 0 0 0 0 0 0 0l154.112 184.832c11.776 12.288 11.776 31.744 0 43.52-6.144 6.144-13.824 9.216-22.016 9.216zM852.48 629.248h-369.664c-16.896 0-30.72-13.824-30.72-30.72 0 0 0 0 0 0v-61.44c0-16.896 13.824-30.72 30.72-30.72h370.176c16.896 0 30.72 13.824 30.72 30.72 0 0 0 0 0 0v61.44c0 16.896-13.824 30.72-31.232 30.72 0.512 0 0 0 0 0zM729.6 382.976h-246.784c-16.896 0-30.72-13.824-30.72-30.72v-61.44c0-16.896 13.824-30.72 30.72-30.72h246.784c16.896 0 30.72 13.824 30.72 30.72 0 0 0 0 0 0v61.44c0 16.896-13.824 30.72-30.72 30.72v0zM975.872 876.032h-493.056c-16.896 0-30.72-13.824-30.72-30.72v-61.44c0-16.896 13.824-30.72 30.72-30.72v0h493.056c16.896 0 30.72 13.824 30.72 30.72v0 61.44c0 16.896-13.312 30.72-30.72 30.72v0z" />
<glyph unicode="&#xe903;" glyph-name="ic-statistics" d="M510.976-43.52c-20.48 0-36.864 16.384-36.864 36.864v568.32c0 20.48 16.384 36.864 36.864 36.864s36.864-16.384 36.864-36.864v-568.32c0-20.48-16.384-36.864-36.864-36.864zM851.968-43.52c-20.48 0-36.864 16.384-36.864 36.864v909.312c0 20.48 16.384 36.864 36.864 36.864s36.864-16.384 36.864-36.864v-909.312c0-20.48-16.384-36.864-36.864-36.864zM169.984-43.52c-20.48 0-36.864 16.384-36.864 36.864v227.328c0 20.48 16.384 36.864 36.864 36.864s36.864-16.384 36.864-36.864v-227.328c0-20.48-16.384-36.864-36.864-36.864z" />
<glyph unicode="&#xe904;" glyph-name="ic-tag" d="M532.48-43.52c-30.208 0-59.904 11.264-82.944 34.304l-423.424 423.424c-3.584 3.584-5.632 8.192-5.632 12.8v494.080c0 10.24 8.192 18.432 18.432 18.432h493.568c5.12 0 9.728-2.048 12.8-5.632l423.936-423.936c45.568-45.568 45.568-119.808 0-165.376 0 0 0 0 0 0l-353.792-353.792c-22.528-22.528-52.736-34.304-82.944-34.304zM57.344 435.2l418.304-418.304c31.232-31.232 82.432-31.232 113.664 0l353.792 353.792c31.232 31.232 31.232 81.92 0 113.152l-418.304 418.816h-467.456v-467.456zM956.416 357.888v0 0zM285.696 637.44c-4.608 0-9.728 1.024-13.824 3.072-4.608 2.048-8.704 4.608-12.288 7.68-6.656 7.168-10.752 16.384-10.752 26.112 0 2.56 0.512 4.608 0.512 7.168 0.512 2.048 1.024 4.608 2.048 6.656 0.512 2.048 2.048 4.608 3.072 6.656s3.072 3.584 4.608 5.632c3.584 3.072 7.168 6.144 12.288 7.68 13.312 6.144 29.696 2.56 39.936-7.68 1.536-2.048 3.072-3.584 4.608-5.632s2.56-4.608 3.072-6.656c1.024-2.048 2.048-4.608 2.048-6.656 0.512-2.56 0.512-4.608 0.512-7.168 0-9.728-4.096-18.944-10.752-26.112-2.048-1.536-3.584-3.072-6.144-4.608-2.048-1.536-4.096-2.56-6.144-3.072-2.048-1.024-4.608-2.048-7.168-2.048-0.512-0.512-3.072-1.024-5.632-1.024z" />
<glyph unicode="&#xe905;" glyph-name="ic-tags" d="M920.325 770.944v-309.248l-466.944-447.488c17.408-16.384 39.424-25.6 62.976-27.136 25.6 0.512 49.664 10.24 69.12 27.136l418.304 394.24v281.6l-83.456 80.896zM792.837 900.48h-350.72l-394.24-411.648c-16.896-16.384-26.624-38.912-27.136-62.464-1.024-26.112 8.704-51.2 26.624-70.144l271.872-271.36c17.408-16.384 39.424-26.112 62.976-27.648 25.6 1.024 49.664 10.752 68.608 27.648l412.16 394.24v351.232l-70.144 70.144zM725.765 675.2c-37.376-11.264-76.288 9.728-87.552 47.104s9.728 76.288 47.104 87.552c37.376 11.264 76.288-9.728 87.552-47.104 4.096-13.312 4.096-27.648 0-40.96-6.656-22.528-24.576-39.936-47.104-46.592z" />
<glyph unicode="&#xe906;" glyph-name="ic-tel" d="M656.384-43.52c-94.208 0-210.944 76.288-357.888 369.664-201.728 402.432-111.104 515.072-9.728 568.32l82.432 41.472c6.144 3.072 13.824 3.584 20.48 1.536s12.288-7.168 15.36-13.312l131.072-261.12c3.072-6.144 3.584-13.824 1.536-20.48s-7.168-12.288-13.312-15.36l-78.336-39.424c-15.36-8.704-8.192-83.456 39.936-176.128s96.256-127.488 109.568-120.832c3.584 1.536 23.552 11.776 43.008 21.504 40.448 19.968 40.448 19.968 46.592 19.968 10.24 0 19.456-5.632 24.064-14.848l132.608-260.608c3.584-6.656 4.096-14.848 1.024-22.016-2.56-6.144-7.168-11.776-13.312-14.336l-20.48-10.24c-23.040-11.264-56.32-28.16-58.88-29.184-29.696-14.336-61.44-24.576-95.744-24.576zM371.2 876.544l-55.296-27.648c-49.152-26.112-173.568-91.648 30.72-498.176 203.776-406.016 325.632-348.16 377.344-323.584l5.12 2.56c3.584 1.536 32.768 16.384 54.784 27.136l-108.032 212.992c-3.584-1.536-7.168-3.584-10.752-5.632-20.48-10.24-41.984-20.992-44.032-22.016-61.44-30.72-133.632 54.784-180.224 144.384-48.64 92.672-82.432 213.504-17.92 248.32l55.296 28.16-107.008 213.504z" />
<glyph unicode="&#xe907;" glyph-name="ic-text" d="M238.592 745.472l-218.112-570.368h99.84l56.832 146.944h229.376l56.832-146.944h99.328l-216.064 570.368h-108.032zM192.512 396.8l99.328 261.12 99.328-261.12h-198.656zM814.592 603.648c-31.232 0-60.416-2.56-87.552-7.168s-50.176-10.752-69.12-18.432v-71.68c43.008 14.848 89.6 22.016 138.752 22.016 31.232 0 55.296-2.56 71.168-8.192 16.384-5.12 27.648-13.824 33.792-25.6s9.216-27.648 9.216-47.616v-18.432h-134.656c-57.344 0-99.84-12.288-126.976-36.864-27.648-24.576-40.96-56.832-40.96-96.768 0-28.16 6.656-52.224 20.48-71.168 13.824-19.456 31.744-33.28 54.272-43.008 22.528-9.216 47.616-14.336 73.728-14.336 37.888 0 69.12 4.608 94.208 13.312s46.080 21.504 63.488 37.888l6.144-42.496h82.944v269.824c0 55.808-15.872 96.256-48.128 121.344s-79.36 37.376-140.8 37.376zM911.36 289.792c-13.824-16.384-31.232-29.696-52.736-39.424s-46.592-14.848-75.776-14.848c-27.136 0-48.128 4.608-62.976 14.336-14.848 9.216-22.016 25.088-22.016 47.104 0 22.528 6.144 38.912 18.944 50.176 12.8 10.752 33.28 16.384 61.44 16.384h133.12v-73.728z" />
<glyph unicode="&#xe908;" glyph-name="ic-text-mask" d="M637.952 500.224v395.776h365.568v-312.32c0-168.96-19.968-291.84-60.416-367.616-53.248-100.864-137.216-177.152-251.904-228.864l-83.456 132.608c69.632 29.184 120.32 72.192 153.6 129.536 32.768 57.344 51.2 140.8 54.784 250.88h-178.176zM50.688 500.224v395.776h365.568v-312.32c0-168.96-19.968-291.84-60.416-367.616-53.248-100.864-137.216-177.152-251.904-228.864l-83.456 132.608c69.632 29.184 120.32 72.192 153.6 129.536 32.768 57.344 51.2 140.8 54.784 250.88h-178.176z" />
<glyph unicode="&#xe909;" glyph-name="ic-tick" d="M349.696 99.84c-15.36 0-30.72 5.632-42.496 17.408l-269.312 269.312c-23.552 23.552-23.552 61.44 0 84.48s61.44 23.552 84.48 0l226.816-226.816 549.888 549.888c23.552 23.552 61.44 23.552 84.48 0s23.552-61.44 0-84.48l-591.872-592.384c-11.776-11.264-27.136-17.408-41.984-17.408z" />
<glyph unicode="&#xe90a;" glyph-name="ic-time" d="M512 939.52c-271.36 0-491.52-220.16-491.52-491.52s220.16-491.52 491.52-491.52 491.52 220.16 491.52 491.52c-1.024 270.848-220.672 490.496-491.52 491.52zM512 816.64c203.776 0 368.64-164.864 368.64-368.64s-164.864-368.64-368.64-368.64-368.64 164.864-368.64 368.64c0 203.264 164.352 368.128 367.616 368.64 0.512 0 0.512 0 1.024 0zM450.56 693.76v-272.896l19.456-15.872 61.44-61.44 41.984-46.592 88.576 88.576-46.592 41.984-41.984 41.984v221.696h-122.88v2.56z" />
<glyph unicode="&#xe90b;" glyph-name="ic-title-main" d="M984.576 694.784h-225.792v225.792c0 10.24-8.704 18.944-18.944 18.944h-700.416c-10.24 0-18.944-8.704-18.944-18.944v-700.416c0-10.24 8.704-18.944 18.944-18.944h225.792v-225.792c0-10.24 8.704-18.944 18.944-18.944h700.416c10.24 0 18.944 8.704 18.944 18.944v700.416c0 10.752-8.704 18.944-18.944 18.944zM58.368 239.104v662.528h662.528v-206.848h-436.736c-10.24 0-18.944-8.704-18.944-18.944v-436.736h-206.848zM965.632-5.632h-662.528v662.528h433.664c1.024 0 2.048-0.512 3.584-0.512 1.024 0 2.56 0.512 3.584 0.512h222.208v-662.528z" />
<glyph unicode="&#xe90c;" glyph-name="ic-top" d="M510.464 559.104l-366.592-373.76c-27.136-27.648-71.168-28.16-98.304-1.024 0 0 0 0 0 0-27.136 27.136-27.648 71.168-1.024 98.816l415.232 423.424c26.112 26.624 68.608 27.648 96.256 3.072l425.984-417.28c27.648-27.136 28.16-71.168 1.024-98.816s-71.168-28.16-98.816-1.024l-373.76 366.592z" />
<glyph unicode="&#xe90d;" glyph-name="ic-twitter" d="M846.848 607.232c0.512-7.68 0.512-14.848 0.512-22.528 0-228.352-174.080-492.032-492.032-492.032-94.208-0.512-186.368 26.624-265.216 77.312 13.824-1.536 27.648-2.048 41.984-2.048 77.824 0 153.6 25.6 214.528 73.728-73.728 1.536-138.752 49.664-161.792 119.808 10.752-1.536 21.504-2.56 32.768-2.56 15.36 0 30.72 2.048 45.568 5.632-80.896 16.384-138.752 87.552-138.752 169.472v2.048c24.064-13.312 50.688-20.992 78.336-22.016-76.288 50.688-99.84 152.064-53.76 231.424 88.064-108.032 217.6-174.080 356.352-180.736-2.56 12.8-4.096 26.112-4.096 39.424 0 95.744 77.824 173.056 173.056 173.056 47.616 0 93.184-19.968 125.952-54.784 38.912 7.68 75.776 21.504 109.568 41.984-12.8-39.936-39.936-73.728-75.776-95.232 34.304 4.096 68.096 12.8 99.84 26.624-24.064-33.792-53.248-63.488-87.040-88.576z" />
<glyph unicode="&#xe90e;" glyph-name="fic-type-news" d="M929.792 637.44l-296.448 296.448c0 0 0 0 0 0-3.584 3.584-8.192 5.632-13.312 5.632 0 0 0 0-0.512 0h-295.936c-10.24 0-18.944-8.704-18.944-18.944v-358.912h-197.12c-10.24 0-18.944-8.704-18.944-18.944v-566.784c0-10.24 8.704-18.944 18.944-18.944h430.080c10.24 0 18.944 8.704 18.944 18.944v88.064h359.936c10.24 0 18.944 8.704 18.944 18.944v541.696c0 4.608-2.048 9.216-5.632 12.8zM638.976 875.008l231.936-231.936h-231.936v231.936zM126.464-5.632v529.408h197.12c0 0 0 0 0 0h195.072v-528.896h-392.192zM556.544 100.864v441.344c0 7.68-4.608 14.336-11.776 17.408-2.048 1.024-4.608 1.536-7.168 1.536h-195.072v340.48h258.56v-277.504c0-10.24 8.704-18.944 18.944-18.944h277.504v-504.32h-340.992z" />
<glyph unicode="&#xe90f;" glyph-name="ic-user" d="M516.296 453.064c-12.8 0-26.112 1.024-39.424 3.072-64 10.24-120.32 45.056-158.208 97.792s-53.248 117.248-42.496 181.248c10.24 64 45.056 120.32 97.792 158.208s117.248 53.248 181.248 42.496c132.096-21.504 222.208-146.944 200.704-279.040-19.456-118.784-122.368-203.776-239.616-203.776zM515.784 861.128c-34.304 0-67.584-10.752-95.744-31.232-35.84-25.6-59.392-64-66.56-107.52v0c-7.168-43.52 3.072-87.040 28.672-122.88s64-59.392 107.52-66.56c89.6-14.336 174.592 46.592 189.44 136.192 7.168 43.52-3.072 87.040-28.672 122.88s-64 59.392-107.52 66.56c-9.216 2.048-18.432 2.56-27.136 2.56zM315.080 729.032v0 0zM941.768-43.576h-851.456c-21.504 0-38.912 17.408-38.912 38.912 0 236.544 192.512 429.568 429.568 429.568h71.168c236.544 0 429.568-192.512 429.568-429.568-1.024-20.992-18.432-38.912-39.936-38.912zM131.784 34.76h769.024c-19.456 175.104-168.448 311.808-348.672 311.808h-71.168c-180.736 0.512-329.728-136.704-349.184-311.808z" />
<glyph unicode="&#xe910;" glyph-name="ic-view-grid" d="M20.475 939.52h421.376v-421.376h-421.376v421.376zM20.475 377.856h421.376v-421.376h-421.376v421.376zM582.139 939.52h421.376v-421.376h-421.376v421.376zM582.139 377.856h421.376v-421.376h-421.376v421.376z" />
<glyph unicode="&#xe911;" glyph-name="ic-view-list" d="M55.619 939.336h912.384v-421.376h-912.384v421.376zM55.619 377.672h912.384v-421.376h-912.384v421.376z" />
<glyph unicode="&#xe912;" glyph-name="ic-youtube" d="M996.864 628.588c1.024 79.36-61.952 144.896-141.824 145.92 0 0 0 0-0.512 0-106.496 4.608-215.040 6.656-325.632 6.656h-34.816c-110.592 0-219.136-1.536-325.632-6.656-79.872-1.536-143.36-67.072-141.824-146.432 0 0 0 0 0 0-5.12-64-7.168-128-6.656-192 0-64 2.048-128 6.656-192.512-1.024-79.872 62.464-145.408 141.824-146.432 111.616-5.12 226.304-7.168 343.040-6.656 116.736-0.512 230.912 2.048 343.040 6.656 79.872 1.536 143.36 67.072 141.824 146.432 4.608 64.512 6.656 128.512 6.656 192.512 0.512 64-1.536 128-6.144 192.512zM417.792 259.436v353.792l278.528-176.64-278.528-177.152z" />
<glyph unicode="&#xe913;" glyph-name="ic-arrow-down" d="M197.12 312.32c17.408 17.408 45.568 17.408 62.976 0.512l207.872-207.36v789.504c0 24.576 19.968 44.544 44.544 44.544s44.544-19.968 44.544-44.544v-789.504l207.872 207.36c17.408 16.896 45.568 16.896 62.976-0.512 16.896-17.408 16.896-45.056-0.512-62.464l-283.136-281.088c-4.096-3.584-8.704-7.168-13.824-9.216-5.632-2.56-11.264-3.584-16.896-3.584-11.776 0-22.528 4.608-31.232 12.8l-283.136 281.088c-17.408 16.384-18.432 44.032-2.048 61.44-0.512 0.512-0.512 1.024 0 1.024z" />
<glyph unicode="&#xe914;" glyph-name="ic-arrow-left" d="M376.32 762.88c17.408-17.408 17.408-45.568 0.512-62.976l-207.36-207.36h789.504c24.576 0 44.544-19.968 44.544-44.544s-19.968-44.544-44.544-44.544h-789.504l207.36-207.872c16.896-17.408 16.896-45.568-0.512-62.976-17.408-16.896-45.056-16.896-62.464 0.512l-280.576 283.648c-3.584 4.096-7.168 8.704-9.216 13.824-2.56 5.632-3.584 11.264-3.584 16.896 0 11.776 4.608 22.528 12.8 31.232l281.088 283.136c16.384 17.408 44.032 18.432 61.44 2.048 0-0.512 0.512-0.512 0.512-1.024z" />
<glyph unicode="&#xe915;" glyph-name="ic-arrow-right" d="M647.68 133.12c-17.408 17.408-17.408 45.568-0.512 62.976l207.36 207.872h-789.504c-24.576 0-44.544 19.968-44.544 44.544s19.968 44.544 44.544 44.544h789.504l-207.36 207.872c-16.896 17.408-16.896 45.568 0.512 62.976 17.408 16.896 45.056 16.896 62.464-0.512l281.088-283.136c3.584-4.096 7.168-8.704 9.216-13.824 2.56-5.632 3.584-11.264 3.584-16.896 0-11.776-4.608-22.528-12.8-31.232l-281.088-283.136c-16.384-17.408-44.032-18.432-61.44-2.048-0.512-0.512-1.024-0.512-1.024 0z" />
<glyph unicode="&#xe916;" glyph-name="ic-arrow-up" d="M826.88 583.68c-17.408-17.408-45.568-17.408-62.976-0.512l-207.872 207.36v-789.504c0-24.576-19.968-44.544-44.544-44.544s-44.544 19.968-44.544 44.544v789.504l-206.848-207.872c-17.408-16.896-45.568-16.896-62.976 0.512-16.896 17.408-16.896 45.056 0.512 62.464l283.136 281.088c4.096 3.584 8.704 7.168 13.824 9.216 5.632 2.56 11.264 3.584 16.896 3.584 11.776 0 22.528-4.608 31.232-12.8l283.136-281.088c17.408-16.384 18.432-44.032 2.048-61.44-0.512 0-0.512-0.512-1.024-0.512z" />
<glyph unicode="&#xe917;" glyph-name="ic-baht" d="M452.096-43.52v103.424h-242.176v775.68h242.176v103.936h97.792v-103.424h35.84c77.312 0 134.144-17.92 171.008-54.272s55.296-87.040 55.296-153.088c0-41.984-8.192-76.8-25.088-105.472s-39.424-50.176-67.584-64.512c37.888-10.24 67.584-29.184 89.6-55.808 22.016-27.136 33.28-66.56 33.28-118.784 0-75.264-20.48-131.584-60.928-168.448s-100.352-55.296-178.688-55.296h-53.248v-103.936h-97.28zM341.504 504.832h111.104v232.448h-111.104v-232.448zM341.504 156.672h111.104v251.904h-111.104v-251.904zM549.888 504.832h17.92c44.032 0 75.776 10.24 94.72 30.72s28.16 48.128 28.16 82.432c0 39.936-9.728 70.144-29.184 89.6s-55.296 29.696-108.544 29.696h-3.584v-232.448zM549.888 156.672h25.088c46.592 0 80.896 9.728 102.4 29.696 21.504 19.456 32.768 54.272 32.768 102.912 0 39.936-10.752 70.144-31.744 89.6-21.504 19.456-59.904 29.696-116.224 29.696h-12.288v-251.904z" />
<glyph unicode="&#xe918;" glyph-name="ic-bell" d="M919.040 184.832h-805.888c-17.408 0-32.256 11.264-37.376 27.648s1.536 34.304 15.872 44.032c0.512 0.512 116.736 86.016 116.736 370.176 0 169.472 138.24 307.712 307.712 307.712 168.448 0 305.664-136.192 307.712-304.128 0-1.024 0-2.56 0-3.584 0-284.16 116.224-369.664 117.248-370.688 13.824-9.728 19.968-27.648 14.848-44.032-5.12-15.872-19.968-27.136-36.864-27.136zM199.168 263.168h634.368c-40.96 63.488-87.040 176.128-87.552 360.448 0 1.024 0 2.56 0 3.584 0 126.464-102.912 229.376-229.376 229.376s-229.888-102.912-229.888-229.888c0-185.856-46.080-299.52-87.552-363.52zM516.096-38.4c-22.016 0-44.032 5.632-64 17.408-19.456 11.264-35.328 27.648-46.592 46.592-10.752 18.432-4.608 42.496 14.336 53.248 18.432 10.752 42.496 4.608 53.248-14.336 4.608-7.68 10.752-13.824 18.432-18.432 24.064-13.824 54.784-5.632 68.608 18.432 10.752 18.432 34.816 25.088 53.248 14.336s25.088-34.816 14.336-53.248c-24.064-41.472-67.584-64-111.616-64z" />
<glyph unicode="&#xe919;" glyph-name="ic-bookmask" d="M816.128 934.912h-608.256c-10.24 0-18.944-8.192-18.944-18.944v-925.696c0-7.168 4.096-13.824 11.264-16.896 6.656-3.072 14.336-2.048 19.968 3.072l291.84 260.096 291.84-260.096c3.584-3.072 8.192-4.608 12.288-4.608 2.56 0 5.12 0.512 7.68 1.536 6.656 3.072 11.264 9.728 11.264 16.896v926.208c0 10.24-8.704 18.432-18.944 18.432zM797.184 32.256l-272.896 243.2c-3.584 3.072-8.192 4.608-12.288 4.608-4.608 0-8.704-1.536-12.288-4.608l-272.896-243.2v865.28h570.88v-865.28z" />
<glyph unicode="&#xe91a;" glyph-name="ic-book-open" d="M987.648 893.44h-284.16c-85.504 0-158.72-52.224-189.44-126.464-31.232 74.24-104.448 126.464-189.952 126.464h-284.16c-8.704 0-15.872-7.168-15.872-15.872v-710.656c0-8.704 7.168-15.872 15.872-15.872h331.776c69.632 0 126.464-56.832 126.464-126.464 0-8.704 7.168-15.872 15.872-15.872s15.872 7.168 15.872 15.872c0 69.632 56.832 126.464 126.464 126.464h331.776c8.704 0 15.872 7.168 15.872 15.872v710.656c-0.512 8.704-7.68 15.872-16.384 15.872zM498.176 119.296c-28.672 38.4-74.752 63.488-126.464 63.488h-315.904v678.912h268.288c95.744 0 173.568-77.824 173.568-173.568v-568.832zM971.776 182.784h-315.904c-51.712 0-97.28-25.088-126.464-63.488v568.832c0 95.744 77.824 173.568 173.568 173.568h268.288v-678.912z" />
<glyph unicode="&#xe91b;" glyph-name="ic-calculator" d="M982.016 939.52h-940.032c-11.776 0-21.504-9.728-21.504-21.504v-940.032c0-11.776 9.728-21.504 21.504-21.504h940.032c11.776 0 21.504 9.728 21.504 21.504v940.032c0 11.776-9.728 21.504-21.504 21.504zM362.496 298.496v256.512h299.008v-256.512h-299.008zM661.504 255.488v-256.512h-299.008v256.512h299.008zM63.488 555.008h256.512v-256.512h-256.512v256.512zM704.512 555.008h256.512v-256.512h-256.512v256.512zM960.512 896.512v-299.008h-897.024v299.008h897.024zM63.488 255.488h256.512v-256.512h-256.512v256.512zM704.512-0.512v256.512h256.512v-256.512h-256.512z" />
<glyph unicode="&#xe91c;" glyph-name="ic-calendar" d="M839.168 866.304h-141.824v57.856c0 11.264-9.216 20.48-20.48 20.48s-20.48-9.216-20.48-20.48v-57.856h-346.624v57.856c0 11.264-9.216 20.48-20.48 20.48s-20.48-9.216-20.48-20.48v-57.856h-146.432c-54.272 0-98.304-44.032-98.304-98.304v-712.192c0-54.272 44.032-98.304 98.304-98.304h716.288c54.272 0 98.304 44.032 98.304 98.304v712.192c0 54.272-44.032 98.304-97.792 98.304zM122.368 825.344h146.432v-62.464c0-11.264 9.216-20.48 20.48-20.48s20.48 9.216 20.48 20.48v62.464h346.624v-62.464c0-11.264 9.216-20.48 20.48-20.48s20.48 9.216 20.48 20.48v62.464h141.824c31.744 0 57.344-25.6 57.344-57.344v-99.84h-831.488v99.84c0 31.744 25.6 57.344 57.344 57.344zM838.656-1.536h-716.288c-31.744 0-57.344 25.6-57.344 57.344v571.392h831.488v-571.392c0-31.744-26.112-57.344-57.856-57.344zM204.8 508.928c-13.312 0-24.064-10.752-24.064-24.064s10.752-24.064 24.064-24.064c13.312 0 24.064 10.752 24.064 24.064s-10.752 24.064-24.064 24.064zM388.096 508.928c-13.312 0-24.064-10.752-24.064-24.064s10.752-24.064 24.064-24.064c13.312 0 24.064 10.752 24.064 24.064s-10.752 24.064-24.064 24.064zM571.392 508.928c-13.312 0-24.064-10.752-24.064-24.064s10.752-24.064 24.064-24.064c13.312 0 24.064 10.752 24.064 24.064s-10.752 24.064-24.064 24.064zM754.688 508.928c-13.312 0-24.064-10.752-24.064-24.064s10.752-24.064 24.064-24.064c13.312 0 24.064 10.752 24.064 24.064s-10.752 24.064-24.064 24.064zM204.8 340.48c-13.312 0-24.064-10.752-24.064-24.064s10.752-24.064 24.064-24.064c13.312 0 24.064 10.752 24.064 24.064s-10.752 24.064-24.064 24.064zM388.096 340.48c-13.312 0-24.064-10.752-24.064-24.064s10.752-24.064 24.064-24.064c13.312 0 24.064 10.752 24.064 24.064s-10.752 24.064-24.064 24.064zM571.392 340.48c-13.312 0-24.064-10.752-24.064-24.064s10.752-24.064 24.064-24.064c13.312 0 24.064 10.752 24.064 24.064s-10.752 24.064-24.064 24.064zM754.688 340.48c-13.312 0-24.064-10.752-24.064-24.064s10.752-24.064 24.064-24.064c13.312 0 24.064 10.752 24.064 24.064s-10.752 24.064-24.064 24.064zM204.8 172.544c-13.312 0-24.064-10.752-24.064-24.064s10.752-24.064 24.064-24.064c13.312 0 24.064 10.752 24.064 24.064s-10.752 24.064-24.064 24.064zM388.096 172.544c-13.312 0-24.064-10.752-24.064-24.064s10.752-24.064 24.064-24.064c13.312 0 24.064 10.752 24.064 24.064s-10.752 24.064-24.064 24.064zM571.392 172.544c-13.312 0-24.064-10.752-24.064-24.064s10.752-24.064 24.064-24.064c13.312 0 24.064 10.752 24.064 24.064s-10.752 24.064-24.064 24.064z" />
<glyph unicode="&#xe91d;" glyph-name="ic-chart" d="M204.288 444.928c3.584 0 7.168 1.024 10.24 3.584l213.504 171.52 201.728-100.352c6.144-3.072 13.824-2.048 18.944 3.072l246.784 246.784v-74.752c0-9.216 7.168-16.384 16.384-16.384s16.384 7.168 16.384 16.384v114.176c0 0 0 0 0 0v2.048c0 9.216-7.168 16.384-16.384 16.384h-116.224c-9.216 0-16.384-7.168-16.384-16.384s7.168-16.384 16.384-16.384h79.36l-240.64-240.64-201.216 99.84c-5.632 3.072-12.288 2.048-17.408-2.048l-221.696-177.664c-7.168-5.632-8.192-15.872-2.56-23.040 3.584-3.584 8.192-6.144 12.8-6.144zM146.432 58.368h116.224c9.216 0 16.384 7.168 16.384 16.384v219.136c0 9.216-7.168 16.384-16.384 16.384h-116.224c-9.216 0-16.384-7.168-16.384-16.384v-219.136c0-8.704 7.168-16.384 16.384-16.384zM162.304 277.504h83.968v-186.368h-83.968v186.368zM578.56 382.976c-9.216 0-16.384-7.168-16.384-16.384v-291.84c0-9.216 7.168-16.384 16.384-16.384h116.224c9.216 0 16.384 7.168 16.384 16.384v291.84c0 9.216-7.168 16.384-16.384 16.384h-116.224zM678.912 91.136h-83.968v259.072h83.968v-259.072zM362.496 487.936c-9.216 0-16.384-7.168-16.384-16.384v-396.8c0-9.216 7.168-16.384 16.384-16.384h116.224c9.216 0 16.384 7.168 16.384 16.384v396.8c0 9.216-7.168 16.384-16.384 16.384h-116.224zM462.336 91.136h-83.456v364.544h83.968v-364.544zM911.36 599.552h-116.224c-9.216 0-16.384-7.168-16.384-16.384v-507.904c0-9.216 7.168-16.384 16.384-16.384h116.224c9.216 0 16.384 7.168 16.384 16.384v507.904c0 8.704-7.68 16.384-16.384 16.384zM894.976 91.136h-83.968v475.648h83.968v-475.648zM987.136-9.216h-933.888v933.888c0 9.216-7.168 16.384-16.384 16.384s-16.384-7.68-16.384-16.384v-950.272c0-9.216 7.168-16.384 16.384-16.384h950.272c9.216 0 16.384 7.168 16.384 16.384s-7.168 16.384-16.384 16.384z" />
<glyph unicode="&#xe91e;" glyph-name="ic-chart2" d="M986.112 112.128h-926.208v715.776c1.024 9.728-6.656 18.432-16.384 19.456s-18.432-6.656-19.456-16.384c0-1.024 0-2.048 0-2.56v-734.208c0-9.728 8.192-17.92 17.92-17.92h944.128c9.728 1.024 17.408 9.216 16.384 19.456-0.512 8.192-7.68 15.36-16.384 16.384v0zM183.808 327.68c35.328 0 64 28.672 64 64 0 3.072 0 6.144-0.512 8.704l117.248 60.416c24.576-25.088 65.024-25.088 90.624-0.512 3.072 2.56 5.632 5.632 7.68 9.216l141.824-37.376c3.584-35.328 34.304-60.928 69.632-57.856 35.328 3.584 60.928 34.304 57.856 69.632-0.512 3.072-1.024 6.656-1.536 9.728l163.84 122.368c27.648-22.016 68.096-17.408 90.112 10.24s17.408 68.096-10.24 90.112c-27.648 22.016-68.096 17.408-90.112-10.24-13.824-16.896-17.408-39.936-10.752-60.416l-161.792-120.832c-26.112 24.064-66.56 22.528-90.112-3.584-4.096-4.096-7.168-8.704-9.728-13.824l-137.216 36.352c0 0.512 0 1.536 0 2.048 0 35.328-28.672 64-64 64s-64-28.672-64-64c0-4.608 0.512-9.216 1.536-13.312l-114.688-58.88c-23.040 26.624-63.488 30.208-90.112 7.168s-30.208-63.488-7.168-90.112c11.264-14.848 28.672-23.040 47.616-23.040v0zM933.888 653.824c15.36 0 28.16-12.288 28.16-28.16 0-15.36-12.288-28.16-28.16-28.16-15.36 0-28.16 12.288-28.16 28.16s12.8 28.16 28.16 28.16v0zM667.648 465.92c9.216 0 17.92-4.608 23.040-12.288 0.512-1.536 1.536-3.072 2.56-4.608v0c6.144-14.336-0.512-30.72-14.848-36.864s-30.72 0.512-36.864 14.848c-6.144 14.336 0.512 30.72 14.848 36.864 4.096 1.024 7.68 2.048 11.264 2.048v0zM410.112 534.016c15.36 0 28.16-12.288 28.16-28.16 0-15.36-12.288-28.16-28.16-28.16-9.216 0-17.92 4.608-23.040 12.288 0 0.512-0.512 1.536-1.024 2.048-0.512 1.024-1.024 2.048-1.536 2.56-6.144 14.336 0.512 30.72 14.336 36.864 3.584 1.536 7.168 2.56 11.264 2.56v0zM183.808 419.84c10.24 0 19.968-5.632 24.576-14.848 0.512-1.024 1.024-2.56 1.536-3.584 0-0.512 0.512-0.512 0.512-1.024 5.12-14.848-3.072-30.72-17.92-35.328-14.848-5.12-30.72 3.072-35.328 17.92-5.12 14.848 3.072 30.72 17.92 35.328 2.56 1.024 5.632 1.536 8.704 1.536v0z" />
<glyph unicode="&#xe91f;" glyph-name="ic-chart3" d="M471.040 816.64h40.96v-40.96h-40.96v40.96zM225.28 816.64h40.96v-40.96h-40.96v40.96zM348.16 939.52h40.96v-40.96h-40.96v40.96zM634.88 529.92v40.96h-40.96v-40.96zM634.88 652.8v40.96h-40.96v-40.96zM225.28 939.52h40.96v-40.96h-40.96v40.96zM389.12 529.92v40.96h-40.96v-40.96zM389.12 652.8v40.96h-40.96v-40.96zM348.16 816.64h40.96v-40.96h-40.96v40.96zM593.92 816.64h40.96v-40.96h-40.96v40.96zM839.68 939.52h40.96v-40.96h-40.96v40.96zM1003.52 161.28v40.96h-40.96v-40.96zM1003.52 284.16v40.96h-40.96v-40.96zM1003.52 570.88h-40.96v-40.96h40.96zM1003.52 407.040v40.96h-40.96v-40.96zM593.92 939.52h40.96v-40.96h-40.96v40.96zM839.68 816.64h40.96v-40.96h-40.96v40.96zM757.76 652.8v40.96h-40.96v-40.96zM716.8 816.64h40.96v-40.96h-40.96v40.96zM716.8 939.52h40.96v-40.96h-40.96v40.96zM471.040 939.52h40.96v-40.96h-40.96v40.96zM757.76 161.28v40.96h-40.96v-40.96zM880.64 448h-40.96v-40.96h40.96zM512 325.12h-40.96v-40.96h40.96zM880.64 325.12h-40.96v-40.96h40.96zM839.68 161.28h40.96v40.96h-40.96zM471.040 161.28h40.96v40.96h-40.96zM962.56 816.64h40.96v-40.96h-40.96v40.96zM962.56 939.52h40.96v-40.96h-40.96v40.96zM962.56 38.4h-81.92v40.96h-40.96v-40.96h-81.92v40.96h-40.96v-40.96h-81.92v40.96h-40.96v-40.96h-81.92v40.96h-40.96v-40.96h-81.92v40.96h-40.96v-40.96h-180.224l216.064 129.536 106.496 312.32 158.72-279.040 307.712 512.512-70.656 41.984-235.008-392.192-179.2 314.88-156.16-455.68-213.504-128v844.8h-81.92v-983.040h983.040v122.88h-40.96zM962.56 693.76h40.96v-40.96h-40.96v40.96zM102.4 816.64h40.96v-40.96h-40.96v40.96zM266.24 652.8v40.96h-40.96v-40.96zM266.24 284.16v40.96h-40.96v-40.96zM102.4 939.52h40.96v-40.96h-40.96v40.96zM266.24 407.040v40.96h-40.96v-40.96zM266.24 529.92v40.96h-40.96v-40.96zM143.872 529.92v40.96h-41.472v-40.96zM143.872 652.8v40.96h-41.472v-40.96zM143.872 407.040v40.96h-41.472v-40.96zM143.872 284.16v40.96h-41.472v-40.96zM143.872 161.28v40.96h-41.472v-40.96z" />
<glyph unicode="&#xe920;" glyph-name="ic-circle" d="M512-43.52c-270.848 0-491.52 220.672-491.52 491.52s220.672 491.52 491.52 491.52 491.52-220.672 491.52-491.52-220.672-491.52-491.52-491.52zM512 742.912c-162.816 0-294.912-132.096-294.912-294.912s132.096-294.912 294.912-294.912 294.912 132.096 294.912 294.912-132.096 294.912-294.912 294.912z" />
<glyph unicode="&#xe921;" glyph-name="ic-coin" d="M938.496 843.776c0 28.672-29.184 53.248-84.48 71.168-121.344 32.768-248.832 32.768-370.176 0-55.296-17.92-84.48-42.496-84.48-71.168v-196.608c-18.944 1.536-38.4 2.048-58.368 2.048-62.464 1.024-124.928-7.168-184.832-24.576-55.296-17.408-84.48-41.984-84.48-71.168v-245.248c0-2.56 0-4.608 0.512-6.656-0.512-1.024-0.512-2.56-0.512-4.096v-245.248c0-28.672 29.184-53.248 84.48-71.168 121.344-32.768 248.832-32.768 370.176 0 55.296 17.92 84.48 42.496 84.48 71.168v79.36c18.944-1.536 38.4-2.048 58.368-2.048 62.464-1.024 124.928 7.168 184.832 24.576 55.296 17.92 84.48 42.496 84.48 71.168v361.984c0 1.536 0 2.56-0.512 4.096 0.512 2.56 0.512 4.608 0.512 7.168v245.248zM610.816 376.832c18.944-1.536 38.4-2.048 58.368-2.048 62.464-1.024 124.928 7.168 184.832 24.576 19.968 6.144 39.424 14.848 56.832 26.624v-83.456c0-28.672-92.16-68.096-241.664-68.096-19.456 0-38.912 1.024-58.368 2.048v100.352zM910.848 470.016c0-28.16-92.16-68.096-241.664-68.096-19.456 0-39.424 1.024-58.368 2.048v21.504c0 1.536 0 2.56-0.512 4.096 0.512 2.048 0.512 4.608 0.512 6.656v68.608c18.944-1.536 38.4-2.048 58.368-2.048 62.464-1.024 124.928 7.168 184.832 24.576 19.968 6.144 39.424 14.848 56.832 26.624v-83.968zM427.008 799.232c17.408-11.776 36.864-20.48 56.832-26.624 121.344-32.768 248.832-32.768 370.176 0 19.968 6.144 39.424 14.848 56.832 26.624v-72.704c0-28.16-92.16-68.096-241.664-68.096s-241.664 39.424-241.664 68.096l-0.512 72.704zM668.672 911.872c150.016 0 241.664-39.424 241.664-68.096s-91.648-68.096-241.664-68.096-241.664 39.424-241.664 68.096 92.16 68.096 241.664 68.096v0zM427.008 681.984c17.408-11.776 36.864-20.48 56.832-26.624 121.344-32.768 248.832-32.768 370.176 0 19.968 6.144 39.424 14.848 56.832 26.624v-83.456c0-28.672-92.16-68.096-241.664-68.096-19.456 0-39.424 1.024-58.368 2.048v21.504c0 28.672-29.184 53.248-84.48 71.168-32.256 9.728-65.536 16.384-99.328 19.968v36.864zM341.504 621.568c150.016 0 241.664-39.424 241.664-68.096s-92.16-68.096-241.664-68.096-241.664 39.424-241.664 68.096c-0.512 28.672 91.648 68.096 241.664 68.096v0zM583.168 52.224c0-28.672-92.16-68.096-241.664-68.096s-241.664 39.424-241.664 68.096v83.456c17.408-11.776 36.864-20.48 56.832-26.624 121.344-32.768 248.832-32.768 370.176 0 19.968 6.144 39.424 14.848 56.832 26.624l-0.512-83.456zM583.168 180.224c0-28.16-92.16-68.096-241.664-68.096s-241.664 39.424-241.664 68.096v83.456c17.408-11.776 36.864-20.48 56.832-26.624 121.344-32.768 248.832-32.768 370.176 0 19.968 6.144 39.424 14.848 56.832 26.624l-0.512-83.456zM583.168 308.224c0-28.672-92.16-68.096-241.664-68.096s-241.664 39.424-241.664 68.096v83.456c17.408-11.776 36.864-20.48 56.832-26.624 121.344-32.768 248.832-32.768 370.176 0 19.968 6.144 39.424 14.848 56.832 26.624l-0.512-83.456zM341.504 368.64c-150.016 0-241.664 39.424-241.664 68.096v72.704c17.408-11.776 36.864-20.48 56.832-26.624 121.344-32.768 248.832-32.768 370.176 0 19.968 6.144 39.424 14.848 56.832 26.624v-72.704c-0.512-28.672-92.672-68.096-242.176-68.096v0zM668.672 156.672c-19.456 0-39.424 1.024-58.368 2.048v10.24c0 1.536 0 2.56-0.512 4.096 0.512 2.048 0.512 4.608 0.512 6.656v68.096c18.944-1.536 38.4-2.048 58.368-2.048 62.464-1.024 124.928 7.168 184.832 24.576 19.968 6.144 39.424 14.848 56.832 26.624v-72.704c0.512-27.648-91.648-67.584-241.664-67.584v0z" />
<glyph unicode="&#xe922;" glyph-name="ic-contact-mail" d="M969.149 571.315v0c-4.608 11.264-12.288 20.992-21.504 28.672l-84.992 70.144v161.28c0 13.824-11.264 25.6-25.6 25.6h-199.68l-78.336 64.512c-28.16 23.552-69.12 23.552-97.28 0l-78.336-64.512h-199.68c-13.824 0-25.6-11.264-25.6-25.6v-161.28l-84.992-70.144c-17.408-14.336-27.648-35.84-27.648-58.88v-508.416c0-20.992 8.704-40.448 23.552-54.784 0.512-0.512 1.024-1.024 1.536-1.024l1.024-1.024c13.824-12.288 31.744-18.944 50.176-18.944h776.704c18.432 0 36.352 6.656 50.688 18.944 1.024 0.512 2.048 1.536 2.56 2.56 14.848 14.336 23.040 34.304 23.040 54.784v508.416c0 10.24-2.048 20.48-5.632 29.696zM924.093 36.275l-286.72 237.568 286.72 237.568v-475.136zM97.213 510.899l286.72-237.568-286.72-237.568v475.136zM811.453 806.323v-322.048l-13.312-11.264-200.704-166.4-6.144 5.12c-47.104 38.912-115.2 38.912-162.304 0l-6.144-5.12-200.704 166.4-13.312 11.264v322.048h602.624zM439.741 254.387v0l22.016 18.432c28.16 23.552 69.12 23.552 97.28 0l22.016-17.92 297.472-246.784h-736.768l297.984 246.272zM909.757 565.171l-47.104-38.912v78.336l47.104-39.424zM494.525 882.611c9.216 7.68 23.040 7.68 32.256 0l30.72-25.6h-94.208l31.232 25.6zM158.653 526.259l-47.104 38.912 47.104 38.912v-77.824zM707.517 723.379h-393.728c-13.824 0-25.6-11.264-25.6-25.6 0-13.824 11.264-25.6 25.088-25.6 0 0 0 0 0 0h393.728c13.824 0 25.6 11.264 25.088 25.6 0.512 14.336-10.752 25.6-24.576 25.6zM707.517 611.251h-393.728c-13.824 0-25.6-11.264-25.6-25.6 0-13.824 11.264-25.6 25.6-25.6h393.728c13.824 0 25.6 11.264 25.6 25.6s-11.776 25.6-25.6 25.6zM313.789 448.435h271.36c13.824 0 25.088 10.752 25.6 24.576 0 0 0 0.512 0 0.512 0 13.824-11.264 25.6-25.6 25.6v0h-271.36c-13.824 0-25.6-11.264-25.6-25.6 0 0 0 0 0 0s0-0.512 0-0.512c0.512-13.824 11.776-24.576 25.6-24.576z" />
<glyph unicode="&#xe923;" glyph-name="ic-cricle-info" d="M603.648 140.8h-193.024v138.752h193.024v-138.752zM435.2 165.376h143.872v89.6h-143.872v-89.6zM594.944 299.008h-175.616l-5.632 259.072v161.28h186.368v-161.28l-5.12-259.072zM443.392 323.584h127.488l5.12 235.008v136.192h-137.216v-136.704l4.608-234.496zM512-43.52c-270.848 0-491.52 220.672-491.52 491.52s220.672 491.52 491.52 491.52 491.52-220.672 491.52-491.52-220.672-491.52-491.52-491.52zM512 914.944c-257.536 0-466.944-209.408-466.944-466.944s209.408-466.944 466.944-466.944 466.944 209.408 466.944 466.944-209.408 466.944-466.944 466.944z" />
<glyph unicode="&#xe924;" glyph-name="ic-cricle-play" d="M512 925.184c-64.512 0-126.976-12.8-185.856-37.376-56.832-24.064-108.032-58.368-151.552-102.4-44.032-44.032-78.336-94.72-102.4-151.552-24.576-58.88-37.376-121.344-37.376-185.856s12.8-126.976 37.376-185.856c24.064-56.832 58.368-108.032 102.4-151.552 44.032-44.032 94.72-78.336 151.552-102.4 58.88-25.088 121.344-37.376 185.856-37.376s126.976 12.8 185.856 37.376c56.832 24.064 108.032 58.368 151.552 102.4 44.032 44.032 78.336 94.72 102.4 151.552 25.088 58.88 37.376 121.344 37.376 185.856s-12.8 126.976-37.376 185.856c-24.064 56.832-58.368 108.032-102.4 151.552-44.032 44.032-94.72 78.336-151.552 102.4-58.88 24.576-121.344 37.376-185.856 37.376zM512 939.52c271.36 0 491.52-220.16 491.52-491.52s-220.16-491.52-491.52-491.52-491.52 220.16-491.52 491.52 220.16 491.52 491.52 491.52zM374.272 657.92v-419.328c-0.512-6.144 4.096-11.264 10.24-11.264 2.048 0 4.096 0.512 6.144 1.536l332.288 209.92c5.632 3.584 7.168 10.752 3.072 16.384-1.024 1.536-2.048 2.56-3.072 3.072l-332.288 209.92c-5.12 3.072-11.776 1.536-14.848-3.584-1.024-2.56-1.536-4.608-1.536-6.656z" />
<glyph unicode="&#xe925;" glyph-name="ic-cricle-question" d="M596.065 140.8h-193.024v138.752h193.024v-138.752zM427.617 165.376h143.872v89.6h-143.872v-89.6zM588.385 299.008h-177.664v27.648c0 26.112 5.12 48.128 15.36 65.024 9.728 16.384 24.576 33.28 44.544 50.688 15.872 13.824 29.696 25.6 41.984 34.816 11.264 8.192 19.968 16.384 26.624 24.576 5.632 6.656 8.192 14.848 8.192 25.6 0 13.824-5.12 22.528-15.36 28.16-12.8 6.656-34.816 10.24-65.024 10.24-24.064 0-47.104-3.072-68.608-8.704s-39.936-13.312-54.784-22.528l-18.432-11.264v163.84l6.656 3.584c23.040 11.776 50.176 20.992 80.384 27.648 29.696 6.656 64 9.728 101.376 9.728 70.656 0 125.952-15.872 164.864-46.592 39.424-31.744 59.392-75.264 59.392-130.048 0-33.792-6.656-61.952-19.968-83.968-12.8-20.992-32.768-43.008-59.392-65.024-19.456-15.872-36.352-30.208-51.2-43.008-12.288-10.24-17.92-22.528-17.92-37.888v-22.528zM435.297 323.584h128.512c0.512 21.504 9.728 39.936 26.624 54.784 14.848 12.8 32.256 27.136 51.712 43.008 24.576 20.48 43.008 39.936 53.76 58.88 10.752 17.92 16.384 41.984 16.384 71.168 0 47.616-16.384 83.968-50.176 110.592-33.792 27.136-83.968 40.96-148.992 40.96-35.84 0-68.096-3.072-96.256-9.216-25.088-5.632-48.128-12.8-67.584-22.528v-105.472c12.8 6.144 27.136 10.752 42.496 15.36 23.552 6.144 48.64 9.216 74.752 9.216 34.816 0 59.904-4.096 76.8-12.8 18.432-9.728 28.672-27.136 28.672-50.176 0-15.872-4.608-29.696-13.312-40.96-7.68-9.728-18.432-19.456-31.232-28.672-11.776-8.704-25.088-19.968-40.448-33.28-17.92-15.872-31.232-30.72-39.936-45.056-8.192-13.312-11.776-30.72-11.776-52.736v-3.072zM512-43.52c-270.848 0-491.52 220.672-491.52 491.52s220.672 491.52 491.52 491.52 491.52-220.672 491.52-491.52-220.672-491.52-491.52-491.52zM512 914.944c-257.536 0-466.944-209.408-466.944-466.944s209.408-466.944 466.944-466.944 466.944 209.408 466.944 466.944-209.408 466.944-466.944 466.944z" />
<glyph unicode="&#xe926;" glyph-name="ic-doc" d="M522.752 937.472c-2.048 2.048-4.608 3.072-7.68 3.072h-340.48c-5.632 0.512-10.752-4.608-10.752-10.24v-963.072c0-6.144 4.608-10.752 10.752-10.752h680.96c6.144 0 10.752 4.608 10.752 10.752v622.592c0 3.072-1.024 5.632-3.072 7.68l-340.48 339.968zM835.584 594.432h-313.344v313.344l313.344-313.344zM185.344-22.016v941.568h315.392v-335.36c0-6.144 4.608-10.752 10.752-10.752h333.312v-595.456h-659.456zM676.864 422.912h-345.088c-6.144 0-10.752-4.608-10.752-10.752s4.608-10.752 10.752-10.752h345.088c6.144 0 10.752 4.608 10.752 10.752s-4.608 10.752-10.752 10.752zM496.64 262.656h-150.016c-6.144 0-10.752-4.608-10.752-10.752s4.608-10.752 10.752-10.752h150.016c6.144 0 10.752 4.608 10.752 10.752s-5.12 10.752-10.752 10.752z" />
<glyph unicode="&#xe927;" glyph-name="ic-doc-full" d="M855.291-42.317h-679.936c-6.144 0-10.752 4.608-10.752 10.752v961.536c0 6.144 4.608 10.752 10.752 10.752h679.936c6.144 0 10.752-4.608 10.752-10.752v-961.536c0-6.144-4.608-10.752-10.752-10.752zM186.107-20.813h658.432v940.544h-658.432v-940.544zM675.579 645.811h-320.512c-6.144 0-10.752 4.608-10.752 10.752s4.608 10.752 10.752 10.752h320.512c6.144 0 10.752-4.608 10.752-10.752 0-5.632-4.608-10.752-10.752-10.752zM675.579 485.555h-320.512c-6.144 0-10.752 4.608-10.752 10.752s4.608 10.752 10.752 10.752h320.512c6.144 0 10.752-4.608 10.752-10.752 0-5.632-4.608-10.752-10.752-10.752zM515.323 325.299h-160.256c-6.144 0-10.752 4.608-10.752 10.752s4.608 10.752 10.752 10.752h160.256c6.144 0 10.752-4.608 10.752-10.752 0-5.632-4.608-10.752-10.752-10.752z" />
<glyph unicode="&#xe928;" glyph-name="ic-down" d="M513.536 336.896l366.592 373.76c27.136 27.648 71.168 28.16 98.304 1.024 0 0 0 0 0 0 27.136-27.136 27.648-71.168 1.024-98.816l-415.232-423.424c-26.112-26.624-68.608-27.648-96.256-3.072l-426.496 417.28c-27.648 27.136-28.16 71.168-1.024 98.816s71.168 28.16 98.816 1.024l374.272-366.592z" />
<glyph unicode="&#xe929;" glyph-name="ic-download" d="M503.296 266.752c3.584-4.096 8.704-6.144 13.824-6.144s10.24 2.048 13.824 6.144l197.632 220.16c6.656 7.68 6.144 19.456-1.536 26.624-7.68 6.656-19.456 6.144-26.624-1.536l-165.888-185.344v569.344c0 10.24-8.192 18.944-18.944 18.944s-18.944-8.192-18.944-18.944v-566.272l-163.84 182.272c-6.656 7.68-18.944 8.192-26.624 1.536s-8.192-18.944-1.536-26.624l198.656-220.16zM966.144 596.48c-10.24 0-18.944-8.192-18.944-18.944v-578.56h-870.4v578.56c0 10.24-8.192 18.944-18.944 18.944s-18.944-8.192-18.944-18.944v-597.504c0-10.24 8.192-18.944 18.944-18.944h907.776c10.24 0 18.944 8.192 18.944 18.944v598.016c0 10.24-8.192 18.432-18.432 18.432z" />
<glyph unicode="&#xe92a;" glyph-name="ic-edit" d="M977.92-17.782h-463.872c-12.8 0-23.552 10.24-23.552 23.552s10.24 23.552 23.552 23.552h463.872c12.8 0 23.552-10.24 23.552-23.552s-10.752-23.552-23.552-23.552zM44.032-17.782c-6.144 0-12.288 2.56-16.384 6.656-5.632 5.632-8.192 14.336-6.144 22.016l51.712 207.36c1.024 4.096 3.072 7.68 6.144 10.752l648.704 649.216c52.224 52.224 136.704 52.224 188.928 0 25.088-25.088 38.912-58.88 38.912-94.208 0-35.84-13.824-69.12-38.912-94.208l-648.704-648.704c-3.072-3.072-6.656-5.12-10.752-6.144l-207.872-52.224c-2.048-0.512-4.096-0.512-5.632-0.512zM116.736 200.842l-40.96-163.328 163.328 40.96 644.608 644.096c16.384 16.384 25.6 38.4 25.6 61.44s-9.216 45.056-25.6 61.44c-33.792 33.792-89.088 33.792-122.88 0v0l-644.096-644.608zM744.448 861.834v0 0z" />
<glyph unicode="&#xe92b;" glyph-name="ic-facebook" d="M404.992 432.133v-398.336c0-5.632 4.608-10.24 10.24-10.24v0h147.968c5.632 0 10.24 4.608 10.24 10.24 0 0 0 0 0 0v404.992h107.52c5.632 0 9.728 4.096 10.24 9.728l10.24 121.856c0.512 5.632-3.584 10.752-9.728 11.264-0.512 0-0.512 0-1.024 0h-117.76v86.528c0 20.48 16.384 36.864 36.864 36.864h82.944c5.632 0 10.24 4.608 10.24 10.24v0 122.368c0 5.632-4.608 10.24-10.24 10.24v0h-139.776c-81.92 0-148.48-66.56-148.48-148.48v0-117.76h-74.24c-5.632 0-10.24-4.608-10.24-10.24v-122.368c0-5.632 4.608-10.24 10.24-10.24v0h74.24l0.512-6.656z" />
<glyph unicode="&#xe92c;" glyph-name="ic-financial-1" d="M514.048 794.112c8.192 0 14.848 6.656 14.848 14.848v105.472c0 8.192-6.656 14.848-14.848 14.848s-14.848-6.656-14.848-14.848v-104.96c0-8.704 6.656-15.36 14.848-15.36zM320 757.248c2.56-5.12 7.68-7.68 13.312-7.68 2.56 0 5.12 0.512 7.168 2.048 7.168 4.096 9.728 12.8 5.632 20.48l-50.688 92.16c-4.096 7.168-12.8 9.728-20.48 5.632-7.168-4.096-9.728-12.8-5.632-20.48l50.688-92.16zM203.776 650.752l-89.088 56.32c-7.168 4.608-16.384 2.56-20.48-4.608-4.608-7.168-2.56-16.384 4.608-20.48l89.088-56.32c2.56-1.536 5.12-2.56 8.192-2.56 5.12 0 9.728 2.56 12.8 7.168 4.096 6.656 2.048 15.872-5.12 20.48zM136.704 445.952c7.68 0 14.336 6.144 14.848 13.824 0.512 8.192-5.632 15.36-13.824 15.872l-104.96 6.656c-8.192 0.512-15.36-5.632-15.872-13.824s5.632-15.36 13.824-15.872l104.96-6.656c0.512 0 1.024 0 1.024 0zM163.84 290.816l-95.232-45.056c-7.68-3.584-10.752-12.288-7.168-19.968 2.56-5.632 7.68-8.704 13.312-8.704 2.048 0 4.096 0.512 6.144 1.536l95.232 45.056c7.68 3.584 10.752 12.288 7.168 19.968-3.072 7.68-11.776 10.752-19.456 7.168zM686.080 748.544c2.048-1.024 4.608-2.048 7.168-2.048 5.12 0 10.24 2.56 13.312 7.68l50.176 92.16c4.096 7.168 1.536 16.384-6.144 20.48-7.168 4.096-16.384 1.024-20.48-6.144l-50.176-92.16c-3.584-6.656-1.024-15.872 6.144-19.968zM924.16 678.4c7.168 4.608 8.704 13.824 4.608 20.48-4.608 7.168-13.824 8.704-20.48 4.608l-88.576-56.832c-7.168-4.608-8.704-13.824-4.608-20.48 3.072-4.608 7.68-6.656 12.8-6.656 2.56 0 5.632 0.512 8.192 2.56l88.064 56.32zM988.672 480.256l-104.96-7.68c-8.192-0.512-14.336-7.68-13.824-15.872 0.512-7.68 7.168-13.824 14.848-13.824 0.512 0 0.512 0 1.024 0l104.96 7.68c8.192 0.512 14.336 7.68 13.824 15.872s-7.68 14.336-15.872 13.824zM952.32 245.76l-95.744 43.52c-7.68 3.584-16.384 0-19.968-7.168-3.584-7.68 0-16.384 7.168-19.968l95.744-43.52c2.048-1.024 4.096-1.536 6.144-1.536 5.632 0 11.264 3.072 13.824 8.704 3.584 7.68 0 16.896-7.168 19.968zM457.728 692.736c-69.632-13.824-130.56-58.368-167.936-122.368-37.376-65.024-45.056-141.312-21.504-208.896 15.36-44.544 43.52-80.896 71.168-115.712 8.704-10.752 16.896-22.016 25.088-33.28 16.384-21.504 30.208-45.568 39.424-70.656 0-0.512 0.512-1.536 0.512-2.048l0.512-2.56c0 0 0 0 0 0v0 0c0 0 0 0 0 0l0.512-3.072c0.512-1.536 0.512-2.56 1.024-4.096 1.024-7.168 1.536-15.36 2.048-23.552 1.024-18.944 2.048-38.4 11.776-54.784 11.264-18.944 31.744-30.72 53.76-30.72h78.336c59.904 0 62.464 56.832 64.512 98.304 0.512 7.168 0.512 13.824 1.024 20.48 0 0 0 0 0 0.512 0 0 0 0 0 0.512 0.512 10.24 2.56 20.48 6.144 29.184 13.824 28.16 34.304 51.2 56.832 75.776 23.040 25.6 46.592 51.712 62.976 84.992 41.472 85.504 30.208 183.808-30.208 262.144-61.44 79.872-159.744 118.272-256 99.84zM553.472 50.176h-78.336c-11.776 0-22.528 6.144-28.16 15.872s-6.656 25.088-7.68 40.96c-0.512 5.632-0.512 11.776-1.536 17.408h150.528c0-1.536 0-3.584 0-5.12-2.56-51.712-8.192-69.12-34.816-69.12zM717.824 342.528c0 0 0 0 0 0-14.336-29.184-35.328-52.736-57.856-77.824s-45.568-50.688-61.44-83.456c-3.584-8.192-5.632-16.896-7.168-25.6h-160.256c-10.752 26.624-25.088 52.224-42.496 74.752-8.192 11.264-16.896 22.528-25.6 33.792-27.136 34.816-52.736 67.584-66.56 107.52-20.992 59.904-13.824 126.976 19.456 184.32 32.768 55.808 86.528 95.232 147.456 107.52 84.992 16.384 172.032-17.92 227.328-90.112 53.76-69.12 63.488-155.648 27.136-230.912zM549.376-4.608h-74.752c-8.192 0-14.848-6.656-14.848-14.848s6.656-14.848 14.848-14.848h74.24c8.192 0 14.848 6.656 14.848 14.848s-6.144 14.848-14.336 14.848zM517.632 465.92l-1.536 0.512c-21.504 7.68-32.256 17.408-32.768 28.672 0 4.608-0.512 18.432 24.576 21.504 11.776 1.536 24.064-1.024 34.304-6.656 7.168-4.096 16.384-1.536 20.48 5.632s1.536 16.384-5.632 20.48c-9.728 5.632-20.48 8.704-31.744 10.24v23.040h-29.696v-24.576c-26.624-6.144-42.496-24.576-41.984-50.176 0.512-24.576 17.92-43.008 52.224-55.808l1.536-0.512c26.112-9.728 30.72-12.8 31.232-27.648 0-7.168-2.56-14.336-7.68-19.456s-11.776-8.192-19.968-8.192c-14.848-1.024-30.208 2.56-43.008 9.728-7.168 4.096-16.384 1.536-20.48-6.144-4.096-7.168-1.536-16.384 6.144-20.48 12.8-7.168 26.624-11.264 40.448-12.8v-22.528h29.696v23.552c10.752 2.56 20.48 7.68 28.672 15.872 10.752 10.752 16.384 25.6 16.384 40.96-1.536 36.352-25.6 45.056-51.2 54.784zM680.448 466.944c7.168 2.56 11.264 9.728 9.728 17.408-2.048 10.24-5.12 20.48-9.216 30.72-2.56 7.168-10.24 10.752-17.92 8.704 5.632 4.608 7.68 12.8 3.584 19.456-5.632 9.216-11.776 17.408-18.944 25.6-5.12 5.632-13.312 6.656-19.456 2.56 4.096 6.144 2.56 14.848-3.584 19.456-8.192 6.656-17.408 12.8-26.624 17.408-6.656 3.584-14.848 1.536-19.456-4.608 1.536 7.168-2.56 14.848-9.728 17.408-10.24 3.584-20.48 6.144-30.72 7.68-7.68 1.024-14.848-3.584-16.896-10.752-1.024 7.168-7.68 12.8-15.36 12.8-10.752 0-21.504-1.536-31.744-3.584-7.68-1.536-12.8-8.192-11.776-15.872-3.584 6.656-11.264 9.728-18.432 7.168-9.728-3.584-19.456-8.704-28.672-13.824-6.656-4.096-9.216-12.288-6.144-18.944-5.632 5.12-13.824 5.12-19.968 0-8.192-7.168-15.36-14.848-22.016-23.040-4.608-6.144-4.096-14.336 1.024-19.968-7.168 3.072-14.848 0-18.944-6.656-5.12-9.216-9.728-18.944-12.8-29.184-2.56-7.168 1.024-14.848 7.68-18.432-7.168 0.512-14.336-5.12-15.36-12.8-1.536-9.728-2.048-19.456-2.048-29.184v-2.56c0-7.68 6.144-13.824 13.312-14.336-7.168-2.048-11.776-9.728-10.24-16.896 2.048-10.24 5.12-20.48 8.704-30.72 2.56-7.168 10.24-11.264 17.408-9.216-6.144-4.608-7.68-12.8-3.584-19.456 5.632-9.216 11.776-17.92 18.432-25.6 5.12-5.632 13.312-6.656 19.456-2.56-4.096-6.144-3.072-14.848 3.072-19.456 8.192-6.656 16.896-12.8 26.112-17.92 6.656-3.584 14.848-2.048 19.456 4.096-1.536-7.168 2.56-14.848 9.728-17.408 10.24-3.584 20.48-6.144 30.72-8.192 7.68-1.024 14.848 3.584 16.896 10.752 1.024-7.168 7.168-13.312 14.848-13.312 0 0 0 0 0 0 10.752 0 21.504 1.024 31.744 3.072 7.68 1.536 12.8 8.192 12.288 15.36 3.584-6.656 11.264-9.728 18.432-7.168 9.728 3.584 19.456 8.192 28.672 13.824 6.656 4.096 9.216 11.776 6.144 18.944 5.632-5.12 13.824-5.632 19.968-0.512 8.192 6.656 15.872 14.336 22.528 22.528 5.12 5.632 4.608 14.336-0.512 19.968 6.656-3.072 14.848-0.512 18.944 6.144 5.12 9.216 9.728 18.944 13.312 28.672 2.56 7.168-0.512 14.848-7.168 18.432 7.168-0.512 14.336 4.608 15.36 12.288 2.048 10.24 2.56 20.992 2.56 31.744v5.12c0.512 8.192-5.12 14.336-12.8 14.848zM664.064 451.584v-4.608c0-8.704-1.024-17.92-2.048-26.624-1.024-6.656 2.048-12.8 8.192-15.872-6.144 0.512-12.8-3.584-14.848-9.728-3.072-8.192-6.656-16.384-11.264-24.064-3.584-5.632-2.56-13.312 2.048-17.92-6.144 2.56-12.8 1.024-17.408-4.096-5.632-6.656-11.776-13.312-18.944-18.944-5.12-4.608-6.656-11.264-4.096-17.408-4.608 4.608-11.776 5.12-17.92 2.048-7.68-4.608-15.872-8.192-24.064-11.264-6.144-2.56-10.24-8.704-9.728-14.848-3.072 5.632-9.216 9.216-15.872 7.68-8.704-1.536-17.408-2.56-26.624-2.56-6.656 0-12.288-4.608-14.336-10.752-1.024 6.144-5.632 11.776-12.288 12.8-8.704 1.536-17.408 3.584-25.6 6.656-1.536 0.512-3.584 1.024-5.12 1.024-4.608 0-9.216-2.048-12.288-6.144 1.536 6.144-1.536 12.8-7.168 16.384-7.68 4.608-15.36 9.216-22.016 14.848-5.12 4.096-12.288 4.608-17.92 1.024 3.584 5.632 3.072 12.8-1.024 17.92-5.632 6.656-11.264 13.824-15.36 21.504-3.584 5.632-10.24 8.192-16.384 6.656 5.12 4.096 7.168 10.752 4.608 16.896-3.072 8.192-5.632 16.896-7.168 25.6-1.024 6.656-6.656 11.264-13.312 12.288 6.144 2.048 10.752 7.68 10.24 14.336v2.048c0 8.192 0.512 16.384 2.048 24.576 1.024 6.656-2.56 12.8-8.192 15.872 6.144 0 12.288 3.584 14.848 10.24 3.072 8.192 6.656 16.384 10.752 24.064 3.072 6.144 2.048 13.312-2.56 17.92 6.144-2.56 12.8-1.024 17.408 4.608 5.632 6.656 11.776 13.312 18.432 19.456 5.12 4.608 6.656 11.776 3.584 17.408 4.608-4.096 11.776-5.12 17.92-1.536 7.68 4.608 15.872 8.704 24.064 11.776 6.144 2.56 10.24 8.704 9.728 14.848 3.072-5.632 9.216-8.704 15.872-7.68 8.704 1.536 17.408 2.56 26.624 3.072 6.656 0 12.288 4.608 14.336 10.752 1.024-6.144 5.632-11.776 12.288-12.8 8.704-1.536 17.408-3.584 26.112-6.144 6.144-2.048 13.312 0 16.896 5.632-1.536-6.144 1.536-12.8 7.68-16.384 7.68-4.096 15.36-9.216 22.016-14.848 5.12-4.096 12.288-4.096 17.92-0.512-3.584-5.632-3.072-12.8 1.536-17.92 5.632-6.656 11.264-13.824 15.872-21.504 3.584-5.632 10.24-8.192 16.384-6.656-5.12-4.096-7.168-10.752-4.608-17.408 3.072-8.192 5.632-16.896 7.68-25.6 1.536-6.656 6.656-11.264 13.312-11.776-5.632-1.536-10.24-7.168-10.24-14.336z" />
<glyph unicode="&#xe92d;" glyph-name="ic-financial-2" d="M298.496 189.952c2.56-3.584 6.144-7.168 9.728-10.24 9.216-7.168 19.968-10.752 31.232-10.752 2.048 0 4.096 0 6.144 0.512 13.312 1.536 25.6 8.192 33.792 18.944l126.976 160.768c2.048 3.072 5.632 4.608 9.216 4.608h283.648c5.12 0 9.216 4.096 9.216 9.216s-4.096 9.216-9.216 9.216h-283.648c-9.216 0-17.92-4.096-23.552-11.264l-126.976-160.768c-11.264-13.824-31.744-16.384-45.568-5.12-2.56 2.048-4.608 4.096-6.144 6.656l-139.264 192c-6.144 9.728-7.168 19.456-2.56 28.16 5.12 9.728 16.896 15.872 30.208 15.872h171.52c5.12 0 9.216 4.096 9.216 9.216s-4.096 9.216-9.216 9.216h-37.888l-42.496 65.024h2.56c5.12 0 9.216 4.096 9.216 9.216s-4.096 9.216-9.216 9.216h-44.544c-5.12 0-9.216-4.096-9.216-9.216s4.096-9.216 9.216-9.216h20.48l42.496-65.024h-112.128c-20.48 0-37.888-9.728-46.592-25.6-7.68-14.848-6.656-31.744 3.584-47.104l139.776-193.536zM910.336 167.936l-53.248 136.192 49.664 69.632c7.68 11.264 10.752 24.576 8.704 37.888s-9.728 25.088-20.48 32.768c-8.704 6.144-18.944 9.216-29.696 9.216h-157.696l44.032 66.048h14.848c5.12 0 9.216 4.096 9.216 9.216s-4.096 9.216-9.216 9.216h-44.544c-5.12 0-9.216-4.096-9.216-9.216s4.096-9.216 9.216-9.216h7.68l-44.032-66.048h-197.12c-22.528 0-43.52-10.752-57.344-28.16l-103.424-136.192c-3.072-4.096-2.048-9.728 1.536-12.8 4.096-3.072 9.728-2.048 12.8 1.536l103.424 136.192c10.24 13.312 26.112 20.992 42.496 20.992h377.344c6.656 0 13.312-2.048 18.944-6.144 7.168-5.12 11.776-12.288 13.312-20.992s-0.512-17.408-5.632-24.064l-52.736-73.728c-1.536-2.56-2.048-5.632-1.024-8.704l54.784-140.288c14.848-44.032 8.192-92.672-18.432-130.048-25.6-35.328-64.512-55.808-107.008-55.808h-513.536c-45.056 0-87.040 23.552-111.616 62.976-26.624 41.984-29.184 94.208-7.168 138.752l42.496 84.992c2.048 4.608 0.512 10.24-4.096 12.288s-10.24 0.512-12.288-4.096l-42.496-84.992c-24.576-50.688-21.504-109.056 8.192-156.672 28.16-45.056 75.264-71.68 126.976-71.68h514.048c48.64 0 92.672 23.040 121.856 63.488 29.696 43.008 37.888 97.792 20.48 147.456zM607.232 768.512c46.592 0 84.48 37.888 84.48 84.48s-37.888 84.48-84.48 84.48-84.48-37.888-84.48-84.48 37.888-84.48 84.48-84.48zM607.232 919.040c36.352 0 66.048-29.696 66.048-66.048s-29.696-66.048-66.048-66.048c-36.352 0-66.048 29.696-66.048 66.048s29.696 66.048 66.048 66.048zM355.328 686.080c44.544 0 80.384 37.888 80.384 84.48s-36.352 84.48-80.384 84.48-80.384-38.4-80.384-84.48 36.352-84.48 80.384-84.48zM355.328 836.608c34.304 0 62.464-29.696 62.464-66.048s-28.16-66.048-62.464-66.048c-34.304 0-62.464 29.696-62.464 66.048s28.16 66.048 62.464 66.048zM524.288 520.704c46.592 0 84.48 36.352 84.48 80.384s-37.888 80.384-84.48 80.384-83.968-35.84-83.968-79.872 37.888-80.896 83.968-80.896zM524.288 663.552c36.352 0 66.048-28.16 66.048-62.464s-29.696-62.464-66.048-62.464c-36.352 0-66.048 28.16-66.048 62.464 0.512 34.816 29.696 62.464 66.048 62.464z" />
<glyph unicode="&#xe92e;" glyph-name="ic-financial-3" d="M154.624 637.44h498.176c8.704 0 15.872 7.168 15.872 15.872s-7.168 15.872-15.872 15.872h-498.176c-8.704 0-15.872-7.168-15.872-15.872 0.512-8.704 7.168-15.872 15.872-15.872zM355.328 535.040h-200.704c-8.704 0-15.872-7.168-15.872-15.872s7.168-15.872 15.872-15.872h200.704c8.704 0 15.872 7.168 15.872 15.872 0 9.216-7.168 15.872-15.872 15.872zM355.328 401.408h-200.704c-8.704 0-15.872-7.168-15.872-15.872s7.168-15.872 15.872-15.872h200.704c8.704 0 15.872 7.168 15.872 15.872s-7.168 15.872-15.872 15.872zM967.68 211.968l-51.2 42.496c0 0 0 0 0 0s0 0 0 0l-135.168 112.128v455.168c0 43.008-34.816 77.824-77.824 77.824h-605.696c-43.008 0-77.824-34.816-77.824-77.824v-749.056c0-43.008 34.816-77.824 77.824-77.824h606.208c43.008 0 77.824 34.816 77.824 77.824v51.2l15.872-13.312c0 0 0 0 0 0s0 0 0.512 0l49.664-41.472c0.512-0.512 1.024-0.512 1.024-1.024 17.408-14.336 38.4-21.504 59.392-21.504 26.624 0 53.76 11.264 72.192 33.792 32.256 39.936 26.624 98.816-12.8 131.584zM487.936 408.576l-16.896 94.208 95.744 0.512 317.44-263.168-78.848-94.72-317.44 263.168zM749.568 148.48v-75.776c0-25.6-20.48-46.080-46.080-46.080h-605.696c-25.6 0-46.080 20.48-46.080 46.080v749.056c0 25.6 20.48 46.080 46.080 46.080h606.208c25.6 0 46.080-20.48 46.080-46.080v-429.056l-167.424 138.752c-3.072 2.56-7.168 3.584-10.24 3.584l-120.32-0.512c-4.608 0-9.216-2.048-12.288-5.632s-4.096-8.192-3.584-12.8l21.504-118.784c0.512-3.584 2.56-7.168 5.632-9.216l286.72-238.080c0-0.512-0.512-1.024-0.512-1.536zM955.392 100.864c-21.504-26.112-60.416-29.696-87.040-8.192l-38.912 32.256 78.848 94.72 38.912-32.256c12.8-10.752 20.48-25.088 22.016-41.472 2.048-16.384-3.072-32.256-13.824-45.056z" />
<glyph unicode="&#xe92f;" glyph-name="ic-financial-4" d="M957.44 803.84h-892.928c-24.576 0-45.056-19.968-45.056-45.056v-623.104c0-24.576 19.968-45.056 45.056-45.056h892.928c24.576 0 45.056 19.968 45.056 45.056v623.616c-0.512 24.576-20.48 44.544-45.056 44.544zM53.248 619.008h914.944v-155.136h-914.944v155.136zM64.512 770.048h892.928c6.144 0 10.752-5.12 10.752-10.752v-106.496h-914.944v106.496c0 5.632 5.12 10.752 11.264 10.752zM957.44 124.928h-892.928c-6.144 0-10.752 5.12-10.752 10.752v294.4h914.944v-294.4c-0.512-6.144-5.12-10.752-11.264-10.752zM403.968 330.24h-251.904c-9.216 0-16.896-7.68-16.896-16.896v-101.376c0-9.216 7.68-16.896 16.896-16.896h251.904c9.216 0 16.896 7.68 16.896 16.896v101.376c0 9.728-7.68 16.896-16.896 16.896zM387.072 229.376h-218.112v67.584h218.112v-67.584zM700.416 330.24c-9.216 0-16.896-7.68-16.896-16.896v-101.376c0-9.216 7.68-16.896 16.896-16.896s16.896 7.68 16.896 16.896v101.376c0 9.728-7.68 16.896-16.896 16.896zM784.896 330.24c-9.216 0-16.896-7.68-16.896-16.896v-101.376c0-9.216 7.68-16.896 16.896-16.896s16.896 7.68 16.896 16.896v101.376c0 9.728-7.168 16.896-16.896 16.896zM869.888 330.24c-9.216 0-16.896-7.68-16.896-16.896v-101.376c0-9.216 7.68-16.896 16.896-16.896s16.896 7.68 16.896 16.896v101.376c0 9.728-7.68 16.896-16.896 16.896z" />
<glyph unicode="&#xe930;" glyph-name="ic-financial-5" d="M759.296 31.744c-8.704 0-16.384-7.168-16.384-16.384v-27.136h-658.944v918.528h582.144l76.8-76.8v-187.904c0-8.704 7.168-16.384 16.384-16.384 8.704 0 16.384 7.168 16.384 16.384v194.56c0 4.096-1.536 8.192-4.608 11.264l-87.040 86.016c-3.072 3.072-7.168 4.608-11.264 4.608h-605.184c-8.704 0-16.384-7.168-16.384-16.384v-950.272c0-8.704 7.168-16.384 16.384-16.384h691.2c8.704 0 16.384 7.168 16.384 16.384v43.008c0 9.216-7.168 16.896-15.872 16.896zM710.656 793.088c0 8.704-7.168 16.384-16.384 16.384h-48.64v48.64c0 8.704-7.168 16.384-16.384 16.384-8.704 0-16.384-7.168-16.384-16.384v-65.024c0-8.704 7.168-16.384 16.384-16.384h65.024c8.704 0 16.384 7.68 16.384 16.384zM647.68 648.704c0 8.704-7.168 16.384-16.384 16.384h-225.28c-8.704 0-16.384-7.168-16.384-16.384s7.168-16.384 16.384-16.384h225.792c8.704 0.512 15.872 7.68 15.872 16.384zM406.016 713.216h112.64c8.704 0 16.384 7.168 16.384 16.384 0 8.704-7.168 16.384-16.384 16.384h-112.64c-8.704 0-16.384-7.168-16.384-16.384 0.512-9.216 7.68-16.384 16.384-16.384zM180.736 278.016v-193.536c0-8.704 7.168-16.384 16.384-16.384s16.384 7.168 16.384 16.384v193.536c0 8.704-7.168 16.384-16.384 16.384s-16.384-7.168-16.384-16.384zM261.12 165.376v-80.384c0-8.704 7.168-16.384 16.384-16.384 8.704 0 16.384 7.168 16.384 16.384v80.384c0 8.704-7.168 16.384-16.384 16.384s-16.384-7.168-16.384-16.384zM373.76 294.4c-8.704 0-16.384-7.168-16.384-16.384v-193.536c0-8.704 7.168-16.384 16.384-16.384 8.704 0 16.384 7.168 16.384 16.384v193.536c0 9.216-7.168 16.384-16.384 16.384zM438.272 229.888v-144.896c0-8.704 7.168-16.384 16.384-16.384 8.704 0 16.384 7.168 16.384 16.384v144.896c0 8.704-7.168 16.384-16.384 16.384s-16.384-7.68-16.384-16.384zM550.912 568.32v-499.712h418.816v499.712h-418.816zM937.472 536.064v-112.64h-354.304v112.64h354.304zM808.96 100.864h-96.768v64.512h96.768v-64.512zM808.96 197.632h-96.768v80.384h96.768v-80.384zM679.936 278.016v-80.384h-96.768v80.384h96.768zM583.168 310.272v80.384h96.768v-80.384h-96.768zM712.192 310.272v80.384h96.768v-80.384h-96.768zM841.216 391.168h96.768v-80.384h-96.768v80.384zM583.168 165.376h96.768v-64.512h-96.768v64.512zM841.216 100.864v177.152h96.768v-177.152h-96.768z" />
<glyph unicode="&#xe931;" glyph-name="ic-folder" d="M1003.52 43.52h-983.040v802.816h436.224l119.808-119.808h427.008v-683.008zM44.032 67.072h935.936v635.904h-412.672l-120.32 120.32h-402.944v-756.224z" />
<glyph unicode="&#xe932;" glyph-name="ic-i-comment" d="M905.216 939.587h-786.432c-54.272-0.512-97.792-44.032-98.304-98.304v-884.736l196.608 196.608h688.128c54.272 0 98.304 44.032 98.304 98.304v589.824c-0.512 54.272-44.032 97.792-98.304 98.304zM905.216 251.459h-688.128l-98.304-98.304v688.128h786.432v-589.824zM476.16 437.827v143.36h-28.16l5.632 48.128h87.552v-191.488h-65.024zM471.040 659.523v49.152h70.656v-49.152h-70.656z" />
<glyph unicode="&#xe933;" glyph-name="ic-info" d="M512 939.52c-271.36 0-491.52-220.16-491.52-491.52s220.16-491.52 491.52-491.52c271.36 0 491.52 220.16 491.52 491.52s-220.16 491.52-491.52 491.52zM565.76 218.624h-74.752v268.8h-49.664l6.656 57.344h117.76v-326.144zM566.272 612.864h-81.92v61.952h81.92v-61.952z" />
<glyph unicode="&#xe934;" glyph-name="ic-instagram" d="M693.156 787.615h-361.984c-117.248 0-170.496-53.76-170.496-170.496v-362.496c0-117.248 53.76-170.496 170.496-170.496h361.984c117.248 0 170.496 53.76 170.496 170.496v362.496c0 116.736-53.248 170.496-170.496 170.496zM513.444 257.183c-95.744 0-173.568 77.824-173.568 173.568s77.824 173.568 173.568 173.568c95.744 0 173.568-77.824 173.568-173.568s-77.824-173.568-173.568-173.568v0zM697.252 575.135c-23.040 0-41.472 18.432-41.472 41.472s18.432 41.472 41.472 41.472c23.040 0 41.472-18.432 41.472-41.472s-18.944-41.472-41.472-41.472c0 0 0 0 0 0v0zM512.932 549.535c-65.536 0-118.272-53.248-118.272-118.272 0-65.536 53.248-118.272 118.272-118.272 65.536 0 118.272 53.248 118.272 118.272 0 65.536-52.736 118.272-118.272 118.272z" />
<glyph unicode="&#xe935;" glyph-name="ic-left" d="M400.896 446.464l373.76-366.592c27.648-27.136 28.16-71.168 1.024-98.304 0 0 0 0 0 0-27.136-27.136-71.168-27.648-98.816-1.024l-423.424 415.232c-26.624 26.112-27.648 68.608-3.072 96.256l417.28 425.984c27.136 27.648 71.168 28.16 98.816 1.024s28.16-71.168 1.024-98.816l-366.592-373.76z" />
<glyph unicode="&#xe936;" glyph-name="ic-line" d="M927.232 498.284c0.512-70.656-25.088-138.752-71.168-192-46.592-54.784-100.352-103.936-159.744-144.896-55.808-42.496-114.688-79.872-176.64-112.64-7.168-3.584-15.36-6.656-23.040-8.192-17.408-3.584-25.6 5.12-23.040 22.528s5.632 35.328 8.192 52.736c3.072 27.136-4.608 35.84-25.6 41.472-19.968 5.632-40.448 8.192-60.416 12.8-83.968 17.92-160.256 60.928-218.624 123.904-56.832 59.392-86.016 140.288-79.36 222.208 6.656 74.24 40.96 143.36 96.256 193.536 65.536 62.464 149.504 102.4 239.104 114.688 110.592 18.944 224.256-1.024 321.536-57.344 68.608-37.376 122.88-97.28 152.576-169.472 13.312-31.232 19.968-65.024 19.968-99.328zM591.872 469.612l-2.56-1.024c-2.56 3.072-5.12 5.632-7.168 8.704-20.992 28.16-43.008 55.808-62.464 85.504-7.68 14.848-24.576 22.528-40.96 19.968-10.752-1.536-13.312-2.56-13.312-13.824 0-29.696 0-59.904 0-89.6 0-25.6 0-51.712 0-77.312 0-11.264 1.536-12.8 13.312-13.312 5.632 0 10.752 0 16.384 0 11.776 0 12.8 1.024 12.8 12.288 0 29.696 0 59.904 0 89.6 0 3.584 0.512 7.168 1.024 10.752 4.096-2.56 7.68-5.632 10.24-9.728 20.992-28.16 42.496-55.296 61.952-84.48 7.68-13.824 23.040-21.504 38.4-18.944 13.824 1.536 14.848 1.024 14.848 14.848 0 54.784 0 109.568 0 163.84 0 1.536 0 3.072 0 4.608 0.512 5.12-2.56 9.728-7.68 10.24-1.024 0-2.048 0-3.072 0-6.144 0-12.288 0-17.92 0-11.264 0-12.8-1.536-12.8-12.8 0-29.696 0-58.88 0-88.576 0-3.584-0.512-7.168-1.024-10.752v0zM665.6 484.972c0-27.648 0-55.296 0-82.944 0-12.288 1.536-13.824 13.824-13.824 29.184 0 58.368 0 87.552 0 31.232 0 28.16-3.584 28.16 30.208 0 7.68-3.584 11.776-11.776 11.264-17.92 0-35.84 0-53.248 0-26.624 0-22.016-2.048-23.040 23.040-0.512 8.192 2.048 11.264 10.752 10.752 21.504-0.512 43.008 0 65.024 0 8.192 0 12.288 3.584 12.288 11.776 0 6.144 0 12.8 0 18.944 0 7.68-3.072 11.776-11.776 11.264-17.92-0.512-35.328 0-53.248 0-26.112 0.512-22.016-3.584-23.040 22.528-0.512 8.704 3.072 11.776 11.776 11.264 21.504-0.512 43.008 0 65.024 0 8.192 0 11.776 3.584 11.776 11.264 0 6.144 0 12.288 0 17.92-0.512 10.24-2.56 12.8-13.312 12.8-34.304 0-68.608 0-102.912 0-11.776 0-13.824-2.048-13.824-13.824 0-27.136 0-54.784 0-82.432v0zM235.52 484.972c0-28.16 0-56.832 0-84.992 0-6.656 1.024-11.264 9.216-11.264 36.864 0 73.728 0 110.592 0 6.656 0 9.216 3.584 8.704 9.728-0.512 6.656-0.512 13.312 0 19.968 0.512 8.704-3.072 11.776-11.776 11.776-20.48-0.512-41.472 0-61.952 0-12.8 0-13.312 0.512-13.824 13.312 0 36.864 0 73.728 0 110.592 0 31.744 2.56 27.648-28.16 28.16-11.776 0-13.312-1.536-13.312-13.312 0.512-28.16 0.512-56.32 0.512-83.968v0zM392.704 484.972c0-23.040 0-45.568 0-68.608 0.512-30.72-5.12-27.648 27.648-27.648 12.8 0 14.336 1.536 14.336 14.336 0 50.176 0 100.352 0 150.528 0 31.744 3.072 28.672-29.184 28.672-11.264 0-12.8-1.536-12.8-13.312 0-28.672 0-56.32 0-83.968v0z" />
<glyph unicode="&#xe937;" glyph-name="ic-mail" d="M1002.496 784.896c-0.512 2.56-0.512 4.608-1.536 7.168s-2.56 4.096-4.096 6.144c-1.024 1.024-1.024 2.56-2.048 3.584 0 0 0 0 0 0-3.584 3.584-8.704 6.144-13.824 7.68-2.56 0.512-5.12 1.536-7.68 1.536 0 0 0 0-0.512 0h-921.6c0 0 0 0-0.512 0-2.56 0-4.608-1.024-6.656-1.536-5.632-1.536-10.752-3.584-14.848-7.68 0 0 0 0 0 0-1.024-1.024-1.536-2.56-2.048-3.584-1.536-2.048-3.072-4.096-4.096-6.144s-1.024-4.608-1.536-7.168c0-1.536-1.024-3.072-1.024-4.608v-665.088c0-16.896 13.824-30.72 30.72-30.72h921.6c16.896 0 30.72 13.824 30.72 30.72v665.088c0 1.536-0.512 3.072-1.024 4.608zM897.024 749.568l-385.024-372.736-385.024 372.736h770.048zM81.92 145.92v562.176l408.576-395.776c6.144-5.632 13.824-8.704 21.504-8.704s15.36 3.072 21.504 8.704l408.576 395.776v-562.176h-860.16z" />
<glyph unicode="&#xe938;" glyph-name="ic-minus" d="M942.080 386.56h-860.16c-33.792 0-61.44 27.648-61.44 61.44s27.648 61.44 61.44 61.44h860.16c33.792 0 61.44-27.648 61.44-61.44s-27.648-61.44-61.44-61.44z" />
<glyph unicode="&#xe939;" glyph-name="ic-news" d="M1003.008 700.416c1.024 6.144-3.072 12.288-9.216 13.312l-842.24 148.48c-3.072 0.512-6.144 0-8.704-2.048-2.56-1.536-4.096-4.608-4.608-7.168l-28.672-162.304h-77.312c-6.144 0-11.264-5.12-11.264-11.264v-628.224c0-6.144 5.12-11.264 11.264-11.264h855.040c6.144 0 11.264 5.12 11.264 11.264v55.296l104.448 593.92zM159.232 837.632l819.712-144.384-80.384-455.168v441.344c0 6.144-5.12 11.264-11.264 11.264h-754.176l26.112 146.944zM875.52 62.464h-832v605.184h832v-605.184zM801.28 365.056h-293.888c-6.144 0-11.264-5.12-11.264-11.264s5.12-11.264 11.264-11.264h293.888c6.144 0 11.264 5.12 11.264 11.264 0.512 6.144-4.608 11.264-11.264 11.264zM411.648 365.056h-293.888c-6.144 0-11.264-5.12-11.264-11.264s5.12-11.264 11.264-11.264h293.888c6.144 0 11.264 5.12 11.264 11.264 0.512 6.144-4.608 11.264-11.264 11.264zM801.28 289.28h-293.888c-6.144 0-11.264-5.12-11.264-11.264s5.12-11.264 11.264-11.264h293.888c6.144 0 11.264 5.12 11.264 11.264 0.512 6.144-4.608 11.264-11.264 11.264zM411.648 289.28h-293.888c-6.144 0-11.264-5.12-11.264-11.264s5.12-11.264 11.264-11.264h293.888c6.144 0 11.264 5.12 11.264 11.264 0.512 6.144-4.608 11.264-11.264 11.264zM801.28 214.016h-293.888c-6.144 0-11.264-5.12-11.264-11.264s5.12-11.264 11.264-11.264h293.888c6.144 0 11.264 5.12 11.264 11.264 0.512 6.144-4.608 11.264-11.264 11.264zM411.648 214.016h-293.888c-6.144 0-11.264-5.12-11.264-11.264s5.12-11.264 11.264-11.264h293.888c6.144 0 11.264 5.12 11.264 11.264 0.512 6.144-4.608 11.264-11.264 11.264zM115.2 417.792h689.152c6.144 0 11.264 5.12 11.264 11.264v157.184c0 6.144-5.12 11.264-11.264 11.264h-689.152c-6.144 0-11.264-5.12-11.264-11.264v-156.672c-0.512-6.656 4.608-11.776 11.264-11.776zM126.464 574.976h666.112v-134.144h-666.112v134.144z" />
<glyph unicode="&#xe93a;" glyph-name="ic-note" d="M20.48 742.912v-688.128c0-54.272 44.032-98.304 98.304-98.304h688.128v98.304h-688.128v688.128h-98.304zM905.216 153.088c54.272 0 98.304 44.032 98.304 98.304v589.824c0 54.272-44.032 98.304-98.304 98.304h-589.824c-54.272 0-98.304-44.032-98.304-98.304v-589.824c0-54.272 44.032-98.304 98.304-98.304h589.824zM659.456 841.216h245.76v-393.216l-122.88 73.728-122.88-73.728v393.216z" />
<glyph unicode="&#xe93b;" glyph-name="ic-o-service1" d="M254.807 585.032h512c8.192 0 14.848 6.656 14.848 14.848s-6.656 14.848-14.848 14.848v0h-512c-8.192 0-14.848-6.656-14.848-14.848s6.656-14.848 14.848-14.848zM254.807 481.096h512c8.192 0 14.848 6.656 14.848 14.848s-6.656 14.848-14.848 14.848h-512c-8.192 0-14.848-6.656-14.848-14.848s6.656-14.848 14.848-14.848zM254.807 683.848h512c8.192 0 14.848 6.656 14.848 14.848s-6.656 14.848-14.848 14.848h-512c-8.192 0-14.848-6.656-14.848-14.848s6.656-14.848 14.848-14.848zM874.327 886.6h-724.992c-9.728 0-17.408-8.192-17.408-17.92v-843.264c0-9.728 7.68-17.92 17.408-17.92h724.992c9.728 0 17.408 7.68 17.408 17.92v843.264c0.512 9.728-7.68 17.92-17.408 17.92zM862.551 37.704h-700.928v819.2h700.928v-819.2zM512.225 106.25c-83.456 0-151.552 67.584-151.552 151.552s67.584 151.552 151.552 151.552c83.456 0 151.552-67.584 151.552-151.552-0.512-83.456-68.096-151.040-151.552-151.552zM512.225 385.29c-70.144 0-127.488-56.832-127.488-127.488s56.832-127.488 127.488-127.488 127.488 56.832 127.488 127.488v0c-0.512 70.656-57.344 127.488-127.488 127.488zM494.387 194.447l-59.392 59.392 16.896 16.896 42.496-42.496 84.48 84.48 16.896-16.896-101.376-101.376z" />
<glyph unicode="&#xe93c;" glyph-name="ic-o-service2" d="M869.289 719.785c-133.12-3.584-261.12 53.248-347.648 155.136 0 0-0.512 0.512-0.512 0.512s-0.512 0.512-0.512 0.512-0.512 0-0.512 0.512c-0.512 0.512-0.512 0.512-1.024 1.024-0.512 0-0.512 0.512-1.024 0.512s-0.512 0.512-1.024 0.512c-0.512 0-0.512 0.512-1.024 0.512s-0.512 0-1.024 0.512c-0.512 0-1.024 0-1.024 0-0.512 0-1.024 0-1.024 0-0.512 0-1.024 0-1.024 0-0.512 0-1.024 0-1.024 0-0.512 0-1.024 0-1.024-0.512-0.512 0-0.512 0-1.024-0.512-0.512 0-0.512-0.512-1.024-0.512s-0.512-0.512-1.024-0.512c-0.512 0-0.512-0.512-1.024-0.512 0 0-0.512 0-0.512-0.512 0 0-0.512-0.512-0.512-0.512s-0.512-0.512-0.512-0.512c-86.528-101.376-214.528-158.208-347.648-155.136-7.168 0-12.8-5.632-12.8-12.8v0-325.632c0-158.72 195.072-269.312 324.096-342.016 13.824-7.68 27.136-15.36 38.912-22.016v0c0.512 0 0.512-0.512 1.024-0.512h0.512l0.512-0.512c0.512 0 0.512 0 1.024-0.512v0c1.024-0.512 2.048-0.512 3.072-0.512v0c1.024 0 2.048 0 3.072 0.512v0c0.512 0 0.512 0 1.024 0.512l0.512 0.512h0.512c0.512 0 0.512 0.512 1.024 0.512v0c11.776 7.168 25.088 14.336 38.912 22.016 129.024 73.216 324.096 183.296 324.096 342.016v325.632c-0.512 6.656-6.144 12.288-12.8 12.288zM856.489 381.865c0-144.384-187.392-250.368-311.296-320.512-11.776-6.656-22.528-12.8-32.768-18.944-10.24 6.144-21.504 12.288-32.768 18.944-123.904 70.144-311.296 176.128-311.296 320.512v312.832c131.072-0.512 256.512 55.296 344.576 153.088 88.064-97.792 212.992-153.088 344.576-153.088l-1.024-312.832zM277.929 437.673c0-129.536 104.96-234.496 234.496-234.496s234.496 104.96 234.496 234.496-104.96 234.496-234.496 234.496c-129.536-0.512-234.496-104.96-234.496-234.496zM721.321 437.673c0-115.712-93.696-208.896-208.896-208.896-115.712 0-208.896 93.696-208.896 208.896 0 115.712 93.696 208.896 208.896 208.896 0 0 0 0 0 0 115.2 0 208.384-93.696 208.896-208.896zM497.065 594.345v-28.672c-44.544-4.096-74.24-30.208-74.24-66.56 0-35.84 28.672-64 74.24-73.728v-93.696c-25.6 3.072-49.152 16.384-49.152 41.472 0 7.168-5.632 12.288-12.8 12.288v0c-7.168 0-12.288-5.632-12.288-12.8 0-36.352 30.208-62.464 74.752-66.56v-5.632c0-0.512 0-0.512 0-1.024v-22.016c0-7.168 5.632-12.8 12.8-12.8s12.8 5.632 12.8 12.8v28.672c17.408 1.024 34.304 7.168 48.64 17.408 16.384 11.264 25.6 29.696 26.112 49.664 0 35.84-28.672 64-74.752 73.728v93.696c25.6-3.072 49.152-16.384 49.664-41.472 0-7.168 5.632-12.288 12.8-12.288v0c7.168 0 12.288 5.632 12.288 12.8 0 36.352-30.208 62.464-74.752 66.56v28.672c0 7.168-5.632 12.8-12.8 12.8s-13.312-6.144-13.312-13.312v0zM447.913 498.601c0 22.016 19.968 37.888 49.152 41.472v-89.088c-30.72 7.68-49.152 25.6-49.152 47.616v0zM571.817 373.161c0-11.776-6.144-22.528-15.872-29.184-10.24-6.656-21.504-11.264-33.792-12.288v89.088c31.232-7.68 49.664-25.6 49.664-47.616v0z" />
<glyph unicode="&#xe93d;" glyph-name="ic-o-service3" d="M929.792 138.24h-819.712v633.856c0 8.704-7.168 15.872-15.872 15.872s-15.872-7.168-15.872-15.872v-649.728c0-8.704 7.168-15.872 15.872-15.872h835.584c8.704 0 15.872 7.168 15.872 15.872s-7.168 15.872-15.872 15.872c0 0 0 0 0 0zM203.776 177.152c8.704 0 15.872 7.168 15.872 15.872v166.4c0 8.704-7.168 15.872-15.872 15.872s-15.872-7.168-15.872-15.872c0 0 0 0 0 0v-166.4c0-8.704 7.168-15.872 15.872-15.872 0 0 0 0 0 0zM349.184 324.096v-131.072c0-8.704 7.168-15.872 15.872-15.872s15.872 7.168 15.872 15.872c0 0 0 0 0 0v131.072c0 8.704-7.168 15.872-15.872 15.872s-15.872-6.656-15.872-15.872c0 0 0 0 0 0zM510.464 412.672v-219.648c0-8.704 7.168-15.872 15.872-15.872s15.872 7.168 15.872 15.872c0 0 0 0 0 0v219.648c0 8.704-7.168 15.872-15.872 15.872s-15.872-7.168-15.872-15.872c0 0 0 0 0 0zM687.104 357.888c-8.704 0-15.872-7.168-15.872-15.872v-148.48c0-8.704 7.168-15.872 15.872-15.872s15.872 7.168 15.872 15.872c0 0 0 0 0 0v148.48c0 8.704-7.168 15.872-15.872 15.872 0 0 0 0 0 0v0zM848.384 517.12c-8.704 0-15.872-7.168-15.872-15.872v-307.712c0-8.704 7.168-15.872 15.872-15.872s15.872 7.168 15.872 15.872c0 0 0 0 0 0v307.712c0 8.704-7.168 15.872-15.872 15.872 0 0 0 0 0 0v0zM200.704 432.64l161.28-37.376c4.096-1.024 8.704 0 12.288 2.048l152.576 102.4 152.576-93.696c6.656-4.096 15.36-2.56 20.48 3.072l153.088 180.224-1.536-11.264c-1.536-8.704 4.608-16.896 13.312-17.92 1.024 0 1.536 0 2.56 0 7.68 0 14.336 5.632 15.872 13.312l10.24 68.096c0 0 0 0.512 0 0.512s0 0.512 0 1.024c0 0.512 0 0.512 0 0.512s0 0.512 0 1.024c0 0.512 0 0.512 0 1.024s0 0.512 0 0.512 0 0.512 0 1.024c0 0.512 0 0.512 0 0.512s0 0.512-0.512 1.024c0 0.512 0 0 0 0.512v0c0 0.512 0 0.512-0.512 1.024v0.512c0 0 0 0.512-0.512 0.512 0 0 0 0.512-0.512 0.512l-0.512 0.512c0 0.512-0.512 0.512-0.512 1.024v0.512c0 0.512-0.512 0.512-0.512 1.024v0c-0.512 0.512-0.512 0.512-1.024 1.024l-1.024 1.024c-0.512 0-0.512 0.512-1.024 0.512l-0.512 0.512c-0.512 0-0.512 0.512-1.024 0.512h-0.512c-0.512 0-0.512 0.512-1.024 0.512h-1.024l-1.024 0.512h-8.704c-0.512 0-0.512 0-1.024-0.512h-0.512l-65.024-22.016c-8.192-2.56-12.8-11.776-10.24-19.968s11.776-12.8 19.968-10.24c0 0 0 0 0.512 0l11.776 4.096-144.896-169.984-149.504 92.16c-5.12 3.072-12.288 3.072-17.408-0.512l-155.136-103.936-154.112 35.84c-8.704 2.048-16.896-3.584-18.944-12.288-1.024-9.216 4.096-17.408 12.288-19.456v0z" />
<glyph unicode="&#xe93e;" glyph-name="ic-o-service4" d="M986.865 611.697h-949.76c-9.216 0-16.384-7.168-16.384-16.384v-524.8c0-9.216 7.168-16.384 16.384-16.384h949.76c9.216 0 16.384 7.168 16.384 16.384v524.8c0 9.216-7.168 16.384-16.384 16.384zM47.857 398.193c100.352 5.632 180.736 85.504 187.392 185.856h553.472c6.144-100.352 86.528-180.224 187.392-185.856v-131.072c-100.352-5.632-180.736-85.504-187.392-185.856h-553.472c-6.656 100.352-87.040 179.712-187.392 185.856v131.072zM976.113 425.841c-85.504 5.632-153.6 73.216-159.744 158.72h159.744v-158.72zM207.601 584.561c-6.144-85.504-74.24-153.088-159.744-158.72v158.72h159.744zM47.857 239.985c85.504-5.632 153.6-73.216 159.744-158.208h-159.744v158.208zM816.369 81.777c6.656 84.992 74.752 152.576 159.744 158.208v-158.208h-159.744zM512.241 118.641c102.912 0 186.368 96.256 186.368 214.528s-83.456 214.528-186.368 214.528c-102.912 0-186.368-96.256-186.368-214.528s83.456-214.528 186.368-214.528zM512.241 520.049c87.552 0 159.232-83.968 159.232-186.88s-71.168-186.88-159.232-186.88c-87.552 0-159.232 83.968-159.232 186.88s71.168 186.88 159.232 186.88v0zM460.529 274.801c0 7.68-6.144 13.824-13.824 13.824s-13.824-6.144-13.824-13.824c0-32.256 26.112-55.808 65.024-60.416v-2.56c0-0.512 0-0.512 0-0.512v-19.456c0-7.68 6.144-13.824 13.824-13.824s13.824 6.144 13.824 13.824v0 22.528c38.912 4.608 65.024 28.16 65.024 60.416s-25.088 57.344-65.024 66.048v76.288c19.968-3.072 37.376-13.824 37.888-33.28 0-7.68 6.144-13.824 13.824-13.824v0c7.68 0 13.824 6.144 13.824 13.824 0 32.256-26.112 56.32-65.024 60.416v22.528c0 7.68-6.144 13.824-13.824 13.824s-13.824-6.144-13.824-13.824v-22.528c-38.912-4.608-65.024-28.16-65.024-60.416s25.088-57.344 65.024-66.048v-76.288c-19.968 3.584-37.888 13.824-37.888 33.28zM563.441 274.801c0-16.896-14.848-29.184-37.376-32.768v71.168c23.040-7.168 37.376-20.992 37.376-38.4v0zM460.529 384.369c0 16.896 14.848 29.184 37.376 32.768v-71.168c-23.040 7.168-37.376 20.992-37.376 38.4v0zM80.113 660.849h863.744c7.68 0 13.824 6.144 13.824 13.824s-6.144 13.824-13.824 13.824h-863.744c-7.68 0-13.824-6.144-13.824-13.824s6.144-13.824 13.824-13.824zM109.297 736.625h804.864c7.68 0 13.824 6.144 13.824 13.824s-6.144 13.824-13.824 13.824v0h-804.864c-7.68 0-13.824-6.144-13.824-13.824s6.656-13.824 13.824-13.824zM152.817 812.913h717.824c7.68 0 13.824 6.144 13.824 13.824s-6.144 13.824-13.824 13.824h-717.824c-7.68 0-13.824-6.144-13.824-13.824 0.512-7.68 6.656-13.824 13.824-13.824z" />
<glyph unicode="&#xe93f;" glyph-name="ic-pause" d="M635.904 939.52h256.512v-983.040h-256.512v983.040zM122.88 939.52h256.512v-983.040h-256.512v983.040z" />
<glyph unicode="&#xe940;" glyph-name="ic-play" d="M117.76 910.848v-928.768c-0.512-13.312 9.216-24.576 22.528-25.088 4.608-0.512 9.216 1.024 13.312 3.072l736.256 464.384c12.288 8.192 15.36 24.576 7.168 36.352-2.048 3.072-4.608 5.632-7.168 7.168l-736.256 464.896c-11.264 6.656-25.6 3.072-32.256-8.192-2.56-4.096-3.584-9.216-3.584-13.824z" />
<glyph unicode="&#xe941;" glyph-name="ic-plus" d="M942.080 509.44h-368.64v368.64c0 33.792-27.648 61.44-61.44 61.44s-61.44-27.648-61.44-61.44v-368.64h-368.64c-33.792 0-61.44-27.648-61.44-61.44s27.648-61.44 61.44-61.44h368.64v-368.64c0-33.792 27.648-61.44 61.44-61.44s61.44 27.648 61.44 61.44v368.64h368.64c33.792 0 61.44 27.648 61.44 61.44s-27.648 61.44-61.44 61.44z" />
<glyph unicode="&#xe942;" glyph-name="ic-printer" d="M984.576 651.264h-170.496v265.216c0 10.24-8.192 18.944-18.944 18.944h-566.784c-10.24 0-18.944-8.192-18.944-18.944v-264.704h-169.984c-10.24 0-18.944-8.192-18.944-18.944v-415.744c0-10.24 8.192-18.944 18.944-18.944h170.496v-217.6c0-10.24 8.192-18.944 18.944-18.944h567.296c10.24 0 18.944 8.192 18.944 18.944v217.6h170.496c10.24 0 18.944 8.192 18.944 18.944v415.744c-1.024 10.24-9.728 18.432-19.968 18.432zM247.296 897.536h529.92v-246.272h-529.92v246.272zM776.704-1.024h-529.408v435.2h529.92v-435.2zM966.144 235.52h-152.064v217.6c0 10.24-8.192 18.944-18.944 18.944h-566.784c-10.24 0-18.944-8.192-18.944-18.944v-217.6h-151.552v378.368h908.288v-378.368z" />
<glyph unicode="&#xe943;" glyph-name="ic-refresh" d="M1004.032 449.024c0.512-271.36-219.136-492.032-490.496-492.544-112.64 0-221.696 38.4-309.248 109.056-20.48 16.384-23.552 46.592-7.168 67.072 1.024 1.024 2.048 2.56 3.072 3.584l22.528 22.528c16.896 16.896 44.032 18.944 62.976 4.096 157.696-124.928 387.072-98.816 512.512 59.392s98.816 387.072-59.392 512.512c-141.824 112.128-344.576 103.936-476.16-19.968l100.352-100.352c12.288-12.288 12.288-32.256 0-45.056-6.144-6.144-13.824-9.216-22.528-9.216h-288.256c-17.408 0-31.744 14.336-31.744 31.744v0 287.232c0 17.408 14.336 31.744 31.744 31.744 8.192 0 16.384-3.584 22.528-9.216l98.304-98.304c196.096 187.392 507.392 180.224 694.784-15.872 87.040-91.136 135.68-212.48 136.192-338.432z" />
<glyph unicode="&#xe944;" glyph-name="ic-refresh-time" d="M1004.032 449.024c0.512-271.36-219.136-492.032-490.496-492.544-112.64 0-221.696 38.4-309.248 109.056-20.48 16.384-23.552 46.592-7.168 67.072 1.024 1.024 2.048 2.56 3.072 3.584l22.528 22.528c16.896 16.896 44.032 18.944 62.976 4.096 157.696-124.928 387.072-98.816 512.512 59.392s98.816 387.072-59.392 512.512c-141.824 112.128-344.576 103.936-476.16-19.968l100.352-100.352c12.288-12.288 12.288-32.256 0-45.056-6.144-6.144-13.824-9.216-22.528-9.216h-288.256c-17.408 0-31.744 14.336-31.744 31.744v0 287.232c0 17.408 14.336 31.744 31.744 31.744 8.192 0 16.384-3.584 22.528-9.216l98.304-98.304c196.096 187.392 507.392 180.224 694.784-15.872 87.040-91.136 135.68-212.48 136.192-338.432zM645.12 292.864l19.456 25.088c16.384 20.48 12.288 50.688-8.192 66.56 0 0 0 0 0 0l-80.896 62.464v207.36c0 26.112-21.504 47.616-47.616 47.616 0 0 0 0 0 0h-31.232c-26.112 0-47.616-21.504-47.616-47.616v-268.8l129.536-100.864c20.48-16.384 50.688-12.8 66.56 8.192z" />
<glyph unicode="&#xe945;" glyph-name="ic-right" d="M623.104 449.536l-373.76 366.592c-27.648 27.136-28.16 71.168-1.024 98.304 0 0 0 0 0 0 27.136 27.136 71.168 27.648 98.816 1.024l423.424-415.232c26.624-26.112 27.648-68.608 3.072-96.256l-417.28-425.984c-27.136-27.648-71.168-28.16-98.816-1.024s-28.16 71.168-1.024 98.816l366.592 373.76z" />
<glyph unicode="&#xe946;" glyph-name="ic-search" d="M984.064 71.168l-201.216 201.216c50.176 69.12 79.872 154.112 79.872 246.272v0c0 231.936-188.928 420.864-421.376 420.864-231.936 0-420.864-188.928-420.864-420.864s188.928-420.864 420.864-420.864c92.16 0 176.64 30.208 246.272 80.384l201.216-201.216c13.312-13.312 30.208-19.456 47.616-19.456 16.896 0 34.304 6.656 47.616 19.456 26.112 25.6 26.112 68.096 0 94.208zM728.576 518.656c0-158.208-128.512-286.72-286.72-286.72s-286.72 128.512-286.72 286.72c0 158.208 128.512 286.72 287.232 286.72 76.8 0 148.48-29.696 202.752-83.968 53.76-54.272 83.456-126.464 83.456-202.752 0 0 0 0 0 0z" />
<glyph unicode="&#xe947;" glyph-name="ic-service1" d="M642.56 484.864v96.768c0 1.024 0 1.536-0.512 2.56 0 1.536 0.512 3.072 0.512 4.608v222.72c0 0 0 0.512 0 0.512 0 0.512 0 1.536 0 2.048 0 26.112-26.624 48.64-76.8 64.512-110.080 29.696-225.792 29.696-335.36 0-50.176-15.872-76.8-38.4-76.8-64.512 0-0.512 0-1.536 0-2.048 0 0 0-0.512 0-0.512v-222.72c0-1.536 0-3.072 0.512-4.608 0-1.024-0.512-1.536-0.512-2.56v-328.704c0-54.784 116.224-84.992 232.96-86.528 41.472-128.512 179.2-198.656 307.712-157.184s198.656 179.2 157.184 307.712c-29.696 92.672-111.616 158.72-208.896 167.936zM398.336 876.032v0c135.68 0 219.136-35.84 219.136-61.44s-83.456-61.44-219.136-61.44-219.136 35.84-219.136 61.44 82.944 61.44 219.136 61.44zM178.688 773.632c15.872-10.24 33.28-18.432 51.712-24.064 110.080-29.696 225.792-29.696 335.36 0 18.432 5.12 35.84 13.312 51.712 24.064v-68.608c0-25.6-83.456-61.44-219.136-61.44s-219.136 35.84-219.136 61.44v68.608zM178.688 665.088c15.872-10.752 33.28-18.944 51.712-24.064 51.2-14.848 103.936-22.528 157.184-22.016 3.584 0 7.168 0 10.752 0s7.168 0 10.752 0c53.248 0 105.984 7.168 157.184 22.016 18.432 5.12 35.84 13.312 51.712 24.064v-75.776c0-25.6-83.456-61.44-219.136-61.44s-219.136 35.84-219.136 61.44v75.776zM448 415.744c-16.384-1.024-33.28-1.536-50.176-1.536-135.68 0-219.136 35.84-219.136 61.44v73.216c15.872-10.752 33.28-18.944 51.712-24.064 110.080-29.696 225.792-29.696 335.36 0 18.432 5.12 35.84 13.312 51.712 24.064v-62.976c-63.488-0.512-124.416-25.6-169.472-70.144v0zM178.688 252.928v0 66.048c38.912-28.16 118.272-44.032 198.144-46.080-3.584-27.136-2.56-54.784 3.072-81.408-124.928 3.072-201.216 37.376-201.216 61.44zM381.44 297.984c-125.952 3.072-202.752 37.376-202.752 61.44v75.776c15.872-10.752 33.28-18.944 51.712-24.064 54.272-15.872 111.104-23.040 167.936-22.528 8.704 0 17.92 0 26.624 0.512-20.48-27.136-35.328-57.856-43.52-91.136zM619.52 22.016c-121.344 0-219.136 98.304-219.136 219.136 0 121.344 98.304 219.136 219.136 219.136 121.344 0 219.136-98.304 219.136-219.136s-98.304-218.624-219.136-219.136zM688.128 310.272c0-6.656 5.632-12.288 12.8-12.288s12.288 5.632 12.288 12.8c0 39.424-33.28 67.584-81.408 71.68v32.768c0 7.168-5.632 12.8-12.8 12.8s-12.8-5.632-12.8-12.8v-32.768c-48.64-4.096-81.408-32.768-81.408-71.68s31.232-69.12 81.408-79.36v-104.96c-29.184 3.072-56.32 18.432-56.32 46.592 0 6.656-5.632 12.288-12.288 12.288-7.168 0-12.288-5.632-12.288-12.8 0-39.424 33.28-67.584 81.408-71.68v-7.168c0-0.512 0-0.512 0-1.024v-24.064c0-7.168 5.632-12.8 12.8-12.8s12.8 5.632 12.8 12.8v31.232c0 0.512 0 0.512 0 1.024v0.512c19.456 1.024 37.888 7.68 53.76 18.944 17.408 12.288 27.648 31.744 27.648 53.248 0 38.912-31.232 69.12-81.408 79.36v104.96c28.672-4.608 55.808-19.456 55.808-47.616zM606.72 256.512c-35.328 8.192-56.32 28.16-56.32 53.76 0 25.088 22.528 43.008 56.32 46.592v-100.352zM688.128 172.544v0c0-13.312-6.656-25.6-17.408-33.28-11.264-7.68-25.088-12.288-38.912-13.824v100.352c35.328-7.68 56.32-27.648 56.32-53.248z" />
<glyph unicode="&#xe948;" glyph-name="ic-service2" d="M614.4 590.336c5.632 6.144 8.704 13.824 8.704 22.528v1.536c0 13.824-8.704 26.624-22.016 31.232 36.352 37.376 62.464 83.968 75.264 134.656 0 1.024 0.512 1.536 0.512 2.56 0 29.696-69.12 31.232-81.408 31.232-6.144 25.6-72.704 26.624-86.528 26.624s-80.384-1.536-86.528-26.624c-12.288 0-81.408-2.048-81.408-31.232 0-1.024 0-1.536 0-2.56 12.8-50.688 38.912-97.28 75.264-134.656-13.312-4.608-22.528-16.896-22.528-31.232v-1.536c0-8.192 3.072-16.384 8.704-22.528-58.88-35.84-111.104-82.432-152.576-137.216-51.2-67.072-79.872-133.632-79.872-187.904 0-77.312 37.888-134.144 112.64-168.96 55.808-26.112 131.584-38.912 225.792-38.912s169.472 13.312 225.792 38.912c74.752 34.816 112.64 91.648 112.64 168.96 0 54.272-28.16 121.344-79.872 187.904-41.472 55.296-93.696 101.888-152.576 137.216zM363.52 781.312c18.944 8.192 39.424 12.288 59.904 10.752 0.512 0 1.024 0 1.536 0 5.632-30.208 16.384-58.88 31.232-86.016 2.56-5.632 8.704-8.192 14.336-5.632s8.192 8.704 5.632 14.336c0 0.512-0.512 1.024-0.512 1.536-15.872 28.672-26.112 59.904-31.232 92.16 41.984 13.824 87.552 13.824 129.536 0-4.608-32.256-15.36-63.488-31.232-92.16-3.072-5.12-1.536-11.776 3.584-14.848s11.776-1.536 14.848 3.584c0 0.512 0.512 1.024 0.512 1.536 14.848 26.624 25.088 55.808 31.232 86.016 0.512 0 1.024 0 1.536 0 20.48 1.536 41.472-2.048 59.904-10.752-13.824-51.712-42.496-97.792-82.432-133.632-0.512-0.512-0.512-0.512-1.024-1.024h-124.416c-0.512 0.512-0.512 0.512-1.024 1.024-39.424 35.328-68.096 81.92-81.92 133.12zM416.256 614.4c0 6.144 5.12 10.752 10.752 10.752h163.328c6.144 0 10.752-5.12 10.752-10.752v-1.536c0-6.144-5.12-10.752-10.752-10.752h-163.328c-6.144 0-10.752 5.12-10.752 10.752v1.536zM508.928 78.848v0c-144.384 0-316.416 32.256-316.416 186.368 0 99.84 114.688 252.416 237.056 314.88h158.72c122.368-62.976 237.056-215.040 237.056-314.88-0.512-154.112-172.544-186.368-316.416-186.368zM576.512 380.416c0-6.144 5.12-10.752 10.752-10.752 6.144 0 10.752 5.12 10.752 10.752 0 37.376-31.744 64.512-78.336 68.096v32.256c0 6.144-4.608 11.264-10.752 11.264s-11.264-4.608-11.264-10.752c0 0 0-0.512 0-0.512v-32.256c-46.592-3.584-78.336-30.72-78.336-68.096 0-36.864 30.208-66.048 78.336-75.264v-103.424c-28.672 3.072-56.32 17.408-56.832 46.080 0 6.144-5.12 10.752-10.752 10.752-6.144 0-10.752-5.12-10.752-10.752 0-37.376 31.744-64.512 78.336-68.096v-8.192c0-0.512 0-0.512 0-1.024v-23.552c0-6.144 4.608-11.264 10.752-11.264s11.264 4.608 11.264 10.752c0 0 0 0.512 0 0.512v30.208c0 0.512 0 0.512 0 1.024v1.536c18.944 1.024 36.864 7.168 52.224 17.92 16.384 11.264 26.112 30.208 26.112 50.176 0 36.864-30.208 66.048-78.336 75.264v102.912c29.184-2.048 56.832-16.896 56.832-45.568zM497.664 327.168c-35.328 8.192-56.832 27.648-56.32 53.248 0 25.088 22.528 43.008 56.32 46.080v-99.328zM576.512 248.32c0-13.312-6.656-25.088-17.408-32.768-11.776-7.68-25.088-12.8-38.912-13.312v99.328c34.816-8.192 56.32-28.16 56.32-53.248z" />
<glyph unicode="&#xe949;" glyph-name="ic-service3" d="M770.048 451.072c0 144.384-117.248 261.632-261.632 261.632s-261.12-117.248-261.12-261.632c0-144.384 117.248-261.632 261.632-261.632s261.12 117.248 261.12 261.632zM273.92 451.072c0 129.536 104.96 235.008 235.008 235.008 129.536 0 235.008-104.96 235.008-235.008 0-129.536-104.96-235.008-235.008-235.008-130.048 0.512-235.008 105.472-235.008 235.008zM911.872 461.312c-7.168 0-13.312-6.144-13.312-13.312 0-204.288-157.696-373.76-361.472-388.608l53.76 53.76c5.12 5.632 4.608 13.824-0.512 18.944-5.12 4.608-13.312 4.608-18.432 0l-75.264-75.776c-5.12-5.12-5.12-13.824 0-18.944 0 0 0 0 0 0l75.264-75.264c5.12-5.12 13.824-4.608 18.944 0.512 4.608 5.12 4.608 13.312 0 18.432l-51.2 51.2c217.6 16.384 385.536 197.632 385.536 415.232 0 7.68-5.632 13.824-13.312 13.824zM423.936 784.896c-5.12-5.12-5.632-13.312-0.512-18.944 5.12-5.12 13.312-5.632 18.944-0.512 0 0 0.512 0.512 0.512 0.512l75.264 75.264c0.512 0.512 1.024 1.024 1.536 2.048 0 0 0 0.512 0.512 0.512 0.512 0.512 0.512 1.024 1.024 1.536 0 0.512 0 0.512 0.512 1.024 0 0.512 0.512 1.024 0.512 1.536 0.512 1.536 0.512 3.584 0 5.12 0 0.512-0.512 1.024-0.512 1.536s0 0.512-0.512 1.024c0 0.512-0.512 1.024-1.024 1.536 0 0 0 0.512-0.512 0.512-0.512 0.512-1.024 1.024-1.536 2.048v0l-75.264 76.288c-5.12 5.12-13.824 4.608-18.944-0.512-4.608-5.12-4.608-13.312 0-18.432l53.76-53.76c-217.088-16.384-385.024-197.632-385.536-415.232 0-7.168 6.144-13.312 13.312-13.312s13.312 6.144 13.312 13.312c0 202.24 154.624 370.688 355.84 388.096l-50.688-51.2zM519.68 271.36c0 0 0 0 0 0v0 32.256c0 0.512 0 0.512 0 1.024 19.456 1.024 38.4 7.68 54.784 19.456 17.92 12.288 28.672 32.768 28.672 54.784 0 39.936-32.256 71.168-83.456 81.92v105.984c29.184-3.584 56.832-18.432 56.832-47.104 0-7.168 6.144-13.312 13.312-13.312s13.312 6.144 13.312 13.312c0 40.448-33.792 69.632-83.456 74.24v32.768c0 7.168-6.144 13.312-13.312 13.312s-13.312-6.144-13.312-13.312v-32.768c-49.664-4.608-83.456-33.792-83.456-74.24 0-39.936 32.256-71.168 83.456-81.92v-106.496c-29.184 3.584-56.32 18.432-56.832 47.104 0 7.168-6.144 13.312-13.312 13.312s-13.312-6.144-13.312-13.312c0 0 0 0 0 0 0-40.448 33.792-69.632 83.456-74.24v-7.168c0-0.512 0-0.512 0-1.024v-25.088c0-7.168 6.144-13.312 13.312-13.312 7.168 0.512 13.312 6.656 13.312 13.824zM519.168 433.152c35.328-8.704 56.832-28.672 56.832-54.272 0-13.312-6.656-25.6-17.92-33.28-11.776-7.68-25.088-12.8-38.912-13.824v101.376zM492.544 465.408c-35.328 8.192-56.832 28.16-56.32 54.272v0c0 25.088 22.528 43.52 56.832 47.104v-101.376z" />
<glyph unicode="&#xe94a;" glyph-name="ic-service4" d="M735.744 309.248l157.696 98.816v26.112l-157.696-99.328zM593.92 760.832l257.536-146.432-115.712-72.704v-26.112l157.184 99.84-293.888 167.936c-3.584 2.048-7.68 2.048-11.264-0.512l-179.2-112.64-0.512-0.512-89.088-56.32-195.072-122.88 300.032-170.496 136.704 85.504v25.6l-136.192-85.504-257.536 146.432 158.208 99.84 267.776-152.064v-219.648l111.616 69.632v218.624l-268.8 153.088 158.208 99.328zM682.496 301.568l-68.096-42.496v180.736l68.096 43.52v-181.76zM672.256 501.76l-69.12-43.008-257.024 145.92 68.608 43.52 257.536-146.432zM735.744 447.488l157.696 98.816v25.6l-157.696-99.328zM735.744 378.368l157.696 98.816v25.6l-157.696-98.816zM124.416 309.248v-25.6l300.544-169.984 136.192 85.504v26.112l-136.704-86.528zM124.416 446.976v-24.576l300.544-171.008 136.192 86.016v25.6l-136.704-86.528zM124.416 378.368v-25.088l300.544-171.008 136.192 86.016v25.6l-136.704-86.016z" />
<glyph unicode="&#xe94b;" glyph-name="ic-cricle-arrow-right" d="M512-43.52c-270.848 0-491.52 220.672-491.52 491.52s220.672 491.52 491.52 491.52 491.52-220.672 491.52-491.52-220.672-491.52-491.52-491.52zM512 906.752c-252.928 0-458.752-205.824-458.752-458.752s205.824-458.752 458.752-458.752 458.752 205.824 458.752 458.752-205.824 458.752-458.752 458.752zM573.44 576.911c-7.68-7.68-7.68-19.456 0-27.136l89.6-89.6h-340.992c-10.752 0-18.944-8.704-18.944-18.944s8.704-18.944 18.944-18.944h340.992l-89.6-90.624c-7.168-7.68-7.168-19.456 0-27.136 7.68-7.68 19.456-7.68 27.136 0l121.344 122.368c1.536 1.536 3.072 3.584 4.096 6.144s1.536 4.608 1.536 7.168c0 5.12-2.048 9.728-5.632 13.312l-121.344 122.88c-7.168 7.68-19.456 8.192-27.136 0.512 0.512 0.512 0 0 0 0z" />
<glyph unicode="&#xe94c;" glyph-name="ic-cricle-arrow-up" d="M1003.52 448c0-270.848-220.672-491.52-491.52-491.52s-491.52 220.672-491.52 491.52 220.672 491.52 491.52 491.52 491.52-220.672 491.52-491.52zM53.248 448c0-252.928 205.824-458.752 458.752-458.752s458.752 205.824 458.752 458.752-205.824 458.752-458.752 458.752-458.752-205.824-458.752-458.752zM382.976 509.839c7.68-7.68 19.456-7.68 27.136 0l89.6 89.6v-341.504c0-10.752 8.704-18.944 18.944-18.944s18.944 8.704 18.944 18.944v340.992l90.112-89.6c7.68-7.168 19.456-7.168 27.136 0 7.68 7.68 7.68 19.456 0 27.136l-122.368 121.344c-1.536 1.536-3.584 3.072-6.144 4.096s-4.608 1.536-7.168 1.536c-5.12 0-9.728-2.048-13.312-5.632l-122.368-121.344c-7.68-7.168-7.68-18.944-0.512-26.624 0 0 0 0 0 0z" />
<glyph unicode="&#xe94d;" glyph-name="ic-cricle-arrow-down" d="M20.48 448c0 270.848 220.672 491.52 491.52 491.52s491.52-220.672 491.52-491.52-220.672-491.52-491.52-491.52-491.52 220.672-491.52 491.52zM970.752 448c0 252.928-205.824 458.752-458.752 458.752s-458.752-205.824-458.752-458.752 205.824-458.752 458.752-458.752 458.752 205.824 458.752 458.752zM641.024 386.447c-7.68 7.68-19.456 7.68-27.136 0l-89.6-89.6v341.504c0 10.752-8.704 18.944-18.944 18.944s-18.944-8.704-18.944-18.944v-340.992l-90.112 89.6c-7.68 7.168-19.456 7.168-27.136 0-7.68-7.68-7.68-19.456 0-27.136l122.368-121.344c1.536-1.536 3.584-3.072 6.144-4.096s4.608-1.536 7.168-1.536c5.12 0 9.728 2.048 13.312 5.632l122.368 121.344c7.68 7.168 7.68 18.944 0.512 26.624 0 0 0 0 0 0z" />
<glyph unicode="&#xe94e;" glyph-name="ic-cricle-arrow-left" d="M512 939.52c270.848 0 491.52-220.672 491.52-491.52s-220.672-491.52-491.52-491.52-491.52 220.672-491.52 491.52 220.672 491.52 491.52 491.52zM512-10.752c252.928 0 458.752 205.824 458.752 458.752s-205.824 458.752-458.752 458.752-458.752-205.824-458.752-458.752 205.824-458.752 458.752-458.752zM450.56 318.863c7.68 7.68 7.68 19.456 0 27.136l-89.6 89.6h341.504c10.752 0 18.944 8.704 18.944 18.944 0 10.752-8.704 18.944-18.944 18.944h-341.504l89.6 90.624c7.168 7.68 7.168 19.456 0 27.136-7.68 7.68-19.456 7.68-27.136 0l-121.344-122.368c-1.536-1.536-3.072-3.584-4.096-6.144s-1.536-4.608-1.536-7.168c0-5.12 2.048-9.728 5.632-13.312l121.344-122.368c7.168-7.68 19.456-8.192 27.136-1.024-0.512 0 0 0 0 0z" />
<glyph unicode="&#xe94f;" glyph-name="ic-cricle-baht" d="M20.48 448c0 270.848 220.672 491.52 491.52 491.52s491.52-220.672 491.52-491.52-220.672-491.52-491.52-491.52-491.52 220.672-491.52 491.52zM970.752 448c0 252.928-205.824 458.752-458.752 458.752s-458.752-205.824-458.752-458.752 205.824-458.752 458.752-458.752 458.752 205.824 458.752 458.752zM490.496 202.639v51.712h-121.344v387.072h120.832v52.224h48.64v-51.712h17.92c38.4 0 67.072-8.704 85.504-27.136s27.648-43.52 27.648-76.288c0-20.992-4.096-38.4-12.288-52.736s-19.456-25.088-33.792-32.256c18.944-5.12 33.792-14.336 44.544-27.648s16.384-33.28 16.384-59.392c0-37.376-10.24-65.536-30.208-83.968s-50.176-27.648-89.088-27.648h-26.624v-52.224h-48.128zM435.2 476.559h55.296v116.224h-55.296v-116.224zM435.2 302.479h55.296v125.952h-55.296v-125.952zM539.136 476.559h8.704c22.016 0 37.888 5.12 47.104 15.36s13.824 24.064 13.824 40.96c0 19.968-4.608 34.816-14.336 44.544s-27.648 14.848-54.272 14.848h-1.536l0.512-115.712zM539.136 302.479h12.288c23.040 0 40.448 4.608 51.2 14.848 10.752 9.728 16.384 27.136 16.384 51.2 0 19.968-5.12 34.816-15.872 44.544s-29.696 14.848-57.856 14.848h-6.144v-125.44z" />
<glyph unicode="&#xe950;" glyph-name="ic-search-light" d="M984.576-1.536l-210.944 210.944c70.144 76.288 113.664 178.176 113.664 289.792 0 236.032-192 428.544-428.544 428.544-236.032 0-428.544-192-428.544-428.032s192-428.544 428.544-428.544c111.616 0 213.504 43.008 289.792 113.664l210.944-210.944c3.584-3.584 8.192-5.12 12.288-5.12 4.608 0 9.216 1.536 12.288 5.12 7.68 6.656 7.68 17.92 0.512 24.576zM65.536 499.712c0 216.576 176.128 393.216 393.216 393.216 216.576 0 393.216-176.128 393.216-393.216 0-107.52-43.52-204.8-113.664-275.968-0.512-0.512-1.536-1.024-2.048-1.536s-1.024-1.536-1.536-2.048c-71.168-70.144-168.448-113.664-275.968-113.664-216.576 0-393.216 176.128-393.216 393.216z" />
<glyph unicode="&#xe951;" glyph-name="ic-close" d="M951.808-50.176l-439.808 439.808-439.808-439.808-55.808 55.808 439.808 439.808-439.808 439.808 55.808 55.808 439.808-439.808 439.808 439.808 55.808-55.808-439.808-439.808 439.808-439.808-55.808-55.808z" />
<glyph unicode="&#xe952;" glyph-name="ic-filter" d="M81.408 199.398h522.752v-61.44h-522.752v61.44zM788.48 199.398h154.112v-61.44h-154.112v61.44zM757.76 77.542c0.512-34.304-27.136-61.952-61.44-62.464v0c-34.304 0.512-61.952 28.16-61.44 62.464 0 0 0 0 0 0v182.784c-0.512 34.304 27.136 61.952 61.44 62.464v0c34.304-0.512 61.952-28.16 61.44-62.464v-182.784zM81.408 476.017h153.6v-61.44h-153.6v61.44zM419.84 476.017h522.752v-61.44h-522.752v61.44zM389.12 354.161c0.512-34.304-27.136-61.952-61.44-62.464v0c-34.304 0.512-61.952 28.16-61.44 62.464 0 0 0 0 0 0v182.784c-0.512 34.304 27.136 61.952 61.44 62.464v0c34.304-0.512 61.952-28.16 61.44-62.464v-182.784zM81.408 753.152h522.752v-61.44h-522.752v61.44zM788.48 753.152h154.112v-61.44h-154.112v61.44zM757.76 630.784c0.512-34.304-27.136-61.952-61.44-62.464v0c-34.304 0.512-61.952 28.16-61.44 62.464 0 0 0 0 0 0v182.784c0 34.304 27.136 61.952 61.44 62.464v0c34.304-0.512 61.952-28.16 61.44-62.464v-182.784z" />
<glyph unicode="&#xe953;" glyph-name="ic-time2" d="M510.080 937.984c-269.312-0.512-487.424-219.136-487.424-488.448 0.512-269.312 219.136-487.424 488.448-487.424 269.312 0.512 487.424 218.624 487.424 487.936s-218.112 487.936-487.424 487.936c-0.512 0-0.512 0-1.024 0zM510.592 59.904c-215.552 0-390.144 174.592-390.144 390.144s174.592 390.144 390.144 390.144c215.552 0 390.144-174.592 390.144-390.144s-174.592-390.144-390.144-390.144v0zM535.168 694.272h-73.216v-292.864l256-153.6 36.864 59.904-219.648 130.048v256.512z" />
<glyph unicode="&#xe954;" glyph-name="ic-mike" d="M523.776 355.84c84.992 0 154.624 69.12 154.624 154.624v275.456c0 84.992-69.12 154.624-154.624 154.624s-154.624-69.12-154.624-154.624v-275.456c0-84.992 69.12-154.624 154.624-154.624zM402.432 785.92c0 66.56 54.272 121.344 121.344 121.344s121.344-54.272 121.344-121.344v-275.456c0-67.072-54.272-121.344-121.344-121.344s-121.344 54.272-121.344 121.344v275.456zM818.176 646.656c-9.216 0-16.896-7.68-16.896-16.896v-128c-0.512-153.088-124.928-278.016-278.528-278.016 0 0-0.512 0-0.512 0-153.088 0.512-277.504 124.928-278.016 278.016v128c0 9.216-7.68 16.896-16.896 16.896s-16.896-7.68-16.896-16.896v-128c1.536-165.376 132.608-301.056 296.448-309.76v-197.632h-98.304c-9.216 0-16.896-7.68-16.896-16.896s7.68-16.896 16.896-16.896h114.688c0 0 0 0 0.512 0 0 0 0 0 0.512 0h114.688c9.216 0 16.896 7.68 16.896 16.896s-7.68 16.896-16.896 16.896h-98.304v197.632c163.84 8.704 294.4 144.384 294.912 310.272v128c-0.512 8.704-8.192 16.384-17.408 16.384z" />
<glyph unicode="&#xe955;" glyph-name="ic-title-main2" d="M19.456 865.792v-366.080h366.080v366.080h-366.080zM507.904 865.792v-121.856h487.936v121.856h-487.936zM507.904 621.568v-121.856h366.080v121.856h-366.080zM19.456 377.856v-366.080h366.080v366.080h-366.080zM507.904 377.856v-122.368h487.936v122.368h-487.936zM507.904 133.632v-121.856h366.080v121.856h-366.080z" />
<glyph unicode="&#xe956;" glyph-name="ic-title-subheading" d="M25.088 380.928h710.656v-133.12h-710.656v133.12zM25.088 647.168h888.32v-133.12h-888.32v133.12zM25.088 913.92h976.896v-133.12h-976.896v133.12zM24.96 114.115h799.232v-133.12h-799.232v133.12z" />
</font>
</defs>
</svg>
